osu file format v14

[General]
AudioFilename: audio.mp3
AudioLeadIn: 0
PreviewTime: 123995
Countdown: 0
SampleSet: Soft
StackLeniency: 0.2
Mode: 0
LetterboxInBreaks: 0
WidescreenStoryboard: 1

[Editor]
DistanceSpacing: 1.4
BeatDivisor: 8
GridSize: 8
TimelineZoom: 2.899999

[Metadata]
Title:Matsuri
TitleUnicode:まつり
Artist:Fujii Kaze
ArtistUnicode:藤井 風
Creator:AirinCat
Version:Kyouren's Extravaganza
Source:
Tags:fuju kyouren japanese pop jpop j-pop r&b rnb rhythm and blues love all serve all festival KittyAdventure gokugohan12468
BeatmapID:4018779
BeatmapSetID:1902232

[Difficulty]
HPDrainRate:5
CircleSize:4.2
OverallDifficulty:8.8
ApproachRate:8
SliderMultiplier:3.28
SliderTickRate:1

[Events]
//Background and Video events
0,0,"kyo.jpg",0,0
Video,-80,"matsuri.mp4"
//Break Periods
//Storyboard Layer 0 (Background)
//Storyboard Layer 1 (Fail)
//Storyboard Layer 2 (Pass)
//Storyboard Layer 3 (Foreground)
//Storyboard Layer 4 (Overlay)
//Storyboard Sound Samples

[TimingPoints]
5233,618.556701030928,4,2,1,50,1,0
5233,-117.647058823529,4,2,1,60,0,0
7707,-117.647058823529,4,2,1,60,0,0
25026,-153.846153846153,4,2,1,50,0,0
27501,-117.647058823529,4,2,1,50,0,0
44202,-80,4,2,1,50,0,0
44820,-117.647058823529,4,2,1,50,0,0
47913,-90.9090909090909,4,2,1,50,0,0
48222,-117.647058823529,4,2,1,50,0,0
51934,-100,4,2,1,50,0,0
52243,-117.647058823529,4,2,1,50,0,0
63995,-66.6666666666667,4,2,1,50,0,0
64614,-153.846153846153,4,2,1,40,0,0
74511,-117.647058823529,4,2,1,40,0,0
75748,-117.647058823529,4,2,1,40,0,0
79459,-100,4,2,1,50,0,0
80078,-90.9090909090909,4,2,1,50,0,0
81934,-100,4,2,1,60,0,0
82552,-90.9090909090909,4,2,1,60,0,0
83171,-100,4,2,1,60,0,0
83480,-100,4,2,1,70,0,0
84408,-83.3333333333333,4,2,1,70,0,1
85026,-111.111111111111,4,2,1,70,0,0
85645,-83.3333333333333,4,2,1,70,0,0
86263,-111.111111111111,4,2,1,70,0,0
86882,-111.111111111111,4,2,1,70,0,0
87655,-153.846153846153,4,2,1,70,0,0
88119,-111.111111111111,4,2,1,70,0,0
89356,-83.3333333333333,4,2,1,70,0,0
89974,-111.111111111111,4,2,1,70,0,0
90593,-83.3333333333333,4,2,1,70,0,0
91211,-111.111111111111,4,2,1,70,0,0
91830,-111.111111111111,4,2,1,70,0,0
93995,-83.3333333333333,4,2,1,70,0,0
94305,-95.2380952380952,4,2,1,70,0,1
94614,-111.111111111111,4,2,1,70,0,0
104202,-100,4,2,1,70,0,1
104279,-100,4,2,1,70,0,0
123995,-66.6666666666667,4,2,2,70,0,1
124150,-66.6666666666667,4,2,2,70,0,0
125078,-66.6666666666667,4,2,2,70,0,1
125233,-66.6666666666667,4,2,2,70,0,0
125542,-66.6666666666667,4,2,2,70,0,1
125696,-66.6666666666667,4,2,2,70,0,0
126470,-66.6666666666667,4,2,2,70,0,1
126624,-66.6666666666667,4,2,2,70,0,0
127552,-66.6666666666667,4,2,2,70,0,1
127707,-66.6666666666667,4,2,2,70,0,0
128016,-66.6666666666667,4,2,2,70,0,1
128171,-66.6666666666667,4,2,2,70,0,0
128944,-66.6666666666667,4,2,2,70,0,1
129098,-66.6666666666667,4,2,2,70,0,0
130026,-66.6666666666667,4,2,2,70,0,1
130181,-66.6666666666667,4,2,2,70,0,0
130490,-66.6666666666667,4,2,2,70,0,1
130645,-66.6666666666667,4,2,2,70,0,0
131418,-66.6666666666667,4,2,2,70,0,1
131573,-66.6666666666667,4,2,2,70,0,0
132037,-66.6666666666667,4,2,2,70,0,1
132191,-66.6666666666667,4,2,2,70,0,0
132655,-66.6666666666667,4,2,2,70,0,1
132810,-66.6666666666667,4,2,2,70,0,0
133274,-66.6666666666667,4,2,2,70,0,1
133428,-66.6666666666667,4,2,2,70,0,0
133583,-66.6666666666667,4,2,2,70,0,1
133660,-66.6666666666667,4,2,2,70,0,0
133738,-66.6666666666667,4,2,2,70,0,1
133815,-66.6666666666667,4,2,2,70,0,0
133892,-66.6666666666667,4,2,1,50,0,1
134202,-100,4,2,1,50,0,0
142243,-80,4,2,1,50,0,0
142861,-66.6666666666667,4,2,1,50,0,0
144408,-285.714285714286,4,2,1,40,0,0
153222,-250,4,2,1,40,0,0
153609,-250,4,2,1,5,0,0
153686,-153.846153846153,4,2,1,40,0,0
158635,-66.6666666666667,4,2,1,50,0,0
161109,-66.6666666666667,4,2,1,60,0,0
163583,-66.6666666666667,4,2,1,70,0,1
163815,-66.6666666666667,4,2,1,70,0,0
164511,-86.9565217391304,4,2,1,70,0,0
164820,-66.6666666666667,4,2,1,70,0,0
165523,-66.6666666666667,4,2,1,70,0,0
165748,-86.9565217391304,4,2,1,70,0,0
166057,-105.263157894737,4,2,1,70,0,0
166830,-133.333333333334,4,2,1,70,0,0
167294,-105.263157894737,4,2,1,70,0,0
168531,-66.6666666666667,4,2,1,70,0,0
169459,-86.9565217391304,4,2,1,70,0,0
169769,-66.6666666666667,4,2,1,70,0,0
170696,-86.9565217391304,4,2,1,70,0,0
171006,-210.526315789474,4,2,1,70,0,0
171470,-105.263157894737,4,2,1,70,0,0
172243,-66.6666666666667,4,2,1,70,0,0
173171,-100,4,2,1,70,0,0
173480,-105.263157894737,4,2,1,70,0,1
173789,-105.263157894737,4,2,1,70,0,0
177810,-85.4700854700855,4,2,1,70,0,0
178428,-222.222222222222,4,2,1,70,0,0
180903,-105.263157894737,4,2,1,70,0,0
182758,-66.6666666666667,4,2,1,70,0,0
183068,-80,4,2,1,70,0,0
183377,-100,4,2,1,70,0,1
192964,-100,4,2,1,70,0,0
193274,-100,4,2,1,70,0,1
200696,-148.148148148148,4,2,1,70,0,0
201006,-146.842878120411,4,2,1,70,0,0
201315,-103.626943005181,4,2,1,70,0,0
201624,-102.564102564103,4,2,1,70,0,0
201934,-68.0272108843537,4,2,1,70,0,0
202552,-59.8802395209581,4,2,1,70,0,0
202861,-60.0600600600601,4,2,1,70,0,0
203171,-66.6666666666667,4,2,1,60,0,1
203480,-105.263157894737,4,2,1,60,0,0
207191,-81.6326530612245,4,2,1,60,0,0
208428,-105.263157894737,4,2,1,60,0,0
212140,-66.6666666666667,4,2,1,60,0,0
213068,-105.263157894737,4,2,1,60,0,0
217397,-66.6666666666667,4,2,1,60,0,0
218016,-83.3333333333333,4,2,1,60,0,0
218944,-105.263157894737,4,2,1,60,0,0
220181,-83.3333333333333,4,2,1,60,0,0
220490,-105.263157894737,4,2,1,60,0,0
221418,-285.714285714286,4,2,1,60,0,0
221727,-105.263157894737,4,2,1,60,0,0
222346,-98.5221674876847,4,2,1,60,0,1
222423,-98.5221674876847,4,2,1,60,0,0

[Colours]
Combo1 : 190,190,190
Combo2 : 234,74,74
Combo3 : 160,142,122
Combo4 : 255,170,149

[HitObjects]
256,192,284,12,0,4769,0:0:0:0:
256,192,4923,54,0,P|260:183|257:194,1,41,2|0,0:0|0:0,0:0:0:0:
40,50,5233,22,0,P|82:102|149:97,1,139.400002658844,6|0,1:2|0:0,0:2:0:0:
195,35,5696,1,0,0:2:0:0:
325,125,5851,2,0,B|397:118|375:83|453:78,1,139.400002658844,8|0,0:2|1:2,0:2:0:0:
498,17,6315,1,0,3:2:0:0:
325,125,6470,22,0,L|320:171,1,46.466667552948,2|2,1:2|0:0,0:2:0:0:
385,245,6676,1,2,0:0:0:0:
378,242,6779,2,0,P|343:245|315:264,1,69.700001329422,2|0,0:2|1:2,0:0:0:0:
170,295,7088,2,0,P|236:304|269:363,1,139.400002658844,8|2,0:2|1:2,0:2:0:0:
269,363,7552,1,0,3:2:0:0:
25,190,7707,22,0,B|92:182|81:148|153:141,2,139.400002658844,2|0|10,1:2|0:0|0:2,0:2:0:0:
255,25,8635,1,0,1:2:0:0:
245,105,8789,1,0,3:2:0:0:
255,25,8944,22,0,P|277:29|300:35,1,46.466667552948,2|2,1:2|0:0,0:2:0:0:
365,80,9150,1,2,0:0:0:0:
370,85,9253,2,0,P|403:76|437:69,1,69.700001329422,2|0,0:2|1:2,0:0:0:0:
510,190,9562,2,0,B|441:180|448:221|374:212,1,139.400002658844,10|2,0:2|0:3,0:2:0:0:
255,355,10026,21,0,1:2:0:0:
320,310,10181,2,0,P|252:316|204:269,1,139.400002658844,2|0,1:2|0:0,0:2:0:0:
130,240,10645,1,0,0:2:0:0:
285,161,10800,2,0,P|274:92|255:25,1,139.400002658844,10|0,0:2|1:2,0:2:0:0:
190,70,11263,21,0,0:2:0:0:
60,35,11418,1,2,1:2:0:0:
255,25,11573,21,0,1:0:0:0:
135,15,11727,1,0,3:2:0:0:
190,70,11882,21,0,1:2:0:0:
135,15,12037,2,0,P|76:48|70:115,1,139.400002658844,8|2,0:2|1:2,0:2:0:0:
19,176,12501,1,0,3:2:0:0:
230,230,12655,22,0,B|223:302|188:280|183:358,2,139.400002658844,2|0|10,1:2|0:0|0:2,0:2:0:0:
265,350,13583,1,2,1:2:0:0:
150,235,13738,1,0,3:2:0:0:
265,350,13892,22,0,L|299:345,1,34.850000664711,2|0,1:2|0:0,0:0:0:0:
365,300,14047,2,0,L|399:304,1,34.850000664711,0|0,1:2|0:0,0:0:0:0:
480,305,14202,2,0,B|473:233|438:255|433:177,1,139.400002658844,0|10,1:2|0:2,0:2:0:0:
510,10,14820,1,2,1:3:0:0:
460,70,14975,1,0,3:2:0:0:
390,25,15129,22,0,B|352:30|352:30|311:72|311:72|268:79,1,139.400002658844,2|0,1:2|0:0,0:2:0:0:
200,40,15593,1,0,0:2:0:0:
23,183,15748,2,0,B|94:190|81:227|149:235,1,139.400002658844,10|0,0:2|1:2,0:2:0:0:
220,195,16212,1,0,3:2:0:0:
255,365,16367,22,0,P|265:344|282:328,1,46.466667552948,2|2,1:2|0:0,0:2:0:0:
320,260,16573,1,2,0:0:0:0:
325,255,16676,2,0,P|358:246|391:256,1,69.700001329422,2|0,0:2|1:2,0:0:0:0:
220,195,16985,2,0,B|279:206|277:160|352:163,1,139.400002658844,8|2,0:2|1:2,0:2:0:0:
500,50,17449,21,0,3:2:0:0:
430,15,17604,2,0,B|364:24|364:24|363:26|363:26|293:36,2,139.400002658844,2|0|10,1:2|0:0|0:2,0:2:0:0:
220,195,18531,1,2,1:2:0:0:
210,115,18686,1,0,3:2:0:0:
140,170,18841,22,0,L|105:173,1,34.850000664711,2|0,1:2|0:0,0:0:0:0:
290,140,18995,2,0,L|324:136,1,34.850000664711,0|0,1:2|0:0,0:0:0:0:
220,195,19150,2,0,B|229:274|258:247|267:324,1,139.400002658844,0|10,1:2|0:2,0:2:0:0:
267,324,19769,1,2,1:3:0:0:
340,350,19923,1,0,1:2:0:0:
195,360,20078,22,0,B|129:369|129:369|127:372|127:372|58:381,1,139.400002658844,2|0,1:2|0:2,0:2:0:0:
7,192,20542,1,0,3:2:0:0:
7,192,20619,1,0,3:2:0:0:
7,192,20696,2,0,P|40:200|65:224,1,69.700001329422,10|0,0:2|0:2,0:2:0:0:
140,250,21006,2,0,P|173:241|198:217,1,69.700001329422,2|0,1:2|0:2,0:2:0:0:
305,120,21315,22,0,L|309:85,1,34.850000664711,2|0,1:2|0:0,0:2:0:0:
225,145,21470,22,0,P|292:145|332:199,1,139.400002658844,0|0,1:0|3:2,0:0:0:0:
414,214,21856,1,0,3:2:0:0:
414,214,21934,2,0,B|345:223|358:258|287:268,1,139.400002658844,10|0,0:2|1:2,0:2:0:0:
210,365,22397,21,0,3:0:0:0:
165,295,22552,2,0,B|234:304|221:339|292:349,2,139.400002658844,2|0|10,1:2|0:2|0:2,0:2:0:0:
165,295,23480,1,2,1:2:0:0:
225,145,23635,1,0,3:2:0:0:
225,145,23789,22,0,L|190:149,1,34.850000664711,2|0,1:2|0:0,0:0:0:0:
130,201,23944,2,0,L|95:205,1,34.850000664711,0|0,1:2|0:0,0:0:0:0:
35,260,24098,2,0,B|-9:208|-9:208|34:151,1,139.400002658844,0|10,1:2|0:2,0:2:0:0:
225,145,24717,22,0,B|262:156|262:156|261:160|261:161|276:163|276:163|298:174|298:174|299:175|320:180,1,104.550001994133,2|0,1:3|0:0,0:2:0:0:
400,170,25026,21,0,1:2:0:0:
400,170,25336,2,0,P|403:143|410:117,1,53.2999975601197,2|0,0:2|0:2,0:2:0:0:
343,76,25645,2,0,P|332:128|320:180,1,106.599995120239,10|0,0:2|0:2,0:2:0:0:
400,170,26109,1,8,0:3:0:0:
480,155,26263,1,2,0:2:0:0:
480,155,26573,22,0,P|469:207|457:259,1,106.599995120239,2|10,1:2|0:2,0:0:0:0:
505,320,27191,1,2,0:2:0:0:
255,370,27501,21,2,1:2:0:0:
180,345,27655,1,0,3:0:0:0:
310,310,27810,2,0,L|321:241,1,69.700001329422,0|0,0:2|0:2,0:0:0:0:
265,185,28119,2,0,B|195:191|206:219|132:224,1,139.400002658844,8|0,0:2|1:2,0:2:0:0:
320,75,28738,22,0,P|318:98|322:121,2,46.466667552948,0|2|2,1:2|0:0|0:0,0:0:0:0:
265,15,29047,2,0,P|235:32|201:42,1,69.700001329422,2|0,0:0|1:2,0:0:0:0:
154,119,29356,2,0,P|221:132|265:185,1,139.400002658844,8|0,0:2|1:2,0:2:0:0:
155,375,29820,21,0,1:2:0:0:
80,355,29975,2,0,P|72:320|62:287,1,69.700001329422,0|0,1:2|0:0,0:0:0:0:
220,330,30284,2,0,B|293:342|276:359|352:372,1,139.400002658844,2|10,0:2|0:2,0:2:0:0:
480,215,30903,2,0,B|505:198|505:198|466:205,1,69.700001329422,0|0,1:2|1:2,0:0:0:0:
410,260,31212,21,2,1:2:0:0:
265,184,31367,1,8,0:3:0:0:
300,100,31521,1,0,1:2:0:0:
320,255,31676,1,2,0:2:0:0:
175,205,31830,22,0,P|141:196|106:190,1,69.700001329422,10|0,0:2|0:2,0:2:0:0:
300,100,32140,2,0,P|334:94|368:85,1,69.700001329422,2|0,0:2|0:0,0:2:0:0:
255,5,32449,22,0,B|179:13|202:44|126:54,1,139.400002658844,0|2,1:2|0:2,0:0:0:0:
54,26,32913,1,0,3:0:0:0:
127,54,33068,1,8,0:2:0:0:
175,205,33222,22,0,P|141:196|106:190,1,69.700001329422,0|4,3:2|0:3,0:2:0:0:
40,240,33531,1,0,1:2:0:0:
255,365,33686,21,0,1:2:0:0:
265,285,33841,1,0,1:2:0:0:
275,205,33995,1,0,1:2:0:0:
275,205,34150,1,0,3:2:0:0:
255,25,34305,22,0,B|287:23|305:28|326:52|326:52|349:56,1,104.550001994133,8|0,0:2|0:2,0:2:0:0:
400,120,34614,2,0,B|432:122|450:117|471:93|471:93|494:88,1,104.550001994133,8|0,0:3|0:0,0:2:0:0:
495,87,34923,1,0,1:2:0:0:
275,205,35233,22,0,P|207:210|159:160,2,139.400002658844,2|10|2,0:2|0:2|0:2,0:2:0:0:
235,135,36006,1,8,0:3:0:0:
255,355,36160,22,0,P|232:348|209:345,2,46.466667552948,2|2|2,0:2|0:0|0:0,0:0:0:0:
320,310,36470,2,0,P|345:333|358:365,1,69.700001329422,2|0,1:2|0:2,0:2:0:0:
460,160,36779,2,0,P|418:214|410:283,1,139.400002658844,10|2,0:2|0:2,0:0:0:0:
225,265,37243,21,0,0:0:0:0:
145,249,37397,2,0,B|218:242|202:211|276:205,2,139.400002658844,0|0|8,1:2|0:0|0:2,0:0:0:0:
255,15,38171,1,0,0:2:0:0:
325,55,38325,2,0,P|315:88|308:122,1,69.700001329422,0|0,1:2|3:2,0:0:0:0:
160,170,38635,22,0,P|154:147|145:126,2,46.466667552948,0|2|2,1:2|0:0|0:0,0:2:0:0:
145,249,38944,2,0,P|111:257|78:269,1,69.700001329422,0|0,1:2|0:2,0:2:0:0:
255,375,39253,2,0,P|257:340|276:311,1,69.700001329422,10|0,0:2|0:0,0:2:0:0:
350,285,39562,2,0,P|383:293|416:305,1,69.700001329422,0|0,1:2|1:2,0:0:0:0:
510,110,39872,22,0,B|436:116|452:147|379:154,1,139.400002658844,2|2,1:2|0:2,0:0:0:0:
455,165,40336,1,2,0:2:0:0:
355,75,40490,2,0,B|290:111|318:133|254:169,1,139.400002658844,10|2,0:2|1:2,0:0:0:0:
380,154,40954,1,2,1:2:0:0:
230,90,41109,21,2,1:2:0:0:
160,135,41263,2,0,P|130:118|120:85,1,69.700001329422,8|2,0:3|1:2,0:0:0:0:
255,169,41573,1,2,0:2:0:0:
240,370,41727,2,0,P|225:301|205:235,1,139.400002658844,10|2,0:2|1:2,0:0:0:0:
495,275,42346,21,2,1:2:0:0:
415,285,42501,1,0,3:0:0:0:
335,295,42655,1,0,3:2:0:0:
255,169,42964,21,8,0:2:0:0:
340,55,43119,2,0,P|331:88|325:123,1,69.700001329422,0|4,0:2|0:3,0:0:0:0:
205,235,43428,21,0,3:2:0:0:
65,220,43583,1,0,1:2:0:0:
80,80,43738,1,0,1:2:0:0:
220,95,43892,1,0,1:2:0:0:
145,145,44202,22,0,L|141:170,2,25.625,10|2|2,0:2|0:0|0:0,0:2:0:0:
145,145,44511,22,0,L|141:170,2,25.625,10|2|2,0:3|0:0|0:0,0:2:0:0:
510,190,44820,22,0,B|470:197|470:197|434:235|434:235|388:245,1,139.400002658844,6|2,1:2|0:2,0:0:0:0:
325,295,45284,1,0,0:0:0:0:
490,370,45439,2,0,P|499:336|508:302,1,69.700001329422,8|0,0:2|0:0,0:0:0:0:
330,150,45748,2,0,P|320:183|311:217,1,69.700001329422,0|8,1:2|0:3,0:0:0:0:
325,295,46057,22,0,L|312:340,2,46.466667552948,2|2|2,1:2|0:0|0:0,0:2:0:0:
311,217,46367,2,0,P|320:183|330:150,1,69.700001329422,2|0,0:2|1:2,0:2:0:0:
210,15,46676,2,0,P|191:82|172:149,1,139.400002658844,10|0,0:2|1:2,0:2:0:0:
145,225,47140,1,0,0:2:0:0:
311,217,47294,21,2,1:2:0:0:
325,295,47449,1,0,3:0:0:0:
390,245,47604,1,0,3:2:0:0:
90,160,47913,22,0,P|168:199|201:281,1,180.400005505371,8|0,0:2|1:2,0:2:0:0:
205,360,48531,22,0,P|227:356|247:344,2,46.466667552948,2|2|2,1:2|0:0|0:0,0:2:0:0:
132,328,48841,2,0,P|99:314|65:315,1,69.700001329422,2|0,0:2|1:2,0:0:0:0:
238,148,49150,2,0,P|214:213|201:281,1,139.400002658844,8|2,0:2|1:2,0:2:0:0:
105,70,49614,21,0,3:0:0:0:
25,60,49769,2,0,B|99:49|74:14|149:5,1,139.400002658844,0|2,1:2|0:2,0:0:0:0:
212,58,50233,1,0,1:2:0:0:
285,25,50387,2,0,P|319:31|352:41,1,69.700001329422,10|0,0:2|0:0,0:0:0:0:
425,75,50696,2,0,P|459:68|492:58,1,69.700001329422,2|0,1:2|0:2,0:2:0:0:
425,75,51006,21,2,1:2:0:0:
285,25,51160,1,8,0:3:0:0:
212,58,51315,1,0,0:2:0:0:
25,60,51470,21,2,1:2:0:0:
104,69,51624,2,0,P|118:102|120:136,1,69.700001329422,10|0,0:2|0:2,0:2:0:0:
285,25,51934,2,0,P|291:85|275:144,1,123,2|0,1:2|0:0,0:2:0:0:
275,145,52243,22,0,P|344:137|406:166,1,139.400002658844,0|0,1:2|0:2,0:0:0:0:
310,330,52707,1,0,1:2:0:0:
240,360,52861,2,0,P|219:332|219:298,1,69.700001329422,8|0,0:2|0:2,0:2:0:0:
160,245,53171,2,0,P|126:255|92:263,1,69.700001329422,0|0,1:2|0:2,0:2:0:0:
310,330,53480,22,0,L|356:335,2,46.466667552948,2|2|2,1:2|0:0|0:0,0:2:0:0:
335,255,53789,2,0,L|404:262,1,69.700001329422,2|0,0:2|1:2,0:0:0:0:
275,145,54098,2,0,P|276:110|285:76,1,69.700001329422,8|0,0:2|0:2,0:2:0:0:
190,130,54408,2,0,P|198:96|200:61,1,69.700001329422,8|0,0:3|0:2,0:2:0:0:
200,61,54717,1,2,1:2:0:0:
0,190,55026,22,0,P|33:197|67:207,1,69.700001329422,2|0,0:2|0:2,0:2:0:0:
255,270,55336,2,0,B|178:281|205:310|127:323,1,139.400002658844,10|0,0:2|1:2,0:2:0:0:
55,290,55800,1,8,0:3:0:0:
250,350,55954,22,0,L|295:360,2,46.466667552948,2|2|2,1:2|0:0|0:0,0:0:0:0:
255,270,56263,2,0,L|238:202,1,69.700001329422,2|0,0:2|1:2,0:0:0:0:
275,65,56573,2,0,L|292:133,1,69.700001329422,10|0,0:2|0:2,0:2:0:0:
170,160,56882,1,2,1:2:0:0:
345,195,57037,1,0,3:0:0:0:
170,160,57191,22,0,B|92:167|123:203|42:209,1,139.400002658844,0|0,1:2|0:0,0:0:0:0:
53,127,57655,1,0,0:2:0:0:
170,240,57810,2,0,P|160:273|157:308,1,69.700001329422,8|0,0:2|0:2,0:2:0:0:
340,375,58119,2,0,P|349:341|352:306,1,69.700001329422,2|2,1:2|0:2,0:0:0:0:
280,280,58428,22,0,L|233:285,2,46.466667552948,2|2|2,1:2|0:0|0:0,0:2:0:0:
352,306,58738,2,0,P|349:341|340:375,1,69.700001329422,2|0,0:2|1:2,0:0:0:0:
510,190,59047,2,0,P|453:228|386:218,1,139.400002658844,10|2,0:2|1:2,0:2:0:0:
330,160,59511,1,2,0:2:0:0:
370,25,59665,2,0,P|371:59|375:94,1,69.700001329422,2|0,1:2|0:0,0:0:0:0:
140,155,59975,21,2,0:2:0:0:
185,90,60129,1,2,1:2:0:0:
245,140,60284,2,0,P|249:174|250:209,1,69.700001329422,10|0,0:2|0:0,0:0:0:0:
510,190,60593,21,2,1:2:0:0:
465,125,60747,1,2,0:2:0:0:
405,175,60903,2,0,P|400:209|399:244,1,69.700001329422,2|8,1:2|0:3,0:0:0:0:
130,300,61212,21,2,0:2:0:0:
175,235,61366,1,2,1:2:0:0:
235,285,61521,2,0,P|239:319|240:354,1,69.700001329422,10|0,0:2|0:0,0:0:0:0:
355,310,61830,2,0,P|350:344|349:379,1,69.700001329422,2|0,1:2|0:2,0:2:0:0:
405,175,62140,22,0,P|338:162|284:202,1,139.400002658844,2|0,1:2|0:2,0:2:0:0:
265,80,62604,1,0,1:2:0:0:
325,25,62758,2,0,P|359:32|393:37,1,69.700001329422,8|0,0:2|0:2,0:2:0:0:
200,160,63068,2,0,P|194:125|187:91,1,69.700001329422,0|0,1:2|0:2,0:2:0:0:
120,50,63377,21,0,1:2:0:0:
20,90,63531,1,8,0:3:0:0:
5,205,63686,1,4,0:3:0:0:
105,260,63841,1,4,0:3:0:0:
200,160,63995,22,0,L|197:190,2,30.7500011730195,10|2|2,0:2|0:0|0:0,0:2:0:0:
335,140,64305,22,0,L|338:110,2,30.7500011730195,10|2|2,0:3|0:0|0:0,0:2:0:0:
390,200,64614,22,0,B|447:197|438:219|495:215,1,106.599995120239,4|2,1:2|0:2,0:0:0:0:
255,365,65233,2,0,P|262:312|265:259,1,106.599995120239,8|0,0:2|0:2,0:0:0:0:
345,265,65696,1,0,0:0:0:0:
390,200,65851,2,0,B|447:197|438:219|495:215,2,106.599995120239,2|0|10,0:2|1:2|0:2,0:2:0:0:
255,15,66779,2,0,P|262:40|266:66,1,53.2999975601197,0|0,0:0|0:2,0:0:0:0:
215,130,67088,22,0,P|162:138|110:152,1,106.599995120239,2|0,1:2|0:2,0:2:0:0:
40,115,67552,1,0,0:0:0:0:
5,185,67707,2,0,P|18:236|26:289,1,106.599995120239,10|0,0:2|0:0,0:2:0:0:
90,340,68171,1,0,0:2:0:0:
90,340,68325,1,2,0:2:0:0:
255,230,68480,21,0,1:2:0:0:
190,280,68635,2,0,P|169:262|161:237,1,53.2999975601197,0|0,1:2|0:0,0:0:0:0:
355,325,68944,2,0,P|303:336|255:360,1,106.599995120239,8|0,0:2|0:2,0:2:0:0:
500,370,69408,21,0,1:2:0:0:
450,305,69562,2,0,P|445:251|436:199,1,106.599995120239,2|0,1:2|0:2,0:2:0:0:
365,165,70026,1,2,0:2:0:0:
405,25,70181,21,8,0:2:0:0:
475,60,70336,2,0,P|494:41|508:19,2,53.2999975601197,0|2|0,0:2|0:2|1:2,0:0:0:0:
262,142,70800,22,0,P|314:147|365:165,1,106.599995120239,2|0,0:2|1:2,0:2:0:0:
437,199,71263,2,0,P|487:193|509:147,1,106.599995120239,2|2,0:2|0:2,0:2:0:0:
405,25,71727,2,0,P|400:51|395:77,1,53.2999975601197,0|0,0:2|0:2,0:0:0:0:
262,142,72037,21,2,1:2:0:0:
190,110,72191,1,0,0:2:0:0:
220,35,72346,2,0,L|272:45,1,53.2999975601197,2|0,0:2|0:2,0:0:0:0:
437,199,72655,21,10,0:2:0:0:
380,260,72810,1,0,0:2:0:0:
315,215,72964,2,0,L|262:225,2,53.2999975601197,2|0|2,0:2|0:2|0:2,0:2:0:0:
40,320,73428,21,0,1:2:0:0:
100,270,73583,2,0,P|104:243|109:217,1,53.2999975601197,2|0,1:2|0:2,0:2:0:0:
55,55,73892,21,8,0:3:0:0:
137,80,74047,1,4,0:3:0:0:
137,80,74202,21,8,0:2:0:0:
55,55,74356,1,4,0:3:0:0:
185,150,74511,22,0,P|221:93|205:27,1,139.400002658844,4|2,1:2|0:2,0:0:0:0:
315,215,75129,2,0,B|395:223|369:252|445:258,1,139.400002658844,8|0,0:2|0:2,0:0:0:0:
432,178,75593,1,0,0:2:0:0:
330,295,75748,2,0,P|274:334|206:325,2,139.400002658844,2|0|10,0:2|1:2|0:2,0:2:0:0:
380,360,76676,2,0,L|449:367,1,69.700001329422,0|0,0:0|0:2,0:0:0:0:
315,215,76985,22,0,L|322:145,1,69.700001329422,2|0,1:2|0:0,0:0:0:0:
330,65,77294,1,2,0:2:0:0:
10,190,77604,2,0,B|90:198|64:227|140:233,1,139.400002658844,10|0,0:2|0:2,0:2:0:0:
210,190,78068,1,2,0:2:0:0:
210,190,78222,1,2,0:2:0:0:
110,60,78377,21,0,1:2:0:0:
110,60,78531,2,0,P|106:94|101:129,1,69.700001329422,0|0,1:2|0:0,0:2:0:0:
210,190,78841,2,0,P|213:155|218:120,1,69.700001329422,8|0,0:2|0:0,0:0:0:0:
10,190,79150,21,2,0:2:0:0:
10,190,79305,1,2,1:2:0:0:
140,360,79459,22,0,B|203:349|189:324|253:314,1,123,2|0,1:1|0:2,0:2:0:0:
317,358,79769,1,0,1:2:0:0:
317,358,79923,1,0,3:2:0:0:
500,190,80078,22,0,P|448:148|382:155,1,135.300004129028,2|0,1:1|0:2,0:2:0:0:
325,210,80387,1,0,1:2:0:0:
325,210,80542,1,0,1:2:0:0:
235,45,80696,21,2,1:1:0:0:
215,175,80851,1,0,1:2:0:0:
235,45,81006,1,0,1:2:0:0:
215,175,81160,1,0,1:2:0:0:
10,190,81315,22,0,B|47:199|47:199|87:252|87:252|117:259,1,135.300004129028,8|0,0:2|0:0,0:0:0:0:
160,320,81624,2,0,B|180:315|180:315|207:281|207:281|232:273,1,90.2000027526856,0|0,1:2|1:2,0:0:0:0:
240,280,81934,22,0,L|279:289,1,41,8|0,1:1|0:0,0:0:0:0:
330,350,82243,22,0,L|369:359,1,41,8|0,1:1|0:0,0:0:0:0:
510,20,82552,22,0,B|473:29|473:29|433:82|433:82|403:89,1,135.300004129028,8|0,0:2|0:0,0:0:0:0:
355,155,82861,2,0,B|335:150|335:150|308:116|308:116|283:108,1,90.2000027526856,0|0,1:2|1:2,0:0:0:0:
283,108,83171,21,8,0:2:0:0:
415,235,83325,1,8,0:3:0:0:
240,280,83480,21,2,1:1:0:0:
235,275,83635,1,8,0:3:0:0:
240,270,83789,1,10,0:1:0:0:
245,275,83944,1,4,0:3:0:0:
30,80,84098,22,0,P|14:105|10:124,1,41,12|0,0:3|0:2,0:2:0:0:
130,195,84253,2,0,P|144:172|149:146,1,41,12|0,0:3|0:2,0:2:0:0:
30,80,84408,22,0,P|10:148|50:207,1,147.599995495606,6|0,1:2|0:0,0:2:0:0:
130,195,84717,2,0,P|150:126|110:67,1,147.599995495606,2|0,0:2|0:0,0:0:0:0:
30,80,85026,2,0,P|10:148|50:207,1,147.599995495606,10|0,0:2|1:2,0:0:0:0:
130,195,85490,1,8,0:3:0:0:
30,80,85645,22,0,P|10:148|50:207,1,147.599995495606,2|0,1:2|0:0,0:2:0:0:
130,195,85954,2,0,P|150:126|110:67,1,147.599995495606,2|0,0:2|0:0,0:0:0:0:
30,80,86263,2,0,P|10:148|50:207,1,147.599995495606,10|0,0:2|1:2,0:2:0:0:
130,195,86727,1,0,3:0:0:0:
25,335,86882,22,0,P|94:354|161:326,1,147.599995495606,2|0,0:2|0:2,0:2:0:0:
280,210,87346,2,0,L|288:136,1,73.7999977478028,2|8,1:2|0:2,0:2:0:0:
130,195,87655,22,0,P|173:245|226:249,1,106.599995120239,2|2,0:2|0:2,0:2:0:0:
445,315,88119,22,0,L|493:323,2,49.1999984985352,2|2|2,1:2|0:0|0:0,0:2:0:0:
440,310,88428,22,0,L|420:163,2,147.599995495606,2|10|2,0:2|0:2|0:2,0:0:0:0:
240,30,89356,22,0,P|193:83|204:153,1,147.599995495606,2|0,1:2|0:0,0:2:0:0:
282,178,89665,2,0,P|329:123|317:53,1,147.599995495606,2|0,0:2|0:0,0:0:0:0:
240,30,89974,2,0,P|193:83|204:153,1,147.599995495606,10|0,0:2|1:2,0:0:0:0:
282,178,90438,1,0,3:2:0:0:
240,30,90593,22,0,P|193:83|204:153,1,147.599995495606,2|0,1:2|0:0,0:2:0:0:
282,178,90902,2,0,P|329:123|317:53,1,147.599995495606,2|0,1:2|0:0,0:0:0:0:
240,30,91211,2,0,P|193:83|204:153,1,147.599995495606,10|0,0:2|1:2,0:2:0:0:
282,178,91675,1,0,3:0:0:0:
500,315,91830,22,0,P|428:313|376:363,1,147.599995495606,2|0,0:2|0:2,0:2:0:0:
362,258,92294,2,0,L|372:184,2,73.7999977478028,2|10|2,1:2|0:2|0:2,0:0:0:0:
165,365,92758,2,0,P|145:334|147:297,1,73.7999977478028,2|2,0:2|0:2,0:0:0:0:
215,255,93068,22,0,L|263:263,2,49.1999984985352,0|2|2,1:2|0:0|0:0,0:2:0:0:
210,250,93377,22,0,L|199:176,1,73.7999977478028,2|2,1:2|0:2,0:0:0:0:
395,25,93686,2,0,L|384:97,1,73.7999977478028,10|0,0:2|0:2,0:2:0:0:
200,95,93995,22,0,B|129:104|144:142|66:153,1,147.599995495606,8|0,0:3|0:0,0:2:0:0:
67,153,94305,22,0,B|42:121|42:121|59:79,1,86.0999973724366,2|0,1:2|0:0,0:2:0:0:
255,15,94614,1,2,0:2:0:0:
200,95,94769,1,2,0:2:0:0:
385,205,94923,21,10,0:2:0:0:
445,150,95078,1,2,0:2:0:0:
384,98,95233,1,2,1:2:0:0:
255,180,95387,1,8,0:3:0:0:
400,310,95542,22,0,L|448:303,2,49.1999984985352,2|2|2,1:2|0:2|0:2,0:0:0:0:
390,305,95851,22,0,L|378:377,1,73.7999977478028,2|0,1:2|1:2,0:2:0:0:
255,180,96160,2,0,L|277:325,1,147.599995495606,10|0,0:2|1:2,0:2:0:0:
277,326,96779,2,0,L|255:181,1,147.599995495606,2|2,0:2|1:2,0:2:0:0:
155,15,97243,21,2,0:2:0:0:
75,40,97397,1,10,0:2:0:0:
110,110,97552,1,2,0:2:0:0:
330,155,97707,1,2,1:2:0:0:
290,80,97861,1,2,0:2:0:0:
185,240,98016,22,0,L|112:251,1,73.7999977478028,2|0,1:2|1:2,0:0:0:0:
277,326,98325,2,0,B|364:332|338:358|418:362,2,147.599995495606,2|10|0,1:2|0:2|1:2,0:2:0:0:
460,170,99253,2,0,P|499:230|489:301,1,147.599995495606,6|0,1:2|0:2,0:2:0:0:
489,302,99872,21,10,0:2:0:0:
415,330,100026,1,2,0:2:0:0:
330,155,100181,1,2,1:2:0:0:
300,230,100336,1,2,0:2:0:0:
190,140,100490,1,0,1:2:0:0:
190,140,101109,21,10,0:2:0:0:
300,230,101263,1,2,0:2:0:0:
330,155,101418,1,2,1:2:0:0:
415,330,101573,1,2,0:2:0:0:
489,302,101727,22,0,P|495:265|503:229,1,73.7999977478028,2|0,1:2|0:0,0:2:0:0:
480,155,102037,2,0,P|444:163|407:169,1,73.7999977478028,2|0,0:2|0:2,0:0:0:0:
190,140,102346,22,0,P|183:103|175:67,1,73.7999977478028,10|0,0:2|0:2,0:2:0:0:
235,15,102656,2,0,P|270:23|307:29,1,73.7999977478028,2|0,1:2|0:2,0:2:0:0:
307,29,102964,21,0,1:2:0:0:
408,169,103119,1,8,0:3:0:0:
290,245,103274,1,4,1:3:0:0:
190,140,103428,1,4,0:3:0:0:
306,126,103583,1,8,0:2:0:0:
306,126,103892,21,4,0:3:0:0:
150,265,104047,1,4,0:3:0:0:
40,85,104202,22,0,B|139:93|94:133|191:140,1,164,6|0,1:2|0:2,0:2:0:0:
240,75,104665,1,0,3:2:0:0:
505,190,104820,2,0,P|426:200|386:268,1,164,10|2,0:2|1:2,0:2:0:0:
430,340,105284,1,8,0:3:0:0:
255,375,105439,22,0,P|238:353|231:327,1,54.6666666666667,2|2,1:2|0:0,0:2:0:0:
275,260,105645,1,2,0:0:0:0:
265,255,105748,2,0,P|252:216|263:177,1,82,2|0,0:2|1:2,0:0:0:0:
165,285,106057,2,0,L|3:312,1,164,8|0,0:2|1:2,0:2:0:0:
3,312,106521,1,2,0:2:0:0:
129,97,106676,22,0,B|192:111|192:111|207:139|207:139|263:178,2,164,2|2|10,1:2|0:2|0:2,0:2:0:0:
270,10,107604,2,0,B|288:47|288:47|272:84,1,82,2|0,1:2|0:2,0:2:0:0:
335,140,107913,22,0,L|389:133,1,54.6666666666667,2|2,1:2|0:0,0:2:0:0:
455,90,108119,1,2,0:0:0:0:
460,95,108222,2,0,P|480:129|477:170,1,82,2|0,0:2|1:2,0:0:0:0:
305,315,108531,2,0,P|351:251|430:254,1,164,10|4,0:2|0:3,0:2:0:0:
205,365,108995,21,0,1:2:0:0:
140,320,109150,2,0,L|154:156,1,164,2|0,1:2|0:2,0:2:0:0:
210,100,109614,1,0,3:2:0:0:
15,5,109769,2,0,P|74:57|153:45,1,164,10|2,0:2|1:2,0:2:0:0:
445,85,110387,21,2,1:2:0:0:
380,45,110542,2,0,P|341:58|301:68,1,82,8|0,0:3|0:2,0:0:0:0:
250,210,110851,1,0,1:2:0:0:
300,270,111006,2,0,P|370:230|448:245,1,164,8|0,0:2|1:2,0:2:0:0:
255,365,111624,22,0,B|168:360|197:319|103:310,2,164,2|2|10,1:2|0:2|0:2,0:2:0:0:
255,365,112552,1,2,1:2:0:0:
250,210,112707,1,0,0:2:0:0:
250,210,112861,22,0,L|209:217,1,41,2|0,1:2|0:0,0:0:0:0:
320,255,113016,2,0,L|360:247,1,41,0|0,1:2|0:0,0:0:0:0:
435,275,113171,2,0,P|457:198|416:130,2,164,2|10|8,1:2|0:2|0:3,0:0:0:0:
255,15,114098,22,0,P|200:73|121:72,1,164,2|0,1:2|0:2,0:2:0:0:
55,25,114562,1,0,3:2:0:0:
15,95,114717,2,0,L|33:257,1,164,10|2,0:2|1:2,0:2:0:0:
33,257,115181,1,8,0:3:0:0:
235,265,115336,22,0,P|290:323|369:322,1,164,2|0,1:2|0:2,0:2:0:0:
435,275,115800,1,0,1:2:0:0:
373,225,115954,2,0,L|354:62,1,164,8|0,0:2|1:2,0:2:0:0:
415,10,116418,1,2,0:2:0:0:
285,120,116573,22,0,L|294:201,1,82,2|0,1:2|0:2,0:2:0:0:
445,185,116882,2,0,L|435:103,1,82,2|0,0:2|0:2,0:2:0:0:
250,40,117191,2,0,P|176:67|162:144,1,164,10|2,0:2|1:2,0:0:0:0:
255,375,117810,22,0,L|259:334,1,41,2|0,1:2|0:0,0:0:0:0:
294,201,117964,2,0,L|290:242,1,41,0|0,1:2|0:0,0:0:0:0:
200,260,118119,2,0,B|298:265|245:310|348:317,1,164,0|10,1:2|0:2,0:0:0:0:
505,190,118738,1,0,1:2:0:0:
438,152,118892,1,0,1:2:0:0:
510,110,119047,22,0,B|429:120|429:120|427:124|427:124|349:134,1,164,2|0,1:2|0:2,0:2:0:0:
232,47,119511,1,0,3:2:0:0:
232,47,119588,1,0,3:2:0:0:
232,47,119665,2,0,P|272:42|306:62,1,82,10|0,0:2|0:0,0:2:0:0:
290,190,119975,22,0,B|212:180|212:180|210:176|210:176|129:166,1,164,2|2,1:2|1:2,0:2:0:0:
0,300,120439,2,0,B|42:289|42:289|99:307|89:362|71:386,1,164,8|0,0:3|1:2,0:0:0:0:
205,205,120903,1,10,0:2:0:0:
215,285,121212,1,0,1:2:0:0:
495,340,121521,22,0,P|416:344|369:281,1,164,2|0,1:2|0:2,0:2:0:0:
450,100,121985,1,2,0:2:0:0:
510,150,122140,2,0,L|497:231,1,82,10|0,0:2|0:0,0:0:0:0:
310,350,122449,22,0,L|188:368,1,123,0|0,1:2|0:0,0:2:0:0:
188,367,122758,21,2,1:2:0:0:
20,310,122913,1,8,0:3:0:0:
85,125,123068,1,4,0:3:0:0:
276,196,123377,21,8,1:2:0:0:
176,242,123686,1,8,1:3:0:0:
276,196,123995,6,0,P|263:194|278:199,1,61.5000023460389,6|0,1:3|0:0,0:2:0:0:
356,158,124150,21,0,0:0:0:0:
275,99,124305,1,0,3:2:0:0:
185,142,124459,1,0,3:2:0:0:
176,242,124614,1,8,3:2:0:0:
85,285,124768,1,0,3:2:0:0:
4,226,124923,1,0,3:2:0:0:
12,126,125078,22,0,P|15:105|18:123,1,61.5000023460389,4|0,1:3|0:0,0:2:0:0:
4,226,125387,21,0,0:2:0:0:
85,285,125542,22,0,P|88:306|91:288,1,61.5000023460389,4|0,1:3|0:0,0:2:0:0:
176,242,125696,21,0,3:2:0:0:
185,142,125851,1,8,0:2:0:0:
275,99,126160,21,2,0:3:0:0:
356,158,126315,1,2,0:3:0:0:
276,196,126470,22,0,P|263:194|278:199,1,61.5000023460389,4|0,1:3|0:0,0:2:0:0:
356,158,126624,21,0,0:0:0:0:
348,258,126779,1,0,3:2:0:0:
257,301,126934,1,0,3:2:0:0:
176,242,127089,1,8,3:2:0:0:
185,142,127243,1,0,3:2:0:0:
103,83,127397,1,0,3:2:0:0:
14,117,127552,22,0,P|9:137|18:123,1,61.5000023460389,4|0,1:3|0:0,0:2:0:0:
103,83,127861,21,0,0:2:0:0:
185,142,128016,22,0,P|167:132|179:145,1,61.5000023460389,4|0,1:3|0:0,0:2:0:0:
176,242,128171,21,0,3:2:0:0:
257,301,128326,1,8,0:2:0:0:
348,258,128635,21,2,1:1:0:0:
356,158,128789,1,2,1:1:0:0:
276,196,128944,22,2,P|263:194|278:199,1,61.5000023460389,4|0,1:1|0:0,0:1:0:0:
356,158,129098,21,0,3:0:0:0:
275,99,129253,1,0,3:2:0:0:
185,142,129408,1,0,3:0:0:0:
176,242,129562,1,8,0:2:0:0:
257,301,129872,21,0,3:2:0:0:
348,258,130026,22,0,P|361:256|346:261,1,61.5000023460389,4|0,1:3|0:0,0:2:0:0:
257,301,130181,21,0,3:2:0:0:
176,242,130336,1,0,3:2:0:0:
185,142,130490,22,0,P|172:144|187:139,1,61.5000023460389,4|0,1:3|0:0,0:2:0:0:
275,99,130645,21,0,3:2:0:0:
356,158,130800,1,8,3:2:0:0:
348,258,130954,1,0,3:2:0:0:
257,301,131109,1,2,0:3:0:0:
176,242,131263,1,2,0:3:0:0:
276,196,131418,22,0,P|263:194|278:199,1,61.5000023460389,4|0,1:3|0:0,0:2:0:0:
278,199,132037,22,0,P|259:209|276:196,1,61.5000023460389,4|0,1:3|0:0,0:2:0:0:
276,196,132655,22,0,P|263:194|278:199,1,61.5000023460389,4|0,1:3|0:0,0:2:0:0:
278,199,133274,22,0,P|259:209|276:196,1,61.5000023460389,4|0,1:3|0:0,0:2:0:0:
276,196,133583,22,0,P|263:194|278:199,1,61.5000023460389,2|0,0:3|0:0,0:0:0:0:
412,102,133738,22,0,P|425:104|410:99,1,61.5000023460389,2|0,0:3|0:0,0:0:0:0:
262,107,133892,22,0,B|370:123|316:174|420:190,1,184.500007038117,6|0,1:2|0:0,0:2:0:0:
420,190,134202,2,0,L|429:271,1,82,2|0,0:2|0:2,0:0:0:0:
205,345,134511,2,0,P|127:333|103:259,2,164,10|2|2,0:2|1:2|0:2,0:2:0:0:
205,345,135284,21,2,0:2:0:0:
315,300,135439,1,2,1:2:0:0:
260,190,135593,1,2,1:2:0:0:
315,300,135748,1,10,0:2:0:0:
205,345,136057,22,0,P|164:349|124:358,1,82,0|2,1:2|0:2,0:0:0:0:
315,300,136367,22,0,P|373:353|452:343,1,164,2|2,1:2|0:2,0:2:0:0:
309,127,136830,1,0,1:2:0:0:
260,190,136985,2,0,B|223:193|223:193|222:191|222:191|180:196,1,82,10|0,0:2|0:0,0:2:0:0:
505,280,137294,22,0,P|510:220|476:170,1,123,0|0,1:2|0:0,0:0:0:0:
465,165,137604,22,0,B|438:167|438:167|437:166|437:166|411:169,2,54.6666666666667,2|2|2,0:2|0:2|0:2,0:2:0:0:
500,20,137913,2,0,P|451:55|391:52,1,123,2|0,1:2|0:0,0:2:0:0:
390,51,138222,21,10,0:2:0:0:
235,25,138377,1,2,0:2:0:0:
320,5,138531,1,2,1:2:0:0:
215,105,138686,1,2,0:2:0:0:
15,15,138841,21,2,1:2:0:0:
15,15,139150,2,0,P|34:50|39:91,1,82,2|0,0:2|0:0,0:0:0:0:
215,105,139459,21,8,0:2:0:0:
320,205,139614,1,2,0:2:0:0:
235,185,139768,1,2,1:2:0:0:
390,159,139923,1,2,0:2:0:0:
315,285,140078,21,2,0:2:0:0:
320,205,140233,1,2,1:2:0:0:
385,335,140387,1,2,1:2:0:0:
385,335,140696,2,0,B|452:324|440:364|503:353,1,123,10|0,0:2|0:0,0:2:0:0:
503,353,141006,2,0,B|520:317|520:317|494:285,1,82,2|0,0:2|0:2,0:0:0:0:
255,365,141315,21,2,1:2:0:0:
255,365,141624,2,0,P|212:323|152:323,1,123,2|0,0:2|0:0,0:2:0:0:
85,360,141934,21,10,0:2:0:0:
255,365,142243,2,0,P|246:290|191:238,1,153.75,2|0,1:2|0:0,0:2:0:0:
115,230,142552,21,2,0:2:0:0:
115,230,142707,21,0,1:2:0:0:
255,365,142861,2,0,P|288:280|274:190,1,184.500007038117,2|0,1:2|0:0,0:2:0:0:
220,135,143171,21,10,0:2:0:0:
255,365,143480,2,0,P|354:298|373:180,1,246.000009384156,8|4,0:3|0:2,0:2:0:0:
310,110,144098,5,0,0:0:0:0:
220,135,144408,1,8,0:2:0:0:
30,60,144717,21,0,0:2:0:0:
100,20,145026,2,0,P|121:56|117:98,1,86.0999973724366,2|0,0:2|0:2,0:2:0:0:
75,165,145645,2,0,L|79:222,1,57.3999982482911,8|0,0:2|0:0,0:2:0:0:
255,375,146263,21,2,0:2:0:0:
305,315,146573,1,0,0:2:0:0:
245,265,146882,2,0,L|159:274,1,86.0999973724366,8|0,0:2|0:2,0:2:0:0:
95,320,147501,2,0,L|90:377,2,57.3999982482911,2|0|8,0:2|0:0|0:2,0:2:0:0:
5,190,148428,1,0,0:0:0:0:
60,130,148738,22,0,L|116:139,1,57.3999982482911,6|0,0:2|0:2,0:2:0:0:
185,100,149202,1,0,0:2:0:0:
185,100,149356,1,8,0:2:0:0:
245,150,149511,2,0,L|248:178,2,28.6999991241455,0|0|0,0:2|0:2|0:2,0:0:0:0:
305,95,149975,22,0,L|314:38,1,57.3999982482911,2|0,0:2|0:0,0:2:0:0:
390,10,150439,1,0,0:2:0:0:
390,10,150593,1,8,0:2:0:0:
465,40,150748,2,0,L|493:36,2,28.6999991241455,0|0|0,0:2|0:2|0:2,0:0:0:0:
465,40,151212,22,0,L|461:68,1,28.6999991241455,6|0,0:2|0:2,0:0:0:0:
405,125,151521,2,0,L|408:153,1,28.6999991241455,0|0,0:2|0:2,0:0:0:0:
465,205,151830,2,0,L|457:262,1,57.3999982482911,8|0,0:2|0:2,0:2:0:0:
500,370,152294,21,0,0:2:0:0:
425,345,152449,2,0,P|396:349|372:364,1,57.3999982482911,2|0,0:2|0:2,0:2:0:0:
299,345,152913,2,0,L|296:316,1,28.6999991241455,2|8,0:2|0:2,0:2:0:0:
170,170,153222,22,0,P|210:164|246:181,1,82,2|0,0:2|0:0,0:2:0:0:
255,190,153686,22,0,P|154:200|99:114,1,213.199990240479,4|8,1:2|0:2,0:2:0:0:
95,120,154614,2,0,L|100:66,1,53.2999975601197,0|0,1:2|3:3,0:2:0:0:
17,247,154923,22,0,B|108:254|72:297|163:304,1,159.899992680359,2|0,0:2|0:2,0:2:0:0:
225,355,155542,1,8,0:2:0:0:
490,190,156160,22,0,P|452:153|400:153,2,106.599995120239,2|2|10,1:2|0:2|0:2,0:2:0:0:
335,100,157243,1,2,0:2:0:0:
335,100,157397,2,0,P|267:177|164:172,1,213.199990240479,2|8,0:2|0:2,0:0:0:0:
115,115,158325,2,0,L|118:62,1,53.2999975601197,0|0,0:2|1:2,0:0:0:0:
20,310,158635,22,0,B|92:251|92:251|177:286,1,184.500007038117,2|0,1:1|0:2,0:2:0:0:
105,345,158944,1,0,1:2:0:0:
105,345,159098,1,0,0:2:0:0:
495,195,159253,22,0,B|426:134|426:134|341:171,1,184.500007038117,10|0,0:2|0:2,0:2:0:0:
410,235,159562,1,0,1:2:0:0:
410,235,159717,1,0,1:2:0:0:
245,100,159872,21,2,1:2:0:0:
125,70,160026,1,0,1:2:0:0:
245,100,160181,1,2,1:2:0:0:
125,70,160336,1,0,1:2:0:0:
30,165,160490,22,0,B|63:155|63:155|121:164|133:234|87:269,1,184.500007038117,8|0,1:1|0:0,0:0:0:0:
105,345,160800,2,0,L|44:355,1,61.5000023460389,2|0,1:2|0:0,0:0:0:0:
245,100,161109,22,0,L|233:160,1,61.5000023460389,8|0,1:3|0:0,0:0:0:0:
265,230,161263,2,0,L|253:290,1,61.5000023460389,8|0,1:3|0:0,0:0:0:0:
260,300,161418,22,0,L|271:239,1,61.5000023460389,8|0,1:3|0:0,0:0:0:0:
225,150,161573,2,0,L|236:89,1,61.5000023460389,8|0,1:3|0:0,0:0:0:0:
250,10,161727,1,8,1:1:0:0:
250,10,162037,22,0,L|189:21,1,61.5000023460389,8|0,1:3|0:0,0:0:0:0:
125,70,162191,2,0,L|64:59,1,61.5000023460389,8|0,1:3|0:0,0:0:0:0:
5,115,162501,22,0,L|16:176,1,61.5000023460389,8|0,1:3|0:0,0:0:0:0:
85,215,162655,2,0,L|74:276,1,61.5000023460389,8|0,1:3|0:0,0:0:0:0:
0,365,162964,22,0,L|61:354,1,61.5000023460389,8|0,1:3|0:0,0:0:0:0:
135,330,163119,2,0,L|196:341,1,61.5000023460389,8|0,1:3|0:0,0:0:0:0:
265,375,163274,2,0,L|326:364,1,61.5000023460389,8|0,1:3|0:0,0:0:0:0:
395,325,163428,2,0,L|456:336,1,61.5000023460389,8|0,1:3|0:0,0:0:0:0:
510,210,163583,22,0,P|421:214|368:143,1,184.500007038117,6|0,1:2|0:0,0:2:0:0:
285,25,163892,22,0,P|373:20|426:91,1,184.500007038117,2|0,0:2|0:0,0:0:0:0:
270,105,164202,22,0,P|181:109|128:38,1,184.500007038117,10|0,0:2|0:0,0:0:0:0:
128,38,164511,2,0,P|82:35|48:67,1,94.3000017986298,2|8,1:2|0:3,0:2:0:0:
0,360,164820,22,0,P|88:364|141:293,1,184.500007038117,2|0,1:2|0:0,0:2:0:0:
225,175,165129,22,0,P|136:170|83:241,1,184.500007038117,2|0,0:2|0:0,0:0:0:0:
240,255,165439,22,0,P|328:259|381:188,1,184.500007038117,10|0,0:2|0:0,0:2:0:0:
381,187,165748,2,0,P|426:184|460:216,1,94.3000017986298,0|0,1:2|0:0,0:2:0:0:
500,285,166057,22,0,P|468:353|394:366,1,155.799995839691,2|2,0:2|0:2,0:2:0:0:
165,370,166521,2,0,P|176:333|171:294,1,77.8999979198456,2|8,1:2|0:2,0:0:0:0:
330,319,166830,22,0,P|298:268|239:255,1,123.000004692078,2|2,0:2|0:2,0:2:0:0:
65,190,167294,22,0,L|13:197,2,51.9333319465638,2|2|2,1:2|0:0|0:0,0:2:0:0:
70,180,167604,22,0,B|85:162|85:162|48:35,2,155.799995839691,2|10|2,0:2|0:2|0:2,0:0:0:0:
510,210,168531,22,0,P|421:214|368:143,1,184.500007038117,2|0,1:2|0:0,0:2:0:0:
285,25,168840,22,0,P|373:20|426:91,1,184.500007038117,2|0,0:2|0:0,0:0:0:0:
270,105,169150,22,0,P|181:109|128:38,1,184.500007038117,10|0,0:2|0:0,0:0:0:0:
128,38,169459,2,0,P|82:35|48:67,1,94.3000017986298,0|0,1:2|3:2,0:2:0:0:
0,360,169769,22,0,P|88:364|141:293,1,184.500007038117,2|0,1:2|0:0,0:2:0:0:
225,175,170078,22,0,P|136:170|83:241,1,184.500007038117,2|0,0:2|0:0,0:0:0:0:
240,255,170387,22,0,P|328:259|381:188,1,184.500007038117,10|0,0:2|0:0,0:2:0:0:
381,187,170696,2,0,P|426:184|460:216,1,94.3000017986298,0|0,1:2|0:0,0:2:0:0:
465,115,171006,22,0,L|474:37,1,77.8999979198456,2|2,0:2|0:2,0:2:0:0:
386,344,171470,2,0,L|395:266,2,77.8999979198456,2|10|2,1:2|0:2|0:2,0:0:0:0:
465,320,171934,21,2,0:2:0:0:
314,376,172089,1,2,0:2:0:0:
245,340,172243,22,0,L|260:217,1,123.000004692078,2|2,1:2|0:2,0:0:0:0:
320,5,172552,2,0,L|303:127,1,123.000004692078,2|2,1:2|0:2,0:0:0:0:
220,145,172861,2,0,L|98:127,1,123.000004692078,10|0,0:2|0:2,0:2:0:0:
340,200,173171,2,0,L|461:217,1,123.000004692078,8|0,0:3|0:0,0:2:0:0:
461,217,173480,1,2,1:2:0:0:
500,85,173789,21,2,0:2:0:0:
445,30,173944,1,2,0:2:0:0:
375,65,174098,1,10,0:2:0:0:
220,145,174253,1,2,0:2:0:0:
150,185,174408,1,2,1:2:0:0:
98,127,174562,1,8,0:3:0:0:
285,15,174717,22,0,L|279:66,2,51.9333319465638,2|2|2,1:2|0:2|0:2,0:0:0:0:
280,10,175026,22,0,L|202:20,1,77.8999979198456,2|0,1:2|1:2,0:2:0:0:
15,205,175336,2,0,B|99:219|69:255|153:272,1,155.799995839691,10|0,0:2|1:2,0:2:0:0:
358,212,175954,2,0,B|274:195|304:159|220:145,1,155.799995839691,2|2,0:2|1:2,0:2:0:0:
150,185,176418,1,2,0:2:0:0:
230,300,176573,2,0,P|268:293|306:286,1,77.8999979198456,10|0,0:2|0:2,0:2:0:0:
220,145,176882,21,2,1:2:0:0:
153,272,177037,1,2,0:2:0:0:
230,300,177191,22,0,P|268:293|306:286,1,77.8999979198456,2|0,1:2|1:2,0:0:0:0:
150,185,177501,2,0,P|143:147|136:109,1,77.8999979198456,2|0,1:2|0:2,0:2:0:0:
5,295,177810,2,0,P|95:286|144:363,1,191.880000731964,10|0,0:2|1:2,0:2:0:0:
144,364,178428,22,0,L|70:373,1,73.7999977478028,2|0,1:2|0:2,0:2:0:0:
275,265,179047,21,10,0:2:0:0:
325,325,179202,1,2,0:2:0:0:
385,120,179356,1,2,1:2:0:0:
310,135,179511,1,2,0:2:0:0:
455,280,179665,1,2,1:2:0:0:
455,280,180284,21,10,0:2:0:0:
310,135,180439,1,2,0:2:0:0:
385,120,180593,1,2,1:2:0:0:
325,325,180748,1,2,0:2:0:0:
275,265,180903,22,0,P|237:274|198:281,1,77.8999979198456,2|0,1:2|0:0,0:2:0:0:
145,340,181212,2,0,P|106:333|68:324,1,77.8999979198456,2|0,0:2|0:2,0:0:0:0:
310,135,181521,22,0,P|272:144|233:151,1,77.8999979198456,10|0,0:2|0:2,0:2:0:0:
175,205,181830,2,0,P|136:198|98:189,1,77.8999979198456,2|0,1:2|0:2,0:2:0:0:
60,120,182140,21,0,1:2:0:0:
185,30,182294,1,8,0:3:0:0:
335,60,182449,1,4,0:3:0:0:
410,330,182758,22,0,B|411:364|457:385|506:357|500:303|477:288|477:288|462:283|457:274,1,184.500007038117,8|0,0:2|0:0,0:0:0:0:
510,215,183068,22,0,P|436:238|361:248,1,153.75,4|0,0:3|0:0,0:0:0:0:
305,305,183377,22,0,P|281:318|301:302,1,82,6|0,1:2|0:0,0:2:0:0:
174,204,183686,2,0,P|114:197|57:219,1,123,2|0,0:2|0:0,0:0:0:0:
57,219,183995,2,0,L|74:315,1,82,10|0,0:2|0:0,0:0:0:0:
234,151,184305,2,0,B|256:120|256:120|249:76,1,82,0|8,1:2|0:3,0:2:0:0:
185,30,184614,38,0,P|146:42|105:48,1,82,2|0,1:2|0:0,0:2:0:0:
330,150,184923,2,0,P|390:145|439:179,1,123,2|0,0:2|0:0,0:0:0:0:
440,180,185233,2,0,L|456:99,1,82,10|0,0:2|0:2,0:2:0:0:
285,220,185542,2,0,L|301:301,1,82,0|0,1:2|0:0,0:2:0:0:
250,360,185851,22,0,B|160:357|189:318|95:312,1,164,2|0,0:2|0:2,0:2:0:0:
30,355,186315,2,0,B|5:325|5:325|23:286,1,82,2|8,1:2|0:2,0:0:0:0:
275,135,186624,2,0,P|232:200|153:199,1,164,2|2,0:2|0:2,0:2:0:0:
25,65,187088,6,0,L|28:10,2,54.6666666666667,2|2|2,1:2|0:0|0:0,0:2:0:0:
15,75,187397,22,0,B|112:66|84:113|174:102,2,164,2|10|2,0:2|0:2|0:2,0:0:0:0:
255,15,188325,38,0,P|295:19|324:46,1,82,2|0,1:2|0:0,0:2:0:0:
365,180,188635,2,0,P|420:158|441:102,1,123,2|0,0:2|0:0,0:0:0:0:
430,95,188944,2,0,P|428:54|403:23,1,82,10|0,0:2|0:0,0:0:0:0:
173,102,189253,2,0,P|175:143|200:174,1,82,0|0,1:2|0:2,0:2:0:0:
365,180,189562,22,0,P|305:189|272:239,1,123,2|0,1:2|0:0,0:2:0:0:
260,245,189872,2,0,L|268:326,1,82,2|0,1:2|1:2,0:0:0:0:
5,360,190181,2,0,P|53:297|132:295,1,164,10|0,0:2|1:2,0:2:0:0:
25,160,190645,5,0,3:0:0:0:
100,190,190800,2,0,B|113:157|113:157|75:78|75:78|85:38,1,164,2|0,0:2|0:2,0:2:0:0:
160,10,191263,1,2,1:2:0:0:
330,130,191418,1,10,0:2:0:0:
250,115,191573,1,2,0:2:0:0:
420,30,191727,1,2,0:2:0:0:
500,10,191882,1,2,0:2:0:0:
480,190,192037,22,0,L|426:179,2,54.6666666666667,2|2|2,1:2|0:0|0:0,0:0:0:0:
490,185,192346,38,0,L|497:266,1,82,2|2,1:2|0:2,0:0:0:0:
320,380,192655,2,0,L|308:257,1,123,8|0,0:2|0:2,0:2:0:0:
245,210,192964,2,0,B|155:217|189:266|99:275,1,164,8|2,0:3|1:2,0:2:0:0:
99,275,193583,21,2,0:2:0:0:
0,170,193738,1,2,0:2:0:0:
150,25,193892,1,10,0:2:0:0:
150,25,194047,1,2,0:2:0:0:
245,210,194202,1,2,1:2:0:0:
130,120,194356,1,8,0:3:0:0:
335,35,194511,6,0,P|360:44|387:45,2,54.6666666666667,2|2|2,1:2|0:2|0:2,0:0:0:0:
325,30,194820,2,0,L|334:111,1,82,2|0,1:2|1:2,0:2:0:0:
245,210,195129,2,0,B|336:218|306:261|395:267,1,164,10|0,0:2|1:2,0:2:0:0:
395,267,195748,2,0,B|306:261|336:218|245:210,1,164,2|0,0:2|1:2,0:2:0:0:
100,360,196212,21,2,0:2:0:0:
30,320,196367,2,0,B|16:256|16:256|23:241,1,82,8|0,0:2|0:2,0:2:0:0:
23,241,196676,1,2,1:2:0:0:
5,165,196830,1,2,0:2:0:0:
190,150,196985,2,0,B|204:86|204:86|217:75,1,82,2|0,1:2|1:2,0:0:0:0:
275,10,197294,2,0,B|259:27|259:27|120:53,2,164,2|10|0,1:2|0:2|1:2,0:2:0:0:
490,190,198222,2,0,B|474:173|474:173|335:146,1,164,2|0,1:2|0:2,0:2:0:0:
336,146,198841,37,10,0:2:0:0:
375,260,198995,1,2,0:2:0:0:
180,220,199150,1,2,1:2:0:0:
310,310,199305,1,2,0:2:0:0:
180,370,199459,1,2,1:2:0:0:
180,370,200078,21,10,0:2:0:0:
310,310,200233,1,2,0:2:0:0:
180,220,200387,1,2,1:2:0:0:
375,260,200542,1,2,0:2:0:0:
300,130,200696,6,0,P|253:134|215:100,1,83.0250003167153,2|0,1:2|0:0,0:2:0:0:
215,110,201006,2,0,P|208:84|217:57,1,55.9999982910157,2|0,0:2|0:2,0:0:0:0:
0,160,201315,2,0,P|57:168|101:131,1,118.694997147451,10|0,0:2|0:0,0:2:0:0:
110,130,201624,2,0,P|113:91|93:57,1,80,2|0,1:2|0:2,0:2:0:0:
310,310,201934,22,0,P|277:262|219:255,1,120.000004577637,0|8,1:2|0:3,0:0:0:0:
28,342,202243,38,0,P|82:362|131:332,1,120.000004577637,4|4,0:3|0:3,0:0:0:0:
230,5,202552,22,0,P|293:31|304:96,1,136.000002593994,8|0,0:3|0:2,0:2:0:0:
510,370,202861,6,0,P|416:280|457:158,1,272.000005187988,4|6,0:3|1:2,0:2:0:0:
456,159,203480,22,0,P|432:229|359:249,2,155.799995839691,2|10|2,0:2|0:2|1:2,0:0:0:0:
255,15,204253,21,8,0:3:0:0:
192,68,204408,2,0,L|140:74,2,51.9333319465638,2|2|2,1:2|0:0|0:0,0:2:0:0:
200,70,204717,2,0,P|215:105|213:143,1,77.8999979198456,2|0,0:2|1:2,0:0:0:0:
220,260,205026,2,0,P|160:213|84:220,1,155.799995839691,8|0,0:2|1:2,0:2:0:0:
255,365,205490,21,2,0:2:0:0:
320,320,205645,2,0,B|404:312|375:274|464:267,1,155.799995839691,2|2,1:2|0:2,0:2:0:0:
370,100,206109,1,0,0:2:0:0:
310,150,206263,22,0,P|314:168|317:188,1,38.9499989599228,10|0,0:2|0:0,0:0:0:0:
20,60,206573,22,0,B|80:66|67:92|129:98,1,116.849996879768,2|0,1:2|0:0,0:2:0:0:
200,60,206882,22,0,L|205:8,2,51.9333319465638,2|2|2,1:2|0:0|0:0,0:2:0:0:
210,70,207191,22,0,L|204:121,1,51.9333319465638,2|0,0:2|0:0,0:2:0:0:
364,48,207501,22,0,L|370:100,1,50.2250004789829,10|0,0:2|0:0,0:2:0:0:
378,92,207655,2,0,L|372:40,1,51.9333319465638,2|0,0:2|0:0,0:0:0:0:
310,150,207810,22,0,L|304:201,1,50.2250004789829,10|0,0:3|0:0,0:2:0:0:
145,175,208119,22,0,L|151:226,1,50.2250004789829,2|0,1:2|0:0,0:2:0:0:
255,355,208428,22,0,P|203:329|147:343,1,116.849996879768,2|0,0:2|0:0,0:0:0:0:
140,350,208738,2,0,L|62:360,1,77.8999979198456,10|0,0:2|0:0,0:2:0:0:
310,285,209047,2,0,L|387:295,1,77.8999979198456,2|0,1:2|0:2,0:2:0:0:
145,175,209356,21,2,1:2:0:0:
80,130,209511,2,0,P|52:156|48:194,1,77.8999979198456,8|0,0:3|0:2,0:0:0:0:
255,115,209820,21,0,1:2:0:0:
195,65,209975,2,0,B|103:57|143:23|50:14,1,155.799995839691,8|0,0:2|1:2,0:2:0:0:
375,15,210439,21,2,0:2:0:0:
435,70,210593,2,0,P|408:142|398:220,1,155.799995839691,2|0,1:2|0:2,0:2:0:0:
300,335,211057,1,2,0:2:0:0:
230,370,211212,2,0,P|157:357|139:285,1,155.799995839691,10|2,0:2|1:2,0:0:0:0:
455,280,211830,22,0,L|460:358,1,77.8999979198456,2|0,1:2|1:2,0:0:0:0:
460,357,212140,22,0,P|481:349|460:356,1,61.5000023460389,2|0,1:2|0:0,0:2:0:0:
398,220,212449,22,0,P|405:199|396:219,1,61.5000023460389,10|0,0:2|0:0,0:2:0:0:
230,370,212758,22,0,L|199:374,4,30.7500011730195,10|0|0|0|0,0:3|3:0|3:0|3:0|3:2,0:2:0:0:
300,335,213068,22,0,B|301:332|295:246|254:280|247:190,2,155.799995839691,2|0|10,1:2|0:2|0:2,0:2:0:0:
310,140,213995,1,2,1:2:0:0:
165,185,214150,1,8,0:3:0:0:
260,30,214305,22,0,L|253:81,2,51.9333319465638,2|2|2,1:2|0:0|0:0,0:2:0:0:
250,25,214614,2,0,L|173:41,1,77.8999979198456,2|0,0:2|1:2,0:0:0:0:
5,20,214923,2,0,B|33:31|33:31|77:121|77:121|101:128,1,155.799995839691,8|0,0:2|1:2,0:2:0:0:
85,210,215387,21,2,0:2:0:0:
165,185,215542,2,0,B|142:194|142:194|117:322,1,155.799995839691,2|0,1:2|0:2,0:2:0:0:
50,365,216006,1,2,0:2:0:0:
50,365,216160,2,0,B|12:356|12:356|0:317,1,77.8999979198456,10|0,0:2|0:0,0:0:0:0:
210,255,216470,22,0,B|265:235|265:235|314:265,1,116.849996879768,2|0,1:2|0:0,0:2:0:0:
390,235,216779,2,0,B|428:245|428:245|459:221,2,77.8999979198456,2|0|0,1:2|1:2|1:2,0:0:0:0:
255,45,217397,22,0,P|249:25|257:44,1,61.5000023460389,10|0,0:2|0:0,0:2:0:0:
285,125,217707,22,0,P|291:145|283:126,1,61.5000023460389,0|0,1:2|0:0,0:0:0:0:
255,45,217861,22,0,P|249:25|257:44,1,61.5000023460389,0|0,1:2|0:0,0:0:0:0:
355,45,218016,22,0,B|241:58|297:119|188:133,2,196.799993994141,2|0|10,1:2|0:2|0:2,0:2:0:0:
140,210,218944,22,0,P|92:177|35:178,1,116.849996879768,2|0,1:2|0:0,0:2:0:0:
35,178,219253,1,2,1:2:0:0:
290,320,219408,2,0,P|333:258|322:183,1,155.799995839691,8|0,0:3|1:2,0:0:0:0:
265,126,219872,2,0,L|187:133,1,77.8999979198456,8|0,0:2|0:2,0:2:0:0:
85,320,220181,22,0,B|168:327|145:363|221:367,1,147.599995495606,0|0,1:2|0:0,0:0:0:0:
290,320,220490,2,0,L|368:327,1,77.8999979198456,2|2,1:2|0:2,0:0:0:0:
490,190,220800,21,2,0:2:0:0:
400,90,220954,1,2,0:2:0:0:
265,126,221109,1,10,0:2:0:0:
265,126,221418,22,0,L|259:168,1,43.0499986862183,2|0,1:2|0:0,0:0:0:0:
258,168,221728,21,2,1:2:0:0:
169,268,221882,1,0,1:2:0:0:
34,232,222037,1,0,1:2:0:0:
34,232,222346,22,0,L|28:189,1,41.614998507763,8|0,0:1|0:2,0:2:0:0:
