osu file format v14

[General]
AudioFilename: audio.mp3
AudioLeadIn: 0
PreviewTime: 123995
Countdown: 0
SampleSet: Soft
StackLeniency: 0.7
Mode: 0
LetterboxInBreaks: 0
WidescreenStoryboard: 1

[Editor]
Bookmarks: 25013,64611,79456,104199,159869,222343
DistanceSpacing: 1.2
BeatDivisor: 16
GridSize: 8
TimelineZoom: 2.999999

[Metadata]
Title:Matsuri
TitleUnicode:まつり
Artist:Fujii Kaze
ArtistUnicode:藤井 風
Creator:AirinCat
Version:FuJu's Extra
Source:
Tags:fuju kyouren japanese pop jpop j-pop r&b rnb rhythm and blues love all serve all festival KittyAdventure gokugohan12468
BeatmapID:4072940
BeatmapSetID:1902232

[Difficulty]
HPDrainRate:5
CircleSize:4
OverallDifficulty:8
ApproachRate:9
SliderMultiplier:3.2
SliderTickRate:1

[Events]
//Background and Video events
0,0,"7851d2641_p0.jpg",0,0
Video,-80,"matsuri.mp4"
//Break Periods
2,143989,153086
//Storyboard Layer 0 (Background)
//Storyboard Layer 1 (Fail)
//Storyboard Layer 2 (Pass)
//Storyboard Layer 3 (Foreground)
//Storyboard Layer 4 (Overlay)
//Storyboard Sound Samples

[TimingPoints]
5233,618.556701030928,4,2,1,60,1,0
5233,-222.222222222222,4,2,1,60,0,0
5851,-105.263157894737,4,2,1,60,0,0
7707,-222.222222222222,4,2,1,60,0,0
8325,-105.263157894737,4,2,1,60,0,0
9872,-86.9565217391306,4,2,1,60,0,0
10181,-222.222222222222,4,2,1,60,0,0
10800,-105.263157894737,4,2,1,60,0,0
12655,-222.222222222222,4,2,1,60,0,0
13274,-105.263157894737,4,2,1,60,0,0
15129,-222.222222222222,4,2,1,60,0,0
15748,-105.263157894737,4,2,1,60,0,0
17604,-222.222222222222,4,2,1,60,0,0
18222,-105.263157894737,4,2,1,60,0,0
22243,-222.222222222222,4,2,1,60,0,0
22552,-105.263157894737,4,2,1,60,0,0
25026,-222.222222222222,4,2,1,50,0,0
25490,-117.647058823529,4,2,1,50,0,0
28738,-222.222222222222,4,2,1,50,0,0
29202,-117.647058823529,4,2,1,50,0,0
38635,-222.222222222222,4,2,1,50,0,0
39098,-117.647058823529,4,2,1,50,0,0
43583,-222.222222222222,4,2,1,50,0,0
44047,-117.647058823529,4,2,1,50,0,0
47294,-222.222222222222,4,2,1,50,0,0
47758,-117.647058823529,4,2,1,50,0,0
49769,-222.222222222222,4,2,1,50,0,0
50233,-117.647058823529,4,2,1,50,0,0
62140,-222.222222222222,4,2,1,50,0,0
62604,-117.647058823529,4,2,1,50,0,0
64614,-250.000000000001,4,2,1,40,0,0
79459,-142.857142857143,4,2,1,50,0,0
81934,-125,4,2,1,60,0,0
83480,-80,4,2,1,70,0,0
84408,-95.2380952380952,4,2,1,70,0,0
84717,-133.333333333333,4,2,1,70,0,0
85645,-95.2380952380952,4,2,1,70,0,0
85954,-133.333333333333,4,2,1,70,0,0
89356,-95.2380952380952,4,2,1,70,0,0
89665,-133.333333333333,4,2,1,70,0,0
90284,-222.222222222221,4,2,1,70,0,0
91212,-133.333333333333,4,2,1,70,0,0
91521,-222.222222222221,4,2,1,70,0,0
92140,-133.333333333333,4,2,1,70,0,0
104202,-222.222222222222,4,2,1,70,0,0
104820,-105.263157894737,4,2,1,70,0,0
108377,-153.846153846154,4,2,1,70,0,0
109459,-105.263157894737,4,2,1,70,0,0
113171,-153.846153846154,4,2,1,70,0,0
114098,-105.263157894737,4,2,1,70,0,0
123995,-181.818181818181,4,2,2,70,0,1
124305,-105.263157894737,4,2,2,70,0,0
125078,-181.818181818181,4,2,2,70,0,1
125851,-133.333333333333,4,2,2,70,0,0
126470,-181.818181818182,4,2,2,70,0,1
127088,-105.263157894737,4,2,2,70,0,0
127552,-181.818181818182,4,2,2,70,0,1
128944,-80,4,2,2,70,0,1
129253,-105.263157894737,4,2,2,70,0,0
130026,-181.818181818182,4,2,2,70,0,1
130800,-133.333333333333,4,2,2,70,0,0
131418,-181.818181818182,4,2,2,70,0,0
133892,-105.263157894737,4,2,1,50,0,0
141315,-142.857142857143,4,2,1,50,0,0
141934,-125,4,2,1,50,0,0
142552,-111.111111111111,4,2,1,50,0,0
143171,-100,4,2,1,50,0,0
144408,-222.222222222222,4,2,1,40,0,0
158635,-105.263157894737,4,2,1,50,0,0
161109,-125,4,2,1,60,0,0
163583,-95.2380952380952,4,2,1,70,0,0
163892,-133.333333333333,4,2,1,70,0,0
167294,-95.2380952380952,4,2,1,70,0,0
167604,-133.333333333333,4,2,1,70,0,0
168531,-95.2380952380952,4,2,1,70,0,0
168841,-133.333333333333,4,2,1,70,0,0
170696,-95.2380952380952,4,2,1,70,0,0
171315,-133.333333333333,4,2,1,70,0,0
173480,-95.2380952380952,4,2,1,70,0,0
173789,-133.333333333333,4,2,1,70,0,0
175645,-95.2380952380952,4,2,1,70,0,0
176263,-133.333333333333,4,2,1,70,0,0
183377,-95.2380952380952,4,2,1,70,0,0
183686,-133.333333333333,4,2,1,70,0,0
184614,-95.2380952380952,4,2,1,70,0,0
184923,-133.333333333333,4,2,1,70,0,0
188325,-95.2380952380952,4,2,1,70,0,0
188635,-133.333333333333,4,2,1,70,0,0
193274,-95.2380952380952,4,2,1,70,0,0
193583,-133.333333333333,4,2,1,70,0,0
203171,-222.222222222222,4,2,1,60,0,0
204098,-105.263157894737,4,2,1,60,0,0
207501,-153.846153846154,4,2,1,60,0,0
208738,-105.263157894737,4,2,1,60,0,0
212140,-153.846153846154,4,2,1,60,0,0
213068,-105.263157894737,4,2,1,60,0,0
218016,-153.846153846154,4,2,1,60,0,0
218635,-105.263157894737,4,2,1,60,0,0
222346,-80.0000000000001,4,2,1,60,0,0
222655,-80.0000000000001,4,2,1,30,0,0

[Colours]
Combo1 : 248,167,139
Combo2 : 250,141,141
Combo3 : 192,146,146

[HitObjects]
75,371,5233,6,0,P|66:308|56:246,1,125.999996154785,2|0,1:2|0:0,0:2:0:0:
56,246,5851,2,0,P|93:241|130:231,1,75.9999979705811,8|0,0:2|0:0,0:2:0:0:
119,155,6160,1,0,1:2:0:0:
210,236,6315,1,0,0:2:0:0:
184,102,6470,5,2,1:2:0:0:
184,86,6573,5,2,0:0:0:0:
182,70,6676,5,2,0:0:0:0:
181,54,6779,5,2,0:2:0:0:
38,160,6934,1,0,1:2:0:0:
249,151,7088,2,0,P|285:141|323:135,1,75.9999979705811,8|0,0:2|0:2,0:2:0:0:
49,11,7397,2,0,P|68:44|84:79,1,75.9999979705811,2|0,1:2|0:2,0:2:0:0:
57,231,7707,6,0,B|130:214|111:248|181:232,1,125.999996154785,2|0,1:2|0:0,0:2:0:0:
180,232,8325,2,0,P|193:267|197:305,1,75.9999979705811,10|0,0:2|0:0,0:2:0:0:
106,384,8635,2,0,P|92:348|88:310,1,75.9999979705811,0|0,1:2|0:2,0:2:0:0:
279,205,8944,5,2,1:2:0:0:
287,223,9047,5,2,0:0:0:0:
292,243,9150,5,2,0:0:0:0:
295,263,9253,5,2,0:2:0:0:
393,161,9408,5,0,1:2:0:0:
342,357,9562,2,0,P|306:343|269:334,1,75.9999979705811,10|0,0:2|0:0,0:2:0:0:
71,204,9872,2,0,P|137:201|180:149,1,138.000002632141,2|0,0:3|0:0,0:0:0:0:
180,148,10181,6,0,P|176:112|169:76,1,71.9999978027344,2|0,1:2|0:0,0:2:0:0:
71,340,10800,2,0,P|105:324|142:317,1,75.9999979705811,10|0,0:2|0:2,0:2:0:0:
258,349,11109,1,0,1:2:0:0:
157,237,11263,1,0,0:2:0:0:
278,159,11418,5,2,1:2:0:0:
280,179,11521,5,2,0:0:0:0:
283,199,11624,5,2,0:0:0:0:
286,220,11727,5,2,0:2:0:0:
185,379,11882,1,0,1:2:0:0:
323,301,12037,2,0,P|359:310|395:322,1,75.9999979705811,8|0,0:2|0:2,0:2:0:0:
172,90,12346,2,0,P|184:126|194:163,1,75.9999979705811,2|0,1:2|0:2,0:2:0:0:
462,240,12655,6,0,P|419:194|358:183,1,125.999996154785,2|0,1:2|0:0,0:2:0:0:
358,183,13274,2,0,P|362:145|371:108,1,75.9999979705811,10|0,0:2|0:0,0:2:0:0:
246,309,13583,2,0,P|254:347|258:384,1,75.9999979705811,2|0,1:2|0:2,0:2:0:0:
145,314,13892,5,2,1:2:0:0:
276,221,14047,1,0,1:2:0:0:
146,170,14202,1,0,1:2:0:0:
146,170,14356,1,0,0:2:0:0:
213,114,14511,6,0,L|210:95,4,18.9999994926453,10|0|0|0|0,0:2|0:0|0:0|0:0|0:0,0:2:0:0:
76,229,14820,2,0,L|78:247,4,18.9999994926453,2|0|0|0|0,1:3|0:0|0:0|0:0|0:2,0:2:0:0:
292,143,15129,6,0,B|367:139|338:115|411:109,1,125.999996154785,2|0,1:2|0:0,0:2:0:0:
411,108,15748,2,0,P|400:144|393:181,1,75.9999979705811,10|0,0:2|0:0,0:2:0:0:
233,289,16057,2,0,P|269:276|305:267,1,75.9999979705811,0|0,1:2|0:2,0:2:0:0:
485,345,16367,5,2,1:2:0:0:
469,331,16470,5,2,0:0:0:0:
454,318,16573,5,2,0:0:0:0:
440,303,16676,5,2,0:2:0:0:
491,159,16830,1,0,1:2:0:0:
314,182,16985,2,0,P|277:174|242:160,1,75.9999979705811,8|0,0:2|0:2,0:2:0:0:
281,362,17294,2,0,P|306:333|336:311,1,75.9999979705811,2|0,1:2|0:2,0:2:0:0:
148,228,17604,2,0,P|164:279|172:332,1,107.999996704102,2|0,1:2|0:2,0:2:0:0:
305,104,18222,6,0,P|309:66|319:29,1,75.9999979705811,10|0,0:2|0:0,0:2:0:0:
20,153,18531,2,0,P|57:157|94:167,1,75.9999979705811,2|0,1:2|0:2,0:2:0:0:
179,79,18841,1,2,1:2:0:0:
179,79,18995,1,0,1:2:0:0:
238,256,19150,2,0,P|293:269|350:271,1,113.999996955872,0|0,1:2|0:0,0:2:0:0:
350,271,19459,2,0,P|355:233|360:195,1,75.9999979705811,10|0,0:2|0:0,0:2:0:0:
229,277,19769,5,2,1:3:0:0:
364,372,19923,1,0,1:2:0:0:
439,228,20078,2,0,P|440:154|390:100,1,151.999995941162,2|0,1:2|0:2,0:2:0:0:
268,0,20542,1,0,3:2:0:0:
268,0,20619,1,0,3:2:0:0:
268,0,20696,2,0,P|262:37|257:75,1,75.9999979705811,10|0,0:2|0:2,0:2:0:0:
110,198,21006,2,0,P|147:192|185:187,1,75.9999979705811,2|0,1:2|0:2,0:2:0:0:
372,357,21315,5,2,1:2:0:0:
372,357,21392,1,2,0:0:0:0:
372,357,21470,1,2,0:0:0:0:
257,238,21624,2,0,P|264:200|269:163,1,75.9999979705811,2|0,0:2|1:2,0:0:0:0:
158,0,21934,2,0,P|151:37|146:75,1,75.9999979705811,10|0,0:2|0:2,0:2:0:0:
436,271,22243,2,0,B|457:257|457:257|484:261,1,53.9999983520508,0|0,1:2|0:2,0:2:0:0:
492,273,22552,6,0,B|407:246|428:290|342:261,1,151.999995941162,2|0,1:2|0:2,0:2:0:0:
247,323,23016,1,0,3:2:0:0:
247,323,23093,1,0,3:2:0:0:
247,323,23171,2,0,P|210:334|175:347,1,75.9999979705811,10|0,0:2|0:2,0:2:0:0:
348,179,23480,2,0,P|361:143|372:107,1,75.9999979705811,2|0,1:2|0:2,0:2:0:0:
128,124,23789,5,2,1:2:0:0:
258,235,23944,1,0,1:2:0:0:
281,72,24098,2,0,P|273:35|258:1,1,75.9999979705811,0|0,1:2|0:2,0:2:0:0:
123,148,24408,2,0,P|85:156|51:171,1,75.9999979705811,10|0,0:2|0:0,0:2:0:0:
242,313,24717,2,0,P|250:350|265:384,1,75.9999979705811,2|0,1:3|0:2,0:2:0:0:
0,272,25026,6,0,P|35:264|68:251,1,71.9999978027344,0|2,1:2|0:2,0:0:0:0:
315,288,25645,2,0,P|309:254|296:223,1,68.0000012969971,10|0,0:2|0:0,0:2:0:0:
336,158,25954,1,0,0:2:0:0:
404,197,26109,1,8,0:3:0:0:
451,134,26263,2,0,P|428:71|419:4,1,136.000002593994,2|2,0:2|1:2,0:2:0:0:
232,253,26882,6,0,P|255:316|264:383,1,136.000002593994,10|2,0:2|0:2,0:0:0:0:
507,323,27501,2,0,P|440:309|386:269,1,136.000002593994,2|0,1:2|0:2,0:2:0:0:
170,209,28119,2,0,P|139:224|106:232,1,68.0000012969971,8|0,0:2|0:0,0:2:0:0:
151,123,28428,1,0,1:2:0:0:
244,246,28583,1,0,3:0:0:0:
6,184,28738,6,0,P|38:168|73:160,1,71.9999978027344,0|0,1:2|0:0,0:0:0:0:
309,105,29202,1,0,1:2:0:0:
217,0,29356,2,0,P|226:32|232:66,1,68.0000012969971,8|0,0:2|0:0,0:2:0:0:
254,240,29665,1,0,1:2:0:0:
397,92,29820,1,0,1:2:0:0:
439,229,29975,6,0,P|385:188|318:184,1,136.000002593994,0|2,1:2|0:2,0:0:0:0:
173,333,30593,2,0,P|206:327|238:315,1,68.0000012969971,10|0,0:2|0:0,0:2:0:0:
319,106,30903,5,0,1:2:0:0:
250,230,31057,1,0,1:2:0:0:
331,368,31212,5,2,1:2:0:0:
331,368,31289,1,2,0:0:0:0:
331,368,31367,1,8,0:3:0:0:
240,223,31521,1,0,1:2:0:0:
92,294,31676,5,2,0:2:0:0:
240,142,31830,2,0,P|207:133|175:121,1,68.0000012969971,10|0,0:2|0:2,0:2:0:0:
91,64,32140,2,0,P|99:31|111:0,1,68.0000012969971,2|0,0:2|0:0,0:2:0:0:
261,252,32449,6,0,P|253:319|233:384,1,136.000002593994,0|2,1:2|0:2,0:0:0:0:
181,221,33068,1,8,0:2:0:0:
35,228,33222,2,0,P|67:218|98:203,1,68.0000012969971,0|4,3:2|0:3,0:2:0:0:
229,157,33531,1,0,1:2:0:0:
143,131,33686,5,0,1:2:0:0:
261,252,33841,1,0,1:2:0:0:
377,138,33995,2,0,P|376:105|373:71,1,68.0000012969971,0|0,1:2|0:2,0:2:0:0:
285,45,34305,6,0,L|285:61,4,17.0000003242493,8|0|0|0|0,0:2|0:0|0:0|0:0|0:0,0:2:0:0:
467,161,34614,2,0,L|466:144,4,17.0000003242493,8|0|0|0|0,0:3|0:0|0:0|0:0|0:2,0:2:0:0:
246,179,34923,6,0,B|167:181|194:205|113:204,1,136.000002593994,0|2,1:2|0:2,0:0:0:0:
344,258,35542,2,0,P|355:290|362:323,1,68.0000012969971,10|0,0:2|0:0,0:2:0:0:
273,348,35851,2,0,P|261:315|254:282,1,68.0000012969971,2|8,0:2|0:3,0:0:0:0:
325,182,36160,5,2,0:2:0:0:
325,182,36315,1,2,0:2:0:0:
170,274,36470,2,0,P|137:269|104:262,1,68.0000012969971,2|0,1:2|0:2,0:2:0:0:
0,300,36779,5,10,0:2:0:0:
48,383,36934,1,2,0:2:0:0:
0,300,37088,2,0,P|5:234|58:195,1,136.000002593994,2|0,0:2|1:2,0:2:0:0:
0,87,37552,2,0,P|65:80|114:125,1,136.000002593994,2|0,0:2|0:2,0:2:0:0:
208,0,38016,2,0,P|199:32|193:66,1,68.0000012969971,8|0,0:2|0:2,0:2:0:0:
57,195,38325,1,0,1:2:0:0:
57,195,38480,1,0,3:2:0:0:
314,170,38635,6,0,P|349:167|385:160,1,71.9999978027344,0|0,1:2|1:2,0:2:0:0:
266,317,39098,1,0,0:2:0:0:
208,222,39253,2,0,P|241:229|272:241,1,68.0000012969971,10|0,0:2|0:0,0:2:0:0:
362,384,39562,2,0,P|354:350|342:319,1,68.0000012969971,0|0,1:2|1:2,0:0:0:0:
510,202,39872,6,0,P|475:238|426:246,1,102.000001945496,2|0,1:2|0:0,0:0:0:0:
425,245,40181,1,2,0:2:0:0:
197,296,40336,1,2,0:2:0:0:
247,383,40490,2,0,P|258:351|266:318,1,68.0000012969971,10|0,0:2|0:0,0:0:0:0:
197,218,40800,1,2,1:2:0:0:
351,249,40954,1,2,1:2:0:0:
369,114,41109,6,0,P|381:145|389:179,1,68.0000012969971,2|8,1:2|0:3,0:0:0:0:
391,315,41418,1,2,1:2:0:0:
263,100,41573,1,2,0:2:0:0:
192,195,41727,2,0,P|225:187|256:174,1,68.0000012969971,10|0,0:2|0:0,0:0:0:0:
491,85,42037,2,0,P|459:71|426:64,1,68.0000012969971,2|0,1:2|0:2,0:2:0:0:
126,137,42346,6,0,P|94:195|99:262,1,136.000002593994,2|0,1:2|0:2,0:2:0:0:
99,262,42964,1,8,0:2:0:0:
34,301,43119,2,0,P|40:334|44:368,1,68.0000012969971,0|4,3:2|0:3,0:0:0:0:
44,368,43428,1,0,3:2:0:0:
198,121,43583,6,0,P|194:103|191:85,2,35.9999989013672,0|0|0,1:2|1:2|1:2,0:0:0:0:
143,176,44047,1,0,0:2:0:0:
198,121,44202,6,0,L|214:119,4,17.0000003242493,8|0|0|0|0,0:2|0:0|0:0|0:0|0:0,0:2:0:0:
328,221,44511,2,0,L|311:222,4,17.0000003242493,8|0|0|0|0,0:3|0:0|0:0|0:0|0:2,0:2:0:0:
310,2,44820,6,0,B|289:79|317:59|296:136,1,136.000002593994,6|2,1:2|0:2,0:0:0:0:
99,262,45439,2,0,P|132:253|163:242,1,68.0000012969971,8|0,0:2|0:0,0:0:0:0:
264,293,45748,1,0,1:2:0:0:
265,382,45903,1,8,0:3:0:0:
137,356,46057,5,2,1:2:0:0:
153,349,46160,5,2,0:0:0:0:
171,343,46263,5,2,0:0:0:0:
188,338,46366,5,2,0:2:0:0:
347,311,46521,1,0,1:2:0:0:
203,166,46676,6,0,B|203:132|203:132|216:100,1,68.0000012969971,10|0,0:2|0:0,0:2:0:0:
352,223,46985,2,0,B|320:239|320:239|288:242,1,68.0000012969971,0|0,1:2|0:2,0:0:0:0:
326,66,47294,2,0,B|356:86|356:86|374:116,1,71.9999978027344,2|0,1:2|0:2,0:2:0:0:
374,116,47758,1,0,0:2:0:0:
129,124,47913,6,0,P|95:120|62:111,1,68.0000012969971,8|0,0:2|0:2,0:2:0:0:
133,209,48222,2,0,P|144:252|147:298,1,90.6666683959961,0|0,1:2|0:0,0:2:0:0:
84,342,48531,5,2,1:2:0:0:
70,327,48634,5,2,0:0:0:0:
68,308,48737,5,2,0:0:0:0:
73,294,48840,5,2,0:2:0:0:
319,222,48995,5,0,1:2:0:0:
202,158,49150,2,0,P|238:150|268:135,1,68.0000012969971,8|0,0:2|0:2,0:2:0:0:
270,381,49459,2,0,P|259:349|252:316,1,68.0000012969971,2|0,1:2|0:0,0:2:0:0:
400,166,49769,2,0,P|413:203|418:237,1,71.9999978027344,0|2,1:2|0:2,0:0:0:0:
427,247,50233,1,0,1:2:0:0:
182,233,50387,6,0,P|148:226|114:224,1,68.0000012969971,10|0,0:2|0:0,0:0:0:0:
354,101,50696,2,0,P|362:50|362:0,1,102.000001945496,2|0,1:2|0:0,0:2:0:0:
361,0,51006,1,2,1:2:0:0:
474,102,51160,1,8,0:3:0:0:
270,126,51315,2,0,P|263:159|261:193,1,68.0000012969971,2|0,0:2|1:2,0:0:0:0:
363,363,51624,2,0,P|365:329|371:295,1,68.0000012969971,10|0,0:2|0:2,0:2:0:0:
486,121,51934,2,0,P|479:154|477:188,1,68.0000012969971,2|0,1:2|0:0,0:2:0:0:
484,293,52243,5,0,1:2:0:0:
366,207,52397,1,2,0:2:0:0:
261,306,52552,2,0,B|184:288|204:320|126:298,1,136.000002593994,0|8,3:2|0:2,0:0:0:0:
0,137,53171,5,0,1:2:0:0:
163,111,53325,1,0,3:2:0:0:
77,101,53480,5,2,1:2:0:0:
80,119,53583,5,2,0:0:0:0:
83,136,53686,5,2,0:0:0:0:
87,154,53789,5,2,0:2:0:0:
249,127,53944,1,0,1:2:0:0:
12,63,54098,6,0,L|8:45,4,17.0000003242493,8|0|0|0|0,0:2|0:0|0:0|0:0|0:2,0:2:0:0:
158,188,54408,2,0,L|160:204,4,17.0000003242493,8|0|0|0|0,0:3|0:0|0:0|0:0|0:2,0:2:0:0:
254,115,54717,6,0,B|273:105|297:96|297:96|335:120|382:116,1,136.000002593994,2|2,1:2|0:2,0:0:0:0:
386,125,55336,2,0,P|378:157|375:191,1,68.0000012969971,10|0,0:2|0:0,0:2:0:0:
512,144,55645,2,0,P|509:177|500:210,1,68.0000012969971,0|8,1:2|0:3,0:0:0:0:
343,339,55954,5,2,1:2:0:0:
437,258,56109,1,2,0:2:0:0:
437,258,56186,1,2,0:0:0:0:
437,258,56263,1,2,0:2:0:0:
342,351,56418,1,2,1:2:0:0:
236,263,56573,2,0,P|203:268|170:277,1,68.0000012969971,10|0,0:2|0:2,0:2:0:0:
0,330,56882,6,0,P|51:371|118:368,1,136.000002593994,2|0,1:2|1:2,0:2:0:0:
118,367,57269,1,0,3:0:0:0:
118,367,57346,1,0,3:2:0:0:
98,208,57501,2,0,P|92:174|83:141,1,68.0000012969971,2|0,0:0|0:2,0:0:0:0:
190,14,57810,2,0,P|223:8|256:0,1,68.0000012969971,10|0,0:2|0:2,0:2:0:0:
389,155,58119,5,2,1:2:0:0:
259,81,58274,1,0,3:2:0:0:
355,0,58428,5,2,1:2:0:0:
351,22,58531,5,2,0:0:0:0:
347,44,58634,5,2,0:0:0:0:
343,67,58737,5,2,0:2:0:0:
465,84,58892,1,0,1:2:0:0:
280,158,59047,6,0,P|246:163|213:172,1,68.0000012969971,10|0,0:2|0:2,0:2:0:0:
426,321,59356,2,0,P|420:287|411:254,1,68.0000012969971,2|0,1:2|0:2,0:2:0:0:
104,200,59665,2,0,P|149:248|215:252,1,136.000002593994,2|2,1:2|0:2,0:0:0:0:
379,166,60129,1,2,1:2:0:0:
270,318,60284,2,0,P|261:351|256:384,1,68.0000012969971,10|0,0:2|0:0,0:0:0:0:
177,334,60593,5,2,1:2:0:0:
397,256,60748,1,2,0:2:0:0:
232,146,60903,2,0,P|198:140|165:132,1,68.0000012969971,2|8,1:2|0:3,0:0:0:0:
314,99,61212,1,2,0:2:0:0:
314,99,61367,1,2,1:2:0:0:
57,139,61521,6,0,P|69:107|78:74,1,68.0000012969971,10|0,0:2|0:0,0:0:0:0:
169,171,61830,2,0,P|190:197|213:221,1,68.0000012969971,2|0,1:2|0:2,0:2:0:0:
70,263,62140,2,0,P|34:268|0:278,1,71.9999978027344,2|0,1:2|0:2,0:2:0:0:
163,180,62604,1,0,1:2:0:0:
278,344,62758,2,0,P|275:311|263:279,1,68.0000012969971,8|0,0:2|0:2,0:2:0:0:
299,156,63068,1,0,1:2:0:0:
299,156,63222,1,0,3:2:0:0:
330,232,63377,5,0,1:2:0:0:
419,101,63531,1,8,0:3:0:0:
295,14,63686,1,4,0:3:0:0:
198,134,63841,1,4,0:3:0:0:
466,180,63995,6,0,L|482:177,4,17.0000003242493,8|0|0|0|0,0:2|0:0|0:0|0:0|0:2,0:2:0:0:
428,244,64305,2,0,L|430:260,4,17.0000003242493,8|0|0|0|0,0:3|0:0|0:0|0:0|0:2,0:2:0:0:
391,179,64614,6,0,P|387:115|381:51,1,128,4|8,1:2|0:2,0:0:0:0:
323,7,65696,1,0,3:0:0:0:
323,7,65851,1,2,0:2:0:0:
198,134,66160,6,0,P|198:149|200:165,1,32,0|0,1:2|0:2,0:0:0:0:
211,266,66470,2,0,P|168:231|113:225,1,112,10|0,0:2|0:0,0:2:0:0:
113,224,67088,2,0,P|75:273|86:335,1,128,2|10,1:2|0:2,0:2:0:0:
343,238,68248,6,0,L|363:242,2,16,2|2|2,0:0|0:2|0:0,0:0:0:0:
291,191,68480,1,0,1:2:0:0:
291,191,68635,1,0,1:2:0:0:
291,190,68944,2,0,P|291:159|286:127,1,64,8|0,0:2|0:2,0:2:0:0:
132,0,69408,5,0,1:2:0:0:
67,36,69562,2,0,P|58:99|71:161,1,128,2|8,1:2|0:2,0:2:0:0:
71,161,70645,2,0,L|102:150,1,32,0|2,1:2|0:2,0:0:0:0:
60,185,71109,2,0,L|71:216,1,32,0|2,1:2|0:2,0:0:0:0:
46,169,71418,2,0,L|15:180,1,32,8|2,0:2|0:2,0:0:0:0:
182,288,72037,6,0,L|303:247,1,128,2|10,1:2|0:2,0:2:0:0:
303,247,73119,2,0,L|313:277,1,32,0|2,3:2|0:2,0:0:0:0:
212,168,73428,5,0,1:2:0:0:
312,233,73583,2,0,L|342:222,1,32,2|0,1:2|0:2,0:2:0:0:
433,263,73892,5,8,0:3:0:0:
295,222,74047,2,0,L|284:191,1,32,4|8,0:3|0:2,0:0:0:0:
377,87,74356,5,4,0:3:0:0:
287,236,74511,2,0,L|164:273,1,128,4|8,1:2|0:2,0:0:0:0:
7,140,75593,5,0,3:2:0:0:
97,179,75748,2,0,P|103:148|102:116,1,64,2|0,0:2|1:2,0:2:0:0:
162,13,76367,2,0,P|178:64|229:85,1,112,10|0,0:2|0:0,0:2:0:0:
229,85,76985,2,0,P|187:131|188:194,1,128,2|10,1:2|0:2,0:0:0:0:
188,194,78377,5,0,1:2:0:0:
258,233,78531,2,0,L|320:215,1,64,0|8,1:2|0:2,0:2:0:0:
391,258,79150,5,2,0:2:0:0:
391,258,79305,1,2,1:2:0:0:
330,135,79459,2,0,L|339:79,1,55.9999982910157,2|0,1:1|0:0,0:2:0:0:
326,296,79769,5,0,1:2:0:0:
326,296,79923,1,0,3:2:0:0:
400,173,80078,2,0,L|445:140,1,55.9999982910157,2|0,1:1|0:0,0:2:0:0:
252,143,80387,5,0,1:2:0:0:
252,143,80542,1,0,1:2:0:0:
454,305,80696,5,2,1:1:0:0:
305,376,80851,1,0,1:2:0:0:
319,215,81006,1,0,1:2:0:0:
454,305,81160,1,0,1:2:0:0:
198,285,81315,6,0,L|142:279,1,55.9999982910157,8|0,0:2|0:0,0:0:0:0:
209,188,81624,1,0,1:2:0:0:
318,384,81779,1,0,1:2:0:0:
340,121,81934,6,0,L|345:89,1,32,8|0,1:1|0:0,0:0:0:0:
348,131,82243,2,0,L|379:136,1,32,8|0,1:1|0:0,0:0:0:0:
136,196,82552,6,0,L|82:161,1,64,8|0,0:2|0:0,0:0:0:0:
261,0,82861,1,0,1:2:0:0:
261,0,83016,1,0,1:2:0:0:
163,125,83171,6,0,L|154:83,1,42.6666666666667,8|8,0:2|0:3,0:0:0:0:
154,83,83325,1,8,0:3:0:0:
202,246,83480,6,0,B|231:288|231:288|214:334,1,100,2|8,1:1|0:3,0:2:0:0:
140,299,83789,1,10,0:1:0:0:
128,298,83867,1,8,0:3:0:0:
117,296,83944,1,4,0:3:0:0:
274,144,84098,5,12,0:3:0:0:
377,166,84253,1,12,0:3:0:0:
479,187,84408,2,0,P|477:124|468:61,1,125.999996154785,6|0,1:2|0:0,0:2:0:0:
468,61,84717,2,0,P|438:55|409:48,1,60.0000022888184,2|0,0:2|0:0,0:0:0:0:
274,144,85026,2,0,P|266:173|261:202,1,60.0000022888184,10|0,0:2|0:0,0:0:0:0:
166,145,85336,5,0,1:2:0:0:
293,35,85490,1,8,0:3:0:0:
377,166,85645,2,0,P|379:229|388:292,1,125.999996154785,2|0,1:2|0:0,0:2:0:0:
387,291,85954,2,0,P|417:285|446:278,1,60.0000022888184,2|0,0:2|1:2,0:0:0:0:
182,313,86263,6,0,P|181:268|173:223,1,90.0000034332277,10|0,0:2|0:0,0:2:0:0:
173,223,86573,1,0,1:2:0:0:
262,315,86727,1,0,3:0:0:0:
60,206,86882,2,0,P|95:160|152:146,1,120.000004577637,2|0,0:2|0:2,0:2:0:0:
371,256,87346,5,2,1:2:0:0:
258,229,87501,1,8,0:2:0:0:
227,116,87655,2,0,L|242:57,1,60.0000022888184,2|0,0:2|1:2,0:2:0:0:
107,28,87964,5,2,0:2:0:0:
295,159,88119,2,0,B|348:133|348:133|406:151,1,120.000004577637,2|0,1:2|0:2,0:2:0:0:
242,263,88583,1,0,1:2:0:0:
242,263,88660,1,0,1:0:0:0:
242,263,88738,2,0,P|213:270|184:279,1,60.0000022888184,10|0,0:2|1:2,0:0:0:0:
298,316,89047,2,0,P|305:344|314:373,1,60.0000022888184,2|0,0:2|0:2,0:2:0:0:
71,348,89356,6,0,P|69:286|114:246,1,125.999996154785,2|0,1:2|0:0,0:2:0:0:
113,246,89665,2,0,P|105:217|96:188,1,60.0000022888184,2|0,0:2|0:0,0:0:0:0:
297,330,89975,2,0,P|325:320|354:313,1,60.0000022888184,10|0,0:2|0:0,0:0:0:0:
391,249,90284,2,0,P|383:222|376:197,1,53.9999983520508,0|0,1:2|0:0,0:2:0:0:
397,170,90593,5,2,1:2:0:0:
397,170,90671,1,0,3:0:0:0:
397,170,90748,1,8,3:3:0:0:
271,237,90903,1,2,1:2:0:0:
176,134,91057,1,0,1:2:0:0:
311,0,91212,6,0,L|299:90,1,90.0000034332277,10|0,0:2|0:0,0:2:0:0:
299,89,91521,2,0,L|227:79,1,71.9999978027344,0|2,1:2|0:2,0:2:0:0:
41,244,92140,5,2,0:2:0:0:
109,202,92294,1,2,1:2:0:0:
167,259,92449,5,10,0:2:0:0:
0,173,92604,1,2,0:2:0:0:
163,140,92758,5,2,0:2:0:0:
127,331,92913,1,2,0:2:0:0:
298,230,93068,5,0,1:2:0:0:
321,227,93171,5,2,0:0:0:0:
345,223,93274,5,2,0:0:0:0:
368,218,93377,5,2,1:2:0:0:
254,372,93531,1,2,0:2:0:0:
250,176,93686,6,0,L|235:172,4,15.0000005722046,10|0|0|0|0,0:2|0:0|0:0|0:0|0:2,0:2:0:0:
425,266,93995,2,0,L|439:269,4,15.0000005722046,8|0|0|0|0,0:3|0:0|0:0|0:0|0:2,0:2:0:0:
158,217,94305,6,0,L|40:243,1,120.000004577637,2|2,1:2|0:2,0:2:0:0:
225,254,94769,1,2,0:2:0:0:
221,91,94923,2,0,L|207:32,1,60.0000022888184,10|2,0:2|0:2,0:0:0:0:
109,88,95233,5,2,1:2:0:0:
224,181,95387,1,8,0:3:0:0:
298,59,95542,5,2,1:2:0:0:
301,43,95645,5,2,0:2:0:0:
305,27,95748,5,2,0:2:0:0:
308,12,95851,5,2,1:2:0:0:
224,181,96006,5,0,1:2:0:0:
225,254,96160,2,0,L|238:312,1,60.0000022888184,10|0,0:2|0:0,0:2:0:0:
263,383,96470,2,0,P|276:278|297:176,1,210.000008010865,0|0,1:2|0:0,0:0:0:0:
297,176,97088,2,0,L|355:162,1,60.0000022888184,2|0,1:2|0:2,0:0:0:0:
158,301,97397,5,10,0:2:0:0:
83,319,97552,1,2,0:2:0:0:
189,370,97707,5,2,1:2:0:0:
37,263,97861,1,2,0:2:0:0:
206,199,98016,5,2,1:2:0:0:
5,330,98171,1,0,1:2:0:0:
206,198,98325,2,0,L|197:139,1,60.0000022888184,2|0,1:2|0:2,0:2:0:0:
143,87,98635,5,10,0:2:0:0:
98,153,98789,1,2,0:0:0:0:
48,6,98944,5,0,1:2:0:0:
64,84,99098,1,2,0:2:0:0:
248,82,99253,6,0,B|314:58|305:87|365:64,1,120.000004577637,6|0,1:2|0:2,0:2:0:0:
365,64,99872,5,10,0:2:0:0:
419,123,100026,1,2,0:2:0:0:
494,121,100181,5,2,1:2:0:0:
360,174,100335,1,2,0:2:0:0:
509,265,100490,1,0,1:2:0:0:
509,265,100568,1,0,3:0:0:0:
509,265,100645,1,8,3:3:0:0:
509,265,101109,5,10,0:2:0:0:
458,324,101263,1,2,0:2:0:0:
434,195,101418,5,2,1:2:0:0:
414,319,101573,1,2,0:2:0:0:
305,204,101727,5,2,1:2:0:0:
408,354,101882,2,0,L|349:368,2,60.0000022888184,2|0|0,0:0|0:2|0:2,0:0:0:0:
364,146,102346,6,0,L|378:88,1,60.0000022888184,10|0,0:2|0:2,0:2:0:0:
237,256,102655,2,0,L|178:241,1,60.0000022888184,2|0,1:2|0:2,0:2:0:0:
124,192,102964,1,0,1:2:0:0:
124,192,103068,2,0,L|121:172,1,20.0000007629395,8|8,0:3|0:3,0:0:0:0:
140,30,103274,5,4,1:3:0:0:
197,169,103428,1,4,0:3:0:0:
0,270,103583,5,8,0:2:0:0:
105,156,103737,1,4,0:3:0:0:
220,371,103892,5,4,0:3:0:0:
133,247,104047,1,4,0:3:0:0:
265,115,104202,6,0,B|313:126|313:126|336:148|336:148|380:156,1,125.999996154785,6|0,1:2|0:0,0:2:0:0:
380,156,104820,2,0,B|390:119|390:119|384:83,1,75.9999979705811,10|0,0:2|0:0,0:2:0:0:
512,234,105129,1,2,1:2:0:0:
331,265,105284,1,8,0:3:0:0:
447,324,105439,5,2,1:2:0:0:
449,344,105542,5,2,0:0:0:0:
452,364,105645,5,2,0:0:0:0:
454,384,105748,5,2,0:2:0:0:
512,223,105903,1,0,1:2:0:0:
349,355,106057,2,0,P|275:361|224:309,1,151.999995941162,8|0,0:2|1:2,0:2:0:0:
183,171,106521,1,2,0:2:0:0:
103,384,106676,6,0,P|96:310|148:259,1,151.999995941162,0|0,1:2|0:2,0:2:0:0:
315,193,107140,1,2,0:2:0:0:
315,193,107294,2,0,P|320:229|297:259,1,75.9999979705811,10|0,0:2|0:0,0:0:0:0:
40,177,107604,2,0,P|76:171|107:192,1,75.9999979705811,2|0,1:2|0:2,0:2:0:0:
355,326,107913,5,2,1:2:0:0:
372,316,108016,5,2,0:0:0:0:
385,301,108119,5,2,0:0:0:0:
391,282,108222,5,2,0:2:0:0:
444,226,108377,5,0,1:2:0:0:
444,226,108531,2,0,P|440:200|435:174,1,51.999997619629,10|0,0:2|0:2,0:2:0:0:
364,123,108841,2,0,P|360:97|355:71,1,51.999997619629,4|0,0:3|1:2,0:2:0:0:
323,244,109150,2,0,P|319:218|314:192,1,51.999997619629,2|0,1:2|0:0,0:2:0:0:
151,0,109459,5,2,0:2:0:0:
151,0,109769,2,0,P|157:37|161:75,1,75.9999979705811,10|0,0:2|0:0,0:2:0:0:
197,359,110078,1,2,1:2:0:0:
197,359,110387,5,2,1:2:0:0:
197,359,110464,1,0,3:0:0:0:
197,359,110542,1,8,0:3:0:0:
81,274,110696,1,2,0:0:0:0:
270,344,110851,1,0,1:2:0:0:
73,324,111006,2,0,P|36:332|0:344,1,75.9999979705811,8|0,0:2|0:0,0:2:0:0:
174,190,111315,5,0,1:2:0:0:
40,129,111470,1,2,0:2:0:0:
40,129,111548,1,2,0:0:0:0:
40,129,111624,2,0,P|49:165|57:203,1,75.9999979705811,2|0,1:2|0:2,0:2:0:0:
160,348,111934,2,0,P|178:352|196:358,2,37.9999989852906,2|0|0,0:2|0:0|0:2,0:2:0:0:
134,114,112243,2,0,P|143:77|151:39,1,75.9999979705811,10|0,0:2|0:0,0:0:0:0:
347,233,112552,2,0,P|292:246|239:266,1,113.999996955872,2|0,1:2|0:0,0:2:0:0:
239,266,112861,5,2,1:2:0:0:
422,271,113016,1,0,1:2:0:0:
238,90,113171,2,0,P|251:113|269:132,1,51.999997619629,2|0,1:2|0:0,0:0:0:0:
344,21,113480,2,0,P|337:46|335:72,1,51.999997619629,10|0,0:2|0:2,0:2:0:0:
457,81,113789,2,0,P|435:93|416:111,1,51.999997619629,8|0,0:3|0:2,0:2:0:0:
210,381,114098,6,0,P|156:330|160:256,1,151.999995941162,2|0,1:2|0:2,0:2:0:0:
159,256,114717,1,10,0:2:0:0:
257,325,114872,1,0,3:0:0:0:
74,329,115026,2,0,P|66:291|56:254,1,75.9999979705811,2|8,1:2|0:3,0:2:0:0:
217,118,115336,5,2,1:2:0:0:
220,137,115439,5,2,0:0:0:0:
225,157,115542,5,2,0:0:0:0:
230,177,115645,5,2,0:2:0:0:
129,73,115800,1,0,1:2:0:0:
316,235,115954,2,0,P|353:227|390:217,1,75.9999979705811,8|0,0:2|0:2,0:2:0:0:
474,272,116263,1,0,1:2:0:0:
283,384,116418,2,0,P|273:347|265:309,1,75.9999979705811,2|0,0:2|1:2,0:0:0:0:
512,187,116727,6,0,P|459:135|386:140,1,151.999995941162,2|0,0:2|0:2,0:0:0:0:
223,164,117191,2,0,P|232:200|240:238,1,75.9999979705811,10|0,0:2|0:0,0:0:0:0:
398,384,117501,2,0,P|388:347|380:309,1,75.9999979705811,2|0,1:2|0:2,0:2:0:0:
136,151,117810,5,2,1:2:0:0:
328,240,117964,1,0,1:2:0:0:
144,363,118119,1,0,1:2:0:0:
260,129,118428,6,0,P|271:74|288:20,1,113.999996955872,10|0,0:2|0:0,0:2:0:0:
288,18,118738,1,0,1:2:0:0:
123,160,118892,1,0,1:2:0:0:
422,62,119047,6,0,P|468:118|454:191,2,151.999995941162,2|0|10,1:2|0:2|0:2,0:2:0:0:
202,249,119975,2,0,P|165:260|130:274,1,75.9999979705811,2|0,1:2|0:2,0:2:0:0:
241,331,120207,1,2,0:0:0:0:
241,331,120284,2,0,B|236:244|263:273|253:180,1,151.999995941162,2|0,1:2|0:2,0:2:0:0:
331,265,120748,5,0,1:2:0:0:
165,89,120903,2,0,P|151:124|150:162,1,75.9999979705811,10|0,0:2|0:2,0:2:0:0:
106,19,121212,1,0,1:2:0:0:
338,104,121367,2,0,P|336:66|323:30,1,75.9999979705811,2|0,0:2|1:2,0:0:0:0:
23,207,121676,6,0,B|82:219|82:219|106:241|106:241|165:252,1,151.999995941162,2|0,0:2|0:2,0:0:0:0:
511,139,122140,2,0,P|476:152|438:158,1,75.9999979705811,10|0,0:2|0:0,0:0:0:0:
245,310,122449,2,0,P|230:345|224:383,1,75.9999979705811,0|0,1:2|0:2,0:2:0:0:
325,299,122758,5,0,1:2:0:0:
325,299,122861,2,0,P|329:287|333:275,1,25.3333326568604,8|8,0:3|0:3,0:0:0:0:
283,216,123068,2,0,P|273:178|256:145,1,75.9999979705811,4|0,0:3|0:0,0:0:0:0:
368,381,123377,6,0,P|371:372|374:363,4,18.9999994926453,8|0|0|0|0,1:2|0:0|0:0|0:0|0:2,0:2:0:0:
203,223,123686,2,0,P|205:232|209:240,4,18.9999994926453,8|0|0|0|0,1:3|0:0|0:0|0:0|0:2,0:2:0:0:
462,383,123995,6,0,P|455:340|437:300,1,88.000002685547,6|0,1:3|3:2,0:2:0:0:
343,152,124459,1,0,3:2:0:0:
493,243,124614,2,0,P|498:205|512:170,1,75.9999979705811,8|0,3:2|3:2,0:0:0:0:
381,363,124923,1,0,3:2:0:0:
456,116,125078,6,0,P|448:72|429:33,1,88.000002685547,4|0,1:3|0:2,0:2:0:0:
359,289,125542,2,0,P|319:307|276:315,1,88.000002685547,4|8,1:3|0:2,0:2:0:0:
276,315,126160,6,0,P|262:307|248:302,1,30.0000011444092,2|0,0:3|0:0,0:0:0:0:
234,228,126315,2,0,P|219:232|206:240,1,30.0000011444092,2|0,0:3|0:0,0:0:0:0:
167,170,126470,2,0,P|136:201|126:243,1,88.000002685547,4|0,1:3|3:2,0:2:0:0:
118,89,126934,1,0,3:2:0:0:
242,132,127088,2,0,P|234:96|212:64,1,75.9999979705811,8|0,3:2|3:2,0:0:0:0:
171,308,127397,1,0,3:2:0:0:
380,156,127552,6,0,P|343:180|300:189,1,88.000002685547,4|0,1:3|0:2,0:2:0:0:
66,19,128016,2,0,P|97:49|117:88,1,88.000002685547,4|8,1:3|0:2,0:2:0:0:
283,335,128635,2,0,P|287:302|301:272,1,66.0000020141602,2|0,1:1|0:2,0:2:0:0:
300,272,128944,6,2,P|253:355|157:359,1,200,4|0,1:1|0:2,0:1:0:0:
266,130,129408,1,0,3:0:0:0:
223,260,129562,2,0,P|207:225|210:188,1,75.9999979705811,8|0,0:2|3:0,0:0:0:0:
381,268,129872,5,0,3:2:0:0:
381,268,130026,2,0,P|397:308|389:351,1,88.000002685547,4|0,1:3|3:2,0:2:0:0:
135,177,130490,2,0,P|152:137|187:112,1,88.000002685547,4|8,1:3|3:2,0:2:0:0:
187,112,131109,2,0,P|191:126|201:137,1,30.0000011444092,2|0,0:3|0:0,0:0:0:0:
203,210,131263,2,0,P|216:216|231:218,1,30.0000011444092,2|0,0:3|0:0,0:0:0:0:
267,284,131418,6,0,P|305:265|326:226,1,88.000002685547,4|0,1:3|0:2,0:2:0:0:
142,260,131882,1,0,3:2:0:0:
142,260,132037,2,0,P|127:300|140:342,1,88.000002685547,4|0,1:3|0:2,0:2:0:0:
419,215,132501,1,0,3:2:0:0:
419,215,132655,2,0,P|400:176|361:155,1,88.000002685547,4|8,1:3|0:3,0:2:0:0:
216,371,133119,5,0,3:2:0:0:
216,371,133274,2,0,L|258:359,1,44.0000013427735,4|0,1:3|0:2,0:2:0:0:
317,315,133583,1,2,0:3:0:0:
385,350,133738,1,2,0:3:0:0:
149,334,133892,6,0,P|94:323|40:304,1,113.999996955872,6|0,1:2|0:0,0:2:0:0:
39,303,134202,2,0,L|59:229,1,75.9999979705811,2|0,0:2|0:2,0:0:0:0:
115,0,134511,2,0,P|126:55|143:109,1,113.999996955872,10|0,0:2|0:0,0:2:0:0:
143,110,134820,2,0,P|154:146|163:183,1,75.9999979705811,2|0,1:2|0:0,0:2:0:0:
295,304,135129,5,2,0:2:0:0:
348,223,135284,1,2,0:2:0:0:
209,269,135439,5,2,1:2:0:0:
334,377,135593,1,2,1:2:0:0:
437,238,135748,2,0,P|475:246|512:255,1,75.9999979705811,10|0,0:2|0:0,0:2:0:0:
258,191,136057,5,0,1:2:0:0:
332,0,136212,1,2,0:2:0:0:
332,0,136289,1,2,0:0:0:0:
332,0,136367,2,0,B|353:53|353:53|347:95|347:95|363:145,1,151.999995941162,2|2,1:2|0:2,0:2:0:0:
317,383,136830,1,0,1:2:0:0:
222,296,136985,2,0,P|186:287|148:278,1,75.9999979705811,10|0,0:2|0:0,0:2:0:0:
223,384,137294,1,0,1:2:0:0:
330,218,137449,1,0,3:2:0:0:
251,203,137604,6,0,P|246:178|239:153,1,50.6666653137207,2|2,0:2|0:2,0:2:0:0:
200,37,137810,1,2,0:2:0:0:
174,58,137913,2,0,P|163:94|155:131,1,75.9999979705811,2|0,1:2|0:2,0:2:0:0:
299,287,138222,5,10,0:2:0:0:
96,195,138377,1,2,0:2:0:0:
441,148,138531,5,2,1:2:0:0:
295,309,138686,1,2,0:2:0:0:
309,127,138841,6,0,B|303:63|288:86|279:17,1,113.999996955872,2|0,1:2|0:0,0:2:0:0:
279,17,139150,2,0,P|316:24|353:28,1,75.9999979705811,2|0,0:2|0:0,0:0:0:0:
299,287,139459,1,8,0:2:0:0:
299,287,139614,1,2,0:2:0:0:
259,381,139769,5,2,1:2:0:0:
407,275,139923,1,2,0:2:0:0:
250,202,140078,1,2,0:2:0:0:
377,110,140233,5,2,1:2:0:0:
170,134,140387,2,0,P|132:128|95:119,1,75.9999979705811,2|2,1:2|0:2,0:0:0:0:
181,292,140696,2,0,P|172:328|166:366,1,75.9999979705811,10|0,0:2|0:0,0:2:0:0:
110,231,141006,1,2,0:2:0:0:
110,231,141160,1,2,0:2:0:0:
296,131,141315,6,0,P|337:122|377:111,1,83.9999974365235,2|0,1:2|0:2,0:2:0:0:
377,110,141624,2,0,P|382:137|388:164,1,55.9999982910157,2|0,0:2|0:2,0:2:0:0:
282,322,141934,6,0,P|272:274|258:229,1,96,10|0,0:2|0:2,0:2:0:0:
258,229,142243,2,0,P|288:220|320:214,1,64,2|0,1:2|0:2,0:2:0:0:
474,336,142552,6,0,P|420:345|369:360,1,107.999996704102,2|0,0:2|0:0,0:2:0:0:
368,360,142861,2,0,P|358:325|351:289,1,71.9999978027344,2|0,1:2|0:2,0:2:0:0:
483,123,143171,6,0,P|492:182|508:239,1,120,10|0,0:2|0:0,0:2:0:0:
508,239,143480,2,0,P|469:248|429:254,1,80,8|0,0:3|0:0,0:2:0:0:
183,152,143789,5,4,0:2:0:0:
2,180,153686,6,0,B|75:174|49:149|119:140,1,125.999996154785,4|0,1:2|0:0,0:2:0:0:
119,140,154305,1,8,0:2:0:0:
83,350,154614,6,0,P|77:367|73:384,1,35.9999989013672,0|0,1:2|3:3,0:2:0:0:
138,298,154923,2,0,P|172:289|205:275,1,71.9999978027344,2|0,0:2|1:2,0:2:0:0:
69,277,155542,2,0,P|64:259|59:242,1,35.9999989013672,8|0,0:2|0:0,0:2:0:0:
12,181,155851,1,0,3:2:0:0:
130,219,156006,1,0,1:2:0:0:
197,110,156160,6,0,P|266:116|305:174,1,143.999995605469,2|10,1:2|0:2,0:2:0:0:
305,174,157088,2,0,L|299:209,1,35.9999989013672,0|0,0:0|0:2,0:0:0:0:
245,260,157397,2,0,L|250:295,2,35.9999989013672,2|0|0,0:2|1:2|1:2,0:0:0:0:
366,133,158016,2,0,L|360:97,1,35.9999989013672,8|0,0:2|0:0,0:2:0:0:
430,184,158325,5,0,3:2:0:0:
430,184,158480,1,0,1:2:0:0:
286,66,158635,2,0,L|229:15,1,75.9999979705811,2|0,1:1|0:0,0:2:0:0:
427,57,158944,5,0,1:2:0:0:
427,57,159098,1,0,0:2:0:0:
177,84,159253,2,0,L|101:87,1,75.9999979705811,10|0,0:2|0:0,0:2:0:0:
345,0,159562,5,0,1:2:0:0:
345,0,159717,1,0,1:2:0:0:
141,161,159872,5,2,1:2:0:0:
345,212,160026,1,0,1:2:0:0:
240,129,160181,5,2,1:2:0:0:
316,320,160336,1,0,1:2:0:0:
441,158,160490,2,0,L|432:81,1,75.9999979705811,8|0,1:1|0:0,0:0:0:0:
124,235,160800,5,2,1:2:0:0:
124,235,161109,5,8,1:3:0:0:
151,304,161263,1,8,1:3:0:0:
43,235,161418,5,8,1:3:0:0:
273,334,161573,1,8,1:3:0:0:
20,312,161727,5,8,1:1:0:0:
314,196,162037,5,8,1:3:0:0:
87,351,162191,1,8,1:3:0:0:
396,233,162501,5,8,1:3:0:0:
83,169,162655,1,8,1:3:0:0:
83,169,162964,5,8,1:3:0:0:
153,384,163119,1,8,1:3:0:0:
368,314,163274,1,8,1:3:0:0:
298,100,163428,5,8,1:3:0:0:
298,100,163506,1,8,0:3:0:0:
298,100,163583,2,0,P|235:89|174:74,1,125.999996154785,6|0,1:2|0:0,0:2:0:0:
174,74,163892,2,0,P|181:44|185:15,1,60.0000022888184,2|0,0:2|0:0,0:0:0:0:
261,241,164202,2,0,P|290:245|319:252,1,60.0000022888184,10|0,0:2|0:0,0:0:0:0:
355,155,164511,1,2,1:2:0:0:
201,290,164665,1,8,0:3:0:0:
455,211,164820,5,2,1:2:0:0:
455,211,164897,1,0,3:0:0:0:
455,211,164975,1,0,3:0:0:0:
211,183,165129,2,0,P|181:190|152:194,1,60.0000022888184,2|0,0:2|1:2,0:0:0:0:
319,281,165439,2,0,P|328:324|335:369,1,90.0000034332277,10|0,0:2|0:0,0:2:0:0:
335,369,165748,1,0,1:2:0:0:
283,164,165903,2,0,P|287:134|294:105,1,60.0000022888184,0|2,3:0|0:2,0:0:0:0:
307,113,166367,5,2,0:2:0:0:
129,268,166521,2,0,P|99:272|70:279,1,60.0000022888184,2|8,1:2|0:2,0:0:0:0:
200,382,166830,2,0,P|195:352|188:323,1,60.0000022888184,2|0,0:2|1:2,0:2:0:0:
169,100,167140,5,2,0:2:0:0:
0,213,167294,2,0,P|5:152|52:112,1,125.999996154785,2|0,1:2|0:0,0:2:0:0:
51,112,167604,2,0,P|77:126|104:138,1,60.0000022888184,2|0,0:2|1:2,0:0:0:0:
202,247,167913,2,0,P|230:238|257:227,1,60.0000022888184,10|0,0:2|1:2,0:0:0:0:
384,329,168222,2,0,P|398:302|410:275,1,60.0000022888184,2|0,0:2|0:2,0:2:0:0:
237,35,168531,6,0,P|209:91|199:153,1,125.999996154785,2|0,1:2|0:0,0:2:0:0:
199,153,168841,2,0,P|228:147|256:137,1,60.0000022888184,2|0,0:2|0:0,0:0:0:0:
144,325,169150,2,0,P|138:295|128:267,1,60.0000022888184,10|0,0:2|0:0,0:0:0:0:
56,235,169459,1,0,1:2:0:0:
94,384,169614,1,0,3:2:0:0:
258,227,169769,5,2,1:2:0:0:
258,227,169846,1,0,3:0:0:0:
258,227,169923,1,8,3:3:0:0:
83,376,170078,1,2,1:2:0:0:
326,270,170233,1,0,1:2:0:0:
75,158,170387,2,0,P|46:151|17:145,1,60.0000022888184,10|0,0:2|0:2,0:2:0:0:
265,0,170696,6,0,P|305:71|293:153,1,167.999994873047,0|2,1:2|0:2,0:2:0:0:
232,384,171315,5,2,0:2:0:0:
414,310,171470,1,2,1:2:0:0:
371,203,171624,5,10,0:2:0:0:
336,384,171779,1,2,0:2:0:0:
198,254,171934,5,2,0:2:0:0:
198,254,172088,1,2,0:2:0:0:
414,310,172243,1,2,1:2:0:0:
429,315,172320,1,2,0:0:0:0:
445,321,172397,1,2,0:2:0:0:
176,328,172552,5,2,1:2:0:0:
266,219,172707,1,2,0:2:0:0:
157,129,172861,6,0,L|152:114,4,15.0000005722046,10|0|0|0|0,0:2|0:0|0:0|0:0|0:2,0:2:0:0:
67,238,173171,2,0,L|52:242,4,15.0000005722046,8|0|0|0|0,0:3|0:0|0:0|0:0|0:2,0:2:0:0:
306,303,173480,6,0,P|368:300|416:260,1,125.999996154785,2|0,1:2|0:0,0:2:0:0:
416,260,173789,2,0,P|414:230|409:200,1,60.0000022888184,2|2,0:2|0:2,0:0:0:0:
152,153,174098,2,0,P|122:154|92:159,1,60.0000022888184,10|2,0:2|0:2,0:0:0:0:
186,319,174408,1,2,1:2:0:0:
247,135,174562,1,8,0:3:0:0:
40,228,174717,5,2,1:2:0:0:
40,243,174820,5,2,0:2:0:0:
41,259,174923,5,2,0:2:0:0:
43,275,175026,5,2,1:2:0:0:
260,236,175181,1,0,1:2:0:0:
23,111,175336,2,0,P|21:81|16:51,1,60.0000022888184,10|0,0:2|0:0,0:2:0:0:
258,121,175645,6,0,P|342:113|424:93,1,167.999994873047,0|2,1:2|0:2,0:2:0:0:
424,93,176263,2,0,P|428:122|435:151,1,60.0000022888184,2|2,1:2|0:2,0:0:0:0:
253,251,176573,2,0,P|223:255|194:262,1,60.0000022888184,10|0,0:2|0:2,0:2:0:0:
376,384,176882,1,2,1:2:0:0:
376,384,177037,1,2,0:2:0:0:
367,183,177191,5,2,1:2:0:0:
246,365,177346,1,0,1:2:0:0:
443,281,177501,2,0,P|438:251|431:222,1,60.0000022888184,2|0,1:2|0:2,0:2:0:0:
365,303,177810,5,10,0:2:0:0:
292,248,177964,1,2,0:0:0:0:
345,115,178119,5,0,1:2:0:0:
357,205,178273,1,2,0:2:0:0:
214,237,178428,6,0,P|155:232|111:192,1,120.000004577637,2|0,1:2|0:2,0:2:0:0:
111,192,179047,5,10,0:2:0:0:
52,242,179202,1,2,0:2:0:0:
173,146,179356,5,2,1:2:0:0:
65,75,179511,1,2,0:2:0:0:
43,268,179665,5,2,1:2:0:0:
43,268,179743,1,0,3:0:0:0:
43,268,179820,2,0,B|68:333|43:320|68:385,1,120.000004577637,8|0,0:3|0:2,0:0:0:0:
131,310,180284,5,10,0:2:0:0:
223,245,180439,1,2,0:2:0:0:
205,319,180593,5,2,1:2:0:0:
297,384,180748,1,2,0:2:0:0:
161,202,180903,6,0,P|158:142|179:86,1,120.000004577637,2|0,1:2|0:2,0:2:0:0:
179,86,181521,2,0,P|207:96|236:103,1,60.0000022888184,10|0,0:2|0:2,0:2:0:0:
404,0,181830,2,0,P|375:10|346:17,1,60.0000022888184,2|0,1:2|0:2,0:2:0:0:
283,177,182140,1,0,1:2:0:0:
283,177,182244,2,0,L|280:197,1,20.0000007629395,8|8,0:3|0:3,0:0:0:0:
226,253,182449,5,4,0:3:0:0:
361,161,182604,1,4,0:3:0:0:
161,202,182758,5,8,0:2:0:0:
253,337,182913,1,4,0:3:0:0:
213,137,183068,5,4,0:3:0:0:
78,229,183223,1,4,0:3:0:0:
307,277,183377,6,0,P|368:291|430:301,1,125.999996154785,6|0,1:2|0:0,0:2:0:0:
430,301,183686,2,0,P|436:271|440:241,1,60.0000022888184,2|0,0:2|0:0,0:0:0:0:
252,349,183995,2,0,P|222:342|192:339,1,60.0000022888184,10|0,0:2|0:0,0:0:0:0:
65,377,184305,1,0,1:2:0:0:
219,247,184459,1,8,0:3:0:0:
70,215,184614,6,0,P|74:153|89:90,1,125.999996154785,2|0,1:2|0:0,0:2:0:0:
90,91,184923,2,0,P|119:97|149:100,1,60.0000022888184,2|0,0:2|1:2,0:0:0:0:
316,216,185233,2,0,P|309:246|306:276,1,60.0000022888184,10|0,0:2|0:2,0:2:0:0:
135,25,185542,6,0,P|189:-3|252:1,1,120.000004577637,0|2,1:2|0:2,0:2:0:0:
246,0,186160,1,0,0:2:0:0:
188,162,186315,2,0,P|190:191|192:221,1,60.0000022888184,2|8,1:2|0:2,0:0:0:0:
355,57,186624,2,0,P|325:59|295:61,1,60.0000022888184,2|0,0:2|1:2,0:2:0:0:
181,236,186934,5,2,0:2:0:0:
241,287,187088,2,0,B|301:263|299:291|357:264,1,120.000004577637,2|0,1:2|0:2,0:2:0:0:
96,352,187707,2,0,P|66:346|36:342,1,60.0000022888184,10|0,0:2|1:2,0:0:0:0:
0,273,188016,2,0,P|5:243|9:213,1,60.0000022888184,2|0,0:2|0:2,0:2:0:0:
162,45,188325,6,0,P|192:99|187:161,1,125.999996154785,2|0,1:2|0:0,0:2:0:0:
186,161,188635,2,0,P|156:157|126:151,1,60.0000022888184,2|0,0:2|0:0,0:0:0:0:
239,286,188944,2,0,P|243:256|250:227,1,60.0000022888184,10|0,0:2|0:0,0:0:0:0:
431,22,189253,2,0,P|427:51|422:81,1,60.0000022888184,0|0,1:2|0:2,0:2:0:0:
511,200,189562,5,2,1:2:0:0:
511,200,189640,1,0,3:0:0:0:
511,200,189717,1,8,3:3:0:0:
388,252,189872,1,2,1:2:0:0:
512,294,190026,1,0,1:2:0:0:
326,201,190181,2,0,P|334:141|339:81,1,120.000004577637,10|0,0:2|1:2,0:2:0:0:
162,233,190800,6,0,P|157:262|154:292,1,60.0000022888184,2|0,0:2|0:0,0:2:0:0:
162,364,191109,1,2,0:2:0:0:
255,260,191263,1,2,1:2:0:0:
78,252,191418,5,10,0:2:0:0:
235,384,191573,1,2,0:2:0:0:
279,187,191727,5,2,0:2:0:0:
92,336,191882,1,2,0:2:0:0:
388,252,192037,5,2,1:2:0:0:
388,252,192114,1,2,0:0:0:0:
388,252,192191,1,2,0:2:0:0:
210,147,192346,2,0,P|212:117|217:87,1,60.0000022888184,2|2,1:2|0:2,0:0:0:0:
321,306,192655,6,0,L|319:320,4,15.0000005722046,8|0|0|0|0,0:2|0:0|0:0|0:0|0:0,0:2:0:0:
132,113,192964,2,0,L|117:111,4,15.0000005722046,8|0|0|0|0,0:3|0:0|0:0|0:0|0:2,0:2:0:0:
279,187,193274,6,0,B|358:176|321:158|395:143,1,125.999996154785,2|0,1:2|0:0,0:2:0:0:
395,143,193583,2,0,B|404:173|404:173|399:201,1,60.0000022888184,2|2,0:2|0:2,0:0:0:0:
252,354,193892,5,10,0:2:0:0:
154,292,194047,1,2,0:2:0:0:
68,364,194202,5,2,1:2:0:0:
246,247,194356,1,8,0:3:0:0:
74,170,194511,5,2,1:2:0:0:
76,154,194614,5,2,0:2:0:0:
78,138,194717,5,2,0:2:0:0:
80,122,194820,5,2,1:2:0:0:
18,299,194975,1,0,1:2:0:0:
232,220,195129,2,0,L|289:201,1,60.0000022888184,10|0,0:2|0:0,0:2:0:0:
341,365,195439,6,0,B|348:322|348:322|364:301|364:301|370:251,1,120.000004577637,0|2,1:2|0:2,0:0:0:0:
370,251,196057,2,0,L|388:308,1,60.0000022888184,0|2,1:2|0:2,0:0:0:0:
222,372,196367,2,0,L|203:314,1,60.0000022888184,8|0,0:2|0:2,0:2:0:0:
366,168,196676,1,2,1:2:0:0:
366,168,196830,1,2,0:2:0:0:
412,305,196985,5,2,1:2:0:0:
271,237,197140,1,0,1:2:0:0:
240,103,197294,2,0,L|243:43,1,60.0000022888184,2|0,1:2|0:2,0:2:0:0:
173,176,197604,5,10,0:2:0:0:
263,111,197758,1,2,0:0:0:0:
166,67,197914,5,0,1:2:0:0:
77,27,198068,1,2,0:2:0:0:
42,122,198222,6,0,B|46:191|24:174|26:239,1,120.000004577637,2|0,1:2|0:2,0:2:0:0:
26,239,198841,5,10,0:2:0:0:
81,310,198995,1,2,0:2:0:0:
133,241,199150,5,2,1:2:0:0:
107,384,199304,1,2,0:2:0:0:
266,279,199459,2,0,P|324:267|384:261,1,120.000004577637,2|0,1:2|0:2,0:2:0:0:
384,261,200078,5,10,0:2:0:0:
471,315,200233,1,2,0:2:0:0:
452,187,200387,5,2,1:2:0:0:
335,343,200542,1,2,0:2:0:0:
263,171,200696,6,0,P|266:141|269:111,1,60.0000022888184,2|0,1:2|0:0,0:2:0:0:
356,31,201006,2,0,P|352:60|349:90,1,60.0000022888184,2|0,0:2|0:2,0:0:0:0:
172,245,201315,2,0,P|175:215|178:185,1,60.0000022888184,10|0,0:2|0:2,0:2:0:0:
422,118,201624,1,2,1:2:0:0:
228,319,201934,5,0,1:2:0:0:
228,319,202038,2,0,L|225:339,1,20.0000007629395,8|8,0:3|0:3,0:0:0:0:
138,345,202243,5,4,0:3:0:0:
271,185,202397,1,4,0:3:0:0:
139,139,202552,5,8,0:3:0:0:
299,272,202706,1,4,0:3:0:0:
89,249,202861,5,4,0:3:0:0:
222,89,203015,1,4,0:3:0:0:
400,264,203171,6,0,P|412:194|417:122,1,143.999995605469,6|10,1:2|0:2,0:2:0:0:
83,238,204098,2,0,P|45:234|7:226,1,75.9999979705811,2|8,1:2|0:3,0:2:0:0:
131,312,204408,5,2,1:2:0:0:
134,328,204511,5,2,0:0:0:0:
138,345,204614,5,2,0:0:0:0:
142,361,204717,5,2,0:2:0:0:
50,313,204872,1,0,1:2:0:0:
160,188,205026,2,0,P|160:113|110:58,1,151.999995941162,8|0,0:2|1:2,0:2:0:0:
264,197,205490,6,0,P|299:209|337:215,1,75.9999979705811,2|0,0:2|1:2,0:0:0:0:
217,339,205800,2,0,P|209:301|196:266,1,75.9999979705811,2|0,0:2|0:2,0:0:0:0:
358,305,206109,1,2,0:2:0:0:
358,305,206263,2,0,P|329:330|305:359,1,75.9999979705811,10|0,0:2|0:0,0:0:0:0:
153,175,206573,1,2,1:2:0:0:
279,280,206727,1,0,0:2:0:0:
378,144,206882,5,2,1:2:0:0:
374,127,206985,5,2,0:0:0:0:
371,110,207088,5,2,0:0:0:0:
368,93,207191,5,2,0:2:0:0:
452,186,207346,1,0,1:2:0:0:
289,100,207501,2,0,P|263:93|239:84,1,51.999997619629,10|0,0:2|0:2,0:2:0:0:
474,52,207810,2,0,P|448:45|424:36,1,51.999997619629,10|0,0:3|1:2,0:2:0:0:
454,284,208119,6,0,P|445:308|438:333,1,51.999997619629,2|0,1:2|0:0,0:2:0:0:
264,197,208428,1,2,0:2:0:0:
264,197,208738,2,0,P|251:232|243:270,1,75.9999979705811,10|0,0:2|0:0,0:2:0:0:
54,119,209047,1,2,1:2:0:0:
54,119,209356,5,2,1:2:0:0:
54,119,209434,1,0,3:0:0:0:
54,119,209511,1,8,0:3:0:0:
105,241,209665,1,2,0:0:0:0:
86,35,209820,1,0,1:2:0:0:
284,198,209975,2,0,P|320:188|355:172,1,75.9999979705811,8|0,0:2|0:0,0:2:0:0:
85,230,210284,5,0,1:2:0:0:
228,382,210439,2,0,P|218:345|202:310,1,75.9999979705811,2|0,0:2|1:2,0:0:0:0:
466,162,210748,2,0,P|414:109|340:103,1,151.999995941162,2|0,0:2|0:2,0:0:0:0:
291,314,211212,2,0,P|327:304|362:288,1,75.9999979705811,10|0,0:2|0:0,0:0:0:0:
97,234,211521,2,0,P|60:243|25:259,1,75.9999979705811,2|0,1:2|0:2,0:2:0:0:
214,384,211830,5,2,1:2:0:0:
278,190,211985,1,0,1:2:0:0:
98,363,212140,2,0,L|83:314,1,51.999997619629,2|0,1:2|0:2,0:2:0:0:
9,252,212449,2,0,L|24:202,1,51.999997619629,10|0,0:2|0:2,0:2:0:0:
0,103,212758,2,0,L|45:78,1,51.999997619629,8|0,0:3|0:2,0:2:0:0:
283,201,213068,6,0,P|210:191|176:126,1,151.999995941162,2|0,1:2|0:2,0:2:0:0:
176,126,213686,1,10,0:2:0:0:
97,234,213841,1,0,3:0:0:0:
305,117,213995,2,0,P|300:80|287:44,1,75.9999979705811,2|8,1:2|0:3,0:2:0:0:
198,216,214305,5,2,1:2:0:0:
200,236,214408,5,2,0:0:0:0:
204,256,214511,5,2,0:0:0:0:
214,274,214614,5,2,0:2:0:0:
176,126,214769,1,0,1:2:0:0:
360,176,214923,2,0,P|397:172|432:158,1,75.9999979705811,8|0,0:2|0:2,0:2:0:0:
293,117,215233,1,0,1:2:0:0:
512,292,215387,2,0,P|498:256|493:219,1,75.9999979705811,2|0,0:2|1:2,0:0:0:0:
297,289,215696,6,0,B|206:296|247:328|153:331,1,151.999995941162,2|0,0:2|0:2,0:0:0:0:
0,195,216160,2,0,P|37:201|73:212,1,75.9999979705811,10|0,0:2|0:0,0:0:0:0:
190,206,216470,2,0,P|180:169|172:131,1,75.9999979705811,2|0,1:2|0:2,0:2:0:0:
236,62,216779,5,2,1:2:0:0:
75,199,216933,1,0,1:2:0:0:
284,263,217088,1,0,1:2:0:0:
284,263,217243,1,0,3:0:0:0:
342,215,217397,2,0,P|337:177|334:139,1,75.9999979705811,10|0,0:2|0:2,0:2:0:0:
219,305,217707,2,0,P|216:342|211:380,1,75.9999979705811,0|0,1:2|1:2,0:0:0:0:
433,110,218016,6,0,P|357:101|311:41,1,155.999992858887,2|0,1:2|3:2,0:2:0:0:
260,187,218635,2,0,P|222:190|184:195,1,75.9999979705811,10|0,0:2|0:0,0:2:0:0:
368,374,218944,2,0,P|364:336|359:298,1,75.9999979705811,2|0,1:2|0:2,0:2:0:0:
98,232,219253,2,0,P|100:159|162:121,1,151.999995941162,2|0,1:2|0:2,0:2:0:0:
350,313,219717,1,0,1:2:0:0:
270,278,219872,2,0,P|233:290|199:306,1,75.9999979705811,8|0,0:2|0:2,0:2:0:0:
237,374,220181,5,0,1:2:0:0:
338,233,220336,2,0,P|350:158|381:89,1,151.999995941162,2|2,0:2|0:2,0:0:0:0:
275,44,220800,1,2,0:2:0:0:
397,188,220954,1,2,0:2:0:0:
231,71,221109,6,0,P|194:62|158:49,1,75.9999979705811,10|0,0:2|0:0,0:0:0:0:
270,278,221418,2,0,P|257:313|248:350,1,75.9999979705811,2|0,1:2|0:0,0:0:0:0:
117,303,221727,1,2,1:2:0:0:
268,202,221882,1,0,1:2:0:0:
117,143,222037,1,0,1:2:0:0:
359,384,222191,5,0,3:0:0:0:
359,384,222269,1,0,3:0:0:0:
359,384,222346,2,0,P|386:288|396:188,1,200,8|0,0:1|0:0,0:2:0:0:
