osu file format v14

[General]
AudioFilename: audio.mp3
AudioLeadIn: 0
PreviewTime: 123995
Countdown: 0
SampleSet: Soft
StackLeniency: 0.7
Mode: 0
LetterboxInBreaks: 0
WidescreenStoryboard: 0

[Editor]
Bookmarks: 25013,64611,79456,104199,159869,222343
DistanceSpacing: 1.4
BeatDivisor: 8
GridSize: 8
TimelineZoom: 1

[Metadata]
Title:Matsuri
TitleUnicode:まつり
Artist:Fujii Kaze
ArtistUnicode:藤井 風
Creator:AirinCat
Version:Extra
Source:
Tags:fuju kyouren japanese pop jpop j-pop r&b rnb rhythm and blues love all serve all festival KittyAdventure gokugohan12468
BeatmapID:3921753
BeatmapSetID:1902232

[Difficulty]
HPDrainRate:5
CircleSize:4
OverallDifficulty:8.8
ApproachRate:9.2
SliderMultiplier:3.2
SliderTickRate:1

[Events]
//Background and Video events
0,0,"7851d2641_p0.jpg",0,0
Video,-80,"matsuri.mp4"
//Break Periods
//Storyboard Layer 0 (Background)
//Storyboard Layer 1 (Fail)
//Storyboard Layer 2 (Pass)
//Storyboard Layer 3 (Foreground)
//Storyboard Layer 4 (Overlay)
//Storyboard Sound Samples

[TimingPoints]
5233,618.556701030928,4,2,1,60,1,0
5233,-125,4,2,1,60,0,0
5851,-100,4,2,1,60,0,0
7707,-125,4,2,1,60,0,0
8325,-100,4,2,1,60,0,0
10181,-125,4,2,1,60,0,0
10800,-100,4,2,1,60,0,0
12655,-125,4,2,1,60,0,0
13274,-100,4,2,1,60,0,0
15129,-125,4,2,1,60,0,0
15748,-100,4,2,1,60,0,0
17604,-125,4,2,1,60,0,0
18222,-100,4,2,1,60,0,0
25026,-111.111111111111,4,2,1,50,0,0
64614,-142.857142857143,4,2,1,40,0,0
69562,-125,4,2,1,40,0,0
79459,-125,4,2,1,50,0,0
81934,-125,4,2,1,60,0,0
83480,-90.9090909090909,4,2,1,70,0,0
123995,-66.6666666666667,4,2,2,70,0,1
124305,-125,4,2,2,70,0,0
125078,-71.4285714285714,4,2,2,70,0,1
125851,-142.857142857143,4,2,2,70,0,0
126470,-71.4285714285714,4,2,2,70,0,1
127088,-166.666666666667,4,2,2,70,0,0
127552,-71.4285714285714,4,2,2,70,0,1
128325,-142.857142857143,4,2,2,70,0,0
128635,-66.6666666666667,4,2,2,70,0,0
128944,-55.5555555555556,4,2,2,70,0,1
130026,-66.6666666666667,4,2,2,70,0,1
130800,-83.3333333333333,4,2,2,70,0,0
131418,-125,4,2,2,70,0,0
133892,-83.3333333333333,4,2,1,50,0,0
141315,-142.857142857143,4,2,1,50,0,0
141934,-100,4,2,1,50,0,0
142552,-66.6666666666667,4,2,1,50,0,0
143171,-58.8235294117647,4,2,1,50,0,0
144408,-125,4,2,1,40,0,0
158635,-125,4,2,1,50,0,0
161109,-125,4,2,1,60,0,0
163583,-90.9090909090909,4,2,1,70,0,0
203171,-100,4,2,1,60,0,0
222423,-100,4,2,1,10,0,0

[Colours]
Combo1 : 248,167,139
Combo2 : 250,141,141
Combo3 : 192,146,146

[HitObjects]
101,347,5233,6,0,P|25:293|28:201,1,192,2|0,1:2|0:2,0:2:0:0:
153,102,5851,2,0,P|199:137|208:195,1,120,8|0,0:2|0:2,0:2:0:0:
207,195,6160,2,0,P|169:207|131:219,1,80,0|0,1:2|0:2,0:2:0:0:
295,58,6470,2,0,P|356:69|465:98,1,160,2|0,1:2|0:2,0:2:0:0:
482,22,6934,1,0,1:2:0:0:
335,151,7088,2,0,P|344:186|351:231,1,80,8|0,0:2|0:2,0:2:0:0:
486,336,7397,2,0,P|494:296|508:259,1,80,2|0,1:2|0:2,0:2:0:0:
247,369,7707,6,0,P|180:303|88:313,1,192,2|0,1:2|0:2,0:2:0:0:
0,139,8325,2,0,P|42:178|101:175,1,120,10|0,0:2|0:2,0:2:0:0:
101,175,8635,2,0,P|127:145|132:106,1,80,0|0,1:2|0:2,0:2:0:0:
337,230,8944,2,0,P|261:222|210:280,1,160,2|0,1:2|0:2,0:2:0:0:
281,343,9408,1,0,1:2:0:0:
434,216,9562,2,0,P|420:155|400:55,1,160,10|2,0:2|0:3,0:2:0:0:
475,1,10026,1,0,1:2:0:0:
279,187,10181,6,0,P|167:162|145:76,1,192,2|0,1:2|0:2,0:2:0:0:
263,24,10800,2,0,P|251:62|242:101,1,80,10|0,0:2|0:2,0:2:0:0:
32,23,11109,2,0,P|41:61|49:107,1,80,0|0,1:2|0:2,0:2:0:0:
137,322,11418,2,0,P|195:270|188:192,1,160,2|0,1:2|0:2,0:2:0:0:
105,227,11882,1,0,1:2:0:0:
260,334,12037,2,0,P|298:323|338:318,1,80,8|0,0:2|0:2,0:2:0:0:
483,179,12346,2,0,P|440:170|398:158,1,80,2|0,1:2|0:2,0:2:0:0:
211,47,12655,6,0,P|290:93|296:185,1,192,2|0,1:2|0:2,0:2:0:0:
138,352,13274,2,0,P|97:309|95:250,1,120,10|0,0:2|0:2,0:2:0:0:
95,250,13583,2,0,P|137:238|178:226,1,80,2|0,1:2|0:2,0:2:0:0:
485,273,13892,1,2,1:2:0:0:
389,189,14047,1,0,1:2:0:0:
324,301,14202,2,0,P|326:340|340:389,1,80,0|0,1:2|0:2,0:2:0:0:
487,182,14511,2,0,P|486:116|455:62,1,120,10|0,0:2|0:2,0:2:0:0:
456,74,14820,2,0,P|436:36|438:-9,1,80,2|0,1:3|0:2,0:2:0:0:
295,212,15129,6,0,P|201:220|142:149,1,192,2|0,1:2|0:2,0:2:0:0:
220,2,15748,2,0,P|254:52|251:112,1,120,10|0,0:2|0:2,0:2:0:0:
251,109,16057,2,0,P|292:102|332:90,1,80,0|0,1:2|0:2,0:2:0:0:
62,0,16367,2,0,P|5:52|11:130,1,160,2|0,1:2|0:2,0:2:0:0:
101,102,16830,1,0,1:2:0:0:
47,292,16985,2,0,P|22:261|22:222,1,80,8|0,0:2|0:2,0:2:0:0:
251,154,17294,2,0,P|275:184|275:223,1,80,2|0,1:2|0:2,0:2:0:0:
129,384,17604,6,0,P|192:317|281:336,1,192,2|0,1:2|0:2,0:2:0:0:
510,279,18222,2,0,P|455:294|407:260,1,120,10|0,0:2|0:2,0:2:0:0:
407,260,18531,2,0,P|416:214|428:178,1,80,2|0,1:2|0:2,0:2:0:0:
234,32,18841,1,2,1:2:0:0:
298,160,18995,1,0,1:2:0:0:
434,31,19150,2,0,P|395:23|353:11,1,80,0|0,1:2|0:2,0:2:0:0:
84,239,19459,2,0,P|134:178|212:181,1,160,10|2,0:2|1:3,0:2:0:0:
189,273,19923,1,0,1:2:0:0:
46,11,20078,6,0,P|94:70|171:67,1,160,2|0,1:2|0:2,0:2:0:0:
345,0,20542,1,0,3:2:0:0:
345,0,20619,1,0,3:2:0:0:
345,0,20696,2,0,P|335:34|325:79,1,80,10|0,0:2|0:2,0:2:0:0:
476,278,21006,2,0,P|488:243|496:196,1,80,2|0,1:2|0:2,0:2:0:0:
302,177,21315,6,0,B|231:182|221:223|154:234,1,160,2|0,1:2|0:2,0:2:0:0:
50,81,21779,1,0,1:2:0:0:
50,81,21856,1,0,3:2:0:0:
50,81,21934,2,0,P|90:87|145:105,1,80,10|0,0:2|0:2,0:2:0:0:
41,384,22243,2,0,P|1:340|3:282,1,120,0|0,1:2|0:2,0:2:0:0:
3,282,22552,6,0,B|83:284|74:322|152:332,1,160,2|0,1:2|0:2,0:2:0:0:
310,178,23016,1,0,3:2:0:0:
310,178,23093,1,0,3:2:0:0:
310,178,23171,2,0,P|299:216|293:256,1,80,10|0,0:2|0:2,0:2:0:0:
463,382,23480,2,0,P|473:344|477:304,1,80,2|0,1:2|0:2,0:2:0:0:
182,233,23789,5,2,1:2:0:0:
327,352,23944,1,0,1:2:0:0:
182,233,24098,2,0,L|103:246,1,80,0|0,1:2|0:2,0:2:0:0:
232,20,24408,2,0,P|286:40|311:93,1,120,10|0,0:2|0:2,0:2:0:0:
311,93,24717,2,0,P|321:49|335:13,1,80,2|0,1:3|0:2,0:2:0:0:
492,224,25026,5,0,1:2:0:0:
492,224,25336,2,0,P|452:212|416:206,1,71.9999978027344,2|0,0:2|0:2,0:2:0:0:
297,383,25645,2,0,P|336:318|416:318,1,143.999995605469,10|0,0:2|0:2,0:2:0:0:
398,310,26109,1,8,0:3:0:0:
296,208,26263,2,0,B|296:142|332:141|336:71,2,143.999995605469,2|2|10,0:2|1:2|0:2,0:2:0:0:
44,384,27191,2,0,P|31:341|15:303,1,71.9999978027344,2|0,0:2|0:2,0:2:0:0:
128,327,27501,6,0,P|194:303|256:334,1,143.999995605469,2|0,1:2|0:2,0:2:0:0:
256,334,27964,1,0,0:2:0:0:
413,203,28119,2,0,P|352:239|284:222,2,143.999995605469,8|0|0,0:2|1:2|1:2,0:2:0:0:
413,203,29202,1,0,1:2:0:0:
461,372,29356,2,0,P|513:325|512:255,1,143.999995605469,8|0,0:2|1:2,0:2:0:0:
430,287,29820,1,0,1:2:0:0:
486,140,29975,5,0,1:2:0:0:
486,140,30284,2,0,P|473:101|470:66,1,71.9999978027344,2|0,0:2|0:2,0:2:0:0:
269,0,30593,2,0,P|327:43|335:114,1,143.999995605469,10|0,0:2|1:2,0:2:0:0:
280,179,31057,1,0,1:2:0:0:
170,85,31212,1,2,1:2:0:0:
102,149,31367,2,0,P|78:122|75:86,1,71.9999978027344,8|0,0:3|1:2,0:2:0:0:
183,210,31676,1,2,0:2:0:0:
132,274,31830,2,0,P|96:282|59:293,1,71.9999978027344,10|0,0:2|0:2,0:2:0:0:
244,288,32140,6,0,B|317:296|303:333|375:348,2,143.999995605469,2|0|2,0:2|1:2|0:2,0:2:0:0:
244,288,33068,1,8,0:2:0:0:
328,145,33222,2,0,P|335:180|341:215,1,71.9999978027344,0|4,3:2|0:3,0:2:0:0:
243,189,33531,1,0,1:2:0:0:
401,106,33686,1,0,1:2:0:0:
472,164,33841,1,0,1:2:0:0:
500,77,33995,2,0,P|504:38|513:4,1,71.9999978027344,0|0,1:2|0:2,0:2:0:0:
328,64,34305,2,0,P|265:58|215:22,1,107.999996704102,8|0,0:2|0:2,0:2:0:0:
219,29,34614,2,0,P|183:34|142:50,1,71.9999978027344,8|0,0:3|0:2,0:2:0:0:
6,191,34923,5,0,1:2:0:0:
6,191,35233,2,0,P|50:183|77:173,1,71.9999978027344,2|0,0:2|0:2,0:2:0:0:
187,318,35542,2,0,P|211:252|181:189,1,143.999995605469,10|2,0:2|0:2,0:2:0:0:
180,188,36006,1,8,0:3:0:0:
78,339,36160,1,2,0:2:0:0:
12,283,36315,1,2,0:2:0:0:
75,173,36470,2,0,P|84:197|99:251,1,71.9999978027344,2|0,1:2|0:2,0:2:0:0:
275,372,36779,5,10,0:2:0:0:
351,318,36934,1,2,0:2:0:0:
288,261,37088,2,0,B|213:269|233:302|155:312,1,143.999995605469,2|0,0:2|1:2,0:2:0:0:
287,149,37552,2,0,B|355:156|353:192|420:200,1,143.999995605469,2|0,0:2|0:2,0:2:0:0:
499,153,38016,2,0,P|504:116|513:79,1,71.9999978027344,8|0,0:2|0:2,0:2:0:0:
443,13,38325,1,0,1:2:0:0:
443,13,38480,1,0,3:2:0:0:
308,42,38635,6,0,P|272:35|239:22,1,71.9999978027344,0|0,1:2|0:2,0:2:0:0:
325,260,38944,2,0,P|330:224|345:191,1,71.9999978027344,0|0,1:2|0:2,0:2:0:0:
160,155,39253,2,0,B|84:163|99:192|26:205,1,143.999995605469,10|0,0:2|1:2,0:2:0:0:
39,111,39717,1,0,1:2:0:0:
221,235,39872,1,2,1:2:0:0:
221,235,40181,5,2,0:2:0:0:
149,384,40336,1,2,0:2:0:0:
0,342,40490,1,10,0:2:0:0:
0,342,40800,5,2,1:2:0:0:
107,223,40954,1,2,1:2:0:0:
287,341,41109,1,2,1:2:0:0:
287,341,41418,5,2,1:2:0:0:
343,268,41573,1,2,0:2:0:0:
288,185,41727,1,10,0:2:0:0:
288,185,42037,6,0,P|299:147|303:112,1,71.9999978027344,2|0,1:2|0:2,0:2:0:0:
482,140,42346,2,0,P|461:208|452:280,2,143.999995605469,2|0|8,1:2|0:2|0:2,0:2:0:0:
482,140,43119,1,0,3:2:0:0:
443,22,43274,2,0,P|478:34|516:41,1,71.9999978027344,4|0,0:3|3:2,0:2:0:0:
335,185,43583,5,0,1:2:0:0:
219,109,43738,1,0,1:2:0:0:
313,0,43892,2,0,P|327:33|335:67,1,71.9999978027344,0|0,1:2|0:2,0:2:0:0:
164,279,44202,2,0,P|136:225|131:169,1,107.999996704102,8|0,0:2|0:2,0:2:0:0:
118,177,44511,2,0,P|121:137|134:104,1,71.9999978027344,8|0,0:3|0:2,0:2:0:0:
406,288,44820,5,6,1:2:0:0:
406,288,45129,2,0,P|339:268|282:309,2,143.999995605469,2|8|0,0:2|0:2|1:2,0:2:0:0:
361,362,45903,1,8,0:3:0:0:
501,244,46057,2,0,P|488:210|483:174,1,71.9999978027344,2|0,1:2|0:2,0:2:0:0:
358,66,46367,2,0,P|345:104|343:142,1,71.9999978027344,2|0,0:2|1:2,0:2:0:0:
215,219,46676,2,0,P|146:208|107:151,1,143.999995605469,10|0,0:2|1:2,0:2:0:0:
106,149,47140,1,0,0:2:0:0:
0,349,47294,6,0,P|53:304|122:316,1,143.999995605469,2|0,1:2|0:2,0:2:0:0:
228,384,47758,1,0,0:2:0:0:
228,384,47913,2,0,P|233:349|243:314,1,71.9999978027344,8|0,0:2|0:2,0:2:0:0:
352,169,48222,2,0,P|361:201|369:248,1,71.9999978027344,0|0,1:2|0:2,0:2:0:0:
512,319,48531,6,0,P|436:325|361:359,1,143.999995605469,2|0,1:2|0:2,0:2:0:0:
373,351,48995,1,0,1:2:0:0:
480,220,49150,2,0,P|472:182|467:149,1,71.9999978027344,8|0,0:2|0:2,0:2:0:0:
289,16,49459,2,0,P|234:60|232:130,1,143.999995605469,2|0,1:2|1:2,0:2:0:0:
232,130,50078,6,0,P|265:138|302:143,1,71.9999978027344,2|0,0:2|1:2,0:2:0:0:
431,252,50387,1,10,0:2:0:0:
431,252,50696,2,0,P|398:257|356:276,1,71.9999978027344,2|0,1:2|0:2,0:2:0:0:
204,384,51006,2,0,P|246:323|231:253,1,143.999995605469,2|0,1:2|0:2,0:2:0:0:
156,209,51470,1,2,1:2:0:0:
20,321,51624,2,0,P|2:285|0:249,1,71.9999978027344,10|0,0:2|0:2,0:2:0:0:
145,114,51934,6,0,B|213:115|201:147|279:160,1,143.999995605469,2|0,1:2|1:2,0:2:0:0:
412,86,52397,2,0,P|408:47|398:9,1,71.9999978027344,2|0,0:2|0:2,0:2:0:0:
324,65,52707,1,0,1:2:0:0:
426,174,52861,2,0,P|465:166|496:151,1,71.9999978027344,8|0,0:2|0:2,0:2:0:0:
330,254,53171,2,0,P|314:289|312:334,1,71.9999978027344,0|0,1:2|0:2,0:2:0:0:
240,135,53480,6,0,P|184:92|113:110,1,143.999995605469,2|0,1:2|0:2,0:2:0:0:
158,186,53944,1,0,1:2:0:0:
9,113,54098,2,0,P|16:77|27:43,1,71.9999978027344,8|0,0:2|0:2,0:2:0:0:
54,307,54408,2,0,P|62:272|74:234,1,71.9999978027344,8|0,0:3|0:2,0:2:0:0:
253,122,54717,5,2,1:2:0:0:
253,122,55026,2,0,P|262:158|269:196,1,71.9999978027344,2|0,0:2|0:2,0:2:0:0:
157,384,55336,2,0,P|194:326|264:318,1,143.999995605469,10|0,0:2|1:2,0:2:0:0:
349,362,55800,1,8,0:3:0:0:
264,318,55954,1,2,1:2:0:0:
344,231,56109,1,2,0:2:0:0:
437,306,56263,1,2,0:2:0:0:
512,209,56418,1,2,1:2:0:0:
425,73,56573,2,0,P|413:107|408:143,1,71.9999978027344,10|0,0:2|0:2,0:2:0:0:
252,232,56882,6,0,P|183:221|147:161,1,143.999995605469,2|0,1:2|1:2,0:2:0:0:
85,61,57346,2,0,P|22:109|23:178,1,143.999995605469,2|0,0:2|0:2,0:2:0:0:
108,277,57810,2,0,P|73:287|42:304,1,71.9999978027344,8|0,0:2|0:2,0:2:0:0:
147,161,58119,1,2,1:2:0:0:
147,161,58274,1,2,0:2:0:0:
264,182,58428,6,0,P|344:162|411:134,1,143.999995605469,2|0,1:2|0:2,0:2:0:0:
491,160,58892,1,0,1:2:0:0:
433,307,59047,2,0,P|417:277|409:231,1,71.9999978027344,10|0,0:2|0:2,0:2:0:0:
437,1,59356,2,0,P|453:35|464:77,1,71.9999978027344,2|0,1:2|0:2,0:2:0:0:
216,232,59665,5,2,1:2:0:0:
216,232,59975,1,2,0:2:0:0:
315,94,60129,1,2,1:2:0:0:
484,184,60284,1,10,0:2:0:0:
484,184,60593,5,2,1:2:0:0:
328,297,60747,1,2,0:2:0:0:
175,135,60902,1,2,1:2:0:0:
175,135,61212,5,2,0:2:0:0:
272,135,61367,1,2,1:2:0:0:
314,219,61521,1,10,0:2:0:0:
314,219,61830,6,0,P|353:211|385:201,1,71.9999978027344,2|0,1:2|0:2,0:2:0:0:
119,54,62140,2,0,P|59:90|50:159,1,143.999995605469,2|0,1:2|0:2,0:2:0:0:
126,205,62604,1,0,1:2:0:0:
43,316,62758,2,0,P|34:279|22:244,1,71.9999978027344,8|0,0:2|0:2,0:2:0:0:
220,173,63068,2,0,P|229:207|241:244,1,71.9999978027344,0|0,1:2|0:2,0:2:0:0:
204,374,63377,5,0,1:2:0:0:
322,291,63531,1,8,0:3:0:0:
410,362,63686,1,4,0:3:0:0:
495,327,63841,1,4,0:3:0:0:
444,193,63995,2,0,P|434:227|428:263,1,71.9999978027344,8|0,0:2|0:2,0:2:0:0:
139,204,64305,2,0,P|150:238|157:273,1,71.9999978027344,8|0,0:3|0:2,0:2:0:0:
293,87,64614,5,4,1:2:0:0:
293,87,64923,2,0,P|348:89|394:60,2,111.999996582031,2|8|0,0:2|0:2|0:2,0:2:0:0:
8,240,65851,2,0,P|62:238|105:273,1,111.999996582031,2|0,0:2|1:2,0:2:0:0:
105,273,66315,1,0,0:2:0:0:
203,305,66470,2,0,P|123:301|73:365,1,167.999994873047,10|0,0:2|0:2,0:2:0:0:
283,220,67088,6,0,P|272:165|258:110,1,111.999996582031,2|0,1:2|0:2,0:2:0:0:
512,243,67707,2,0,P|431:245|389:313,1,167.999994873047,10|0,0:2|0:2,0:2:0:0:
446,374,68325,1,2,0:2:0:0:
511,332,68480,1,0,1:2:0:0:
446,374,68635,1,0,1:2:0:0:
290,191,68944,2,0,P|296:136|310:81,1,111.999996582031,8|0,0:2|0:2,0:2:0:0:
310,81,69408,1,0,1:2:0:0:
174,224,69562,6,0,P|106:224|46:196,1,128,2|0,1:2|0:2,0:2:0:0:
0,262,70026,2,0,P|10:288|17:324,1,64,2|8,0:2|0:2,0:2:0:0:
123,134,70336,1,0,0:2:0:0:
123,134,70490,2,0,P|112:107|106:72,1,64,2|0,0:2|1:2,0:2:0:0:
256,172,70800,2,0,P|315:151|373:174,1,128,2|0,0:2|1:2,0:2:0:0:
432,240,71263,2,0,P|423:271|416:309,1,64,2|8,0:2|0:2,0:2:0:0:
292,384,71573,1,2,0:2:0:0:
243,279,71727,1,0,0:2:0:0:
319,291,71882,1,0,0:2:0:0:
211,367,72037,6,0,P|183:373|137:389,1,64,2|0,1:2|0:2,0:2:0:0:
76,338,72346,1,2,0:2:0:0:
128,279,72501,1,0,0:2:0:0:
75,218,72655,1,10,0:2:0:0:
133,161,72810,1,0,0:2:0:0:
71,113,72964,2,0,P|65:73|56:44,1,64,2|0,0:2|0:2,0:2:0:0:
214,136,73274,6,0,P|252:126|284:122,1,64,2|0,0:2|1:2,0:2:0:0:
366,35,73583,2,0,P|332:25|301:12,1,64,2|0,1:2|0:2,0:2:0:0:
389,171,73892,1,8,0:3:0:0:
484,89,74047,1,4,0:3:0:0:
389,171,74202,1,8,0:2:0:0:
488,243,74356,1,4,0:3:0:0:
438,309,74511,5,4,1:2:0:0:
438,309,74820,2,0,P|373:292|308:287,2,128,2|8|0,0:2|0:2|0:2,0:2:0:0:
448,191,75593,1,0,0:2:0:0:
369,187,75748,2,0,P|348:127|368:67,1,128,2|0,0:2|1:2,0:2:0:0:
368,67,76212,1,0,0:2:0:0:
257,160,76367,2,0,P|165:169|100:103,1,192,10|0,0:2|0:2,0:2:0:0:
150,39,76985,5,2,1:2:0:0:
19,172,77294,1,2,0:2:0:0:
129,369,77604,2,0,P|174:322|167:257,1,128,10|0,0:2|0:2,0:2:0:0:
96,241,78068,1,0,0:2:0:0:
170,262,78222,1,2,0:2:0:0:
96,241,78377,1,0,1:2:0:0:
145,169,78531,2,0,P|164:96|163:33,1,128,0|8,1:2|0:2,0:2:0:0:
164,43,79150,1,2,0:2:0:0:
164,43,79305,1,2,1:2:0:0:
348,181,79459,6,0,P|388:165|443:152,1,96,2|0,1:1|0:2,0:2:0:0:
512,195,79769,1,0,1:2:0:0:
512,195,79923,1,0,3:2:0:0:
284,113,80078,2,0,P|266:64|261:19,1,96,2|0,1:1|0:2,0:2:0:0:
335,0,80387,1,0,1:2:0:0:
335,0,80542,1,0,1:2:0:0:
158,118,80696,5,2,1:1:0:0:
308,206,80851,1,0,1:2:0:0:
126,302,81006,1,0,1:2:0:0:
331,384,81160,1,0,1:2:0:0:
461,165,81315,5,8,0:2:0:0:
461,165,81624,1,0,1:2:0:0:
232,38,81779,1,0,1:2:0:0:
424,0,81934,5,8,1:1:0:0:
63,299,82243,5,8,1:1:0:0:
394,248,82552,5,8,0:2:0:0:
394,248,82861,5,0,1:2:0:0:
196,150,83016,1,0,1:2:0:0:
399,2,83171,1,8,0:2:0:0:
196,150,83325,1,8,0:3:0:0:
285,31,83480,6,0,B|318:63|318:63|313:109,1,88.000002685547,2|8,1:1|0:3,0:2:0:0:
44,208,83789,2,0,B|17:171|17:171|26:126,1,88.000002685547,10|4,0:1|0:3,0:2:0:0:
232,236,84098,2,0,P|223:261|217:294,1,44.0000013427735,12|0,0:3|0:2,0:2:0:0:
80,384,84253,2,0,P|73:352|61:326,1,44.0000013427735,12|0,0:3|0:2,0:2:0:0:
315,234,84408,6,0,B|230:234|244:180|153:173,2,176.000005371094,6|2|10,1:2|0:2|0:2,0:2:0:0:
315,234,85336,2,0,P|326:183|333:143,1,88.000002685547,0|8,1:2|0:3,0:2:0:0:
120,16,85645,2,0,P|227:47|286:-14,1,176.000005371094,2|2,1:2|0:2,0:2:0:0:
422,174,86109,1,0,1:2:0:0:
512,70,86263,2,0,P|472:54|413:39,1,88.000002685547,10|0,0:2|0:2,0:2:0:0:
374,367,86573,2,0,P|428:344|439:267,1,132.00000402832,0|0,1:2|0:2,0:2:0:0:
365,241,86882,6,0,B|276:256|287:286|200:301,1,176.000005371094,2|0,0:2|0:2,0:2:0:0:
27,131,87346,2,0,P|68:144|118:155,1,88.000002685547,2|8,1:2|0:2,0:2:0:0:
67,378,87655,2,0,P|54:329|38:291,1,88.000002685547,2|0,0:2|1:2,0:2:0:0:
214,144,87964,1,2,0:2:0:0:
376,285,88119,6,0,P|460:287|512:219,1,176.000005371094,2|0,1:2|0:2,0:2:0:0:
419,183,88583,1,0,1:2:0:0:
329,378,88738,1,10,0:2:0:0:
181,276,88892,1,0,1:2:0:0:
305,105,89047,2,0,P|321:142|328:192,1,88.000002685547,2|0,0:2|0:2,0:2:0:0:
55,331,89356,6,0,P|35:288|26:158,2,176.000005371094,2|2|10,1:2|0:2|0:2,0:2:0:0:
55,331,90284,2,0,P|94:315|142:308,1,88.000002685547,0|0,1:2|0:2,0:2:0:0:
414,358,90593,2,0,P|332:333|298:255,1,176.000005371094,2|2,1:2|1:2,0:2:0:0:
390,108,91057,1,0,1:2:0:0:
487,181,91212,2,0,P|498:134|514:90,1,88.000002685547,10|0,0:2|0:2,0:2:0:0:
161,15,91521,2,0,P|175:72|191:155,1,132.00000402832,0|0,1:2|0:2,0:2:0:0:
270,151,91830,6,0,B|183:158|201:202|105:218,1,176.000005371094,2|0,0:2|0:2,0:2:0:0:
97,127,92294,1,2,1:2:0:0:
244,256,92449,1,10,0:2:0:0:
64,355,92604,1,2,0:2:0:0:
109,217,92758,1,2,0:2:0:0:
236,373,92913,1,2,0:2:0:0:
394,239,93068,6,0,P|422:150|425:63,1,176.000005371094,0|2,1:2|1:2,0:2:0:0:
357,2,93531,1,2,0:2:0:0:
268,192,93686,2,0,P|258:137|238:98,1,88.000002685547,10|0,0:2|0:2,0:2:0:0:
492,249,93995,2,0,P|509:200|513:160,1,88.000002685547,8|0,0:3|0:2,0:2:0:0:
134,354,94305,6,0,P|192:290|280:297,1,176.000005371094,2|2,1:2|0:2,0:2:0:0:
247,384,94769,1,2,0:2:0:0:
105,197,94923,1,10,0:2:0:0:
389,181,95078,1,2,0:2:0:0:
276,295,95233,1,2,1:2:0:0:
233,72,95387,1,8,0:3:0:0:
492,179,95542,5,2,1:2:0:0:
493,165,95645,2,0,P|499:129|510:98,1,58.6666684570313,2|2,0:2|0:2,0:2:0:0:
333,0,95851,2,0,P|345:43|352:97,1,88.000002685547,2|0,1:2|1:2,0:2:0:0:
511,333,96160,2,0,P|444:283|363:308,1,176.000005371094,10|0,0:2|1:2,0:2:0:0:
409,369,96624,1,0,0:2:0:0:
178,226,96779,6,0,P|152:151|135:45,1,176.000005371094,2|2,0:2|1:2,0:2:0:0:
225,77,97243,1,2,0:2:0:0:
52,248,97397,1,10,0:2:0:0:
8,80,97552,1,2,0:2:0:0:
261,172,97707,1,2,1:2:0:0:
122,333,97861,1,2,0:2:0:0:
261,172,98016,5,2,1:2:0:0:
459,321,98171,1,0,1:2:0:0:
512,119,98325,2,0,P|470:131|408:147,1,88.000002685547,2|0,1:2|0:2,0:2:0:0:
254,384,98635,2,0,P|325:338|332:254,1,176.000005371094,10|0,0:2|1:2,0:2:0:0:
258,206,99098,1,0,0:2:0:0:
68,375,99253,6,0,P|9:313|23:229,1,176.000005371094,6|0,1:2|0:2,0:2:0:0:
23,229,99872,2,0,P|51:190|49:144,1,88.000002685547,10|0,0:2|0:2,0:2:0:0:
230,96,100181,2,0,P|227:48|203:14,1,88.000002685547,2|0,1:2|0:2,0:2:0:0:
131,307,100490,6,0,P|203:262|284:289,1,176.000005371094,0|0,1:2|0:2,0:2:0:0:
284,289,100954,1,0,0:2:0:0:
362,380,101109,2,0,P|387:342|388:298,1,88.000002685547,10|0,0:2|0:2,0:2:0:0:
512,229,101418,2,0,P|509:183|485:147,1,88.000002685547,2|0,1:2|0:2,0:2:0:0:
221,16,101727,6,0,P|281:76|366:71,1,176.000005371094,2|0,1:2|0:2,0:2:0:0:
366,70,102191,1,0,0:2:0:0:
165,113,102346,2,0,P|149:150|141:201,1,88.000002685547,10|0,0:2|0:2,0:2:0:0:
392,363,102655,2,0,P|407:315|412:266,1,88.000002685547,2|0,1:2|0:2,0:2:0:0:
303,180,102964,5,0,1:2:0:0:
129,384,103119,1,8,0:3:0:0:
34,282,103274,1,4,1:3:0:0:
141,196,103428,1,4,0:3:0:0:
301,293,103583,1,8,0:2:0:0:
301,293,103892,1,4,0:3:0:0:
436,199,104047,1,4,0:3:0:0:
298,0,104202,6,0,P|257:77|254:164,1,176.000005371094,6|0,1:2|0:2,0:2:0:0:
254,164,104665,1,0,3:2:0:0:
447,356,104820,2,0,P|455:331|459:304,1,44.0000013427735,10|0,0:2|0:2,0:2:0:0:
459,304,105129,2,0,P|423:300|367:283,1,88.000002685547,2|8,1:2|0:3,0:2:0:0:
91,365,105439,2,0,B|182:358|172:308|254:306,1,176.000005371094,2|0,1:2|0:2,0:2:0:0:
253,306,105903,1,0,1:2:0:0:
116,247,106057,2,0,P|100:202|95:151,1,88.000002685547,8|0,0:2|0:2,0:2:0:0:
335,28,106367,1,0,1:2:0:0:
335,28,106521,1,2,0:2:0:0:
238,44,106676,6,0,P|194:38|154:20,1,88.000002685547,2|0,1:2|0:2,0:2:0:0:
307,240,106985,2,0,P|323:194|324:147,1,88.000002685547,2|0,0:2|0:2,0:2:0:0:
17,123,107294,1,10,0:2:0:0:
17,123,107604,2,0,P|1:169|0:216,1,88.000002685547,2|0,1:2|0:2,0:2:0:0:
219,384,107913,2,0,B|211:302|158:321|163:221,1,176.000005371094,2|0,1:2|0:2,0:2:0:0:
234,167,108377,1,0,1:2:0:0:
355,350,108531,2,0,P|396:335|448:326,1,88.000002685547,10|0,0:2|0:2,0:2:0:0:
316,248,108841,2,0,P|359:239|400:224,1,88.000002685547,4|0,0:3|1:2,0:2:0:0:
104,367,109150,6,0,P|45:304|53:219,1,176.000005371094,2|0,1:2|0:2,0:2:0:0:
53,219,109614,1,0,3:2:0:0:
197,25,109769,2,0,P|204:46|210:73,1,44.0000013427735,10|0,0:2|0:2,0:2:0:0:
209,78,110078,2,0,P|169:92|112:101,1,88.000002685547,2|0,1:2|0:2,0:2:0:0:
301,252,110387,2,0,P|340:237|391:226,1,88.000002685547,2|8,1:2|0:3,0:2:0:0:
472,289,110696,1,2,0:0:0:0:
472,289,110851,1,0,1:2:0:0:
246,384,111006,2,0,P|188:320|200:233,1,176.000005371094,8|0,0:2|1:2,0:2:0:0:
198,235,111470,1,2,0:2:0:0:
385,226,111624,6,0,P|398:181|402:135,1,88.000002685547,2|0,1:2|0:2,0:2:0:0:
202,0,111934,2,0,P|191:45|189:105,1,88.000002685547,2|0,0:2|0:2,0:2:0:0:
512,65,112243,1,10,0:2:0:0:
512,65,112552,2,0,P|468:57|427:42,1,88.000002685547,2|0,1:2|0:2,0:2:0:0:
202,275,112861,5,2,1:2:0:0:
338,126,113016,1,0,1:2:0:0:
126,88,113171,1,2,1:2:0:0:
126,88,113480,2,0,P|170:77|211:62,1,88.000002685547,10|0,0:2|0:2,0:2:0:0:
209,372,113789,2,0,P|250:356|292:346,1,88.000002685547,8|0,0:3|0:2,0:2:0:0:
0,279,114098,6,0,B|85:262|57:215|154:201,1,176.000005371094,2|0,1:2|0:2,0:2:0:0:
154,201,114562,1,0,3:2:0:0:
364,384,114717,2,0,L|375:333,1,44.0000013427735,10|0,0:2|0:2,0:2:0:0:
380,334,115026,2,0,P|338:318|295:308,1,88.000002685547,2|8,1:2|0:3,0:2:0:0:
498,64,115336,2,0,P|421:115|428:192,1,176.000005371094,2|0,1:2|0:2,0:2:0:0:
502,156,115800,1,0,1:2:0:0:
339,13,115954,2,0,P|322:51|315:107,1,88.000002685547,8|0,0:2|0:2,0:2:0:0:
466,301,116263,1,0,1:2:0:0:
466,301,116418,1,2,0:2:0:0:
371,373,116573,6,0,P|328:360|286:351,1,88.000002685547,2|0,1:2|0:2,0:2:0:0:
91,248,116882,2,0,P|137:236|178:220,1,88.000002685547,2|0,0:2|0:2,0:2:0:0:
288,13,117191,1,10,0:2:0:0:
288,13,117501,2,0,P|304:52|316:111,1,88.000002685547,2|0,1:2|0:2,0:2:0:0:
103,331,117810,1,2,1:2:0:0:
155,131,117964,1,0,1:2:0:0:
314,304,118119,1,0,1:2:0:0:
314,304,118428,2,0,P|331:255|335:212,1,88.000002685547,10|0,0:2|0:2,0:2:0:0:
45,113,118738,5,0,1:2:0:0:
152,250,118892,1,0,1:2:0:0:
45,113,119047,6,0,B|127:105|110:53|207:40,1,176.000005371094,2|0,1:2|0:2,0:2:0:0:
416,180,119511,1,2,0:2:0:0:
416,180,119588,1,2,0:0:0:0:
416,180,119665,2,0,P|421:158|427:119,1,44.0000013427735,10|0,0:2|0:2,0:2:0:0:
419,126,119975,2,0,P|376:116|334:101,1,88.000002685547,2|0,1:2|0:2,0:2:0:0:
118,301,120284,2,0,P|202:303|258:238,1,176.000005371094,2|0,1:2|0:2,0:2:0:0:
167,208,120748,1,0,1:2:0:0:
336,384,120903,2,0,P|345:338|360:289,1,88.000002685547,10|0,0:2|0:2,0:2:0:0:
213,128,121212,1,0,1:2:0:0:
213,128,121367,1,2,0:2:0:0:
316,29,121521,6,0,P|361:40|411:47,1,88.000002685547,2|0,1:2|0:2,0:2:0:0:
100,134,121830,2,0,P|42:125|14:116,1,88.000002685547,2|0,0:2|0:2,0:2:0:0:
265,384,122140,1,10,0:2:0:0:
265,384,122449,2,0,P|277:341|281:285,1,88.000002685547,0|0,1:2|0:2,0:2:0:0:
172,198,122758,1,2,1:2:0:0:
281,297,122913,1,8,0:3:0:0:
411,124,123068,1,4,0:3:0:0:
411,124,123377,2,0,L|497:143,1,88.000002685547,8|0,1:2|0:2,0:2:0:0:
376,279,123686,2,0,L|465:302,1,88.000002685547,8|0,1:3|0:2,0:2:0:0:
216,0,123995,6,0,B|146:28|146:28|127:127|127:127|61:151,1,240.000009155274,6|0,1:3|3:2,0:2:0:0:
52,73,124459,1,0,3:2:0:0:
223,121,124614,1,8,3:2:0:0:
169,289,124769,1,0,3:2:0:0:
1,236,124923,1,0,3:2:0:0:
292,76,125078,6,0,B|347:106|347:106|330:190|330:190|397:251,1,223.999993164063,4|0,1:3|0:2,0:2:0:0:
512,195,125542,2,0,B|533:172|533:172|439:145,1,111.999996582031,4|0,1:3|3:2,0:2:0:0:
194,353,125851,2,0,L|111:377,1,83.9999974365235,8|0,0:2|0:2,0:2:0:0:
34,329,126160,1,2,0:3:0:0:
34,329,126315,1,2,0:3:0:0:
196,123,126470,6,0,B|257:153|257:153|256:226|256:226|336:275,1,223.999993164063,4|0,1:3|3:2,0:2:0:0:
411,262,126934,1,0,3:2:0:0:
438,188,127088,1,8,3:2:0:0:
357,156,127243,1,0,3:2:0:0:
438,188,127397,1,0,3:2:0:0:
69,340,127552,6,0,B|1:245|1:245|64:147,1,223.999993164063,4|0,1:3|0:2,0:2:0:0:
284,63,128016,2,0,B|270:24|270:24|230:96,1,111.999996582031,4|0,1:3|3:2,0:2:0:0:
418,374,128325,2,0,B|437:326|437:326|408:275,1,83.9999974365235,8|0,0:2|0:2,0:2:0:0:
414,281,128635,6,0,B|381:287|381:287|351:295,1,60.0000022888184,2|0,1:1|0:2,0:2:0:0:
126,193,128789,2,0,B|161:186|161:186|195:179,1,60.0000022888184,2|0,1:1|0:2,0:2:0:0:
200,383,128944,2,2,B|180:338|180:338|204:280|204:280|273:255|273:255|300:196|300:196|282:162,2,287.999991210938,4|0|8,1:1|0:2|0:2,0:1:0:0:
200,383,129872,1,0,0:2:0:0:
355,293,130026,6,0,B|401:301|401:301|436:327|436:327|479:339,2,120.000004577637,4|0|0,1:3|3:2|3:2,0:2:0:0:
512,126,130490,2,0,B|488:162|488:162|496:201|496:201|476:252,1,120.000004577637,4|0,1:3|3:2,0:2:0:0:
278,351,130800,2,0,B|266:323|266:323|269:287|269:287|259:253,1,95.9999970703126,8|0,3:2|3:2,0:2:0:0:
347,190,131109,1,2,0:3:0:0:
347,190,131263,1,2,0:3:0:0:
125,268,131418,6,0,L|-7:242,1,128,4|0,1:3|0:2,0:2:0:0:
0,243,131882,1,0,0:2:0:0:
270,61,132037,2,0,L|142:97,1,128,4|0,1:3|0:2,0:2:0:0:
146,95,132501,1,0,0:2:0:0:
362,296,132655,2,0,L|293:281,2,64,4|8|8,1:3|0:3|0:3,0:2:0:0:
362,296,133119,1,0,0:2:0:0:
512,105,133274,2,0,L|448:123,1,64,4|0,1:3|0:2,0:2:0:0:
512,201,133583,1,2,0:3:0:0:
512,201,133738,1,2,0:3:0:0:
277,3,133892,6,0,P|202:55|214:146,1,191.999994140625,6|2,1:2|0:2,0:2:0:0:
213,145,134356,1,0,0:2:0:0:
138,363,134511,2,0,P|109:325|111:278,1,95.9999970703126,10|0,0:2|0:2,0:2:0:0:
354,202,134820,2,0,P|401:253|389:322,1,143.999995605469,2|0,1:2|0:2,0:2:0:0:
389,321,135129,1,2,0:2:0:0:
289,274,135284,1,2,0:2:0:0:
380,112,135439,1,2,1:2:0:0:
289,274,135593,1,2,1:2:0:0:
512,215,135748,2,0,P|481:111|457:18,1,191.999994140625,10|0,0:2|1:2,0:2:0:0:
459,30,136212,1,2,0:2:0:0:
268,128,136367,6,0,P|179:126|138:69,1,143.999995605469,2|0,1:2|0:2,0:2:0:0:
145,88,136676,2,0,P|158:122|169:189,1,95.9999970703126,2|0,0:2|1:2,0:2:0:0:
78,384,136985,2,0,P|132:310|223:321,1,191.999994140625,10|0,0:2|1:2,0:2:0:0:
297,384,137449,1,0,0:2:0:0:
425,316,137604,2,0,L|441:254,2,63.9999980468751,2|2|2,0:2|0:2|0:2,0:2:0:0:
276,170,137913,2,0,P|288:216|297:263,1,95.9999970703126,2|0,1:2|0:2,0:2:0:0:
394,133,138222,1,10,0:2:0:0:
197,56,138377,1,2,0:2:0:0:
431,0,138531,1,2,1:2:0:0:
180,167,138686,5,2,0:2:0:0:
307,73,138841,2,0,B|400:69|398:144|489:159,2,191.999994140625,2|2|8,1:2|0:2|0:2,0:2:0:0:
180,167,139614,1,2,0:2:0:0:
88,85,139769,1,2,1:2:0:0:
179,12,139923,1,2,0:2:0:0:
282,209,140078,5,2,0:2:0:0:
391,111,140233,1,2,1:2:0:0:
282,209,140387,1,2,1:2:0:0:
402,336,140542,1,2,0:2:0:0:
512,223,140696,2,0,P|480:121|461:32,1,191.999994140625,10|2,0:2|0:2,0:2:0:0:
462,37,141160,1,2,0:2:0:0:
297,130,141315,6,0,P|250:134|212:100,1,83.9999974365235,2|0,1:2|0:2,0:2:0:0:
214,111,141624,2,0,P|207:85|216:58,1,55.9999982910157,2|0,0:2|0:2,0:2:0:0:
0,158,141934,2,0,P|57:166|101:129,1,120,10|0,0:2|0:2,0:2:0:0:
108,128,142243,2,0,P|111:89|91:55,1,80,2|0,1:2|0:2,0:2:0:0:
317,314,142552,2,0,P|284:266|226:259,1,120.000004577637,2|0,0:2|1:2,0:2:0:0:
27,342,142861,2,0,P|81:362|130:332,1,120.000004577637,2|0,1:2|0:2,0:2:0:0:
231,3,143171,2,0,P|294:29|305:94,1,136.000002593994,10|0,0:2|0:2,0:2:0:0:
512,373,143480,2,0,P|423:297|463:159,1,272.000005187988,8|4,0:3|0:2,0:2:0:0:
459,161,144408,6,0,P|506:201|511:263,1,128,8|0,0:2|0:2,0:2:0:0:
275,384,145026,2,0,P|230:340|228:277,1,128,2|0,0:2|0:2,0:2:0:0:
228,277,145490,1,0,0:2:0:0:
101,346,145645,2,0,P|26:293|33:198,1,192,8|0,0:2|0:2,0:2:0:0:
0,87,146263,2,0,P|52:100|130:123,1,128,2|0,0:2|0:2,0:2:0:0:
425,266,146882,2,0,P|336:251|281:324,1,192,8|0,0:2|0:2,0:2:0:0:
427,384,147501,2,0,P|454:250|480:115,1,256,2|8,0:2|0:2,0:2:0:0:
476,132,148738,6,0,P|413:119|353:98,1,128,6|0,0:2|0:2,0:2:0:0:
353,98,149202,1,0,0:2:0:0:
262,218,149356,2,0,P|290:208|327:199,1,64,8|0,0:2|0:2,0:2:0:0:
214,49,149665,2,0,P|244:40|275:30,1,64,0|0,0:2|0:2,0:2:0:0:
169,161,149975,2,0,P|77:164|21:239,1,192,2|0,0:2|0:2,0:2:0:0:
14,320,150593,2,0,P|23:347|31:381,1,64,8|0,0:2|0:2,0:2:0:0:
109,303,150903,1,0,0:2:0:0:
109,303,151057,1,0,0:2:0:0:
182,366,151212,5,6,0:2:0:0:
252,320,151367,1,0,0:2:0:0:
316,369,151521,1,0,0:2:0:0:
379,322,151676,1,0,0:2:0:0:
446,378,151830,2,0,P|489:334|491:271,1,128,8|0,0:2|0:2,0:2:0:0:
490,270,152294,1,0,0:2:0:0:
427,216,152449,2,0,P|364:209|299:194,1,128,2|0,0:2|0:2,0:2:0:0:
230,234,152913,2,0,P|221:264|222:296,1,64,2|8,0:2|0:2,0:2:0:0:
123,377,153222,2,0,P|77:334|78:272,1,128,2|0,0:2|0:2,0:2:0:0:
251,71,153686,6,0,P|110:105|-7:131,1,256,4|8,1:2|0:2,0:2:0:0:
54,18,154614,2,0,P|92:11|137:3,1,64,0|0,1:2|3:3,0:2:0:0:
203,174,154923,2,0,P|269:178|316:137,1,128,2|0,0:2|1:2,0:2:0:0:
314,140,155387,1,0,0:2:0:0:
453,22,155542,2,0,P|435:88|421:157,1,128,8|0,0:2|0:2,0:2:0:0:
422,146,156006,1,0,1:2:0:0:
500,283,156160,2,0,P|503:249|514:217,1,64,2|0,1:2|0:2,0:2:0:0:
329,267,156470,2,0,P|325:233|315:201,1,64,2|0,0:2|0:2,0:2:0:0:
485,384,156779,2,0,P|404:336|321:381,1,192,10|0,0:2|0:2,0:2:0:0:
137,329,157397,5,2,0:2:0:0:
206,362,157552,1,0,1:2:0:0:
236,289,157707,2,0,P|229:255|231:223,1,64,0|0,1:2|0:2,0:2:0:0:
136,150,158016,2,0,P|90:189|20:178,1,128,8|0,0:2|0:2,0:2:0:0:
7,107,158480,1,0,1:2:0:0:
299,63,158635,6,0,P|346:73|418:86,1,96,2|0,1:1|0:2,0:2:0:0:
396,71,158944,2,0,L|465:53,1,64,0|0,1:2|0:2,0:2:0:0:
335,248,159253,2,0,L|355:354,1,96,10|0,0:2|0:2,0:2:0:0:
427,371,159562,1,0,1:2:0:0:
427,371,159717,1,0,1:2:0:0:
215,230,159872,5,2,1:2:0:0:
107,348,160026,1,0,1:2:0:0:
0,178,160181,1,2,1:2:0:0:
166,157,160336,1,0,1:2:0:0:
8,304,160490,5,8,1:1:0:0:
294,21,160800,5,2,1:2:0:0:
294,21,161109,5,8,1:3:0:0:
127,90,161263,1,8,1:3:0:0:
354,206,161418,1,8,1:3:0:0:
107,298,161573,1,8,1:3:0:0:
347,384,161727,1,8,1:1:0:0:
347,384,162037,5,8,1:3:0:0:
204,197,162191,1,8,1:3:0:0:
204,197,162501,1,8,1:3:0:0:
494,156,162655,1,8,1:3:0:0:
494,156,162964,1,8,1:3:0:0:
234,26,163119,1,8,1:3:0:0:
349,260,163274,1,8,1:3:0:0:
476,43,163428,1,8,1:3:0:0:
164,189,163583,6,0,P|105:163|93:59,2,176.000005371094,6|2|10,1:2|0:2|0:2,0:2:0:0:
164,189,164511,2,0,P|125:199|73:216,1,88.000002685547,2|8,1:2|0:3,0:2:0:0:
316,384,164820,2,0,P|359:309|344:224,1,176.000005371094,2|2,1:2|0:2,0:2:0:0:
273,288,165284,1,0,1:2:0:0:
452,355,165439,2,0,P|463:306|480:258,1,88.000002685547,10|0,0:2|0:2,0:2:0:0:
254,2,165748,2,0,P|304:41|305:105,1,132.00000402832,0|0,1:2|0:2,0:2:0:0:
239,150,166057,6,0,P|325:124|422:106,1,176.000005371094,2|2,0:2|0:2,0:2:0:0:
512,189,166521,1,2,1:2:0:0:
409,107,166676,1,8,0:2:0:0:
301,301,166830,2,0,P|341:284|389:278,1,88.000002685547,2|0,0:2|1:2,0:2:0:0:
114,137,167140,1,2,0:2:0:0:
161,19,167294,6,0,P|229:70|232:155,1,176.000005371094,2|0,1:2|0:2,0:2:0:0:
87,262,167758,1,0,1:2:0:0:
26,162,167913,1,10,0:2:0:0:
205,247,168068,1,0,1:2:0:0:
27,384,168222,2,0,P|14:335|-5:293,1,88.000002685547,2|0,0:2|0:2,0:2:0:0:
317,224,168531,6,0,B|406:224|390:277|471:300,2,176.000005371094,2|2|10,1:2|0:2|0:2,0:2:0:0:
317,224,169459,2,0,P|306:272|299:328,1,88.000002685547,0|0,1:2|0:2,0:2:0:0:
509,194,169769,2,0,B|497:103|442:123|436:27,1,176.000005371094,2|2,1:2|1:2,0:2:0:0:
512,5,170233,1,0,1:2:0:0:
316,130,170387,2,0,P|265:122|225:106,1,88.000002685547,10|0,0:2|0:2,0:2:0:0:
413,366,170696,2,0,P|454:317|440:251,1,132.00000402832,0|0,1:2|0:2,0:2:0:0:
357,292,171006,6,0,B|252:303|277:343|195:354,1,176.000005371094,2|2,0:2|0:2,0:2:0:0:
65,160,171470,1,2,1:2:0:0:
208,209,171624,1,10,0:2:0:0:
65,384,171779,1,2,0:2:0:0:
7,256,171934,1,2,0:2:0:0:
195,353,172088,1,2,0:2:0:0:
300,99,172243,5,2,1:2:0:0:
121,255,172397,1,2,0:2:0:0:
338,374,172552,1,2,1:2:0:0:
433,168,172707,1,2,0:2:0:0:
178,177,172861,2,0,P|126:167|92:149,1,88.000002685547,10|0,0:2|0:2,0:2:0:0:
389,85,173171,2,0,P|411:46|422:4,1,88.000002685547,8|0,0:3|0:2,0:2:0:0:
338,374,173480,6,0,P|288:302|304:212,1,176.000005371094,2|2,1:2|0:2,0:2:0:0:
377,248,173944,1,2,0:2:0:0:
186,370,174098,1,10,0:2:0:0:
107,140,174253,1,2,0:2:0:0:
300,218,174408,1,2,1:2:0:0:
77,321,174562,1,8,0:3:0:0:
303,64,174717,5,2,1:2:0:0:
314,61,174820,2,0,L|334:142,1,58.6666684570313,2|2,0:2|0:2,0:2:0:0:
467,279,175026,2,0,P|491:244|491:201,1,88.000002685547,2|0,1:2|1:2,0:2:0:0:
202,280,175336,2,0,P|131:298|75:321,1,132.00000402832,10|0,0:2|0:2,0:2:0:0:
63,321,175645,2,0,P|34:290|31:246,1,88.000002685547,0|0,1:2|0:2,0:2:0:0:
280,0,175954,6,0,P|347:51|349:136,1,176.000005371094,2|2,0:2|1:2,0:2:0:0:
252,94,176418,1,2,0:2:0:0:
457,234,176573,2,0,P|475:191|481:144,1,88.000002685547,10|0,0:2|0:2,0:2:0:0:
187,206,176882,1,2,1:2:0:0:
323,362,177037,1,2,0:2:0:0:
348,136,177191,5,2,1:2:0:0:
188,292,177346,1,0,1:2:0:0:
15,182,177501,2,0,P|24:134|37:96,1,88.000002685547,2|0,1:2|0:2,0:2:0:0:
333,273,177810,2,0,B|433:285|412:329|510:351,1,176.000005371094,10|0,0:2|1:2,0:2:0:0:
499,243,178274,1,0,0:2:0:0:
211,344,178428,6,0,P|145:273|157:188,1,176.000005371094,2|0,1:2|0:2,0:2:0:0:
151,199,179047,2,0,P|181:166|233:157,1,88.000002685547,10|0,0:2|0:2,0:2:0:0:
272,13,179356,2,0,P|316:20|351:58,1,88.000002685547,2|0,1:2|0:2,0:2:0:0:
501,289,179665,2,0,P|420:287|375:187,1,176.000005371094,2|0,1:2|0:2,0:2:0:0:
372,212,180129,1,0,0:2:0:0:
460,111,180284,2,0,P|488:153|495:203,1,88.000002685547,10|0,0:2|0:2,0:2:0:0:
322,379,180593,2,0,P|297:336|290:294,1,88.000002685547,2|0,1:2|0:2,0:2:0:0:
158,149,180903,6,0,B|69:160|77:202|-2:222,1,176.000005371094,2|0,1:2|0:2,0:2:0:0:
0,221,181367,1,0,0:2:0:0:
112,36,181521,2,0,P|146:50|210:62,1,88.000002685547,10|0,0:2|0:2,0:2:0:0:
132,328,181830,2,0,P|83:313|21:305,1,88.000002685547,2|0,1:2|0:2,0:2:0:0:
261,132,182140,5,0,1:2:0:0:
411,320,182294,1,8,0:3:0:0:
512,153,182449,1,4,0:3:0:0:
512,153,182758,1,8,0:2:0:0:
346,165,182913,1,4,0:3:0:0:
271,284,183068,1,4,0:3:0:0:
342,384,183222,1,4,0:3:0:0:
508,252,183377,6,0,B|504:158|462:179|445:89,2,176.000005371094,6|2|10,1:2|0:2|0:2,0:2:0:0:
508,252,184305,2,0,P|463:262|415:276,1,88.000002685547,0|8,1:2|0:3,0:2:0:0:
142,72,184614,2,0,P|208:100|318:109,1,176.000005371094,2|2,1:2|0:2,0:2:0:0:
272,18,185078,1,0,1:2:0:0:
74,149,185233,2,0,P|58:114|46:48,1,88.000002685547,10|0,0:2|0:2,0:2:0:0:
311,201,185542,2,0,P|279:261|273:344,1,132.00000402832,0|0,1:2|0:2,0:2:0:0:
187,348,185851,6,0,B|102:336|125:284|32:262,1,176.000005371094,2|0,0:2|0:2,0:2:0:0:
39,355,186315,1,2,1:2:0:0:
184,234,186470,1,8,0:2:0:0:
48,172,186624,2,0,P|34:130|28:87,1,88.000002685547,2|0,0:2|1:2,0:2:0:0:
148,135,186934,1,2,0:2:0:0:
362,56,187088,6,0,P|290:4|203:26,1,176.000005371094,2|0,1:2|0:2,0:2:0:0:
295,245,187552,1,0,1:2:0:0:
450,98,187707,1,10,0:2:0:0:
272,111,187861,1,0,1:2:0:0:
427,257,188016,2,0,P|469:247|519:236,1,88.000002685547,2|0,0:2|0:2,0:2:0:0:
222,362,188325,6,0,P|171:291|183:206,2,176.000005371094,2|2|10,1:2|0:2|0:2,0:2:0:0:
222,362,189253,2,0,P|178:370|125:388,1,88.000002685547,0|0,1:2|0:2,0:2:0:0:
347,172,189562,2,0,P|351:85|290:24,1,176.000005371094,2|2,1:2|1:2,0:2:0:0:
238,93,190026,1,0,1:2:0:0:
427,224,190181,2,0,P|473:218|517:203,1,88.000002685547,10|0,0:2|0:2,0:2:0:0:
179,262,190490,2,0,P|107:274|46:307,1,132.00000402832,0|0,1:2|0:2,0:2:0:0:
58,383,190800,6,0,B|51:298|5:317|0:220,1,176.000005371094,2|0,0:2|0:2,0:2:0:0:
116,76,191263,1,2,1:2:0:0:
272,213,191418,1,10,0:2:0:0:
358,93,191573,1,2,0:2:0:0:
133,190,191727,1,2,0:2:0:0:
272,346,191882,1,2,0:2:0:0:
404,168,192037,5,2,1:2:0:0:
147,298,192191,1,2,0:2:0:0:
404,168,192346,1,2,1:2:0:0:
190,128,192501,1,2,0:2:0:0:
406,384,192655,2,0,P|437:327|427:263,1,132.00000402832,8|0,0:2|0:2,0:2:0:0:
424,255,192964,2,0,P|379:258|333:274,1,88.000002685547,8|0,0:3|0:2,0:2:0:0:
119,35,193274,6,0,P|176:97|261:93,1,176.000005371094,2|2,1:2|0:2,0:2:0:0:
229,2,193738,1,2,0:2:0:0:
99,177,193892,1,10,0:2:0:0:
229,2,194047,1,2,0:2:0:0:
347,242,194202,1,2,1:2:0:0:
463,70,194356,1,8,0:3:0:0:
223,262,194511,5,2,1:2:0:0:
210,263,194614,2,0,L|195:206,1,58.6666684570313,2|2,0:2|0:2,0:2:0:0:
358,52,194820,2,0,P|346:91|339:145,1,88.000002685547,2|0,1:2|1:2,0:2:0:0:
0,137,195129,2,0,P|53:70|139:62,1,176.000005371094,10|0,0:2|1:2,0:2:0:0:
138,61,195593,1,0,3:2:0:0:
339,137,195748,6,0,P|423:129|473:59,1,176.000005371094,2|0,0:2|1:2,0:2:0:0:
369,31,196212,1,2,0:2:0:0:
231,210,196367,2,0,P|242:250|255:317,1,88.000002685547,8|0,0:2|0:2,0:2:0:0:
506,332,196676,1,2,1:2:0:0:
404,188,196830,1,2,0:2:0:0:
376,383,196985,5,2,1:2:0:0:
512,220,197140,1,0,1:2:0:0:
330,101,197294,2,0,P|290:113|238:122,1,88.000002685547,2|0,1:2|0:2,0:2:0:0:
81,297,197604,2,0,P|11:247|8:162,1,176.000005371094,10|0,0:2|1:2,0:2:0:0:
71,110,198068,1,0,0:2:0:0:
279,256,198222,6,0,B|365:263|345:297|438:324,1,176.000005371094,2|0,1:2|0:2,0:2:0:0:
438,324,198841,2,0,P|462:288|460:245,1,88.000002685547,10|0,0:2|0:2,0:2:0:0:
512,141,199150,2,0,P|488:104|447:90,1,88.000002685547,2|0,1:2|0:2,0:2:0:0:
125,180,199459,2,0,B|215:147|180:101|262:76,1,176.000005371094,2|0,1:2|0:2,0:2:0:0:
262,76,199923,1,0,0:2:0:0:
331,238,200078,2,0,P|360:206|366:163,1,88.000002685547,10|0,0:2|0:2,0:2:0:0:
126,0,200387,2,0,P|96:28|90:87,1,88.000002685547,2|0,1:2|0:2,0:2:0:0:
93,384,200696,6,0,P|29:327|35:243,1,176.000005371094,2|0,1:2|0:2,0:2:0:0:
35,243,201160,1,0,0:2:0:0:
155,145,201315,2,0,P|192:156|246:178,1,88.000002685547,10|0,0:2|0:2,0:2:0:0:
451,347,201624,2,0,P|412:357|361:376,1,88.000002685547,2|0,1:2|0:2,0:2:0:0:
213,62,201934,5,0,1:2:0:0:
407,177,202088,1,8,0:3:0:0:
247,345,202243,1,4,0:3:0:0:
142,230,202397,1,4,0:3:0:0:
395,48,202552,2,0,P|435:61|494:70,1,88.000002685547,8|0,0:3|0:2,0:2:0:0:
355,291,202861,2,0,P|406:297|451:311,1,88.000002685547,4|0,0:3|0:2,0:2:0:0:
148,133,203171,6,0,B|58:149|92:189|0:220,1,160,6|0,1:2|0:2,0:2:0:0:
14,214,203635,1,0,3:2:0:0:
177,381,203789,2,0,P|183:353|193:324,1,40,10|0,0:2|0:2,0:2:0:0:
182,326,204098,2,0,P|136:321|92:305,1,80,2|8,1:2|0:3,0:2:0:0:
396,383,204408,2,0,P|463:331|460:248,1,160,2|0,1:2|0:2,0:2:0:0:
465,260,204872,1,0,1:2:0:0:
308,255,205026,2,0,P|289:212|282:167,1,80,8|0,0:2|0:2,0:2:0:0:
408,51,205336,1,0,1:2:0:0:
408,51,205490,1,2,0:2:0:0:
322,10,205645,6,0,P|279:19|238:35,1,80,2|0,1:2|0:2,0:2:0:0:
411,215,205954,2,0,P|431:172|438:115,1,80,2|0,0:2|0:2,0:2:0:0:
130,60,206263,1,10,0:2:0:0:
130,60,206573,2,0,P|147:99|160:154,1,80,2|0,1:2|0:2,0:2:0:0:
83,329,206882,6,0,P|42:279|58:216,1,120,2|0,1:2|0:2,0:2:0:0:
57,221,207191,2,0,P|93:229|146:248,1,80,2|0,0:2|1:2,0:2:0:0:
252,139,207501,2,0,P|288:130|341:112,1,80,10|0,0:2|0:2,0:2:0:0:
396,278,207810,2,0,P|438:289|480:305,1,80,10|0,0:3|1:2,0:2:0:0:
199,384,208119,6,0,B|214:281|259:317|270:227,1,160,2|0,1:2|0:2,0:2:0:0:
267,242,208583,1,0,3:2:0:0:
140,87,208738,2,0,P|133:100|127:132,1,40,10|0,0:2|0:2,0:2:0:0:
130,134,209047,2,0,P|90:124|38:108,1,80,2|0,1:2|0:2,0:2:0:0:
112,363,209356,2,0,P|127:326|135:286,1,80,2|8,1:2|0:3,0:2:0:0:
47,274,209665,1,2,0:0:0:0:
47,274,209820,1,0,1:2:0:0:
221,361,209975,2,0,P|279:325|380:355,1,160,8|0,0:2|1:2,0:2:0:0:
457,188,210439,1,2,0:2:0:0:
398,244,210593,6,0,P|356:228|313:218,1,80,2|0,1:2|0:2,0:2:0:0:
137,143,210903,2,0,P|179:133|221:117,1,80,2|0,0:2|0:2,0:2:0:0:
394,0,211212,1,10,0:2:0:0:
394,0,211521,2,0,P|408:29|419:92,1,80,2|0,1:2|0:2,0:2:0:0:
222,237,211830,5,2,1:2:0:0:
295,104,211985,1,0,1:2:0:0:
433,282,212140,2,0,P|443:232|461:191,1,80,2|0,1:2|0:2,0:2:0:0:
145,198,212449,2,0,P|160:156|169:113,1,80,10|0,0:2|0:2,0:2:0:0:
317,251,212758,2,0,P|327:209|343:161,1,80,8|0,0:3|0:2,0:2:0:0:
63,368,213068,6,0,P|127:309|211:327,1,160,2|0,1:2|0:2,0:2:0:0:
194,316,213531,1,0,3:2:0:0:
338,173,213686,2,0,L|324:123,1,40,10|0,0:2|0:2,0:2:0:0:
317,129,213995,2,0,P|280:138|223:147,1,80,2|8,1:2|0:3,0:2:0:0:
299,384,214305,2,0,B|390:362|360:321|456:311,1,160,2|0,1:2|0:2,0:2:0:0:
439,313,214769,1,0,1:2:0:0:
285,293,214923,2,0,P|275:250|258:210,1,80,8|0,0:2|0:2,0:2:0:0:
448,58,215233,1,0,1:2:0:0:
448,58,215387,1,2,0:2:0:0:
351,63,215542,6,0,P|312:57|259:40,1,80,2|0,1:2|0:2,0:2:0:0:
420,240,215851,2,0,P|426:196|441:149,1,80,2|0,0:2|0:2,0:2:0:0:
165,89,216160,1,10,0:2:0:0:
165,89,216470,2,0,P|155:131|146:174,1,80,2|0,1:2|0:2,0:2:0:0:
353,366,216779,5,2,1:2:0:0:
229,291,216934,1,0,1:2:0:0:
107,380,217088,1,0,1:2:0:0:
107,380,217397,2,0,P|91:338|84:288,1,80,10|0,0:2|0:2,0:2:0:0:
294,156,217707,1,0,1:2:0:0:
394,244,217861,1,0,1:2:0:0:
294,156,218016,6,0,B|206:174|224:204|136:230,1,160,2|0,1:2|0:2,0:2:0:0:
151,225,218480,1,0,3:2:0:0:
17,72,218635,2,0,L|61:81,1,40,10|0,0:2|0:2,0:2:0:0:
70,86,218944,2,0,P|82:39|85:-13,1,80,2|0,1:2|0:2,0:2:0:0:
340,180,219253,2,0,P|278:120|296:33,1,160,2|0,1:2|0:2,0:2:0:0:
349,3,219717,1,0,1:2:0:0:
487,163,219872,2,0,P|512:128|509:82,1,80,8|0,0:2|0:2,0:2:0:0:
407,104,220181,1,0,1:2:0:0:
407,104,220336,1,2,0:2:0:0:
321,272,220490,5,2,1:2:0:0:
255,198,220645,1,2,0:2:0:0:
425,248,220800,1,2,0:2:0:0:
299,384,220954,1,2,0:2:0:0:
141,284,221109,1,10,0:2:0:0:
141,284,221418,1,2,1:2:0:0:
443,169,221727,1,2,1:2:0:0:
251,33,221882,1,0,1:2:0:0:
409,0,222037,1,0,1:2:0:0:
409,0,222346,6,0,L|402:42,1,40,8|0,0:1|0:2,0:2:0:0:
