osu file format v14

[General]
AudioFilename: audio.mp3
AudioLeadIn: 0
PreviewTime: 123995
Countdown: 0
SampleSet: Soft
StackLeniency: 0.7
Mode: 0
LetterboxInBreaks: 0
WidescreenStoryboard: 1

[Editor]
Bookmarks: 25013,64611,79456,104199,159869,222343
DistanceSpacing: 1.2
BeatDivisor: 4
GridSize: 32
TimelineZoom: 1

[Metadata]
Title:Matsuri
TitleUnicode:まつり
Artist:Fujii Kaze
ArtistUnicode:藤井 風
Creator:AirinCat
Version:Easy
Source:
Tags:fuju kyouren japanese pop jpop j-pop r&b rnb rhythm and blues love all serve all festival KittyAdventure gokugohan12468
BeatmapID:4045486
BeatmapSetID:1902232

[Difficulty]
HPDrainRate:2
CircleSize:3
OverallDifficulty:2
ApproachRate:4
SliderMultiplier:1.4
SliderTickRate:1

[Events]
//Background and Video events
0,0,"7851d2641_p0.jpg",0,0
Video,-80,"matsuri.mp4"
//Break Periods
2,64814,73191
2,144405,152366
//Storyboard Layer 0 (Background)
//Storyboard Layer 1 (Fail)
//Storyboard Layer 2 (Pass)
//Storyboard Layer 3 (Foreground)
//Storyboard Layer 4 (Overlay)
//Storyboard Sound Samples

[TimingPoints]
5233,618.556701030928,4,2,1,60,1,0
5233,-100,4,2,1,60,0,0
5851,-100,4,2,1,60,0,0
7707,-100,4,2,1,60,0,0
8325,-100,4,2,1,60,0,0
10181,-100,4,2,1,60,0,0
10800,-100,4,2,1,60,0,0
12655,-100,4,2,1,60,0,0
13274,-100,4,2,1,60,0,0
15129,-100,4,2,1,60,0,0
15748,-100,4,2,1,60,0,0
17604,-100,4,2,1,60,0,0
18222,-100,4,2,1,60,0,0
25026,-100,4,2,1,50,0,0
64614,-100,4,2,1,40,0,0
69562,-100,4,2,1,40,0,0
79459,-100,4,2,1,50,0,0
81934,-100,4,2,1,60,0,0
83480,-100,4,2,1,70,0,0
84408,-100,4,2,1,70,0,0
123995,-100,4,2,2,70,0,1
124305,-100,4,2,2,70,0,0
125078,-100,4,2,2,70,0,1
125851,-100,4,2,2,70,0,0
126470,-100,4,2,2,70,0,1
127088,-100,4,2,2,70,0,0
127552,-100,4,2,2,70,0,1
128325,-100,4,2,2,70,0,0
128635,-100,4,2,2,70,0,0
128944,-100,4,2,2,70,0,1
130026,-100,4,2,2,70,0,1
130800,-100,4,2,2,70,0,0
131418,-100,4,2,2,70,0,0
133892,-100,4,2,1,50,0,0
141315,-100,4,2,1,50,0,0
141934,-100,4,2,1,50,0,0
142552,-100,4,2,1,50,0,0
143171,-100,4,2,1,50,0,0
144408,-100,4,2,1,40,0,0
158635,-100,4,2,1,50,0,0
161109,-100,4,2,1,60,0,0
163583,-100,4,2,1,70,0,0
203171,-100,4,2,1,60,0,0

[Colours]
Combo1 : 248,167,139
Combo2 : 250,141,141
Combo3 : 192,146,146

[HitObjects]
50,359,5233,6,0,B|41:294|4:295|0:225,1,140,2|8,1:2|0:2,0:2:0:0:
27,150,6160,1,0,1:2:0:0:
106,122,6470,2,0,B|172:130|162:155|238:164,1,140,2|8,1:2|0:2,0:2:0:0:
322,168,7397,1,2,1:2:0:0:
374,102,7707,1,2,1:2:0:0:
508,202,8325,2,0,P|500:241|495:278,1,70,10|0,0:2|1:2,0:2:0:0:
437,331,8944,2,0,B|386:304|386:304|343:325|296:326,1,140,2|10,1:2|0:2,0:2:0:0:
199,196,10181,6,0,B|201:123|238:133|247:66,1,140,2|10,1:2|0:2,0:2:0:0:
185,10,11109,1,0,1:2:0:0:
102,23,11418,2,0,B|99:95|63:86|53:152,1,140,2|8,1:2|0:2,0:2:0:0:
8,223,12346,1,2,1:2:0:0:
60,288,12655,1,2,1:2:0:0:
211,214,13274,2,0,P|250:219|293:231,1,70,10|2,0:2|1:2,0:2:0:0:
352,267,13892,2,0,P|406:226|411:158,1,140,2|10,1:2|0:2,0:0:0:0:
365,88,14820,1,2,1:3:0:0:
288,122,15129,5,2,1:2:0:0:
216,274,15748,2,0,P|182:280|133:297,1,70,10|0,0:2|1:2,0:2:0:0:
69,261,16367,2,0,B|51:197|88:179|65:121,1,140,2|8,1:2|0:2,0:2:0:0:
17,54,17294,1,2,1:2:0:0:
84,4,17604,2,0,P|145:18|225:29,1,140,2|10,1:2|0:2,0:2:0:0:
285,83,18531,1,2,1:2:0:0:
362,50,18841,2,0,P|394:57|437:61,2,70,2|0|10,1:2|1:2|0:2,0:0:0:0:
239,165,20078,6,0,P|216:223|213:316,1,140,2|10,1:2|0:2,0:2:0:0:
270,359,21006,1,2,1:2:0:0:
350,334,21315,2,0,B|378:315|415:322|415:322|439:354|481:364,1,140,2|10,1:2|0:2,0:2:0:0:
445,196,22552,2,0,B|449:136|482:139|494:57,1,140,2|10,1:2|0:2,0:2:0:0:
428,10,23480,1,2,1:2:0:0:
368,69,23789,2,0,P|336:78|296:88,1,70,2|0,1:2|1:2,0:0:0:0:
237,142,24408,2,0,P|207:132|168:123,1,70,10|2,0:2|1:3,0:2:0:0:
126,51,25026,5,0,1:2:0:0:
1,164,25645,2,0,P|15:197|44:306,1,140,10|2,0:2|0:2,0:2:0:0:
100,358,26573,1,2,1:2:0:0:
175,321,26882,1,10,0:2:0:0:
342,336,27501,2,0,B|349:267|384:275|388:206,1,140,2|8,1:2|0:2,0:2:0:0:
366,124,28428,1,0,1:2:0:0:
283,106,28738,2,0,P|220:121|146:134,1,140,0|8,1:2|0:2,0:0:0:0:
65,110,29665,1,0,1:2:0:0:
88,29,29975,5,0,1:2:0:0:
254,23,30593,2,0,P|288:18|322:9,1,70,10|0,0:2|1:2,0:2:0:0:
401,38,31212,2,0,P|442:92|436:160,1,140,2|10,1:2|0:2,0:0:0:0:
445,244,32140,2,0,P|484:250|516:264,2,70,2|0|2,0:2|1:2|0:2,0:2:0:0:
382,299,33068,1,8,0:2:0:0:
285,161,33686,6,0,P|208:177|138:187,1,140,0|8,1:2|0:2,0:0:0:0:
88,245,34614,1,8,0:3:0:0:
13,207,34923,2,0,P|1:167|-1:127,1,70,0|2,1:2|0:2,0:0:0:0:
40,65,35542,2,0,P|79:73|116:74,1,70,10|2,0:2|0:2,0:2:0:0:
189,97,36160,2,0,P|229:64|318:68,1,140,2|10,0:2|0:2,0:0:0:0:
392,94,37088,2,0,P|424:82|470:65,2,70,2|0|0,0:2|1:2|0:0,0:2:0:0:
363,173,38016,1,8,0:2:0:0:
300,329,38635,2,0,P|221:346|156:366,1,140,0|10,1:2|0:2,0:2:0:0:
85,334,39562,1,0,1:2:0:0:
128,261,39872,5,2,1:2:0:0:
24,128,40490,1,10,0:2:0:0:
156,24,41109,1,2,1:2:0:0:
256,158,41727,2,0,P|292:152|331:143,1,70,10|2,0:2|1:2,0:0:0:0:
406,162,42346,2,0,P|448:215|447:284,1,140,2|8,1:2|0:2,0:2:0:0:
302,369,43583,2,0,P|263:360|231:354,1,70,0|0,1:2|1:2,0:0:0:0:
192,281,44202,2,0,L|119:295,1,70,8|8,0:2|0:3,0:2:0:0:
63,352,44820,5,6,1:2:0:0:
3,293,45129,2,0,B|4:215|34:231|38:145,1,140,2|0,0:2|1:2,0:2:0:0:
11,78,46057,2,0,P|83:65|158:47,1,140,2|10,1:2|0:2,0:2:0:0:
204,112,46985,1,0,1:2:0:0:
287,117,47294,2,0,P|330:170|328:238,1,140,2|8,1:2|0:2,0:2:0:0:
271,300,48222,1,0,1:2:0:0:
313,372,48531,5,2,1:2:0:0:
481,367,49150,2,0,P|489:330|500:296,1,70,8|2,0:2|1:2,0:2:0:0:
445,234,49769,1,0,1:2:0:0:
361,239,50078,2,0,P|325:230|291:221,2,70,2|10|2,0:2|0:2|1:2,0:2:0:0:
367,155,51006,2,0,B|369:86|411:78|414:25,1,140,2|10,1:2|0:2,0:2:0:0:
332,6,51934,2,0,P|261:21|213:27,2,105,2|2|8,1:2|0:2|0:2,0:2:0:0:
469,102,53480,6,0,P|446:161|439:245,1,140,2|8,1:2|0:2,0:2:0:0:
483,307,54408,1,8,0:3:0:0:
427,369,54717,1,2,1:2:0:0:
347,341,55026,2,0,P|309:347|276:361,2,70,2|10|0,0:2|0:2|1:2,0:2:0:0:
318,261,55954,2,0,P|290:198|308:131,1,140,2|10,1:2|0:2,0:0:0:0:
368,73,56882,2,0,P|409:86|473:95,2,105,2|2|8,1:2|0:2|0:2,0:2:0:0:
206,119,58428,2,0,P|142:93|75:110,1,140,2|10,1:2|0:2,0:2:0:0:
20,174,59356,1,2,1:2:0:0:
42,254,59665,5,2,1:2:0:0:
200,198,60284,1,10,0:2:0:0:
353,266,60903,1,2,1:2:0:0:
498,181,61521,2,0,P|490:141|487:108,1,70,10|2,0:2|1:2,0:0:0:0:
414,69,62140,2,0,B|342:72|345:95|275:113,1,140,2|8,1:2|0:2,0:2:0:0:
216,57,63068,1,0,1:2:0:0:
140,93,63377,6,0,B|110:137|110:137|133:178|124:226,1,140,0|8,1:2|0:2,0:0:0:0:
52,264,64305,1,8,0:3:0:0:
4,194,64614,1,4,1:2:0:0:
90,268,74511,6,0,L|21:283,2,70,4|2|8,1:2|0:2|0:2,0:0:0:0:
155,214,75439,1,0,0:2:0:0:
231,247,75748,2,0,B|300:255|293:279|363:290,1,140,2|10,0:2|0:2,0:2:0:0:
503,197,76985,2,0,P|492:159|481:123,1,70,2|2,1:2|0:2,0:0:0:0:
412,83,77604,2,0,P|348:111|273:90,2,140,10|2|8,0:2|0:2|0:2,0:2:0:0:
429,249,79459,6,0,P|389:257|357:269,1,70,2|0,1:1|1:2,0:2:0:0:
310,334,80078,2,0,P|277:328|239:315,1,70,2|0,1:1|1:2,0:2:0:0:
158,310,80696,2,0,B|131:259|138:240|138:240|175:210|181:175,1,140,2|8,1:1|0:2,0:0:0:0:
135,115,81624,1,0,1:2:0:0:
201,63,81934,6,0,B|205:31|205:31|178:-16,2,70,8|8|8,1:1|1:1|0:2,0:0:0:0:
263,119,82861,1,0,1:2:0:0:
337,80,83171,2,0,P|370:86|409:92,1,70,8|2,0:2|1:1,0:0:0:0:
481,130,83789,1,10,0:1:0:0:
473,213,84098,1,12,0:3:0:0:
399,254,84408,6,0,P|362:250|319:240,1,70,6|2,1:2|0:2,0:2:0:0:
276,178,85026,1,10,0:2:0:0:
174,312,85645,2,0,P|142:316|99:330,1,70,2|2,1:2|0:2,0:2:0:0:
26,298,86263,2,0,P|14:264|8:230,1,70,10|0,0:2|1:2,0:2:0:0:
74,177,86882,2,0,P|127:174|179:143,2,105,2|2|0,0:2|1:2|1:2,0:2:0:0:
12,119,88119,2,0,P|1:80|-1:39,1,70,2|0,1:2|0:2,0:2:0:0:
67,2,88738,1,10,0:2:0:0:
142,37,89047,1,2,0:2:0:0:
215,78,89356,6,0,P|248:68|285:64,1,70,2|2,1:2|0:2,0:2:0:0:
349,12,89975,1,10,0:2:0:0:
483,111,90593,2,0,P|471:146|465:182,1,70,2|2,1:2|1:2,0:2:0:0:
402,234,91212,2,0,P|364:223|328:218,1,70,10|0,0:2|1:2,0:2:0:0:
274,159,91830,2,0,P|206:164|170:221,1,140,2|10,0:2|0:2,0:2:0:0:
41,329,93068,2,0,P|24:250|3:187,1,140,0|10,1:2|0:2,0:2:0:0:
26,112,93995,1,8,0:3:0:0:
110,115,94305,6,0,B|185:109|167:80|252:69,1,140,2|10,1:2|0:2,0:2:0:0:
311,116,95233,1,2,1:2:0:0:
392,94,95542,2,0,P|404:61|409:19,2,70,2|2|10,1:2|1:2|0:2,0:0:0:0:
443,160,96470,1,0,1:2:0:0:
421,241,96779,2,0,B|352:249|365:268|285:283,1,140,2|10,0:2|0:2,0:2:0:0:
208,255,97707,1,2,1:2:0:0:
136,299,98016,2,0,P|126:330|122:371,2,70,2|2|10,1:2|1:2|0:2,0:0:0:0:
84,232,98944,1,0,1:2:0:0:
8,269,99253,5,6,1:2:0:0:
8,100,99872,2,0,P|36:101|83:99,1,70,10|2,0:2|1:2,0:2:0:0:
145,148,100490,2,0,P|213:149|265:104,1,140,0|10,1:2|0:2,0:2:0:0:
286,23,101418,1,2,1:2:0:0:
369,23,101727,2,0,P|399:30|442:35,1,70,2|0,1:2|0:2,0:2:0:0:
489,101,102346,2,0,P|479:136|474:169,1,70,10|2,0:2|1:2,0:2:0:0:
393,193,102964,2,0,B|410:241|410:241|397:282|397:282|416:338,1,140,0|8,1:2|0:2,0:0:0:0:
342,372,103892,1,4,0:3:0:0:
274,321,104202,6,0,B|196:332|220:361|145:373,1,140,6|10,1:2|0:2,0:2:0:0:
81,319,105129,1,2,1:2:0:0:
93,235,105439,2,0,B|171:224|147:195|221:182,1,140,2|8,1:2|0:2,0:2:0:0:
388,182,106676,2,0,P|426:125|412:58,1,140,2|10,1:2|0:2,0:2:0:0:
337,20,107604,1,2,1:2:0:0:
269,70,107913,2,0,P|230:76|187:88,1,70,2|0,1:2|0:2,0:2:0:0:
131,36,108531,1,10,0:2:0:0:
47,46,108841,1,4,0:3:0:0:
14,123,109150,6,0,B|16:165|40:192|40:192|52:224|39:267,1,140,2|10,1:2|0:2,0:2:0:0:
9,333,110078,1,2,1:2:0:0:
77,380,110387,2,0,B|133:348|133:348|171:356|220:341,1,140,2|8,1:2|0:2,0:2:0:0:
372,376,111624,2,0,P|406:316|394:249,1,140,2|10,1:2|0:2,0:2:0:0:
314,220,112552,1,2,1:2:0:0:
286,140,112861,2,0,P|297:100|307:62,1,70,2|2,1:2|1:2,0:0:0:0:
378,33,113480,2,0,P|413:41|447:49,1,70,10|8,0:2|0:3,0:2:0:0:
504,109,114098,6,0,P|486:175|484:250,1,140,2|10,1:2|0:2,0:2:0:0:
505,327,115026,1,2,1:2:0:0:
435,373,115336,2,0,B|369:365|375:343|291:339,1,140,2|8,1:2|0:2,0:2:0:0:
160,245,116573,2,0,P|154:177|198:125,1,140,2|10,1:2|0:2,0:2:0:0:
279,103,117501,1,2,1:2:0:0:
343,157,117810,2,0,P|381:152|413:139,1,70,2|0,1:2|1:2,0:0:0:0:
478,189,118428,1,10,0:2:0:0:
374,321,119047,6,0,P|301:295|231:293,1,140,2|10,1:2|0:2,0:2:0:0:
164,331,119975,1,2,1:2:0:0:
81,343,120284,2,0,P|30:288|39:215,1,140,2|10,1:2|0:2,0:2:0:0:
24,58,121521,2,0,P|87:74|165:89,1,140,2|10,1:2|0:2,0:2:0:0:
225,142,122449,1,0,1:2:0:0:
308,133,122758,2,0,P|320:97|322:61,1,70,2|4,1:2|0:3,0:0:0:0:
391,17,123377,1,8,1:2:0:0:
472,35,123686,1,8,1:3:0:0:
494,115,123995,6,0,B|461:152|461:152|471:190|471:190|462:250,1,140,6|8,1:3|3:2,0:2:0:0:
352,301,125078,2,0,B|317:273|317:273|283:284|242:276,1,105,4|4,1:3|1:3,0:2:0:0:
207,210,125851,1,8,0:2:0:0:
75,105,126470,6,0,B|40:112|40:112|-7:152|18:219,1,140,4|8,1:3|3:2,0:2:0:0:
32,331,127552,2,0,B|59:311|59:311|93:322|134:305,1,105,4|4,1:3|1:3,0:2:0:0:
208,336,128325,1,8,0:2:0:0:
265,274,128635,5,2,1:1:0:0:
343,303,128944,2,2,B|364:278|403:275|403:275|440:298|480:302,1,140,4|8,1:1|0:2,0:1:0:0:
491,176,130026,2,0,B|487:131|487:131|471:101|437:98,1,105,4|4,1:3|1:3,0:2:0:0:
358,119,130800,1,8,3:2:0:0:
253,250,131418,6,0,L|106:285,1,140,4|4,1:3|1:3,0:2:0:0:
45,130,132655,2,0,L|187:99,1,140,4|4,1:3|1:3,0:2:0:0:
229,31,133583,1,2,0:3:0:0:
311,48,133892,6,0,P|318:83|332:126,1,70,6|2,1:2|0:2,0:2:0:0:
401,157,134511,1,10,0:2:0:0:
451,224,134820,1,2,1:2:0:0:
420,302,135129,2,0,P|350:314|281:345,1,140,2|10,0:2|0:2,0:0:0:0:
149,244,136367,2,0,P|142:209|130:174,1,70,2|2,1:2|0:2,0:2:0:0:
162,98,136985,2,0,P|197:85|233:81,2,70,10|0|2,0:2|1:2|0:2,0:2:0:0:
91,51,137913,5,2,1:2:0:0:
26,104,138222,2,0,B|0:127|-7:169|-7:169|19:195|29:238,1,140,10|2,0:2|1:2,0:0:0:0:
146,342,139459,2,0,P|180:332|225:322,1,70,8|2,0:2|1:2,0:0:0:0:
279,271,140078,2,0,P|313:278|349:286,1,70,2|2,0:2|1:2,0:0:0:0:
411,340,140696,1,10,0:2:0:0:
500,197,141315,6,0,L|484:121,1,70,2|2,1:2|0:2,0:2:0:0:
416,80,141934,2,0,L|341:97,1,70,10|2,0:2|1:2,0:2:0:0:
287,153,142552,1,2,0:0:0:0:
212,114,142861,1,2,1:2:0:0:
144,164,143171,1,10,0:0:0:0:
64,137,143480,2,0,L|50:59,1,70,8|4,0:3|0:0,0:0:0:0:
22,153,153686,6,0,P|34:213|50:295,1,140,4|8,1:2|0:2,0:2:0:0:
119,336,154614,1,0,1:2:0:0:
196,303,154923,2,0,B|267:305|254:325|334:330,1,140,2|8,0:2|0:2,0:2:0:0:
488,266,156160,2,0,P|495:229|504:195,1,70,2|2,1:2|0:2,0:2:0:0:
448,133,156779,2,0,B|365:122|393:93|310:88,2,140,10|2|8,0:2|0:2|0:2,0:2:0:0:
295,204,158635,6,0,P|285:239|279:277,1,70,2|0,1:1|1:2,0:2:0:0:
324,342,159253,2,0,P|358:348|392:356,1,70,10|0,0:2|1:2,0:2:0:0:
469,323,159872,2,0,P|473:281|482:245,1,70,2|2,1:2|1:2,0:0:0:0:
421,192,160490,1,8,1:1:0:0:
480,132,160800,1,2,1:2:0:0:
433,62,161109,2,0,B|379:61|379:61|356:42|356:42|288:31,1,140,8|8,1:3|1:1,0:0:0:0:
244,95,162037,2,0,B|256:119|267:140|267:140|254:166|248:195,2,105,8|8|8,1:3|1:3|1:3,0:0:0:0:
173,49,163274,1,8,1:3:0:0:
113,108,163583,6,0,P|80:115|41:128,1,70,6|2,1:2|0:2,0:2:0:0:
12,203,164202,1,10,0:2:0:0:
174,246,164820,2,0,P|215:257|251:270,1,70,2|2,1:2|0:2,0:2:0:0:
314,225,165439,2,0,P|326:187|334:154,1,70,10|0,0:2|1:2,0:2:0:0:
298,81,166057,2,0,P|256:50|205:53,2,105,2|2|0,0:2|1:2|1:2,0:2:0:0:
372,42,167294,2,0,P|408:51|441:55,1,70,2|0,1:2|0:2,0:2:0:0:
502,112,167913,1,10,0:2:0:0:
450,178,168222,1,2,0:2:0:0:
503,242,168531,6,0,P|492:278|488:310,1,70,2|2,1:2|0:2,0:2:0:0:
426,367,169150,1,10,0:2:0:0:
268,308,169769,2,0,P|254:273|249:234,1,70,2|2,1:2|1:2,0:2:0:0:
177,197,170387,2,0,P|180:159|193:115,1,70,10|0,0:2|1:2,0:2:0:0:
257,80,171006,2,0,B|331:92|320:113|390:125,1,140,2|10,0:2|0:2,0:2:0:0:
403,292,172243,2,0,P|367:299|326:315,1,70,2|2,1:2|1:2,0:0:0:0:
279,372,172861,2,0,P|248:362|204:356,1,70,10|8,0:2|0:3,0:2:0:0:
138,314,173480,6,0,B|136:243|175:252|184:178,1,140,2|10,1:2|0:2,0:2:0:0:
165,101,174408,1,2,1:2:0:0:
85,73,174717,2,0,P|55:82|7:90,2,70,2|2|10,1:2|1:2|0:2,0:0:0:0:
130,2,175645,1,0,1:2:0:0:
213,13,175954,6,0,B|276:18|267:48|346:62,1,140,2|10,0:2|0:2,0:2:0:0:
418,23,176882,1,2,1:2:0:0:
483,76,177191,2,0,P|484:104|491:148,1,70,2|2,1:2|1:2,0:0:0:0:
450,219,177810,1,10,0:2:0:0:
370,192,178119,1,0,1:2:0:0:
312,253,178428,5,2,1:2:0:0:
151,202,179047,2,0,P|138:167|133:128,1,70,10|2,0:2|1:2,0:2:0:0:
138,50,179665,2,0,P|76:27|7:62,1,140,2|10,1:2|0:2,0:2:0:0:
9,140,180593,1,2,1:2:0:0:
44,216,180903,2,0,P|37:249|31:294,1,70,2|0,1:2|0:2,0:2:0:0:
83,351,181521,2,0,P|118:358|156:365,1,70,10|2,0:2|1:2,0:2:0:0:
228,330,182140,2,0,P|234:294|242:259,1,70,0|4,1:2|0:3,0:0:0:0:
180,203,182758,1,8,0:2:0:0:
206,123,183068,1,4,0:3:0:0:
289,111,183377,6,0,P|320:117|364:134,1,70,6|2,1:2|0:2,0:2:0:0:
381,209,183995,1,10,0:2:0:0:
294,352,184614,2,0,P|262:345|219:329,1,70,2|2,1:2|0:2,0:2:0:0:
181,261,185233,2,0,P|146:263|108:273,1,70,10|0,0:2|1:2,0:2:0:0:
34,240,185851,2,0,P|4:299|20:348,2,105,2|2|0,0:2|1:2|1:2,0:2:0:0:
82,171,187088,2,0,P|77:137|61:94,1,70,2|0,1:2|0:2,0:2:0:0:
109,31,187707,1,10,0:2:0:0:
192,19,188016,1,2,0:2:0:0:
263,63,188325,6,0,P|270:86|278:132,1,70,2|2,1:2|0:2,0:2:0:0:
227,198,188944,1,10,0:2:0:0:
371,282,189562,2,0,P|358:319|355:355,1,70,2|2,1:2|1:2,0:2:0:0:
433,381,190181,1,10,0:2:0:0:
503,334,190490,1,0,1:2:0:0:
466,258,190800,2,0,B|471:196|508:189|514:115,1,140,2|10,0:2|0:2,0:2:0:0:
390,11,192037,2,0,P|358:18|319:25,1,70,2|2,1:2|1:2,0:0:0:0:
264,85,192655,2,0,P|271:114|278:153,1,70,8|8,0:2|0:3,0:2:0:0:
226,220,193274,6,0,B|197:253|164:255|164:255|134:238|96:245,1,140,2|10,1:2|0:2,0:2:0:0:
36,189,194202,1,2,1:2:0:0:
81,118,194511,2,0,P|67:77|64:46,2,70,2|2|10,1:2|1:2|0:2,0:0:0:0:
161,143,195439,1,0,1:2:0:0:
235,104,195748,2,0,B|309:112|296:134|369:149,1,140,2|8,0:2|0:2,0:2:0:0:
412,219,196676,1,2,1:2:0:0:
492,196,196985,2,0,P|505:163|506:115,2,70,2|2|10,1:2|1:2|0:2,0:0:0:0:
509,278,197913,1,0,1:2:0:0:
455,342,198222,6,0,P|388:322|309:312,1,140,2|10,1:2|0:2,0:2:0:0:
238,285,199150,1,2,1:2:0:0:
163,323,199459,2,0,P|110:274|113:201,1,140,2|10,1:2|0:2,0:2:0:0:
129,127,200387,1,2,1:2:0:0:
212,132,200696,6,0,P|251:144|286:150,1,70,2|0,1:2|0:2,0:2:0:0:
330,216,201315,2,0,P|366:201|406:194,1,70,10|2,0:2|1:2,0:2:0:0:
461,141,201934,1,0,1:2:0:0:
378,9,202552,1,8,0:3:0:0:
299,38,202861,1,4,0:3:0:0:
220,69,203171,6,0,B|142:64|156:40|78:35,1,140,6|10,1:2|0:2,0:2:0:0:
9,72,204098,1,2,1:2:0:0:
50,145,204408,2,0,B|48:218|14:209|6:286,1,140,2|8,1:2|0:2,0:2:0:0:
146,371,205645,2,0,P|220:330|234:269,1,140,2|10,1:2|0:2,0:2:0:0:
189,209,206573,1,2,1:2:0:0:
254,156,206882,2,0,P|286:166|324:172,2,70,2|2|10,1:2|0:2|0:2,0:2:0:0:
204,87,207810,1,10,0:3:0:0:
261,25,208119,6,0,P|321:35|401:59,1,140,2|10,1:2|0:2,0:2:0:0:
474,25,209047,1,2,1:2:0:0:
507,102,209356,2,0,B|505:180|478:163|473:244,1,140,2|8,1:2|0:2,0:2:0:0:
325,315,210593,2,0,P|266:280|252:213,1,140,2|10,1:2|0:2,0:2:0:0:
312,153,211521,1,2,1:2:0:0:
264,83,211830,2,0,P|237:89|189:97,1,70,2|2,1:2|1:2,0:0:0:0:
147,165,212449,2,0,P|115:159|71:154,1,70,10|8,0:2|0:3,0:2:0:0:
33,226,213068,6,0,B|40:295|4:288|6:368,1,140,2|10,1:2|0:2,0:2:0:0:
89,352,213995,1,2,1:2:0:0:
168,378,214305,2,0,B|161:309|196:315|195:236,1,140,2|8,1:2|0:2,0:2:0:0:
114,94,215542,2,0,P|173:59|241:67,1,140,2|10,1:2|0:2,0:2:0:0:
306,120,216470,1,2,1:2:0:0:
380,81,216779,2,0,P|389:45|392:3,2,70,2|0|10,1:2|1:2|0:2,0:0:0:0:
438,141,217707,1,0,1:2:0:0:
435,224,218016,6,0,P|377:260|309:250,1,140,2|10,1:2|0:2,0:2:0:0:
253,187,218944,1,2,1:2:0:0:
194,127,219253,2,0,P|126:116|68:153,1,140,2|8,1:2|0:2,0:2:0:0:
128,310,220490,2,0,B|202:320|190:342|269:364,1,140,2|10,1:2|0:2,0:0:0:0:
334,325,221418,1,2,1:2:0:0:
286,255,221727,2,0,P|300:218|308:181,1,70,2|0,1:2|1:2,0:0:0:0:
386,159,222346,5,8,0:1:0:0:
