osu file format v14

[General]
AudioFilename: audio.mp3
AudioLeadIn: 0
PreviewTime: 58929
Countdown: 0
SampleSet: Soft
StackLeniency: 0.4
Mode: 0
LetterboxInBreaks: 0
WidescreenStoryboard: 1

[Editor]
Bookmarks: 59109,81760
DistanceSpacing: 3.3
BeatDivisor: 4
GridSize: 8
TimelineZoom: 1.9

[Metadata]
Title:Golden Time (TV Size)
TitleUnicode:Golden Time (TV Size)
Artist:Fujifabric
ArtistUnicode:フジファブリック
Creator:Smoke
Version:TheShadow x Blitzifyyy's Insane
Source:BORUTO-ボルト-NARUTO NEXT GENERATIONS
Tags:japanese anime op opening 5 j-rock rock uzumaki boruto うずまきボルト agatsu blitzifyyy theshadowofdark kittyadventure yshadowxop_ yshadowxop shadowx gokugohan12468
BeatmapID:2274392
BeatmapSetID:1070901

[Difficulty]
HPDrainRate:5.2
CircleSize:3.8
OverallDifficulty:8
ApproachRate:8.5
SliderMultiplier:1.6
SliderTickRate:1

[Events]
//Background and Video events
0,0,"boruto.jpg",0,0
Video,-272,"boruto opening 5.mp4"
//Break Periods
//Storyboard Layer 0 (Background)
//Storyboard Layer 1 (Fail)
//Storyboard Layer 2 (Pass)
//Storyboard Layer 3 (Foreground)
//Storyboard Layer 4 (Overlay)
//Storyboard Sound Samples

[TimingPoints]
360,333.333333333333,4,2,3,50,1,0
360,-125,4,2,3,50,0,0
3026,-125,4,2,1,55,0,0
3693,-125,4,2,1,60,0,0
4359,-125,4,2,1,65,0,0
4693,-125,4,2,1,70,0,0
5026,-125,4,2,1,75,0,0
5693,-100,4,2,1,70,0,0
7609,-100,4,2,1,5,0,0
7693,-100,4,2,1,70,0,0
12943,-100,4,2,1,5,0,0
13027,-100,4,2,1,70,0,0
16359,-125,4,2,1,55,0,0
16943,-125,4,2,1,5,0,0
17026,-125,4,2,1,55,0,0
25693,-111.111111111111,4,2,1,55,0,0
26943,-111.111111111111,4,2,1,5,0,0
27026,-111.111111111111,4,2,1,65,0,0
37693,-111.111111111111,4,2,1,60,0,0
40943,-111.111111111111,4,2,1,5,0,0
41026,-111.111111111111,4,2,1,60,0,0
56359,-111.111111111111,4,2,1,70,0,0
59026,-83.3333333333333,4,2,1,80,0,1
81693,-90.9090909090909,4,2,1,75,0,0
87026,-200,4,2,1,75,0,0
87359,-200,4,2,1,65,0,0
87693,-200,4,2,1,55,0,0
88026,-200,4,2,1,45,0,0
88359,-200,4,2,1,30,0,0
88693,-200,4,2,1,15,0,0
89026,-200,4,2,1,5,0,0

[Colours]
Combo1 : 104,91,223
Combo2 : 239,215,116
Combo3 : 120,135,241
Combo4 : 234,128,149

[HitObjects]
114,193,360,6,0,L|46:195,1,64,4|0,3:1|0:0,0:0:0:0:
145,105,693,2,0,L|213:107,1,64,0|0,3:2|0:0,0:0:0:0:
292,157,1026,2,0,L|360:155,1,64,0|0,3:2|0:0,0:0:0:0:
409,79,1359,2,0,L|407:33,2,32,0|0|0,3:2|0:0|0:0,0:0:0:0:
474,143,1693,6,0,L|470:218,1,64,0|0,3:2|0:0,0:0:0:0:
416,294,2026,2,0,P|384:303|340:294,1,64,0|0,3:2|0:0,0:0:0:0:
278,232,2359,2,0,P|246:223|202:232,1,64,0|0,3:2|0:0,0:0:0:0:
142,262,2693,1,6,3:2:0:0:
142,262,3026,5,10,3:2:0:0:
110,160,3193,1,0,3:2:0:0:
221,88,3359,1,0,3:2:0:0:
189,190,3526,1,0,3:2:0:0:
308,264,3693,5,10,3:2:0:0:
278,160,3860,1,0,3:2:0:0:
395,86,4026,1,0,3:2:0:0:
361,190,4193,1,0,3:2:0:0:
221,88,4359,5,10,3:2:0:0:
207,110,4443,1,10,0:0:0:0:
195,136,4526,1,8,0:0:0:0:
193,167,4609,1,10,0:0:0:0:
202,201,4693,1,10,3:2:0:0:
219,235,4776,1,8,0:0:0:0:
233,273,4859,1,8,0:0:0:0:
235,318,4943,1,10,0:0:0:0:
226,368,5026,5,2,3:2:0:0:
226,368,5693,6,0,L|138:371,1,80,4|0,3:1|0:0,0:0:0:0:
295,300,6026,2,0,L|383:303,1,80,10|0,0:0|0:0,0:0:0:0:
219,242,6359,1,2,3:2:0:0:
226,368,6526,1,2,3:2:0:0:
262,169,6693,2,0,P|225:157|168:174,1,80,8|0,0:0|0:0,0:0:0:0:
88,212,7026,5,2,3:2:0:0:
88,212,7193,1,0,3:2:0:0:
9,151,7359,2,0,L|13:67,1,80,10|0,0:0|0:0,0:0:0:0:
106,0,7693,1,2,3:2:0:0:
106,0,7859,1,2,3:2:0:0:
187,39,8026,2,0,P|228:46|266:39,1,80,10|0,0:0|0:0,0:0:0:0:
190,188,8359,6,0,P|175:148|150:119,1,80,2|0,3:2|0:0,0:0:0:0:
315,113,8693,2,0,P|288:145|275:181,1,80,10|0,0:0|0:0,0:0:0:0:
311,284,9026,1,2,3:2:0:0:
311,284,9193,1,2,3:2:0:0:
385,223,9359,2,0,L|471:226,1,80,8|2,0:0|0:0,0:0:0:0:
357,110,9693,5,0,3:2:0:0:
357,110,9860,1,2,3:2:0:0:
282,171,10026,2,0,L|196:168,1,80,10|2,0:0|0:0,0:0:0:0:
105,75,10359,2,0,L|191:72,1,80,2|2,3:2|3:2,0:0:0:0:
324,10,10693,1,10,0:0:0:0:
357,110,10859,1,10,0:0:0:0:
357,110,10943,1,8,0:0:0:0:
357,110,11026,6,0,P|366:153|348:201,1,80,4|0,3:1|0:0,0:0:0:0:
240,106,11359,2,0,P|231:63|249:15,1,80,10|0,0:0|0:0,0:0:0:0:
357,110,11693,1,2,3:2:0:0:
357,110,11859,1,2,3:2:0:0:
278,186,12026,2,0,L|197:185,1,80,8|0,0:0|0:0,0:0:0:0:
78,89,12359,5,2,3:2:0:0:
78,89,12526,1,0,3:2:0:0:
29,172,12693,2,0,P|20:215|34:260,1,80,10|0,0:0|0:0,0:0:0:0:
177,250,13026,2,0,P|144:220|98:210,1,80,2|2,3:2|3:2,0:0:0:0:
35,339,13359,2,0,P|76:325|108:290,1,80,10|0,0:0|0:0,0:0:0:0:
277,301,13693,6,0,L|283:389,1,80,2|0,3:2|0:0,0:0:0:0:
177,250,14026,2,0,L|183:162,1,80,10|0,0:0|0:0,0:0:0:0:
264,48,14359,1,2,3:2:0:0:
264,48,14526,1,2,3:2:0:0:
343,101,14693,2,0,P|385:110|426:100,1,80,8|2,0:0|0:0,0:0:0:0:
294,248,15026,6,0,L|291:161,1,80,0|2,3:2|3:2,0:0:0:0:
397,297,15359,2,0,L|394:384,1,80,10|2,0:0|3:2,0:0:0:0:
296,241,15693,1,10,0:0:0:0:
246,337,15860,1,2,3:2:0:0:
344,384,16027,1,10,0:0:0:0:
392,286,16193,1,10,0:0:0:0:
384,185,16359,5,4,3:1:0:0:
384,185,16526,1,0,3:2:0:0:
309,127,16693,2,0,B|247:108|247:165|170:134,1,128,10|2,0:0|0:0,0:0:0:0:
185,139,17359,1,8,0:0:0:0:
419,27,17693,5,2,3:2:0:0:
419,27,17859,1,2,3:2:0:0:
367,99,18026,2,0,L|369:247,1,128,8|2,0:0|0:0,0:0:0:0:
368,226,18693,1,8,0:0:0:0:
230,83,19026,5,2,3:2:0:0:
230,83,19193,1,2,3:2:0:0:
149,136,19359,2,0,B|118:151|80:134|99:134|55:108|18:129,1,128,10|2,0:0|0:0,0:0:0:0:
25,125,20026,1,10,0:0:0:0:
61,333,20359,5,2,3:2:0:0:
61,333,20526,1,2,3:2:0:0:
117,263,20693,1,10,0:0:0:0:
178,355,20859,2,0,B|372:348|177:360|371:354,1,192,2|8,0:0|0:0,0:0:0:0:
373,358,21693,5,2,3:2:0:0:
373,358,21859,1,2,3:2:0:0:
280,298,22026,2,0,P|235:242|259:181,1,128,10|2,0:0|0:0,0:0:0:0:
249,193,22693,1,8,0:0:0:0:
370,40,23026,5,2,3:2:0:0:
370,40,23193,1,2,3:2:0:0:
314,121,23359,2,0,B|250:103|250:103|191:120,1,128,8|2,0:0|0:0,0:0:0:0:
190,120,24026,1,8,0:0:0:0:
42,318,24359,5,2,3:2:0:0:
42,318,24526,1,2,3:2:0:0:
125,265,24693,2,0,P|181:295|234:265,1,128,10|2,0:0|0:0,0:0:0:0:
232,266,25359,1,10,0:0:0:0:
85,46,25693,5,10,0:0:0:0:
60,159,25859,1,8,3:3:0:0:
165,225,26026,1,8,3:3:0:0:
140,112,26193,2,0,B|210:81|210:133|287:113,1,143.999995605469,4|8,3:1|3:2,0:0:0:0:
159,4,26693,1,8,3:2:0:0:
163,8,27026,5,4,3:1:0:0:
163,8,27193,1,0,3:2:0:0:
254,66,27359,2,0,L|332:62,1,71.9999978027344,10|2,0:0|0:0,0:0:0:0:
250,162,27693,2,0,L|172:158,1,71.9999978027344,10|2,0:0|0:0,0:0:0:0:
254,258,28026,2,0,L|332:254,1,71.9999978027344,8|2,0:0|0:0,0:0:0:0:
173,356,28359,5,10,3:2:0:0:
173,356,28526,1,2,3:2:0:0:
103,290,28693,2,0,P|80:262|75:226,1,71.9999978027344,8|0,0:0|0:0,0:0:0:0:
199,172,29026,2,0,P|186:205|157:228,1,71.9999978027344,8|2,0:0|0:0,0:0:0:0:
48,147,29359,2,0,P|83:141|117:154,1,71.9999978027344,8|2,0:0|0:0,0:0:0:0:
254,258,29693,5,10,3:2:0:0:
254,258,29859,1,2,3:2:0:0:
341,222,30026,2,0,B|379:216|379:216|419:224,1,71.9999978027344,10|0,0:0|0:0,0:0:0:0:
495,145,30359,2,0,B|457:139|457:139|417:147,1,71.9999978027344,10|2,0:0|0:0,0:0:0:0:
341,68,30693,2,0,B|379:62|379:62|419:70,1,71.9999978027344,10|0,0:0|0:0,0:0:0:0:
288,157,31026,5,10,3:2:0:0:
288,157,31193,1,2,3:2:0:0:
220,95,31359,2,0,L|132:98,1,71.9999978027344,8|2,0:0|0:0,0:0:0:0:
39,192,31693,1,8,0:0:0:0:
37,92,31859,1,2,0:0:0:0:
7,275,32026,2,0,P|56:281|106:251,1,107.999996704102,8|0,0:0|0:0,0:0:0:0:
165,191,32359,5,10,3:2:0:0:
165,191,32526,1,2,3:2:0:0:
227,272,32693,2,0,L|224:357,1,71.9999978027344,10|2,0:0|0:0,0:0:0:0:
312,223,33026,2,0,L|309:138,1,71.9999978027344,10|2,0:0|0:0,0:0:0:0:
397,272,33359,2,0,L|394:357,1,71.9999978027344,8|2,0:0|0:0,0:0:0:0:
475,189,33693,5,10,3:2:0:0:
475,189,33859,1,2,3:2:0:0:
397,145,34026,2,0,P|359:138|315:149,1,71.9999978027344,8|0,0:0|0:0,0:0:0:0:
414,22,34359,2,0,P|426:58|458:91,1,71.9999978027344,8|2,0:0|0:0,0:0:0:0:
298,68,34693,2,0,P|323:38|335:-5,1,71.9999978027344,8|2,0:0|0:0,0:0:0:0:
397,145,35026,5,10,3:2:0:0:
397,145,35193,1,2,3:2:0:0:
326,206,35359,2,0,L|248:204,1,71.9999978027344,10|0,0:0|0:0,0:0:0:0:
169,114,35693,2,0,L|247:112,1,71.9999978027344,10|2,0:0|0:0,0:0:0:0:
150,209,36026,2,0,L|78:210,1,71.9999978027344,10|0,0:0|0:0,0:0:0:0:
35,64,36359,5,10,3:2:0:0:
33,178,36526,1,0,3:2:0:0:
127,42,36693,1,0,3:2:0:0:
124,132,36859,2,0,B|200:104|195:152|272:134,1,143.999995605469,4|8,3:1|0:0,0:0:0:0:
226,297,37359,1,8,0:0:0:0:
166,201,37526,1,8,0:0:0:0:
249,320,37693,6,0,B|311:291|311:291|319:291|319:291|384:324,1,143.999995605469,4|2,3:2|0:0,0:0:0:0:
477,376,38193,1,0,3:2:0:0:
477,376,38359,2,0,P|467:338|483:298,1,71.9999978027344,10|0,0:0|0:0,0:0:0:0:
397,216,38693,2,0,P|407:254|391:294,1,71.9999978027344,10|0,0:0|3:2,0:0:0:0:
284,356,39026,6,0,B|359:336|359:383|433:362,1,143.999995605469,2|2,0:0|0:0,0:0:0:0:
281,201,39693,2,0,L|283:282,1,71.9999978027344,10|0,0:0|0:0,0:0:0:0:
184,189,40026,2,0,L|186:108,1,71.9999978027344,10|0,0:0|0:0,0:0:0:0:
273,44,40359,6,0,B|337:43|337:43|351:49|351:49|425:48,1,143.999995605469,2|2,3:2|0:0,0:0:0:0:
415,48,41026,1,10,0:0:0:0:
493,171,41193,2,0,L|495:92,1,71.9999978027344,2|8,0:0|0:0,0:0:0:0:
377,169,41526,1,2,3:2:0:0:
377,169,41859,6,0,L|379:248,1,71.9999978027344,0|0,3:2|0:0,0:0:0:0:
380,361,42193,1,0,3:2:0:0:
380,361,42359,2,0,P|416:355|452:363,1,71.9999978027344,10|0,0:0|0:0,0:0:0:0:
314,301,42693,2,0,P|278:295|242:303,1,71.9999978027344,10|10,0:0|0:0,0:0:0:0:
140,374,43026,6,0,P|164:340|90:274,1,143.999995605469,6|2,3:2|0:0,0:0:0:0:
109,270,43693,2,0,L|195:264,1,71.9999978027344,10|0,0:0|0:0,0:0:0:0:
265,192,44026,1,10,0:0:0:0:
265,192,44193,1,2,3:2:0:0:
179,84,44359,6,0,P|172:128|187:163,1,71.9999978027344,2|0,0:0|3:2,0:0:0:0:
266,261,44693,2,0,P|273:217|258:182,1,71.9999978027344,2|0,0:0|3:2,0:0:0:0:
161,271,45026,2,0,P|154:331|180:367,1,95.9999970703126,10|0,0:0|0:0,0:0:0:0:
211,377,45359,2,0,L|299:375,1,71.9999978027344,10|0,0:0|0:0,0:0:0:0:
377,297,45693,6,0,P|370:332|380:374,1,71.9999978027344,2|0,3:2|0:0,0:0:0:0:
480,235,46026,2,0,P|487:270|477:312,1,71.9999978027344,2|0,0:0|3:2,0:0:0:0:
348,186,46359,1,10,0:0:0:0:
348,186,46526,2,0,L|431:184,1,71.9999978027344,2|8,0:0|0:0,0:0:0:0:
284,279,46859,6,0,B|214:277|214:277|206:280|206:280|130:278,1,143.999995605469,2|0,3:2|3:2,0:0:0:0:
140,278,47526,1,0,3:2:0:0:
46,234,47693,2,0,P|36:274|42:320,1,71.9999978027344,10|0,3:2|3:2,0:0:0:0:
135,200,48026,2,0,P|145:160|139:114,1,71.9999978027344,8|10,0:0|0:0,0:0:0:0:
100,41,48359,6,0,B|175:73|175:18|263:63,1,143.999995605469,6|2,3:2|0:0,0:0:0:0:
332,113,48859,1,0,3:2:0:0:
332,113,49026,2,0,L|416:110,1,71.9999978027344,10|0,0:0|0:0,0:0:0:0:
282,196,49359,2,0,L|198:193,1,71.9999978027344,10|0,0:0|3:2,0:0:0:0:
115,119,49693,6,0,P|128:157|53:225,1,143.999995605469,2|2,0:0|0:0,0:0:0:0:
64,225,50359,2,0,P|56:267|72:313,1,71.9999978027344,10|0,0:0|0:0,0:0:0:0:
156,218,50693,2,0,P|164:176|148:130,1,71.9999978027344,10|0,0:0|0:0,0:0:0:0:
100,68,51026,6,0,P|167:47|236:99,1,143.999995605469,2|2,3:2|0:0,0:0:0:0:
297,178,51526,1,0,3:2:0:0:
297,178,51693,2,0,P|261:170|219:180,1,71.9999978027344,10|2,0:0|0:0,0:0:0:0:
316,270,52026,2,0,P|352:278|394:268,1,71.9999978027344,8|2,0:0|3:2,0:0:0:0:
386,271,52526,6,0,L|382:196,1,71.9999978027344,0|0,3:2|0:0,0:0:0:0:
339,91,52859,1,0,3:2:0:0:
258,158,53026,2,0,P|221:167|184:156,1,71.9999978027344,10|0,0:0|0:0,0:0:0:0:
92,72,53359,2,0,P|126:81|161:72,1,71.9999978027344,10|10,0:0|0:0,0:0:0:0:
59,155,53693,6,0,B|35:227|88:224|64:314,1,143.999995605469,6|2,3:2|0:0,0:0:0:0:
137,382,54193,1,0,3:2:0:0:
137,382,54359,2,0,L|212:379,1,71.9999978027344,10|0,0:0|0:0,0:0:0:0:
305,296,54693,2,0,L|230:293,1,71.9999978027344,10|0,0:0|3:2,0:0:0:0:
146,242,55026,6,0,B|147:174|147:174|154:166|154:166|153:91,1,143.999995605469,2|2,0:0|0:0,0:0:0:0:
153,100,55693,2,0,L|234:95,1,71.9999978027344,10|0,0:0|0:0,0:0:0:0:
138,192,56026,2,0,L|57:187,1,71.9999978027344,10|0,0:0|0:0,0:0:0:0:
173,267,56359,6,0,P|200:249|219:205,1,71.9999978027344,2|0,3:2|0:0,0:0:0:0:
275,314,56693,2,0,P|290:346|319:366,1,71.9999978027344,2|0,0:0|3:2,0:0:0:0:
424,372,57026,1,10,0:0:0:0:
498,295,57193,1,2,0:0:0:0:
424,219,57359,1,8,0:0:0:0:
347,295,57526,1,2,3:2:0:0:
347,295,57859,5,8,3:2:0:0:
293,134,58025,1,8,3:2:0:0:
424,219,58192,1,8,3:2:0:0:
391,366,58358,1,10,3:2:0:0:
391,366,59026,6,0,P|328:375|278:343,1,95.9999970703126,4|0,3:1|0:0,0:0:0:0:
120,256,59359,1,8,0:0:0:0:
85,343,59526,2,0,P|148:346|195:310,1,95.9999970703126,2|0,0:0|3:2,0:0:0:0:
382,232,59859,1,0,3:2:0:0:
409,321,60026,2,0,P|345:318|301:278,1,95.9999970703126,10|0,0:0|0:0,0:0:0:0:
117,176,60359,1,0,3:2:0:0:
97,267,60526,6,0,P|160:259|200:215,1,95.9999970703126,2|8,3:2|0:0,0:0:0:0:
366,106,60859,2,0,L|141:98,1,191.999994140625,2|0,0:0|3:2,0:0:0:0:
451,172,61359,1,8,0:0:0:0:
451,172,61693,6,0,P|474:102|461:61,1,95.9999970703126,2|0,3:2|0:0,0:0:0:0:
253,217,62026,2,0,P|234:158|247:111,1,95.9999970703126,10|0,0:0|0:0,0:0:0:0:
489,301,62359,2,0,P|441:266|385:273,1,95.9999970703126,2|0,3:2|3:2,0:0:0:0:
236,326,62693,1,10,0:0:0:0:
417,366,62859,1,2,0:0:0:0:
253,217,63026,6,0,L|146:213,1,95.9999970703126,2|0,3:2|3:2,0:0:0:0:
312,118,63359,1,10,0:0:0:0:
358,244,63526,1,2,0:0:0:0:
432,66,63693,2,0,P|482:98|502:147,1,95.9999970703126,0|0,3:2|3:2,0:0:0:0:
312,118,64026,1,8,0:0:0:0:
229,291,64359,6,0,P|222:230|240:188,1,95.9999970703126,4|0,3:1|0:0,0:0:0:0:
312,108,64692,1,8,0:0:0:0:
395,291,64859,2,0,P|402:230|384:188,1,95.9999970703126,2|0,0:0|3:2,0:0:0:0:
312,98,65192,1,0,3:2:0:0:
215,313,65359,2,0,P|208:252|226:210,1,95.9999970703126,10|0,0:0|0:0,0:0:0:0:
312,88,65692,1,0,3:2:0:0:
409,313,65859,6,0,P|416:252|398:210,1,95.9999970703126,2|8,3:2|0:0,0:0:0:0:
138,131,66193,2,0,P|232:138|312:88,1,191.999994140625,2|0,0:0|3:2,0:0:0:0:
61,180,66693,1,8,0:0:0:0:
61,180,67026,6,0,P|44:115|58:80,1,95.9999970703126,2|0,3:2|0:0,0:0:0:0:
268,8,67359,2,0,P|302:41|312:88,1,95.9999970703126,10|0,0:0|0:0,0:0:0:0:
210,238,67693,2,0,L|320:233,1,95.9999970703126,2|0,3:2|3:2,0:0:0:0:
512,265,68026,1,10,0:0:0:0:
435,177,68193,1,2,0:0:0:0:
404,317,68359,6,0,L|304:317,1,95.9999970703126,2|0,3:2|3:2,0:0:0:0:
174,256,68693,1,10,0:0:0:0:
126,372,68859,1,2,0:0:0:0:
81,251,69026,2,0,P|105:192|144:168,1,95.9999970703126,0|0,3:2|3:2,0:0:0:0:
293,202,69359,1,8,0:0:0:0:
293,202,69443,1,8,0:0:0:0:
293,202,69526,1,8,0:0:0:0:
374,34,69693,6,0,P|324:29|276:14,1,95.9999970703126,4|0,3:1|0:0,0:0:0:0:
49,109,70026,2,0,P|96:104|139:78,1,95.9999970703126,8|0,0:0|0:0,0:0:0:0:
327,240,70359,2,0,P|282:227|251:191,1,95.9999970703126,0|0,3:2|3:2,0:0:0:0:
54,308,70693,1,10,0:0:0:0:
135,229,70859,1,2,0:0:0:0:
294,355,71026,6,0,P|229:338|193:351,1,95.9999970703126,0|0,3:2|3:2,0:0:0:0:
426,272,71359,2,0,P|481:301|506:332,1,95.9999970703126,8|0,0:0|0:0,0:0:0:0:
330,142,71693,2,0,P|285:157|249:190,1,95.9999970703126,0|0,3:2|3:2,0:0:0:0:
477,75,72026,1,8,0:0:0:0:
477,75,72193,1,2,0:0:0:0:
467,185,72359,6,0,L|462:88,1,95.9999970703126,0|0,3:2|0:0,0:0:0:0:
305,21,72693,2,0,L|310:118,1,95.9999970703126,10|0,0:0|0:0,0:0:0:0:
426,272,73026,1,2,3:2:0:0:
191,243,73193,2,0,P|232:219|280:219,1,95.9999970703126,2|8,3:2|0:0,0:0:0:0:
259,314,73526,1,0,0:0:0:0:
101,256,73693,5,2,3:2:0:0:
280,219,73859,1,2,3:2:0:0:
139,359,74026,1,10,0:0:0:0:
138,143,74193,1,2,0:0:0:0:
259,314,74359,2,0,L|381:315,1,95.9999970703126,0|0,3:2|3:2,0:0:0:0:
191,243,74693,1,8,0:0:0:0:
191,243,75026,6,0,P|125:239|82:209,1,95.9999970703126,4|0,3:1|0:0,0:0:0:0:
352,171,75359,2,0,P|395:152|427:116,1,95.9999970703126,8|0,0:0|0:0,0:0:0:0:
138,143,75693,2,0,P|83:101|71:68,1,95.9999970703126,0|0,3:2|3:2,0:0:0:0:
310,81,76026,1,10,0:0:0:0:
353,0,76193,1,2,0:0:0:0:
225,34,76359,6,0,P|213:98|234:141,1,95.9999970703126,0|0,3:2|3:2,0:0:0:0:
430,219,76693,2,0,P|380:176|332:173,1,95.9999970703126,8|0,0:0|0:0,0:0:0:0:
167,304,77026,2,0,P|228:282|255:242,1,95.9999970703126,0|0,3:2|3:2,0:0:0:0:
138,143,77359,1,8,0:0:0:0:
138,143,77526,1,2,0:0:0:0:
25,190,77693,5,2,3:2:0:0:
179,222,77859,1,2,0:0:0:0:
73,305,78026,2,0,P|120:295|167:304,1,95.9999970703126,10|2,0:0|0:0,0:0:0:0:
283,376,78359,1,2,3:2:0:0:
429,218,78526,2,0,P|383:210|338:226,1,95.9999970703126,2|8,3:2|0:0,0:0:0:0:
398,309,78859,1,2,0:0:0:0:
381,116,79026,5,2,3:2:0:0:
248,275,79193,2,0,P|235:229|246:183,1,95.9999970703126,2|8,3:2|0:0,0:0:0:0:
466,84,79526,1,2,0:0:0:0:
466,84,79693,2,0,P|428:112|381:116,1,95.9999970703126,0|0,3:2|3:2,0:0:0:0:
159,63,80026,2,0,P|212:50|267:69,1,95.9999970703126,8|0,0:0|0:0,0:0:0:0:
381,212,80359,6,0,L|381:116,1,95.9999970703126,0|0,3:2|3:2,0:0:0:0:
157,289,80693,2,0,L|157:193,1,95.9999970703126,8|0,0:0|3:2,0:0:0:0:
328,351,81026,1,8,3:3:0:0:
246,183,81193,1,8,3:3:0:0:
102,365,81359,1,8,0:0:0:0:
102,365,81443,1,8,0:0:0:0:
102,365,81526,1,8,0:0:0:0:
0,223,81693,6,0,L|0:127,1,88.000002685547,4|0,3:1|0:0,0:0:0:0:
170,74,82026,2,0,L|170:170,1,88.000002685547,8|0,0:0|0:0,0:0:0:0:
171,309,82359,1,6,3:2:0:0:
260,214,82526,1,0,3:2:0:0:
293,356,82693,2,0,P|337:374|381:356,1,88.000002685547,8|0,0:0|0:0,0:0:0:0:
460,281,83026,5,6,3:2:0:0:
460,281,83193,1,0,3:2:0:0:
391,211,83359,2,0,L|395:117,1,88.000002685547,8|0,0:0|0:0,0:0:0:0:
299,10,83693,1,6,3:2:0:0:
299,10,83860,1,0,3:2:0:0:
229,79,84026,2,0,L|135:75,1,88.000002685547,8|0,0:0|0:0,0:0:0:0:
55,229,84359,6,0,P|72:190|60:140,1,88.000002685547,4|0,3:2|3:2,0:0:0:0:
143,280,84693,2,0,P|126:319|138:369,1,88.000002685547,8|0,0:0|0:0,0:0:0:0:
262,384,85026,1,6,3:2:0:0:
308,287,85193,1,0,3:2:0:0:
191,192,85359,2,0,P|147:178|91:198,1,88.000002685547,8|0,0:0|0:0,0:0:0:0:
44,330,85693,6,0,L|33:381,3,44.0000013427735,12|8|8|8,3:2|0:0|0:0|0:0,0:0:0:0:
107,187,86026,2,0,L|96:136,3,44.0000013427735,12|8|8|8,3:2|0:0|0:0|0:0,0:0:0:0:
175,335,86359,1,12,3:2:0:0:
203,347,86443,1,8,0:0:0:0:
237,353,86526,1,8,0:0:0:0:
276,350,86609,1,8,0:0:0:0:
315,329,86693,1,12,3:2:0:0:
354,302,86776,1,8,0:0:0:0:
405,289,86859,1,8,0:0:0:0:
456,314,86943,1,8,0:0:0:0:
493,362,87026,5,4,3:1:0:0:
256,192,87109,12,0,89026,0:0:0:0:
