osu file format v14

[General]
AudioFilename: audio.mp3
AudioLeadIn: 0
PreviewTime: 173314
Countdown: 0
SampleSet: Soft
StackLeniency: 0.4
Mode: 0
LetterboxInBreaks: 0
WidescreenStoryboard: 0

[Editor]
Bookmarks: 11264,21756,45363,68969,71592,113560,124051,147658,171264,173887,215855,226346,247330,249953,291920,302412,312904
DistanceSpacing: 0.6
BeatDivisor: 4
GridSize: 4
TimelineZoom: 1.8

[Metadata]
Title:Hajimari no Oto
TitleUnicode:はじまりの音
Artist:Fuji Aoi
ArtistUnicode:富士葵
Creator:Vanya2
Version:Goodbye
Source:
Tags:animestyle pop rock japanese female vocal jpop jrock vtuber virtual youtuber vtb バーチャルユーチューバー j-pop j-rock
BeatmapID:3177985
BeatmapSetID:1555609

[Difficulty]
HPDrainRate:5
CircleSize:4
OverallDifficulty:9
ApproachRate:9.2
SliderMultiplier:2
SliderTickRate:1

[Events]
//Background and Video events
0,0,"Background.jpg",0,0
//Break Periods
2,218678,225612
//Storyboard Layer 0 (Background)
//Storyboard Layer 1 (Fail)
//Storyboard Layer 2 (Pass)
//Storyboard Layer 3 (Foreground)
//Storyboard Layer 4 (Overlay)
//Storyboard Sound Samples

[TimingPoints]
778,327.868852459016,4,2,2,40,1,0
778,-200,4,2,2,40,0,0
3400,-200,4,2,2,45,0,0
6023,-200,4,2,2,50,0,0
8642,327.868852459016,4,2,2,50,1,0
8642,-133.333333333333,4,2,2,50,0,0
8969,-133.333333333333,4,2,2,60,0,0
9297,-133.333333333333,4,2,2,70,0,0
10445,-100,4,2,2,70,0,0
11101,-100,4,2,1,70,0,0
21101,-100,4,2,2,65,0,0
21756,-133.333333333333,4,2,1,50,0,0
30937,-133.333333333333,4,2,4,50,0,0
31920,-111.111111111111,4,2,2,55,0,0
45363,-133.333333333333,4,2,1,60,0,0
47330,-133.333333333333,4,2,2,60,0,0
47986,-133.333333333333,4,2,1,60,0,0
49789,-133.333333333333,4,2,2,60,0,0
50609,-133.333333333333,4,2,1,60,0,0
52576,-133.333333333333,4,2,2,60,0,0
53232,-133.333333333333,4,2,1,60,0,0
54543,-133.333333333333,4,2,2,60,0,0
55363,-100,4,2,2,65,0,0
55691,-100,4,2,1,65,0,0
63723,-100,4,2,2,60,0,0
65035,-100,4,2,2,65,0,0
68969,-100,4,2,1,70,0,0
71592,-90.9090909090909,4,2,1,70,0,1
71920,-90.9090909090909,4,2,3,70,0,1
81592,-90.9090909090909,4,2,2,70,0,1
82084,-100,4,2,3,70,0,0
91920,-100,4,2,2,70,0,0
92576,-90.9090909090909,4,2,3,70,0,1
102740,-90.9090909090909,4,2,2,70,0,1
103068,-100,4,2,3,70,0,0
108314,-100,4,2,3,60,0,0
110937,-250,4,2,4,50,0,0
112084,-250,4,2,3,5,0,0
112248,-250,4,2,3,80,0,0
112904,-100,4,2,2,60,0,0
113232,-100,4,2,2,60,0,0
113560,-100,4,2,1,80,0,0
123560,-100,4,2,1,70,0,0
124051,-133.333333333333,4,2,1,60,0,0
124215,-133.333333333333,4,2,4,60,0,0
134215,-111.111111111111,4,2,1,60,0,0
142412,-111.111111111111,4,2,2,60,0,0
147658,-133.333333333333,4,2,1,60,0,0
149297,-133.333333333333,4,2,2,60,0,0
150281,-133.333333333333,4,2,1,60,0,0
151756,-133.333333333333,4,2,2,60,0,0
152904,-133.333333333333,4,2,1,60,0,0
155035,-133.333333333333,4,2,2,60,0,0
155363,-133.333333333333,4,2,1,60,0,0
156838,-133.333333333333,4,2,2,60,0,0
157986,-100,4,2,1,65,0,0
160281,-100,4,2,2,65,0,0
160609,-100,4,2,1,65,0,0
166019,-100,4,2,2,60,0,0
167330,-100,4,2,2,65,0,0
171264,-100,4,2,1,70,0,0
173887,-90.9090909090909,4,2,3,70,0,1
183887,-90.9090909090909,4,2,2,70,0,1
184379,-100,4,2,3,70,0,0
194215,-100,4,2,2,70,0,0
194871,-90.9090909090909,4,2,3,70,0,1
204871,-90.9090909090909,4,2,2,70,0,1
205363,-100,4,2,1,70,0,0
209953,-100,4,2,2,70,0,0
210609,-100,4,2,1,60,0,0
213232,-250,4,2,4,50,0,0
214379,-250,4,2,4,5,0,0
214543,-250,4,2,1,60,0,0
214871,-133.333333333333,4,2,2,60,0,0
215855,-133.333333333333,4,2,1,40,0,0
226182,-133.333333333333,4,2,1,60,0,0
236838,-111.111111111111,4,2,2,60,0,0
242084,-100,4,2,2,65,0,0
249953,-166.666666666667,4,2,4,40,0,0
250036,-166.666666666667,4,2,4,5,0,0
250608,-166.666666666667,4,2,4,40,0,0
251264,-133.333333333333,4,2,4,40,0,0
251347,-133.333333333333,4,2,4,5,0,0
251919,-133.333333333333,4,2,4,40,0,0
253887,-200,4,2,4,40,0,0
253969,-200,4,2,4,5,0,0
254542,-200,4,2,4,40,0,0
254707,-133.333333333333,4,2,4,40,0,0
256510,-111.111111111111,4,2,4,40,0,0
257002,-133.333333333333,4,2,4,40,0,0
259133,-133.333333333333,4,2,4,50,0,0
260445,-111.111111111111,4,2,1,60,0,0
265691,-100,4,2,3,65,0,0
270609,-100,4,2,3,5,0,0
270937,-90.9090909090909,4,2,3,70,0,1
281101,-90.9090909090909,4,2,2,70,0,1
281428,-100,4,2,3,70,0,0
286019,-100,4,2,2,70,0,0
286674,-100,4,2,3,60,0,0
289297,-250,4,2,4,50,0,0
290445,-250,4,2,1,5,0,0
291264,-250,4,2,2,70,0,0
291920,-100,4,2,1,70,0,0
302248,-100,4,2,1,70,0,1
306838,-100,4,2,2,70,0,1
307494,-100,4,2,1,70,0,1
312576,-100,4,2,2,45,0,1
312904,-100,4,2,4,30,0,0
315035,-100,4,2,4,10,0,0
315363,-100,4,2,4,30,0,0
317658,-100,4,2,4,5,0,0

[Colours]
Combo1 : 21,191,89
Combo2 : 244,227,162
Combo3 : 252,153,148
Combo4 : 168,228,239

[HitObjects]
440,112,778,6,0,P|390:106|341:97,1,100,6|2,3:2|3:2,0:0:0:0:
269,135,1269,1,2,0:0:0:0:
270,49,1433,2,0,L|258:-8,2,50,2|2|2,3:2|3:2|3:2,0:0:0:0:
341,97,1925,1,2,0:0:0:0:
198,94,2089,5,2,3:2:0:0:
198,94,2253,2,0,L|139:107,1,50,2|0,3:2|3:2,0:0:0:0:
28,116,2581,1,2,3:2:0:0:
28,116,2909,2,0,L|-4:106,2,25,2|0|0,3:2|3:2|3:2,0:0:0:0:
100,173,3237,1,2,3:2:0:0:
100,173,3318,1,2,3:2:0:0:
100,173,3400,6,0,P|119:218|105:265,1,100,6|2,3:2|3:2,0:0:0:0:
154,331,3892,1,2,0:0:0:0:
212,279,4056,2,0,L|200:222,2,50,2|2|2,3:2|3:2|3:2,0:0:0:0:
283,319,4548,1,2,0:0:0:0:
366,227,4712,5,2,3:2:0:0:
366,227,4876,2,0,L|354:284,1,50,2|0,3:2|3:2,0:0:0:0:
453,361,5204,1,2,3:2:0:0:
453,361,5532,2,0,L|463:393,2,25,2|0|0,3:2|3:2|3:2,0:0:0:0:
487,282,5859,1,2,3:2:0:0:
487,282,5941,1,2,3:2:0:0:
487,282,6023,6,0,B|459:257|459:257|485:189,1,100,6|2,3:2|3:2,0:0:0:0:
425,145,6515,1,2,0:0:0:0:
457,74,6679,2,0,L|514:62,2,50,2|2|2,3:2|3:2|3:2,0:0:0:0:
391,23,7171,1,2,0:0:0:0:
346,144,7335,5,2,3:2:0:0:
346,144,7499,2,0,L|289:132,1,50,2|0,3:2|3:2,0:0:0:0:
197,41,7827,1,2,3:2:0:0:
197,41,8155,2,0,L|187:9,2,25,2|0|0,3:2|3:2|3:2,0:0:0:0:
139,148,8482,1,2,3:2:0:0:
139,148,8564,1,2,3:2:0:0:
139,148,8642,6,0,L|126:250,1,75.0000028610231,6|2,3:2|0:0,0:0:0:0:
257,301,8969,1,2,3:2:0:0:
211,205,9133,1,2,0:0:0:0:
116,303,9297,1,2,3:2:0:0:
298,225,9461,1,2,0:0:0:0:
74,178,9625,1,2,3:2:0:0:
218,380,9789,1,2,0:0:0:0:
268,140,9953,6,0,P|330:141|386:215,1,150.000005722046,6|8,3:2|0:0,0:0:0:0:
368,348,10445,1,6,3:2:0:0:
376,357,10773,1,6,3:2:0:0:
386,365,11101,6,0,B|433:331|433:331|418:161,1,200,6|2,3:2|3:2,0:0:0:0:
284,73,11592,1,8,0:0:0:0:
490,109,11756,1,2,0:0:0:0:
334,249,11920,2,0,P|252:239|215:237,1,100,2|2,3:2|3:2,0:0:0:0:
105,84,12248,2,0,P|155:86|193:116,1,100,10|2,0:0|0:0,0:0:0:0:
143,332,12576,6,0,P|130:201|128:155,1,150,2|0,3:2|0:0,0:0:0:0:
127,166,12904,1,8,0:0:0:0:
226,0,13068,2,0,P|216:82|214:119,1,100,2|0,3:2|0:0,0:0:0:0:
47,300,13396,2,0,P|37:218|35:181,1,100,2|10,3:2|0:0,0:0:0:0:
218,98,13723,6,0,B|338:83|286:171|442:140,1,200,6|2,3:2|3:2,0:0:0:0:
512,13,14215,1,10,0:0:0:0:
375,64,14379,1,2,0:0:0:0:
477,195,14543,2,0,P|492:148|478:101,1,100,2|2,3:2|3:2,0:0:0:0:
295,220,14871,2,0,P|344:224|394:231,1,100,10|2,0:0|0:0,0:0:0:0:
475,319,15199,6,0,P|344:306|298:304,1,150,2|0,3:2|0:0,0:0:0:0:
310,304,15527,1,10,0:0:0:0:
193,132,15691,1,10,0:0:0:0:
394,231,15855,1,0,3:2:0:0:
161,344,16019,2,0,P|146:297|162:250,1,100,2|8,3:2|0:0,0:0:0:0:
0,124,16346,6,0,B|75:117|75:117|124:141|124:141|207:131,1,200,6|2,3:2|0:0,0:0:0:0:
305,0,16838,1,10,0:0:0:0:
137,66,17002,1,2,0:0:0:0:
330,176,17166,2,0,P|334:126|341:76,1,100,2|2,3:2|3:2,0:0:0:0:
184,3,17494,2,0,P|137:-12|90:1,1,100,10|2,0:0|0:0,0:0:0:0:
58,199,17822,6,0,P|70:329|73:376,1,150,6|0,3:2|0:0,0:0:0:0:
73,364,18150,1,10,0:0:0:0:
208,302,18314,2,0,P|257:299|298:326,1,100,2|0,3:2|0:0,0:0:0:0:
269,222,18642,2,0,P|242:180|245:131,1,100,2|8,3:2|0:0,0:0:0:0:
503,128,18969,6,0,B|469:175|469:175|299:160,1,200,6|2,3:2|3:2,0:0:0:0:
182,31,19461,1,10,0:0:0:0:
269,240,19625,1,2,0:0:0:0:
269,240,19707,1,8,0:0:0:0:
269,240,19789,1,2,3:2:0:0:
380,42,19953,1,2,3:2:0:0:
158,181,20117,2,0,P|108:172|59:166,1,100,10|2,0:0|0:0,0:0:0:0:
161,299,20445,5,2,3:2:0:0:
290,80,20609,1,10,0:0:0:0:
369,310,20773,1,2,3:2:0:0:
210,107,20937,1,10,0:0:0:0:
241,370,21101,2,0,L|253:301,1,50,0|0,3:2|3:2,0:0:0:0:
402,234,21264,1,10,3:2:0:0:
430,247,21346,1,0,3:2:0:0:
450,271,21428,1,0,3:2:0:0:
458,302,21510,1,0,3:2:0:0:
453,334,21592,1,8,0:2:0:0:
435,359,21674,1,0,3:2:0:0:
408,376,21756,6,0,P|299:366|252:358,1,150.000005722046,4|0,3:2|3:2,0:0:0:0:
173,257,22248,1,2,0:0:0:0:
99,380,22412,2,0,P|92:343|103:307,1,75.0000000000002,2|2,3:2|0:0,0:0:0:0:
177,171,22740,2,0,P|192:204|191:241,1,75.0000000000002,2|2,3:2|0:0,0:0:0:0:
14,232,23068,6,0,L|102:220,1,75.0000000000002,2|0,3:2|0:0,0:0:0:0:
186,75,23396,2,0,P|148:77|116:95,1,75.0000000000002,2|2,3:2|0:0,0:0:0:0:
255,233,23723,1,2,3:2:0:0:
255,233,23887,2,0,P|387:213|404:211,1,150,2|2,0:0|0:0,0:0:0:0:
512,323,24379,6,0,L|428:304,1,75.0000000000002,2|0,3:2|0:0,0:0:0:0:
475,153,24707,1,2,3:2:0:0:
475,153,24871,2,0,P|494:184|498:220,1,75.0000000000002,2|0,0:0|3:2,0:0:0:0:
359,344,25199,2,0,P|348:308|353:272,1,75.0000000000002,2|0,0:0|3:2,0:0:0:0:
268,143,25527,1,2,3:2:0:0:
268,143,25609,1,0,3:2:0:0:
268,143,25691,6,0,B|175:133|216:192|106:174,2,150,2|0|0,3:2|3:2|3:2,0:0:0:0:
268,143,26674,1,0,3:2:0:0:
134,90,26838,1,2,0:0:0:0:
252,230,27002,6,0,P|312:221|353:135,1,150,6|0,3:2|3:2,0:0:0:0:
253,21,27494,1,2,0:0:0:0:
253,21,27658,2,0,P|121:1|104:-1,1,150,2|0,3:2|3:2,0:0:0:0:
0,130,28150,1,2,0:0:0:0:
0,130,28314,6,0,P|132:110|149:108,1,150,6|2,3:2|3:2,0:0:0:0:
266,257,28805,2,0,P|229:264|193:253,1,75.0000000000002,2|4,0:0|3:2,0:0:0:0:
246,101,29133,2,0,L|234:189,1,75.0000000000002,2|0,0:0|3:2,0:0:0:0:
149,189,29461,1,2,0:0:0:0:
319,187,29625,6,0,P|359:246|338:316,1,150,6|2,3:2|3:2,0:0:0:0:
181,341,30117,2,0,P|218:333|254:344,1,75.0000000000002,2|0,0:0|3:2,0:0:0:0:
410,319,30445,2,0,P|373:326|337:315,1,75.0000000000002,2|0,0:0|3:2,0:0:0:0:
252,217,30773,1,2,0:0:0:0:
379,234,30937,5,10,3:2:0:0:
218,121,31101,1,2,0:0:0:0:
401,104,31264,1,10,3:2:0:0:
267,202,31428,1,2,0:0:0:0:
281,51,31592,1,10,3:2:0:0:
335,150,31756,1,2,0:0:0:0:
177,45,31920,2,0,P|91:28|1:15,1,135,2|0,3:2|0:0,0:0:0:0:
23,29,32248,6,0,P|1:87|25:140,1,90.0000000000001,12|0,0:0|0:0,0:0:0:0:
171,226,32576,2,0,P|158:159|140:103,1,90.0000000000001,8|2,0:0|0:0,0:0:0:0:
253,2,32904,1,10,0:0:0:0:
88,80,33068,1,10,0:0:0:0:
275,11,33232,2,0,P|263:54|256:98,1,90.0000000000001,10|2,0:0|0:0,0:0:0:0:
431,214,33560,5,10,0:0:0:0:
361,52,33723,1,10,0:0:0:0:
268,200,33887,1,10,0:0:0:0:
382,46,34051,2,0,P|370:90|363:134,1,90.0000000000001,10|2,0:0|3:2,0:0:0:0:
495,108,34379,1,10,0:0:0:0:
375,271,34543,2,0,B|297:254|322:314|214:281,1,135,8|0,0:0|0:0,0:0:0:0:
223,274,34871,6,0,P|215:229|204:186,1,90.0000000000001,10|0,0:0|0:0,0:0:0:0:
67,316,35199,2,0,P|125:338|178:314,1,90.0000000000001,10|2,0:0|0:0,0:0:0:0:
263,196,35527,1,10,0:0:0:0:
121,251,35691,1,10,0:0:0:0:
287,384,35855,2,0,P|294:339|305:296,1,90.0000000000001,8|2,0:0|0:0,0:0:0:0:
480,177,36182,5,8,0:0:0:0:
395,319,36346,1,8,0:0:0:0:
352,156,36510,1,8,0:0:0:0:
415,326,36674,2,0,P|458:314|502:307,1,90.0000000000001,10|0,0:0|3:2,0:0:0:0:
301,238,37002,1,8,0:0:0:0:
480,177,37166,1,8,0:0:0:0:
291,69,37330,1,2,3:2:0:0:
291,69,37412,1,2,3:2:0:0:
291,69,37494,6,0,P|247:57|203:50,1,90.0000000000001,14|0,0:0|0:0,0:0:0:0:
355,138,37822,2,0,P|381:82|362:27,1,90.0000000000001,8|2,0:0|0:0,0:0:0:0:
242,173,38150,1,10,0:0:0:0:
196,28,38314,1,8,0:0:0:0:
86,136,38478,2,0,P|78:91|67:48,1,90.0000000000001,8|2,0:0|0:0,0:0:0:0:
24,206,38805,6,0,P|79:232|134:213,1,90.0000000000001,10|8,0:0|0:0,0:0:0:0:
202,140,39133,1,10,0:0:0:0:
159,291,39297,1,10,0:0:0:0:
300,103,39461,1,8,0:0:0:0:
369,247,39625,1,10,0:0:0:0:
185,130,39789,1,8,0:0:0:0:
283,353,39953,1,10,0:0:0:0:
393,117,40117,6,0,P|452:125|479:259,1,180,6|2,3:2|0:0,0:0:0:0:
360,263,40609,1,0,3:2:0:0:
288,93,40773,2,0,P|299:136|306:180,1,90.0000000000001,10|0,0:0|0:0,0:0:0:0:
177,290,41101,6,0,B|111:283|111:283|63:297|63:297|-18:290,1,180,6|8,3:2|0:0,0:0:0:0:
154,114,41592,2,0,P|202:153|207:211,1,90.0000000000001,0|0,3:2|3:2,0:0:0:0:
48,206,41920,2,0,P|55:161|66:118,1,90.0000000000001,0|2,3:2|0:0,0:0:0:0:
245,30,42248,1,2,3:2:0:0:
132,193,42412,1,2,3:2:0:0:
72,0,42576,1,2,3:2:0:0:
248,148,42740,6,0,B|344:125|328:192|431:167,1,180,6|0,3:2|0:0,0:0:0:0:
512,61,43232,1,2,3:2:0:0:
402,5,43396,2,0,P|379:62|404:115,1,90.0000000000001,8|0,0:0|0:0,0:0:0:0:
497,250,43723,6,0,P|445:182|358:201,1,180,6|0,3:2|3:2,0:0:0:0:
301,332,44215,1,8,0:0:0:0:
301,332,44297,1,8,0:0:0:0:
301,332,44379,1,8,0:0:0:0:
415,260,44543,1,2,0:0:0:0:
213,175,44707,2,0,P|224:218|231:263,1,90.0000000000001,6|0,3:2|3:2,0:0:0:0:
100,232,45035,2,0,P|88:275|81:320,1,90.0000000000001,10|0,0:0|0:0,0:0:0:0:
31,145,45363,6,0,P|63:125|100:123,1,75.0000000000002,6|0,3:2|0:0,0:0:0:0:
247,189,45691,1,2,3:2:0:0:
247,189,45855,2,0,P|210:199|173:191,1,75.0000000000002,2|0,0:0|3:2,0:0:0:0:
196,31,46182,2,0,L|208:118,1,75.0000000000002,2|0,0:0|3:2,0:0:0:0:
333,216,46510,1,2,0:0:0:0:
440,149,46674,6,0,B|409:116|409:116|424:-3,1,150,2|0,3:2|3:2,0:0:0:0:
492,86,47166,1,2,0:0:0:0:
346,9,47330,2,0,L|258:21,1,75.0000000000002,2|8,3:2|0:0,0:0:0:0:
126,89,47658,2,0,L|38:77,1,75.0000000000002,2|8,3:2|0:0,0:0:0:0:
185,33,47986,6,0,P|209:101|170:162,1,150,6|2,3:2|3:2,0:0:0:0:
15,168,48478,2,0,P|51:157|88:165,1,75.0000000000002,2|0,0:0|3:2,0:0:0:0:
150,274,48805,1,2,0:0:0:0:
53,240,48969,1,2,3:2:0:0:
181,367,49133,1,2,3:2:0:0:
181,367,49215,1,2,3:2:0:0:
181,367,49297,6,0,L|169:279,1,75.0000000000002,2|0,3:2|0:0,0:0:0:0:
325,178,49625,1,0,3:2:0:0:
265,320,49789,1,2,3:2:0:0:
265,320,49871,1,2,3:2:0:0:
265,320,49953,1,2,3:2:0:0:
195,168,50117,1,0,3:2:0:0:
338,267,50281,1,0,3:2:0:0:
265,118,50445,1,2,0:0:0:0:
265,118,50609,6,0,P|204:78|135:102,1,150,6|2,3:2|3:2,0:0:0:0:
238,249,51101,2,0,L|312:238,1,75.0000000000002,2|0,0:0|3:2,0:0:0:0:
113,302,51428,1,0,0:0:0:0:
195,168,51592,1,2,3:2:0:0:
265,320,51756,1,2,0:0:0:0:
115,158,51920,6,0,P|93:188|86:224,1,75.0000000000002,6|2,3:2|0:0,0:0:0:0:
191,332,52248,1,2,3:2:0:0:
191,332,52412,2,0,L|265:321,1,75.0000000000002,6|0,0:0|3:2,0:0:0:0:
380,374,52740,2,0,L|454:384,1,75.0000000000002,2|0,3:2|3:2,0:0:0:0:
512,257,53068,1,2,3:2:0:0:
512,257,53232,6,0,P|500:182|490:108,1,150,6|0,3:2|3:2,0:0:0:0:
388,11,53723,1,2,3:2:0:0:
388,11,53887,2,0,P|408:43|410:80,1,75.0000000000002,2|0,3:2|3:2,0:0:0:0:
309,210,54215,2,0,P|297:173|305:137,1,75.0000000000002,2|2,3:2|0:0,0:0:0:0:
466,160,54543,6,0,L|379:172,1,75.0000000000002,6|0,3:2|3:2,0:0:0:0:
192,148,54871,1,6,3:2:0:0:
328,66,55035,1,2,0:0:0:0:
142,25,55199,1,2,3:2:0:0:
142,25,55281,1,0,3:2:0:0:
142,25,55363,2,0,L|152:98,1,50,10|8,0:0|0:0,0:0:0:0:
193,240,55527,1,0,3:2:0:0:
61,113,55691,6,0,B|58:190|58:190|28:233|28:233|26:306,1,200,6|0,3:2|3:2,0:0:0:0:
198,384,56182,1,8,0:0:0:0:
106,255,56346,1,0,0:0:0:0:
1,384,56510,2,0,P|50:382|88:351,1,100,2|0,0:0|3:2,0:0:0:0:
30,201,56838,2,0,P|6:244|13:293,1,100,10|0,0:0|0:0,0:0:0:0:
190,208,57166,6,0,B|307:188|265:264|386:243,1,200,2|10,3:2|0:0,0:0:0:0:
360,56,57658,2,0,P|350:138|348:175,1,100,2|0,0:0|0:0,0:0:0:0:
480,376,57986,2,0,P|470:294|468:257,1,100,2|8,3:2|0:0,0:0:0:0:
266,83,58314,6,0,P|188:94|179:214,1,200,6|2,3:2|3:2,0:0:0:0:
335,333,58805,1,10,0:0:0:0:
243,161,58969,1,2,0:0:0:0:
113,351,59133,2,0,P|108:301|101:251,1,100,2|0,0:0|3:2,0:0:0:0:
61,48,59461,1,10,0:0:0:0:
304,99,59625,1,2,3:2:0:0:
304,99,59707,1,2,0:0:0:0:
304,99,59789,6,0,P|327:142|320:191,1,100,2|0,3:2|3:2,0:0:0:0:
162,300,60117,2,0,P|150:252|170:206,1,100,8|0,0:0|0:0,0:0:0:0:
341,272,60445,2,0,P|291:265|241:260,1,100,0|0,0:0|3:2,0:0:0:0:
7,160,60773,2,0,P|56:153|106:148,1,100,8|0,0:0|0:0,0:0:0:0:
296,124,61101,6,0,P|202:116|179:25,1,200,6|8,3:2|0:0,0:0:0:0:
179,25,61592,1,0,0:0:0:0:
338,282,61756,2,0,B|347:205|347:205|381:165|381:165|389:92,1,200,2|8,0:0|0:0,0:0:0:0:
389,95,62248,1,0,0:0:0:0:
293,370,62412,6,0,B|247:320|247:320|85:349,1,200,6|8,3:2|0:0,0:0:0:0:
117,343,62904,1,0,0:0:0:0:
0,177,63068,2,0,B|117:157|75:233|196:212,1,200,2|8,0:0|0:0,0:0:0:0:
189,213,63560,1,0,3:2:0:0:
346,30,63723,6,0,P|352:79|357:129,1,100,12|0,0:0|3:2,0:0:0:0:
301,317,64051,5,10,0:0:0:0:
213,101,64215,1,2,3:2:0:0:
99,294,64379,6,0,P|49:287|0:282,1,100,10|0,3:2|3:2,0:0:0:0:
118,133,64707,5,10,0:0:0:0:
214,358,64871,1,2,3:2:0:0:
309,141,65035,5,8,0:0:0:0:
98,239,65199,1,2,3:2:0:0:
372,226,65363,5,8,0:0:0:0:
100,122,65527,1,2,3:2:0:0:
222,372,65691,5,8,0:0:0:0:
317,109,65855,1,2,3:2:0:0:
441,374,66019,6,0,P|445:324|452:274,1,100,14|0,0:0|0:0,0:0:0:0:
508,57,66346,5,6,3:2:0:0:
478,38,66428,1,0,3:2:0:0:
444,30,66510,1,0,3:2:0:0:
410,33,66592,1,0,3:2:0:0:
378,48,66674,1,8,3:2:0:0:
354,73,66756,1,0,3:2:0:0:
329,97,66838,1,0,3:2:0:0:
297,112,66920,1,2,3:2:0:0:
263,116,67002,2,0,L|179:107,1,50,8|8,0:0|0:0,0:0:0:0:
53,182,67166,2,0,L|135:174,1,50,8|8,0:0|0:0,0:0:0:0:
277,261,67330,2,0,L|195:253,1,50,8|8,0:0|0:0,0:0:0:0:
7,111,67494,6,0,P|100:110|132:197,1,150,4|0,3:2|0:0,0:0:0:0:
135,173,67822,1,2,3:2:0:0:
22,311,67986,1,2,3:2:0:0:
214,231,68150,1,2,3:2:0:0:
53,182,68314,1,2,3:2:0:0:
222,365,68478,1,2,0:0:0:0:
280,128,68642,1,2,3:2:0:0:
125,279,68805,1,2,3:2:0:0:
167,61,68969,5,12,0:0:0:0:
325,310,69133,1,12,0:0:0:0:
325,310,69953,5,12,0:0:0:0:
375,39,70117,1,12,0:0:0:0:
65,50,71592,6,0,P|205:34|243:27,1,165,6|0,3:2|0:0,0:0:0:0:
248,42,71920,2,0,P|260:94|216:151,1,110,8|0,0:0|0:0,0:0:0:0:
22,154,72248,1,2,3:2:0:0:
180,79,72412,1,0,3:2:0:0:
184,242,72576,2,0,P|87:228|58:227,1,110,8|0,0:0|0:0,0:0:0:0:
205,375,72904,6,0,P|279:346|308:271,1,165,6|0,3:2|0:0,0:0:0:0:
289,258,73232,2,0,P|289:203|295:148,1,110,8|0,0:0|0:0,0:0:0:0:
463,39,73560,1,2,3:2:0:0:
369,220,73723,1,0,3:2:0:0:
290,24,73887,1,8,0:0:0:0:
476,149,74051,1,2,0:0:0:0:
273,11,74215,6,0,P|236:50|244:121,1,110,6|0,3:2|0:0,0:0:0:0:
376,0,74543,1,10,0:0:0:0:
275,200,74707,2,0,P|221:188|166:183,1,110,2|0,0:0|3:2,0:0:0:0:
0,288,75035,2,0,P|53:276|108:271,1,110,2|8,3:2|0:0,0:0:0:0:
152,76,75363,1,2,3:2:0:0:
152,76,75445,1,2,3:2:0:0:
152,76,75527,6,0,P|77:104|48:179,1,165,6|0,3:2|0:0,0:0:0:0:
49,196,75855,1,8,0:0:0:0:
266,275,76019,2,0,B|337:268|337:268|362:281|362:281|470:275,1,165
445,275,76346,1,2,3:2:0:0:
291,380,76510,1,10,0:0:0:0:
392,203,76674,1,2,3:2:0:0:
392,203,76756,1,2,3:2:0:0:
392,203,76838,6,0,P|379:121|371:39,1,165,6|0,3:2|0:0,0:0:0:0:
368,22,77166,1,10,0:0:0:0:
268,123,77330,2,0,P|215:111|160:106,1,110,2|0,0:0|3:2,0:0:0:0:
0,234,77658,1,2,3:2:0:0:
100,41,77822,1,10,0:0:0:0:
202,238,77986,1,2,3:2:0:0:
202,238,78068,1,2,3:2:0:0:
202,238,78150,6,0,B|296:217|266:282|365:262,1,165,6|0,3:2|0:0,0:0:0:0:
374,258,78478,1,10,0:0:0:0:
217,344,78642,2,0,P|120:330|91:329,1,110,2|0,3:2|0:0,0:0:0:0:
374,258,78969,2,0,P|471:244|500:243,1,110,2|8,3:2|0:0,0:0:0:0:
329,366,79297,1,2,0:0:0:0:
141,182,79461,6,0,P|115:230|142:296,1,110,6|0,3:2|0:0,0:0:0:0:
248,121,79789,1,10,0:0:0:0:
19,171,79953,1,2,0:0:0:0:
202,238,80117,1,0,3:2:0:0:
103,15,80281,2,0,P|98:69|88:123,1,110,2|8,3:2|0:0,0:0:0:0:
0,320,80609,1,2,3:2:0:0:
0,320,80691,1,2,3:2:0:0:
0,320,80773,6,0,B|30:287|30:287|180:307,1,165,6|0,3:2|0:0,0:0:0:0:
171,294,81101,2,0,P|182:241|139:183,1,110,10|2,0:0|3:2,0:0:0:0:
60,379,81428,1,4,0:0:0:0:
253,254,81592,1,10,0:0:0:0:
284,246,81674,1,8,0:0:0:0:
317,250,81756,1,10,0:0:0:0:
347,262,81838,1,8,0:0:0:0:
372,285,81920,1,10,0:0:0:0:
387,313,82002,1,8,0:0:0:0:
394,341,82084,6,0,B|409:248|349:288|368:165,1,150,6|0,3:2|0:0,0:0:0:0:
366,177,82412,1,10,0:0:0:0:
303,334,82576,1,2,0:0:0:0:
470,215,82740,1,2,3:2:0:0:
237,104,82904,2,0,P|247:158|254:208,1,100,2|8,3:2|0:0,0:0:0:0:
303,36,83232,6,0,P|355:24|403:50,1,100,2|0,0:0|3:2,0:0:0:0:
233,224,83560,2,0,P|179:221|141:187,1,100,2|8,0:0|0:0,0:0:0:0:
396,43,83887,2,0,P|385:97|381:146,1,100,2|0,0:0|3:2,0:0:0:0:
313,282,84215,1,2,3:2:0:0:
158,77,84379,1,10,0:0:0:0:
310,143,84543,1,2,0:0:0:0:
72,270,84707,6,0,P|39:196|70:124,1,150,6|0,3:2|0:0,0:0:0:0:
73,123,85035,1,10,0:0:0:0:
232,207,85199,2,0,P|186:199|132:194,1,100,2|0,0:0|3:3,0:0:0:0:
34,357,85527,2,0,P|80:366|131:345,1,100,2|8,3:2|0:0,0:0:0:0:
240,93,85855,6,0,P|250:147|256:198,1,100,2|0,0:0|3:2,0:0:0:0:
378,384,86182,2,0,P|383:329|393:281,1,100,2|8,0:0|0:0,0:0:0:0:
183,246,86510,2,0,P|224:279|276:280,1,100,2|0,0:0|3:2,0:0:0:0:
454,103,86838,1,0,3:2:0:0:
255,191,87002,1,8,0:0:0:0:
469,264,87166,1,0,0:0:0:0:
337,44,87330,6,0,B|304:15|304:15|159:38,1,150,6|0,3:2|0:0,0:0:0:0:
184,50,87658,2,0,P|129:39|80:33,1,100,8|0,0:0|0:0,0:0:0:0:
168,217,87986,1,2,3:2:0:0:
273,103,88150,1,0,3:2:0:0:
85,33,88314,2,0,P|37:43|4:79,1,100,8|0,0:0|0:0,0:0:0:0:
181,229,88642,6,0,B|276:203|239:276|365:242,1,150,6|0,3:2|0:0,0:0:0:0:
344,230,88969,2,0,P|355:177|330:130,1,100,8|0,0:0|0:0,0:0:0:0:
194,335,89297,1,2,3:2:0:0:
269,187,89461,1,0,3:2:0:0:
382,334,89625,2,0,P|436:323|486:317,1,100,8|2,0:0|0:0,0:0:0:0:
355,120,89953,5,6,3:2:0:0:
264,384,90117,1,0,3:2:0:0:
153,115,90281,1,8,0:0:0:0:
365,317,90445,1,0,0:0:0:0:
256,44,90609,1,8,0:0:0:0:
112,300,90773,1,6,0:0:0:0:
344,230,90936,1,2,3:2:0:0:
85,22,91101,6,0,B|24:65|24:65|49:202,1,200,14|2,0:0|3:2,0:0:0:0:
290,334,91592,1,14,0:0:0:0:
138,129,91756,2,0,L|121:214,1,50,2|0,3:2|3:2,0:0:0:0:
60,373,91920,5,2,3:2:0:0:
101,388,92002,1,0,3:2:0:0:
145,381,92084,1,10,0:0:0:0:
180,354,92166,1,8,0:0:0:0:
198,313,92248,1,10,0:0:0:0:
215,272,92330,1,0,3:2:0:0:
250,244,92412,1,2,3:2:0:0:
294,238,92494,1,0,3:2:0:0:
336,253,92576,6,0,P|256:265|194:216,1,165,6|0,3:2|0:0,0:0:0:0:
191,189,92904,2,0,P|230:152|301:162,1,110,8|0,0:0|0:0,0:0:0:0:
397,317,93232,1,2,3:2:0:0:
259,232,93396,1,0,3:2:0:0:
442,144,93560,2,0,P|446:198|456:252,1,110,8|0,0:0|0:0,0:0:0:0:
290,354,93887,6,0,P|208:341|126:333,1,165,6|0,3:2|0:0,0:0:0:0:
103,324,94215,2,0,P|77:276|105:210,1,110,8|0,0:0|0:0,0:0:0:0:
303,135,94543,1,2,3:2:0:0:
161,268,94707,1,0,3:2:0:0:
126,66,94871,2,0,P|71:61|17:51,1,110,8|0,0:0|0:0,0:0:0:0:
303,225,95199,6,0,P|354:211|383:165,1,110,6|0,3:2|0:0,0:0:0:0:
244,11,95527,1,10,0:0:0:0:
168,164,95691,2,0,P|113:173|59:178,1,110,2|0,0:0|3:2,0:0:0:0:
323,53,96019,2,0,P|377:57|431:67,1,110,2|8,3:2|0:0,0:0:0:0:
276,298,96346,1,2,3:2:0:0:
276,298,96428,1,2,3:2:0:0:
276,298,96510,6,0,B|269:233|269:233|282:191|282:191|272:109,1,165,6|0,3:2|0:0,0:0:0:0:
272,118,96838,1,8,0:0:0:0:
178,274,97002,2,0,B|84:253|114:318|15:298,1,165,2|0,0:0|0:0,0:0:0:0:
5,296,97330,1,2,3:2:0:0:
159,372,97494,1,10,0:0:0:0:
77,160,97658,1,2,3:2:0:0:
77,160,97740,1,2,3:2:0:0:
77,160,97822,6,0,P|159:147|241:139,1,165,6|0,3:2|0:0,0:0:0:0:
259,136,98150,1,10,0:0:0:0:
126,23,98314,2,0,P|74:36|45:82,1,110,2|0,0:0|3:2,0:0:0:0:
246,261,98642,1,2,3:2:0:0:
130,104,98805,1,10,0:0:0:0:
77,292,98969,1,2,3:2:0:0:
77,292,99051,1,2,3:2:0:0:
77,292,99133,6,0,B|106:261|106:261|254:281,1,165,6|0,3:2|0:0,0:0:0:0:
247,280,99461,1,10,0:0:0:0:
115,369,99625,2,0,P|62:381|15:355,1,110,2|0,3:2|0:0,0:0:0:0:
186,197,99953,2,0,P|233:171|285:184,1,110,2|8,3:2|0:0,0:0:0:0:
476,308,100281,1,2,0:0:0:0:
401,155,100445,6,0,P|388:236|380:318,1,165,6|0,3:2|0:0,0:0:0:0:
355,326,100773,2,0,P|300:315|246:311,1,110,8|2,0:0|0:0,0:0:0:0:
186,65,101101,1,2,3:2:0:0:
304,219,101264,1,0,3:2:0:0:
367,33,101428,1,8,0:0:0:0:
309,233,101592,1,2,0:0:0:0:
173,53,101756,6,0,P|93:41|31:91,1,165,6|0,3:2|0:0,0:0:0:0:
12,107,102084,2,0,P|22:161|26:215,1,110,8|2,0:0|0:0,0:0:0:0:
228,337,102412,1,2,0:0:0:0:
129,152,102576,1,0,3:2:0:0:
37,345,102740,1,8,0:0:0:0:
75,339,102822,1,8,0:0:0:0:
113,334,102904,1,8,0:0:0:0:
151,328,102986,1,8,0:0:0:0:
189,323,103068,6,0,B|192:251|192:251|221:206|221:206|226:102,1,200,6|8,3:2|0:0,0:0:0:0:
307,290,103560,1,2,0:0:0:0:
129,152,103723,2,0,P|80:145|37:169,1,100,2|0,3:2|3:2,0:0:0:0:
189,323,104051,1,10,0:0:0:0:
336,118,104215,6,0,P|345:167|352:216,1,100,2|0,0:0|3:2,0:0:0:0:
502,47,104543,2,0,P|492:96|485:145,1,100,2|8,0:0|0:0,0:0:0:0:
267,65,104871,2,0,P|305:34|354:34,1,100,2|0,0:0|3:2,0:0:0:0:
486,146,105199,1,0,3:2:0:0:
336,118,105363,1,8,0:0:0:0:
506,135,105527,1,2,0:0:0:0:
333,237,105691,6,0,P|283:227|234:220,1,100,6|0,3:2|0:0,0:0:0:0:
45,126,106019,1,10,0:0:0:0:
186,49,106182,2,0,P|216:87|216:136,1,100,2|0,0:0|3:2,0:0:0:0:
51,218,106510,2,0,P|31:172|44:125,1,100,2|10,3:2|0:0,0:0:0:0:
221,258,106838,1,2,3:2:0:0:
221,258,106920,1,2,3:2:0:0:
221,258,107002,6,0,P|171:265|122:274,1,100,2|2,3:2|3:2,0:0:0:0:
312,131,107330,1,10,0:0:0:0:
401,311,107494,2,0,P|408:261|417:212,1,100,2|10,0:0|3:2,0:0:0:0:
234,44,107822,1,2,3:2:0:0:
303,241,107986,1,0,3:2:0:0:
417,63,108150,1,2,3:2:0:0:
187,152,108314,6,0,B|78:141|111:216|0:204,2,200,6|0|8,3:2|0:0|0:0,0:0:0:0:
401,311,109297,2,0,P|450:302|499:295,1,100,2|0,0:0|3:2,0:0:0:0:
377,156,109625,6,0,P|327:155|289:185,1,100,6|0,3:2|3:2,0:0:0:0:
250,358,109953,2,0,P|274:315|268:267,1,100,2|0,0:0|3:2,0:0:0:0:
190,296,110281,2,0,P|141:287|92:280,1,100,14|0,0:0|3:2,0:0:0:0:
360,238,110609,2,0,P|409:229|458:222,1,100,2|0,0:0|3:2,0:0:0:0:
261,29,110937,6,0,P|174:6|101:163,1,280,14|0,3:2|0:0,0:0:0:0:
361,60,112248,5,6,0:0:0:0:
114,307,112904,1,10,0:0:0:0:
85,271,112985,1,8,0:0:0:0:
79,226,113067,1,8,0:0:0:0:
99,186,113149,1,8,0:0:0:0:
137,162,113231,1,10,0:0:0:0:
181,164,113313,1,8,0:0:0:0:
218,187,113395,1,8,0:0:0:0:
238,228,113477,1,8,0:0:0:0:
231,272,113560,6,0,B|309:260|309:260|356:279|356:279|431:270,1,200,6|10,3:2|0:0,0:0:0:0:
297,344,114051,1,2,0:0:0:0:
479,208,114215,2,0,P|505:249|503:298,1,100,2|2,3:2|3:2,0:0:0:0:
361,184,114543,2,0,P|371:102|373:65,1,100,10|2,0:0|0:0,0:0:0:0:
296,0,114871,6,0,P|283:131|281:177,1,150,2|0,3:2|0:0,0:0:0:0:
282,169,115199,1,8,0:0:0:0:
391,70,115363,2,0,P|440:67|481:94,1,100,2|0,3:2|0:0,0:0:0:0:
264,165,115691,2,0,P|217:180|170:165,1,100,2|8,3:2|0:0,0:0:0:0:
43,65,116019,6,0,B|82:22|82:22|71:202,1,200,6|2,3:2|0:0,0:0:0:0:
248,287,116510,1,10,0:0:0:0:
175,125,116674,1,2,0:0:0:0:
49,263,116838,2,0,P|131:253|168:251,1,100,2|2,3:2|3:2,0:0:0:0:
327,331,117166,2,0,P|293:367|245:377,1,100,10|2,0:0|0:0,0:0:0:0:
219,198,117494,6,0,P|350:211|396:213,1,150,2|0,3:2|0:0,0:0:0:0:
386,213,117822,1,10,0:0:0:0:
245,93,117986,1,10,0:0:0:0:
248,287,118150,1,0,3:2:0:0:
404,135,118314,2,0,P|453:130|503:123,1,100,2|8,3:2|0:0,0:0:0:0:
214,14,118642,6,0,P|143:0|97:136,1,200,6|2,3:2|0:0,0:0:0:0:
175,243,119133,1,10,0:0:0:0:
164,79,119297,1,2,0:0:0:0:
32,168,119461,2,0,P|78:183|125:168,1,100,2|2,3:2|3:2,0:0:0:0:
268,243,119789,2,0,P|221:227|174:242,1,100,10|2,0:0|0:0,0:0:0:0:
59,365,120117,6,0,P|190:351|236:349,1,150,2|0,3:2|0:0,0:0:0:0:
222,349,120445,1,8,0:0:0:0:
290,231,120609,2,0,P|283:182|274:132,1,100,2|0,3:2|0:0,0:0:0:0:
414,65,120937,2,0,P|404:114|397:163,1,100,2|8,3:2|0:0,0:0:0:0:
486,384,121264,6,0,P|490:289|405:249,1,200,6|2,3:2|3:2,0:0:0:0:
250,359,121756,1,10,0:0:0:0:
322,179,121920,1,2,0:0:0:0:
415,334,122084,2,0,P|366:328|328:296,1,100,2|2,3:2|0:0,0:0:0:0:
208,125,122412,2,0,P|217:174|224:223,1,100,10|2,0:0|3:2,0:0:0:0:
104,384,122740,5,6,3:2:0:0:
300,269,122904,1,2,3:2:0:0:
52,179,123068,1,14,0:0:0:0:
250,359,123232,1,2,0:0:0:0:
283,87,123396,1,0,3:2:0:0:
74,271,123560,2,0,L|152:261,1,50,2|8,3:2|0:0,0:0:0:0:
308,182,123723,1,0,3:2:0:0:
346,195,123805,1,0,3:2:0:0:
373,224,123887,1,8,0:0:0:0:
385,261,123969,1,8,0:0:0:0:
379,301,124051,6,0,P|429:250|502:259,1,150,14|0,0:0|0:0,0:0:0:0:
431,164,124543,1,2,0:0:0:0:
480,101,124707,2,0,P|504:129|513:166,1,75.0000000000002,10|2,0:0|0:0,0:0:0:0:
373,224,125035,2,0,L|285:212,1,75.0000000000002,2|2,0:0|0:0,0:0:0:0:
168,153,125363,5,10,0:0:0:0:
149,234,125527,1,2,0:0:0:0:
257,125,125691,1,2,0:0:0:0:
290,202,125855,1,2,0:0:0:0:
150,145,126019,1,10,0:0:0:0:
250,39,126182,2,0,P|317:64|340:133,1,150,2|2,0:0|0:0,0:0:0:0:
134,243,126674,6,0,L|46:231,1,75.0000000000002,14|0,0:0|0:0,0:0:0:0:
203,381,127002,1,2,0:0:0:0:
203,381,127166,2,0,P|213:345|205:308,1,75.0000000000002,2|8,0:0|0:0,0:0:0:0:
155,174,127494,2,0,P|135:205|133:242,1,75.0000000000002,2|0,0:0|0:0,0:0:0:0:
295,274,127822,1,2,0:0:0:0:
295,274,127904,1,2,0:0:0:0:
295,274,127986,6,0,B|387:259|349:320|458:296,2,150,10|0|8,0:0|0:0|0:0,0:0:0:0:
295,274,128969,1,0,0:0:0:0:
413,212,129133,1,2,0:0:0:0:
466,384,129297,6,0,P|474:309|486:235,1,150,14|0,0:0|0:0,0:0:0:0:
364,93,129789,1,2,0:0:0:0:
364,93,129953,2,0,P|297:118|274:187,1,150,10|0,0:0|0:0,0:0:0:0:
168,274,130445,1,2,0:0:0:0:
168,274,130609,6,0,B|232:268|232:268|263:278|263:278|345:269,1,150,14|2,0:0|0:0,0:0:0:0:
425,150,131101,2,0,P|388:155|357:177,1,75.0000000000002,2|12,0:0|0:0,0:0:0:0:
422,334,131428,2,0,P|435:299|431:262,1,75.0000000000002,2|0,0:0|0:0,0:0:0:0:
294,110,131756,1,2,0:0:0:0:
148,255,131920,6,0,P|139:180|127:106,1,150,14|2,0:0|0:0,0:0:0:0:
56,0,132412,2,0,L|45:74,1,75.0000000000002,2|8,0:0|0:0,0:0:0:0:
209,104,132740,2,0,L|198:29,1,75.0000000000002,2|0,0:0|0:0,0:0:0:0:
137,172,133068,1,2,0:0:0:0:
298,111,133232,5,10,0:0:0:0:
127,56,133396,1,2,0:0:0:0:
232,212,133560,1,2,0:0:0:0:
292,24,133723,1,2,0:0:0:0:
423,193,133887,1,10,0:0:0:0:
209,104,134051,1,2,0:0:0:0:
311,259,134215,2,0,B|385:232|372:304|475:267,1,135,2|2,0:0|0:0,0:0:0:0:
461,292,134543,6,0,P|461:354|421:395,1,90.0000000000001,4|0,3:2|0:0,0:0:0:0:
255,356,134871,1,0,3:2:0:0:
385,319,135035,1,2,0:0:0:0:
244,376,135199,2,0,P|231:309|213:253,1,90.0000000000001,2|2,3:2|0:0,0:0:0:0:
127,112,135527,2,0,P|115:155|108:199,1,90.0000000000001,2|2,3:2|0:0,0:0:0:0:
40,366,135855,5,2,3:2:0:0:
0,271,136019,1,2,0:0:0:0:
150,340,136182,1,2,3:2:0:0:
178,230,136346,1,2,0:0:0:0:
19,358,136510,2,0,P|11:313|0:270,1,90.0000000000001,2|2,3:2|0:0,0:0:0:0:
146,128,136838,2,0,P|212:117|278:103,1,135,0|0,3:2|0:0,0:0:0:0:
294,85,137166,6,0,P|338:92|381:104,1,90.0000000000001,6|0,3:2|0:0,0:0:0:0:
490,190,137494,1,2,3:2:0:0:
352,268,137658,2,0,P|328:230|329:185,1,90.0000000000001,2|0,0:0|3:2,0:0:0:0:
503,94,137986,2,0,P|515:136|503:179,1,90.0000000000001,2|0,0:0|3:2,0:0:0:0:
328,42,138314,1,2,0:0:0:0:
328,42,138396,1,2,0:0:0:0:
328,42,138478,6,0,B|291:73|291:73|156:46,2,180,2|0|0,3:2|3:2|3:2,0:0:0:0:
328,42,139461,1,0,3:2:0:0:
102,104,139625,1,2,0:0:0:0:
314,234,139789,6,0,P|361:223|379:109,1,180,6|2,3:2|3:2,0:0:0:0:
222,20,140281,1,2,0:0:0:0:
50,185,140445,2,0,B|113:190|113:190|161:176|161:176|227:183,1,180,2|0,3:2|3:2,0:0:0:0:
102,104,140937,1,2,0:0:0:0:
161,341,141101,6,0,P|173:298|180:254,1,90.0000000000001,6|0,3:2|0:0,0:0:0:0:
314,154,141428,1,2,3:2:0:0:
356,305,141592,2,0,P|296:321|246:293,1,90.0000000000001,2|0,0:0|3:2,0:0:0:0:
143,169,141920,2,0,P|204:169|246:209,1,90.0000000000001,2|4,0:0|3:2,0:0:0:0:
307,237,142248,1,2,0:0:0:0:
410,39,142412,6,0,P|391:187|388:222,1,180,6|2,3:2|0:0,0:0:0:0:
252,328,142904,1,0,3:2:0:0:
143,169,143068,2,0,P|155:212|162:256,1,90.0000000000001,10|0,0:0|0:0,0:0:0:0:
0,105,143396,6,0,B|66:100|66:100|111:78|111:78|192:71,1,180,6|8,3:2|0:0,0:0:0:0:
317,204,143887,2,0,P|274:192|230:185,1,90.0000000000001,0|0,3:2|3:2,0:0:0:0:
244,11,144215,2,0,P|270:67|251:121,1,90.0000000000001,0|2,3:2|3:2,0:0:0:0:
79,221,144543,1,2,3:2:0:0:
323,180,144707,1,10,0:0:0:0:
97,84,144871,1,2,3:2:0:0:
240,283,145035,6,0,B|272:250|272:250|428:280,1,180,6|0,3:2|0:0,0:0:0:0:
302,384,145527,1,2,3:2:0:0:
477,234,145691,2,0,P|487:295|455:342,1,90.0000000000001,12|0,0:0|0:0,0:0:0:0:
323,180,146019,6,0,P|314:90|301:1,1,180,6|6,3:2|3:2,0:0:0:0:
81,125,146510,1,0,3:2:0:0:
81,125,146592,1,0,3:2:0:0:
81,125,146674,1,0,3:2:0:0:
208,18,146838,1,2,0:0:0:0:
224,205,147002,2,0,P|180:192|136:185,1,90.0000000000001,2|0,3:2|3:2,0:0:0:0:
392,69,147330,2,0,P|435:56|479:49,1,90.0000000000001,10|0,0:0|0:0,0:0:0:0:
322,16,147658,6,0,P|305:49|306:86,1,75.0000000000002,6|0,3:2|0:0,0:0:0:0:
370,220,147986,1,2,3:2:0:0:
370,220,148150,2,0,P|377:183|367:148,1,75.0000000000002,2|0,0:0|3:2,0:0:0:0:
216,200,148478,2,0,L|303:188,1,75.0000000000002,2|0,0:0|3:2,0:0:0:0:
438,105,148805,1,2,0:0:0:0:
432,282,148969,6,0,P|364:309|302:273,1,150,6|2,3:2|3:2,0:0:0:0:
347,129,149461,1,2,3:2:0:0:
370,220,149625,1,2,3:2:0:0:
203,202,149789,1,0,3:2:0:0:
294,188,149953,1,2,3:2:0:0:
182,296,150117,1,0,3:2:0:0:
149,135,150281,6,0,B|123:103|123:103|4:118,1,150,6|2,3:2|3:2,0:0:0:0:
128,5,150773,2,0,L|215:17,1,75.0000000000002,2|0,0:0|3:2,0:0:0:0:
327,120,151101,1,2,0:0:0:0:
210,90,151264,1,0,3:2:0:0:
374,42,151428,1,6,0:0:0:0:
320,227,151592,5,2,3:2:0:0:
400,40,151756,1,0,3:2:0:0:
400,40,151838,1,0,3:2:0:0:
400,40,151920,1,2,3:2:0:0:
243,170,152084,1,2,0:0:0:0:
442,169,152248,1,2,3:2:0:0:
308,103,152412,1,2,0:0:0:0:
430,253,152576,1,2,3:2:0:0:
485,69,152740,1,14,0:0:0:0:
301,240,152904,6,0,P|226:230|152:218,1,150,2|2,3:2|3:2,0:0:0:0:
6,324,153396,2,0,L|93:312,1,75.0000000000002,2|0,0:0|3:2,0:0:0:0:
210,343,153723,1,0,0:0:0:0:
307,163,153887,1,2,3:2:0:0:
383,343,154051,1,2,0:0:0:0:
227,184,154215,6,0,P|190:177|155:187,1,75.0000000000002,6|2,3:2|0:0,0:0:0:0:
288,245,154543,1,2,3:2:0:0:
185,341,154707,2,0,L|197:254,1,75.0000000000002,2|0,0:0|3:2,0:0:0:0:
118,108,155035,2,0,L|106:21,1,75.0000000000002,2|0,3:2|3:2,0:0:0:0:
70,177,155363,1,2,0:0:0:0:
234,93,155527,6,0,P|308:103|382:114,1,150,6|0,3:2|3:2,0:0:0:0:
435,34,156019,1,2,0:0:0:0:
435,187,156182,2,0,P|459:158|468:123,1,75.0000000000002,2|0,3:2|0:0,0:0:0:0:
343,53,156510,2,0,P|355:88|381:113,1,75.0000000000002,6|0,3:2|0:0,0:0:0:0:
507,183,156838,6,0,P|470:176|434:186,1,75.0000000000002,6|0,3:2|3:2,0:0:0:0:
276,280,157166,1,10,0:0:0:0:
381,114,157330,1,0,0:0:0:0:
470,303,157494,1,2,3:2:0:0:
470,303,157576,1,0,3:2:0:0:
470,303,157658,2,0,L|412:265,1,37.5000000000001,10|8,0:0|0:0,0:0:0:0:
248,116,157822,1,8,0:0:0:0:
259,364,157986,6,0,P|347:332|346:238,1,200,6|0,3:2|3:2,0:0:0:0:
135,210,158478,1,8,0:0:0:0:
276,280,158642,1,0,3:2:0:0:
233,101,158805,2,0,P|226:150|221:200,1,100,2|0,0:0|3:2,0:0:0:0:
112,384,159133,2,0,P|107:334|100:284,1,100,10|0,0:0|0:0,0:0:0:0:
23,80,159461,6,0,B|99:73|99:73|146:98|146:98|218:91,1,200,2|10,3:2|0:0,0:0:0:0:
201,265,159953,2,0,P|180:220|191:172,1,100,2|0,0:0|3:2,0:0:0:0:
268,23,160281,2,0,P|299:61|301:110,1,100,10|8,0:0|3:2,0:0:0:0:
452,226,160609,6,0,B|409:186|409:186|247:215,1,200,6|2,3:2|3:2,0:0:0:0:
152,353,161101,1,10,0:0:0:0:
313,284,161264,1,2,0:0:0:0:
120,178,161428,2,0,P|115:228|108:278,1,100,2|0,0:0|3:2,0:0:0:0:
42,100,161756,1,10,0:0:0:0:
219,169,161920,1,2,3:2:0:0:
219,169,162002,1,2,3:2:0:0:
219,169,162084,6,0,P|269:164|319:157,1,100,2|2,3:2|3:2,0:0:0:0:
511,287,162412,2,0,P|461:280|411:275,1,100,8|2,0:0|0:0,0:0:0:0:
379,97,162740,2,0,P|403:139|397:188,1,100,2|0,0:0|3:2,0:0:0:0:
349,333,163068,2,0,P|324:290|330:241,1,100,8|2,0:0|0:0,0:0:0:0:
273,384,163396,6,0,B|156:404|198:328|77:349,1,200,6|8,3:2|0:0,0:0:0:0:
83,347,163887,1,0,0:0:0:0:
249,116,164051,2,0,B|209:159|209:159|238:321,1,200,2|8,0:0|0:0,0:0:0:0:
233,298,164543,1,0,0:0:0:0:
105,108,164707,6,0,P|17:140|18:234,1,200,6|8,3:2|0:0,0:0:0:0:
17,233,165199,1,0,0:0:0:0:
301,185,165363,2,0,B|377:178|377:178|424:203|424:203|496:196,1,200,2|8,0:0|0:0,0:0:0:0:
494,196,165855,1,0,3:2:0:0:
371,384,166019,6,0,P|366:334|359:284,1,100,6|0,3:2|3:2,0:0:0:0:
188,31,166346,5,8,0:0:0:0:
435,127,166510,1,2,3:2:0:0:
201,218,166674,6,0,P|151:211|101:206,1,100,10|0,0:0|3:2,0:0:0:0:
298,121,167002,5,10,0:0:0:0:
187,369,167166,1,2,3:2:0:0:
123,84,167330,5,8,0:0:0:0:
236,300,167494,1,2,3:2:0:0:
262,50,167658,5,8,0:0:0:0:
22,164,167822,1,2,0:0:0:0:
314,265,167986,5,8,0:0:0:0:
180,9,168150,1,2,3:2:0:0:
57,302,168314,6,0,P|106:295|156:290,1,100,6|2,3:2|0:0,0:0:0:0:
424,304,168641,5,2,3:2:0:0:
407,274,168723,1,0,3:2:0:0:
402,240,168805,1,0,3:2:0:0:
412,206,168887,1,0,3:2:0:0:
434,179,168969,1,8,3:2:0:0:
456,152,169050,1,0,3:2:0:0:
466,118,169132,1,0,3:2:0:0:
461,84,169214,1,8,0:0:0:0:
444,54,169297,2,0,L|360:45,1,50,8|8,0:0|0:0,0:0:0:0:
269,136,169461,2,0,L|353:127,1,50,8|8,0:0|0:0,0:0:0:0:
185,59,169625,2,0,L|101:50,1,50,8|8,0:0|0:0,0:0:0:0:
28,233,169789,6,0,B|112:243|84:175|187:188,1,150,6|0,3:2|0:0,0:0:0:0:
185,187,170117,1,2,3:2:0:0:
310,378,170281,1,2,3:2:0:0:
164,276,170445,1,2,3:2:0:0:
398,146,170609,1,2,3:2:0:0:
275,280,170773,1,2,3:2:0:0:
332,54,170937,1,2,3:2:0:0:
496,230,171101,1,2,3:2:0:0:
422,30,171264,5,12,0:0:0:0:
356,318,171428,1,12,0:0:0:0:
356,318,172248,5,12,0:0:0:0:
179,63,172412,1,12,0:0:0:0:
145,340,173887,6,0,P|176:267|144:193,1,165,6|0,3:2|0:0,0:0:0:0:
133,174,174215,2,0,P|78:168|23:168,1,110,8|0,0:0|0:0,0:0:0:0:
211,109,174543,1,2,3:2:0:0:
84,266,174707,1,0,3:2:0:0:
290,283,174871,2,0,P|307:231|285:182,1,110,8|0,0:0|0:0,0:0:0:0:
84,266,175199,6,0,P|78:321|78:376,2,110,6|0|8,3:2|0:0|0:0,0:0:0:0:
215,131,175691,1,0,0:0:0:0:
177,357,175855,1,2,3:2:0:0:
37,172,176019,1,0,3:2:0:0:
188,368,176182,2,0,P|242:361|297:361,1,110,8|2,0:0|0:0,0:0:0:0:
512,187,176510,6,0,P|457:180|402:180,1,110,6|0,3:2|0:0,0:0:0:0:
192,130,176838,1,10,0:0:0:0:
310,0,177002,2,0,B|347:29|347:29|319:177,1,165,2|0,0:0|0:0,0:0:0:0:
321,161,177330,1,2,3:2:0:0:
133,0,177494,1,8,0:0:0:0:
74,208,177658,1,2,3:2:0:0:
74,208,177740,1,2,3:2:0:0:
74,208,177822,6,0,B|145:201|145:201|170:214|170:214|278:208,1,165,6|0,3:2|0:0,0:0:0:0:
252,208,178150,1,8,0:0:0:0:
133,0,178314,2,0,P|53:8|4:72,1,165,0|0,3:2|0:0,0:0:0:0:
2,90,178642,1,2,3:2:0:0:
128,287,178805,1,10,0:0:0:0:
221,89,178969,1,2,3:2:0:0:
221,89,179051,1,2,3:2:0:0:
221,89,179133,6,0,P|302:101|384:109,1,165,6|0,3:2|0:0,0:0:0:0:
402,111,179461,1,10,0:0:0:0:
212,178,179625,2,0,P|157:178|102:184,1,110,2|0,0:0|3:2,0:0:0:0:
327,21,179953,1,2,3:2:0:0:
268,250,180117,1,10,0:0:0:0:
131,47,180281,1,2,3:2:0:0:
131,47,180363,1,2,3:2:0:0:
131,47,180445,5,6,3:2:0:0:
317,139,180609,1,2,0:0:0:0:
243,11,180773,1,10,0:0:0:0:
124,155,180937,2,0,P|119:100|108:46,1,110,2|0,3:2|0:0,0:0:0:0:
278,262,181264,2,0,P|282:207|293:153,1,110,2|8,3:2|0:0,0:0:0:0:
174,298,181592,1,2,0:0:0:0:
388,320,181756,6,0,P|405:268|383:219,1,110,6|0,3:2|0:0,0:0:0:0:
207,151,182084,1,10,0:0:0:0:
312,357,182248,1,2,0:0:0:0:
387,142,182412,1,0,3:2:0:0:
174,298,182576,2,0,P|120:287|65:282,1,110,2|8,3:2|0:0,0:0:0:0:
304,189,182904,1,2,3:2:0:0:
304,189,182986,1,2,3:2:0:0:
304,189,183068,6,0,B|398:168|368:233|467:213,1,165,6|0,3:2|0:0,0:0:0:0:
483,197,183396,2,0,P|490:142|460:98,1,110,8|0,0:0|0:0,0:0:0:0:
323,271,183723,1,0,3:2:0:0:
286,37,183887,1,2,3:2:0:0:
253,17,183969,1,0,3:2:0:0:
216,4,184051,1,10,0:0:0:0:
178,0,184133,1,8,0:0:0:0:
140,3,184215,1,10,0:0:0:0:
103,14,184297,1,8,0:0:0:0:
69,33,184379,6,0,B|36:60|36:60|56:170,1,150,6|0,3:2|0:0,0:0:0:0:
60,185,184707,1,10,0:0:0:0:
207,258,184871,1,0,0:0:0:0:
43,199,185035,1,2,3:2:0:0:
215,108,185199,2,0,P|251:147|252:201,1,100,2|8,3:2|0:0,0:0:0:0:
122,255,185527,6,0,P|137:203|184:175,1,100,2|0,0:0|3:2,0:0:0:0:
327,326,185855,2,0,P|277:333|228:342,1,100,2|8,3:2|0:0,0:0:0:0:
414,192,186182,2,0,P|463:199|512:208,1,100,2|0,0:0|3:2,0:0:0:0:
321,230,186510,1,2,3:2:0:0:
438,93,186674,1,10,0:0:0:0:
412,316,186838,1,2,0:0:0:0:
239,142,187002,6,0,B|144:116|181:189|55:155,1,150,6|0,3:2|0:0,0:0:0:0:
77,161,187330,1,10,0:0:0:0:
177,306,187494,2,0,P|207:267|207:218,1,100,2|0,0:0|3:2,0:0:0:0:
83,68,187822,2,0,P|63:113|76:160,1,100,2|8,3:2|0:0,0:0:0:0:
314,106,188150,6,0,P|363:113|412:122,1,100,2|0,0:0|3:2,0:0:0:0:
121,241,188478,2,0,P|71:248|22:257,1,100,2|10,3:2|0:0,0:0:0:0:
164,21,188805,2,0,P|212:13|253:39,1,100,2|2,0:0|3:2,0:0:0:0:
326,266,189133,1,0,3:2:0:0:
195,93,189297,1,8,0:0:0:0:
152,299,189461,1,0,0:0:0:0:
22,230,189625,6,0,B|113:253|78:189|199:219,1,150,6|0,3:2|0:0,0:0:0:0:
180,196,189953,2,0,P|187:143|157:97,1,100,8|0,0:0|0:0,0:0:0:0:
0,20,190281,1,2,3:2:0:0:
106,160,190445,1,2,3:2:0:0:
214,19,190609,2,0,P|164:28|115:35,1,100,8|2,0:0|0:0,0:0:0:0:
261,236,190937,6,0,P|336:207|365:134,1,150,6|0,3:2|0:0,0:0:0:0:
388,128,191264,2,0,P|437:118|486:111,1,100,8|0,0:0|0:0,0:0:0:0:
419,243,191592,1,2,3:2:0:0:
273,77,191756,1,0,3:2:0:0:
181,277,191920,2,0,P|168:229|187:184,1,100,8|0,0:0|0:0,0:0:0:0:
351,53,192248,5,6,3:2:0:0:
261,329,192412,1,0,3:2:0:0:
101,90,192576,1,12,0:0:0:0:
393,151,192740,1,0,0:0:0:0:
139,346,192904,1,8,0:0:0:0:
431,231,193068,1,10,0:0:0:0:
203,167,193232,1,6,3:2:0:0:
474,319,193396,6,0,B|535:276|535:276|510:139,1,200,6|10,3:2|0:0,0:0:0:0:
327,85,193887,1,10,0:0:0:0:
411,224,194051,2,0,L|428:139,1,50,2|0,3:2|3:2,0:0:0:0:
361,6,194215,1,2,3:2:0:0:
322,0,194297,1,0,3:2:0:0:
284,9,194379,1,10,0:0:0:0:
254,35,194461,1,8,0:0:0:0:
239,72,194543,1,10,0:0:0:0:
223,108,194625,1,0,3:2:0:0:
193,134,194707,1,2,3:2:0:0:
155,144,194789,1,2,3:2:0:0:
116,137,194871,6,0,B|106:135|87:111|87:111|31:177|91:237,1,165,6|0,3:2|0:0,0:0:0:0:
99,237,195199,2,0,P|153:228|208:225,1,110,8|0,0:0|0:0,0:0:0:0:
325,64,195527,1,2,3:2:0:0:
155,144,195691,1,0,3:2:0:0:
280,275,195855,2,0,P|297:223|275:174,1,110,8|0,0:0|0:0,0:0:0:0:
62,19,196182,6,0,P|71:73|74:128,2,110,6|0|8,3:2|0:0|0:0,0:0:0:0:
244,70,196674,1,0,0:0:0:0:
101,206,196838,1,2,3:2:0:0:
154,11,197002,1,0,3:2:0:0:
287,157,197166,2,0,P|341:148|396:145,1,110,8|2,0:0|0:0,0:0:0:0:
162,294,197494,6,0,P|107:285|52:282,1,110,6|0,3:2|0:0,0:0:0:0:
224,223,197822,1,10,0:0:0:0:
413,373,197986,2,0,P|463:310|453:230,1,165,2|0,0:0|0:0,0:0:0:0:
442,217,198314,1,2,3:2:0:0:
224,140,198478,1,8,0:0:0:0:
461,60,198642,1,2,3:2:0:0:
461,60,198723,1,2,3:2:0:0:
461,60,198805,6,0,B|401:51|401:51|363:67|363:67|256:56,1,165,6|0,3:2|0:0,0:0:0:0:
282,59,199133,1,8,0:0:0:0:
140,197,199297,2,0,P|133:114|122:32,1,165,2|0,0:0|0:0,0:0:0:0:
118,14,199625,1,2,3:2:0:0:
290,140,199789,1,10,0:0:0:0:
60,161,199953,1,2,3:2:0:0:
60,161,200035,1,2,3:2:0:0:
60,161,200117,6,0,B|22:249|92:231|55:325,1,165,6|0,3:2|0:0,0:0:0:0:
48,343,200445,1,10,0:0:0:0:
140,197,200609,2,0,P|192:180|241:202,1,110,2|0,0:0|3:2,0:0:0:0:
320,373,200937,1,2,3:2:0:0:
187,261,201101,1,10,0:0:0:0:
373,148,201264,1,2,3:2:0:0:
373,148,201346,1,2,3:2:0:0:
373,148,201428,6,0,B|409:182|409:182|388:303,1,165,6|0,3:2|0:0,0:0:0:0:
385,313,201756,1,10,0:0:0:0:
230,183,201920,2,0,P|175:180|120:171,1,110,2|0,3:2|0:0,0:0:0:0:
404,64,202248,2,0,P|458:59|512:48,1,110,2|8,3:2|0:0,0:0:0:0:
439,198,202576,1,2,0:0:0:0:
334,0,202740,6,0,P|254:16|213:84,1,165,6|0,3:2|0:0,0:0:0:0:
197,97,203068,2,0,P|143:86|88:81,1,110,8|2,0:0|0:0,0:0:0:0:
173,246,203396,1,2,3:2:0:0:
319,97,203560,1,0,3:2:0:0:
302,329,203723,1,8,0:0:0:0:
197,97,203887,1,2,0:0:0:0:
429,175,204051,6,0,B|420:235|420:235|436:273|436:273|425:380,1,165,6|0,3:2|0:0,0:0:0:0:
413,349,204379,2,0,P|361:366|312:344,1,110,12|2,0:0|3:2,0:0:0:0:
197,97,204707,1,2,3:2:0:0:
79,324,204871,1,8,0:0:0:0:
79,324,204953,1,8,0:0:0:0:
79,324,205035,2,0,L|147:312,1,55,8|8,0:0|0:0,0:0:0:0:
348,166,205199,1,8,0:0:0:0:
348,166,205281,1,8,0:0:0:0:
348,166,205363,6,0,B|242:136|262:215|154:184,1,200,6|8,3:2|0:0,0:0:0:0:
314,65,205855,1,2,0:0:0:0:
450,300,206019,2,0,P|457:251|466:202,1,100,2|0,3:2|3:2,0:0:0:0:
418,85,206346,1,8,0:0:0:0:
323,342,206510,6,0,P|316:293|307:244,1,100,2|0,0:0|3:2,0:0:0:0:
172,86,206838,2,0,P|162:135|155:184,1,100,2|8,0:0|0:0,0:0:0:0:
373,195,207166,2,0,P|334:165|285:165,1,100,2|0,0:0|3:2,0:0:0:0:
137,294,207494,1,0,3:2:0:0:
306,243,207658,1,8,0:0:0:0:
129,310,207822,1,2,0:0:0:0:
370,384,207986,6,0,P|377:334|386:285,1,100,6|0,3:2|0:0,0:0:0:0:
248,101,208314,1,10,0:0:0:0:
454,133,208478,2,0,P|478:175|472:224,1,100,2|0,0:0|3:2,0:0:0:0:
230,281,208805,2,0,P|217:233|236:188,1,100,2|8,3:2|0:0,0:0:0:0:
404,259,209133,1,2,3:2:0:0:
404,259,209215,1,2,3:2:0:0:
404,259,209297,6,0,P|354:249|305:242,1,100,6|2,3:2|3:2,0:0:0:0:
170,139,209625,1,14,0:0:0:0:
114,316,209789,2,0,P|106:266|97:217,1,100,2|0,0:0|3:2,0:0:0:0:
191,43,210117,1,2,3:2:0:0:
13,182,210281,1,0,3:2:0:0:
238,204,210445,1,2,3:2:0:0:
56,34,210609,6,0,B|59:106|59:106|88:151|88:151|93:255,2,200,6|0|8,3:2|3:2|0:0,0:0:0:0:
340,272,211592,2,0,P|388:276|430:249,1,100,2|0,0:0|3:2,0:0:0:0:
205,159,211920,6,0,P|158:142|111:157,1,100,2|8,3:2|0:0,0:0:0:0:
324,370,212248,2,0,P|330:320|339:271,1,100,2|0,0:0|3:2,0:0:0:0:
159,223,212576,2,0,P|168:272|174:321,1,100,14|0,0:0|3:2,0:0:0:0:
370,191,212904,2,0,P|376:141|385:92,1,100,2|2,3:2|3:2,0:0:0:0:
44,121,213232,6,0,B|97:136|144:97|144:97|182:129|182:129|231:86|297:107,1,280,14|0,3:2|0:0,0:0:0:0:
97,340,214543,5,6,3:2:0:0:
243,277,214871,2,0,P|209:260|172:261,1,75.0000000000002,2|0,0:0|3:2,0:0:0:0:
297,107,215199,2,0,P|299:144|319:175,1,75.0000000000002,2|0,0:0|3:2,0:0:0:0:
122,145,215527,2,0,P|152:124|170:91,1,75.0000000000002,2|0,3:2|0:0,0:0:0:0:
221,180,215855,5,6,3:2:0:0:
256,192,215937,12,4,218478,0:0:0:0:
64,47,226182,5,2,3:2:0:0:
64,47,226264,1,2,3:2:0:0:
64,47,226346,6,0,L|76:134,1,75.0000000000002,6|2,3:2|3:2,0:0:0:0:
145,247,226674,2,0,L|157:159,1,75.0000000000002,2|2,0:0|3:2,0:0:0:0:
258,73,227002,2,0,B|351:63|310:122|420:104,1,150,10|0,0:0|3:2,0:0:0:0:
273,160,227494,1,2,0:0:0:0:
273,160,227658,6,0,P|258:194|259:231,1,75.0000000000002,2|2,3:2|0:0,0:0:0:0:
359,367,227986,1,2,0:0:0:0:
426,223,228150,2,0,L|338:211,1,75.0000000000002,2|8,3:2|0:0,0:0:0:0:
172,324,228478,2,0,L|260:312,1,75.0000000000002,2|0,0:0|3:2,0:0:0:0:
336,210,228805,1,2,0:0:0:0:
359,367,228969,6,0,P|373:332|372:295,1,75.0000000000002,4|2,0:0|3:2,0:0:0:0:
256,158,229297,2,0,P|241:192|242:229,1,75.0000000000002,2|2,0:0|3:2,0:0:0:0:
388,141,229625,2,0,L|376:53,2,75.0000000000002,10|2|2,0:0|0:0|3:2,0:0:0:0:
445,12,230117,1,2,0:0:0:0:
296,41,230281,6,0,L|207:29,1,75.0000000000002,2|2,3:2|0:0,0:0:0:0:
87,124,230609,1,2,0:0:0:0:
161,229,230773,2,0,P|169:192|161:156,1,75.0000000000002,2|8,3:2|0:0,0:0:0:0:
6,88,231101,2,0,P|-2:124|5:160,1,75.0000000000002,2|0,0:0|3:2,0:0:0:0:
153,79,231428,1,2,0:0:0:0:
161,229,231592,6,0,P|293:209|310:207,1,150,6|2,3:2|0:0,0:0:0:0:
440,134,232084,1,2,3:2:0:0:
358,274,232248,1,10,0:0:0:0:
366,81,232412,1,2,0:0:0:0:
505,228,232576,2,0,L|416:216,1,75.0000000000002,2|0,3:2|3:2,0:0:0:0:
323,360,232904,6,0,P|383:366|445:294,1,150,6|2,3:2|0:0,0:0:0:0:
342,184,233396,2,0,L|253:172,1,75.0000000000002,2|8,3:2|0:0,0:0:0:0:
127,258,233723,2,0,L|216:246,1,75.0000000000002,0|0,3:2|3:2,0:0:0:0:
65,328,234051,1,2,3:2:0:0:
65,328,234133,1,2,3:2:0:0:
65,328,234215,6,0,B|29:293|29:293|44:174,1,150,6|2,3:2|0:0,0:0:0:0:
205,137,234707,1,2,3:2:0:0:
205,137,234871,2,0,P|171:153|134:155,1,75.0000000000002,14|0,0:0|3:2,0:0:0:0:
7,84,235199,2,0,P|43:76|79:84,1,75.0000000000002,2|2,0:0|3:2,0:0:0:0:
229,310,235527,6,0,L|217:223,1,75.0000000000002,6|8,3:2|0:0,0:0:0:0:
296,101,235855,2,0,L|308:14,1,75.0000000000002,6|0,0:0|3:2,0:0:0:0:
356,193,236182,1,12,0:0:0:0:
205,137,236346,1,2,3:2:0:0:
419,126,236510,1,14,0:0:0:0:
296,255,236674,1,8,0:0:0:0:
443,132,236838,6,0,P|450:176|461:219,1,90.0000000000001,6|0,3:2|0:0,0:0:0:0:
284,360,237166,2,0,P|295:316|302:272,1,90.0000000000001,8|2,0:0|0:0,0:0:0:0:
218,153,237494,1,10,0:0:0:0:
386,257,237658,1,8,0:0:0:0:
166,310,237822,2,0,P|150:268|160:225,1,90.0000000000001,8|2,0:0|0:0,0:0:0:0:
342,104,238150,5,10,0:0:0:0:
236,264,238314,1,8,0:0:0:0:
165,76,238478,1,10,0:0:0:0:
55,246,238642,2,0,P|47:201|36:158,1,90.0000000000001,10|0,0:0|3:2,0:0:0:0:
14,334,238969,1,10,0:0:0:0:
160,225,239133,2,0,B|238:208|213:268|321:235,1,135,0|0,3:2|0:0,0:0:0:0:
307,231,239461,6,0,P|322:189|312:146,1,90.0000000000001,6|0,3:2|0:0,0:0:0:0:
166,0,239789,2,0,P|158:44|147:87,1,90.0000000000001,8|2,0:0|0:0,0:0:0:0:
242,184,240117,1,10,0:0:0:0:
72,129,240281,1,0,3:2:0:0:
276,61,240445,2,0,P|320:68|363:79,1,90.0000000000001,8|2,0:0|0:0,0:0:0:0:
491,247,240773,1,6,3:2:0:0:
362,159,240937,1,0,3:2:0:0:
512,91,241101,1,10,0:0:0:0:
375,256,241264,6,0,P|330:254|294:228,1,90.0000000000001,10|0,0:0|3:2,0:0:0:0:
198,91,241592,1,10,0:0:0:0:
152,287,241756,2,0,P|141:220|127:154,1,135,12|0,0:0|0:0,0:0:0:0:
104,141,242084,6,0,P|56:130|11:150,1,100,6|0,3:2|0:0,0:0:0:0:
228,271,242412,1,8,0:0:0:0:
64,210,242576,1,0,0:0:0:0:
274,128,242740,2,0,P|323:132|373:139,1,100,2|0,0:0|3:2,0:0:0:0:
249,19,243068,1,10,0:0:0:0:
183,175,243232,1,2,3:2:0:0:
183,175,243314,1,2,3:2:0:0:
183,175,243396,6,0,B|300:195|258:119|379:140,1,200,6|8,3:2|0:0,0:0:0:0:
206,272,243887,1,2,0:0:0:0:
99,74,244051,2,0,P|49:78|0:85,1,100,2|0,0:0|3:2,0:0:0:0:
345,221,244379,2,0,P|394:225|444:232,1,100,12|0,0:0|3:2,0:0:0:0:
311,369,244707,5,14,0:0:0:0:
207,113,244871,1,0,3:2:0:0:
187,336,245035,5,12,0:0:0:0:
298,78,245199,1,0,3:2:0:0:
417,325,245363,5,12,0:0:0:0:
85,214,245527,1,2,3:2:0:0:
405,93,245691,1,8,0:0:0:0:
275,378,245855,6,0,B|266:301|266:301|232:261|232:261|224:188,1,200,6|6,3:2|0:0,0:0:0:0:
412,43,246346,1,10,0:0:0:0:
412,43,246428,1,8,0:0:0:0:
412,43,246510,2,0,L|399:127,1,50,10|8,0:0|0:0,0:0:0:0:
365,283,246674,1,10,0:0:0:0:
267,58,246838,1,2,3:2:0:0:
512,164,247002,1,2,3:2:0:0:
224,191,247166,1,2,3:2:0:0:
480,297,247330,5,12,0:0:0:0:
322,0,247494,1,12,0:0:0:0:
322,0,248314,5,12,0:0:0:0:
177,312,248478,1,12,0:0:0:0:
57,112,249953,6,0,B|190:85|137:190|281:162,1,240,6|2,0:0|0:0,0:0:0:0:
471,179,251264,6,0,P|494:123|328:94,1,300.000000000001,2|2,0:0|0:0,0:0:0:0:
400,314,252412,1,2,0:0:0:0:
400,314,252576,6,0,P|382:179|379:146,1,150,2|10,0:0|0:0,0:0:0:0:
249,94,253068,2,0,P|212:87|177:97,1,75.0000000000002,2|0,0:0|0:0,0:0:0:0:
35,161,253396,2,0,P|70:171|107:164,1,75.0000000000002,2|10,0:0|0:0,0:0:0:0:
224,174,253723,1,2,0:0:0:0:
224,174,253805,1,2,0:0:0:0:
224,174,253887,6,0,B|236:258|236:258|220:301|220:301|231:387,1,200,6|0,0:0|0:0,0:0:0:0:
73,260,254707,2,0,L|161:248,1,75.0000000000002,2|10,0:0|0:0,0:0:0:0:
312,308,255035,1,2,0:0:0:0:
312,308,255117,1,2,0:0:0:0:
312,308,255199,6,0,B|345:274|345:274|477:299,1,150,6|10,0:0|0:0,0:0:0:0:
366,365,255691,1,2,0:0:0:0:
378,197,256019,2,0,L|366:109,1,75.0000000000002,2|10,0:0|0:0,0:0:0:0:
252,26,256346,1,2,0:0:0:0:
252,26,256428,1,2,0:0:0:0:
252,26,256510,6,0,B|146:7|184:71|76:55,1,180,6|10,0:0|0:0,0:0:0:0:
219,104,257002,2,0,P|229:139|222:176,1,75.0000000000002,2|2,0:0|0:0,0:0:0:0:
81,184,257330,2,0,P|106:157|142:145,1,75.0000000000002,2|10,0:0|0:0,0:0:0:0:
292,235,257658,1,2,0:0:0:0:
176,382,257822,6,0,P|167:307|156:233,1,150,6|10,0:0|0:0,0:0:0:0:
309,223,258314,2,0,L|297:311,1,75.0000000000002,2|0,0:0|0:0,0:0:0:0:
156,376,258642,2,0,L|145:301,1,75.0000000000002,2|8,0:0|0:0,0:0:0:0:
268,147,258969,1,2,0:0:0:0:
268,147,259051,1,2,0:0:0:0:
268,147,259133,6,0,P|339:141|388:194,2,150,14|8|12,0:0|0:0|3:2,0:0:0:0:
163,289,259953,1,2,3:2:0:0:
309,223,260117,1,14,3:2:0:0:
179,169,260281,1,2,3:2:0:0:
253,340,260445,6,0,P|296:328|340:321,1,90.0000000000001,6|0,3:2|0:0,0:0:0:0:
512,279,260773,2,0,P|467:271|424:260,1,90.0000000000001,2|2,3:2|0:0,0:0:0:0:
318,128,261101,1,2,3:2:0:0:
227,257,261264,2,0,P|218:213|234:172,1,90.0000000000001,2|0,0:0|3:2,0:0:0:0:
410,89,261592,6,0,P|398:132|391:176,1,90.0000000000001,2|0,0:0|3:2,0:0:0:0:
247,87,261920,2,0,P|239:42|228:0,1,90.0000000000001,2|0,0:0|3:2,0:0:0:0:
86,98,262248,2,0,P|121:124|166:127,1,90.0000000000001,2|0,0:0|3:2,0:0:0:0:
59,11,262576,1,2,0:0:0:0:
9,169,262740,1,2,3:2:0:0:
153,40,262904,1,2,0:0:0:0:
171,237,263068,6,0,P|127:225|83:218,1,90.0000000000001,6|0,3:2|0:0,0:0:0:0:
229,164,263396,1,2,3:2:0:0:
210,330,263560,2,0,P|244:302|259:260,1,90.0000000000001,2|2,0:0|3:2,0:0:0:0:
135,159,263887,2,0,P|141:202|170:236,1,90.0000000000001,2|0,0:0|3:2,0:0:0:0:
316,145,264215,6,0,P|271:152|228:163,1,90.0000000000001,2|0,0:0|3:2,0:0:0:0:
26,292,264543,2,0,P|70:299|113:310,1,90.0000000000001,2|0,0:0|3:2,0:0:0:0:
346,384,264871,2,0,B|319:285|399:310|375:208,1,180,2|0,0:0|0:0,0:0:0:0:
221,99,265363,1,0,3:2:0:0:
287,235,265527,1,0,0:0:0:0:
409,131,265691,6,0,P|362:123|312:146,1,100,6|0,3:2|0:0,0:0:0:0:
257,322,266019,1,2,3:2:0:0:
376,214,266182,1,0,0:0:0:0:
228,164,266346,2,0,P|182:172|128:177,1,100,8|0,0:0|0:0,0:0:0:0:
0,293,266674,1,0,3:2:0:0:
38,159,266838,1,8,0:0:0:0:
171,270,267002,5,6,3:2:0:0:
69,241,267166,1,8,0:0:0:0:
159,86,267330,2,0,P|205:103|234:143,1,100,0|0,3:2|0:0,0:0:0:0:
109,325,267658,2,0,P|59:316|9:312,1,100,14|0,0:0|0:0,0:0:0:0:
243,162,267986,2,0,P|292:153|342:149,1,100,12|0,0:0|0:0,0:0:0:0:
182,249,268314,5,6,3:2:0:0:
91,16,268478,1,0,3:2:0:0:
324,134,268642,5,8,0:0:0:0:
45,230,268805,1,0,3:2:0:0:
289,255,268969,5,8,0:0:0:0:
0,110,269133,1,2,3:2:0:0:
301,30,269297,5,2,3:2:0:0:
95,318,269461,1,14,0:0:0:0:
256,192,269543,12,0,270609,0:0:0:0:
379,384,270937,6,0,B|342:355|342:355|359:207,1,165,6|0,3:2|0:0,0:0:0:0:
341,220,271264,2,0,P|289:202|240:224,1,110,8|0,0:0|0:0,0:0:0:0:
167,384,271592,1,2,3:2:0:0:
295,283,271756,1,0,3:2:0:0:
108,235,271920,2,0,P|54:246|0:251,1,110,8|0,0:0|0:0,0:0:0:0:
102,52,272248,6,0,P|181:60|230:124,1,165,6|0,3:2|0:0,0:0:0:0:
248,132,272576,2,0,P|301:120|356:115,1,110,8|0,0:0|0:0,0:0:0:0:
512,187,272904,1,2,3:2:0:0:
373,23,273068,1,0,3:2:0:0:
308,213,273232,2,0,P|260:238|208:226,1,110,8|0,0:0|0:0,0:0:0:0:
75,365,273560,6,0,B|80:302|80:302|66:262|66:262|73:178,1,165,6|0,3:2|0:0,0:0:0:0:
73,188,273887,1,10,0:0:0:0:
171,344,274051,2,0,P|225:339|279:327,1,110,2|0,0:0|3:2,0:0:0:0:
512,229,274379,2,0,P|458:217|403:212,1,110,2|8,3:2|0:0,0:0:0:0:
360,356,274707,1,2,3:2:0:0:
360,356,274789,1,2,3:2:0:0:
360,356,274871,6,0,B|370:253|311:294|321:174,1,165,6|0,3:2|0:0,0:0:0:0:
321,183,275199,1,8,0:0:0:0:
98,119,275363,2,0,P|180:112|261:101,1,165,2|0,0:0|0:0,0:0:0:0:
279,99,275691,1,2,3:2:0:0:
139,227,275855,1,10,0:0:0:0:
223,23,276019,1,2,3:2:0:0:
223,23,276101,1,2,3:2:0:0:
223,23,276182,6,0,P|302:10|365:59,1,165,6|0,3:2|0:0,0:0:0:0:
376,77,276510,1,10,0:0:0:0:
214,151,276674,2,0,P|160:139|105:134,1,110,2|0,0:0|3:2,0:0:0:0:
279,99,277002,1,2,3:2:0:0:
216,274,277166,1,14,0:0:0:0:
428,168,277330,1,2,3:2:0:0:
428,168,277412,1,2,3:2:0:0:
428,168,277494,6,0,B|465:197|465:197|449:315,1,165,6|0,3:2|0:0,0:0:0:0:
447,333,277822,1,10,0:0:0:0:
298,181,277986,1,14,0:0:0:0:
61,384,278314,2,0,P|10:321|21:241,1,165,14|0,0:0|0:0,0:0:0:0:
33,227,278642,1,2,3:2:0:0:
308,329,278805,6,0,B|245:334|245:334|205:320|205:320|121:327,1,165,6|0,3:2|0:0,0:0:0:0:
125,313,279133,2,0,P|117:259|146:214,1,110,8|2,0:0|0:0,0:0:0:0:
331,220,279461,1,2,3:2:0:0:
199,283,279625,1,0,3:2:0:0:
319,105,279789,1,8,0:0:0:0:
405,295,279953,1,2,0:0:0:0:
191,122,280117,6,0,B|88:111|129:170|7:158,1,165,6|0,3:2|0:0,0:0:0:0:
18,147,280445,2,0,P|13:92|1:38,1,110,8|2,0:0|0:0,0:0:0:0:
163,205,280773,1,2,3:2:0:0:
243,4,280937,1,2,3:2:0:0:
380,203,281101,1,8,0:0:0:0:
384,164,281182,1,8,0:0:0:0:
389,126,281264,1,8,0:0:0:0:
394,88,281346,1,8,0:0:0:0:
399,50,281428,6,0,B|291:27|330:114|200:93,1,200,4|8,3:2|0:0,0:0:0:0:
374,126,281920,1,2,0:0:0:0:
154,26,282084,2,0,P|124:65|124:114,1,100,2|0,3:2|3:2,0:0:0:0:
302,256,282412,1,10,0:0:0:0:
98,192,282576,6,0,P|48:199|-1:208,1,100,2|0,0:0|3:2,0:0:0:0:
264,94,282904,2,0,P|314:101|363:110,1,100,2|8,0:0|0:0,0:0:0:0:
212,322,283232,2,0,P|191:277|201:229,1,100,2|0,0:0|3:2,0:0:0:0:
362,109,283560,1,0,3:2:0:0:
175,141,283723,1,8,0:0:0:0:
398,223,283887,1,2,0:0:0:0:
300,0,284051,6,0,P|293:49|284:98,1,100,6|0,3:2|3:2,0:0:0:0:
155,259,284379,1,8,0:0:0:0:
93,65,284543,2,0,P|45:54|0:75,1,100,2|2,0:0|3:2,0:0:0:0:
264,188,284871,2,0,P|313:185|350:154,1,100,2|8,0:0|0:0,0:0:0:0:
55,135,285199,1,2,3:2:0:0:
55,135,285281,1,2,3:2:0:0:
55,135,285363,6,0,P|64:184|70:233,1,100,6|0,3:2|3:2,0:0:0:0:
212,322,285691,1,8,0:0:0:0:
166,74,285855,2,0,P|175:123|181:172,1,100,2|4,0:0|3:2,0:0:0:0:
111,361,286182,1,2,0:0:0:0:
277,198,286346,1,0,3:2:0:0:
73,253,286510,1,2,3:2:0:0:
276,383,286674,6,0,B|385:394|352:319|463:331,2,200,6|0|8,3:2|3:2|0:0,0:0:0:0:
386,90,287658,1,2,0:0:0:0:
292,161,287822,1,2,3:2:0:0:
292,161,287904,1,2,3:2:0:0:
292,161,287986,6,0,P|242:151|193:145,1,100,6|8,3:2|0:0,0:0:0:0:
60,30,288314,1,2,0:0:0:0:
122,192,288478,1,8,0:0:0:0:
122,192,288560,1,8,0:0:0:0:
122,192,288642,1,8,0:0:0:0:
199,43,288805,1,0,3:2:0:0:
10,146,288969,2,0,P|19:195|25:244,1,100,2|0,3:2|3:2,0:0:0:0:
282,384,289297,6,0,P|368:360|353:187,1,280,14|0,3:2|0:0,0:0:0:0:
125,65,291264,1,10,0:0:0:0:
160,46,291346,1,8,0:0:0:0:
199,43,291428,1,8,0:0:0:0:
236,57,291510,1,8,0:0:0:0:
265,85,291592,1,10,0:0:0:0:
293,114,291674,1,8,0:0:0:0:
330,128,291756,1,8,0:0:0:0:
370,125,291838,1,8,0:0:0:0:
405,106,291920,6,0,B|285:91|337:179|181:148,1,200,6|10,3:2|0:0,0:0:0:0:
30,105,292412,1,2,0:0:0:0:
182,0,292576,2,0,P|223:25|242:71,1,100,2|2,3:2|3:2,0:0:0:0:
100,201,292904,2,0,P|50:194|0:189,1,100,10|2,0:0|0:0,0:0:0:0:
213,319,293232,6,0,P|344:306|390:304,1,150,2|0,3:2|0:0,0:0:0:0:
379,303,293560,1,8,0:0:0:0:
318,124,293723,2,0,P|298:169|310:217,1,100,2|0,3:2|0:0,0:0:0:0:
451,357,294051,2,0,P|470:311|458:263,1,100,2|8,3:2|0:0,0:0:0:0:
501,112,294379,6,0,B|464:148|464:148|305:121,1,200,6|2,3:2|3:2,0:0:0:0:
162,0,294871,1,10,0:0:0:0:
353,54,295035,1,2,0:0:0:0:
178,179,295199,2,0,P|128:172|78:167,1,100,2|2,3:2|3:2,0:0:0:0:
364,40,295527,2,0,P|413:33|463:28,1,100,10|2,0:0|0:0,0:0:0:0:
188,196,295855,6,0,P|57:183|11:181,1,150,2|0,3:2|0:0,0:0:0:0:
22,180,296182,1,10,0:0:0:0:
230,105,296346,1,10,0:0:0:0:
14,38,296510,1,2,0:0:0:0:
120,260,296674,2,0,P|115:309|108:359,1,100,2|8,3:2|0:0,0:0:0:0:
279,173,297002,6,0,B|354:166|354:166|403:190|403:190|486:180,1,200,6|2,3:2|3:2,0:0:0:0:
331,255,297494,1,10,0:0:0:0:
421,105,297658,1,2,0:0:0:0:
483,298,297822,2,0,P|438:319|390:310,1,100,2|2,3:2|3:2,0:0:0:0:
186,160,298150,2,0,P|234:151|278:172,1,100,10|2,0:0|0:0,0:0:0:0:
136,384,298478,6,0,P|130:309|121:234,1,150,6|0,3:2|0:0,0:0:0:0:
120,221,298805,1,10,0:0:0:0:
38,67,298969,2,0,P|33:116|26:166,1,100,2|0,3:2|0:0,0:0:0:0:
240,338,299297,2,0,P|233:288|228:238,1,100,2|8,3:2|0:0,0:0:0:0:
283,28,299625,6,0,P|377:20|420:104,1,200,6|2,3:2|3:2,0:0:0:0:
243,228,300117,1,10,0:0:0:0:
339,98,300281,1,2,0:0:0:0:
339,98,300363,1,8,0:0:0:0:
339,98,300445,1,6,3:2:0:0:
348,309,300609,1,2,3:2:0:0:
151,177,300773,2,0,P|101:185|52:191,1,100,10|2,0:0|0:0,0:0:0:0:
192,298,301101,5,6,3:2:0:0:
227,96,301264,1,0,3:2:0:0:
406,247,301428,2,0,P|414:197|420:148,1,100,10|0,0:0|3:2,0:0:0:0:
192,18,301756,1,6,0:0:0:0:
511,122,301920,1,6,3:2:0:0:
112,75,302248,6,0,P|137:269|141:319,1,200,6|2,3:2|0:0,0:0:0:0:
310,356,302740,1,10,0:0:0:0:
214,215,302904,1,2,3:2:0:0:
214,215,302986,1,8,0:0:0:0:
214,215,303068,1,2,3:2:0:0:
157,380,303232,1,2,3:2:0:0:
302,241,303396,2,0,P|352:249|401:255,1,100,10|2,0:0|0:0,0:0:0:0:
190,119,303723,6,0,P|144:137|118:179,1,100,2|0,3:2|3:2,0:0:0:0:
222,315,304051,1,8,0:0:0:0:
306,159,304215,1,8,0:0:0:0:
401,332,304379,1,2,3:2:0:0:
401,332,304461,1,8,0:0:0:0:
401,332,304543,1,0,3:2:0:0:
214,215,304707,1,8,0:0:0:0:
418,243,304871,6,0,B|473:135|372:154|455:18,1,200,6|2,3:2|3:2,0:0:0:0:
346,183,305363,1,10,0:0:0:0:
506,109,305527,1,2,3:2:0:0:
506,109,305609,1,8,0:0:0:0:
506,109,305691,1,2,3:2:0:0:
418,243,305855,1,2,3:2:0:0:
345,77,306019,2,0,P|299:57|251:68,1,100,10|2,0:0|0:0,0:0:0:0:
193,237,306346,6,0,P|186:187|179:138,1,100,2|2,3:2|3:2,0:0:0:0:
72,31,306674,1,8,0:0:0:0:
20,191,306838,1,8,0:0:0:0:
20,191,306920,1,8,0:0:0:0:
20,191,307002,2,0,L|77:179,1,50,0|0,3:2|3:2,0:0:0:0:
236,71,307166,1,2,3:2:0:0:
236,71,307248,1,0,3:2:0:0:
236,71,307330,1,8,0:0:0:0:
329,234,307494,6,0,P|380:154|326:77,1,200,6|2,3:2|3:2,0:0:0:0:
148,60,307986,1,8,0:0:0:0:
294,155,308150,1,2,3:2:0:0:
294,155,308232,1,8,0:0:0:0:
294,155,308314,1,2,3:2:0:0:
202,0,308478,1,2,3:2:0:0:
107,157,308642,2,0,P|114:206|121:256,1,100,10|2,0:0|0:0,0:0:0:0:
284,384,308969,6,0,P|330:365|356:323,1,100,6|2,3:2|0:0,0:0:0:0:
208,209,309297,1,8,0:0:0:0:
270,302,309461,1,2,0:0:0:0:
270,302,309789,1,2,3:2:0:0:
103,242,309953,1,8,0:0:0:0:
255,117,310117,6,0,B|330:110|330:110|379:134|379:134|462:124,1,200,6|2,3:2|3:2,0:0:0:0:
314,192,310609,1,14,0:0:0:0:
397,55,310773,1,2,0:0:0:0:
512,204,310937,2,0,P|462:211|412:218,1,100,2|2,3:2|3:2,0:0:0:0:
201,85,311264,2,0,P|250:92|300:99,1,100,14|2,0:0|0:0,0:0:0:0:
422,306,311592,5,6,3:2:0:0:
233,160,311756,1,2,3:2:0:0:
465,120,311920,1,10,0:0:0:0:
256,303,312084,1,2,0:0:0:0:
291,31,312248,1,4,3:2:0:0:
487,224,312412,2,0,L|406:211,1,50,14|0,3:2|3:2,0:0:0:0:
201,85,312576,2,0,L|214:166,1,50,8|8,0:0|0:0,0:0:0:0:
331,384,312740,2,0,L|344:303,1,50,8|8,0:0|0:0,0:0:0:0:
401,39,312904,5,6,0:0:0:0:
256,192,312986,12,2,315035,0:0:0:0:
256,192,315363,12,2,317658,0:0:0:0:
