osu file format v14

[General]
AudioFilename: Fudanshi Crisis - Scarlet Tempest.mp3
AudioLeadIn: 0
PreviewTime: 109339
Countdown: 0
SampleSet: Drum
StackLeniency: 0.7
Mode: 3
LetterboxInBreaks: 0
SpecialStyle: 0
WidescreenStoryboard: 0

[Editor]
DistanceSpacing: 0.8
BeatDivisor: 4
GridSize: 32
TimelineZoom: 2.3

[Metadata]
Title:Scarlet Tempest
TitleUnicode:Scarlet Tempest
Artist:Fudanshi Crisis
ArtistUnicode:Fudanshi Crisis
Creator:Shoegazer
Version:Tempest
Source:
Tags:chiptune fakebit 8bit 8-bit ys origin wiosna electronic instrumental voregeous hayoreo aoreo jnero jim nero
BeatmapID:2787821
BeatmapSetID:683086

[Difficulty]
HPDrainRate:8
CircleSize:4
OverallDifficulty:8
ApproachRate:5
SliderMultiplier:1.4
SliderTickRate:1

[Events]
//Background and Video events
0,0,"scarletwindstorm.jpg",0,0
//Break Periods
2,87888,96488
//Storyboard Layer 0 (Background)
//Storyboard Layer 1 (Fail)
//Storyboard Layer 2 (Pass)
//Storyboard Layer 3 (Foreground)
//Storyboard Layer 4 (Overlay)
//Storyboard Sound Samples

[TimingPoints]
234,363.636364,4,3,0,35,1,0

[HitObjects]
320,192,234,5,0,0:0:0:0:
448,192,234,1,0,0:0:0:0:
64,192,415,1,0,0:0:0:0:
192,192,415,1,0,0:0:0:0:
448,192,476,1,0,0:0:0:0:
320,192,537,1,0,0:0:0:0:
64,192,597,1,0,0:0:0:0:
192,192,597,1,0,0:0:0:0:
320,192,779,1,0,0:0:0:0:
448,192,779,1,0,0:0:0:0:
320,192,961,1,0,0:0:0:0:
448,192,961,1,0,0:0:0:0:
320,192,1143,1,0,0:0:0:0:
448,192,1143,1,0,0:0:0:0:
64,192,1234,1,0,0:0:0:0:
192,192,1324,1,0,0:0:0:0:
320,192,1506,1,0,0:0:0:0:
448,192,1506,1,0,0:0:0:0:
192,192,1597,1,0,0:0:0:0:
320,192,1688,1,0,0:0:0:0:
448,192,1688,1,0,0:0:0:0:
192,192,1779,1,0,0:0:0:0:
320,192,1870,1,0,0:0:0:0:
448,192,1870,1,0,0:0:0:0:
64,192,2052,1,0,0:0:0:0:
192,192,2052,1,0,0:0:0:0:
448,192,2234,1,0,0:0:0:0:
320,192,2294,1,0,0:0:0:0:
192,192,2355,1,0,0:0:0:0:
320,192,2415,128,0,2779:0:0:0:0:
448,192,2415,1,0,0:0:0:0:
192,192,2597,1,0,0:0:0:0:
64,192,2688,1,0,0:0:0:0:
192,192,2779,1,0,0:0:0:0:
448,192,2779,1,0,0:0:0:0:
320,192,2961,1,0,0:0:0:0:
448,192,2961,1,0,0:0:0:0:
64,192,3143,128,0,3506:0:0:0:0:
448,192,3143,1,0,0:0:0:0:
320,192,3324,1,0,0:0:0:0:
192,192,3415,1,0,0:0:0:0:
320,192,3506,1,0,0:0:0:0:
448,192,3506,1,0,0:0:0:0:
192,192,3688,1,0,0:0:0:0:
320,192,3779,1,0,0:0:0:0:
64,192,3870,1,0,0:0:0:0:
448,192,3870,128,0,4597:0:0:0:0:
192,192,4052,1,0,0:0:0:0:
320,192,4143,1,0,0:0:0:0:
64,192,4234,1,0,0:0:0:0:
192,192,4234,1,0,0:0:0:0:
320,192,4415,1,0,0:0:0:0:
64,192,4597,1,0,0:0:0:0:
192,192,4597,1,0,0:0:0:0:
448,192,4779,1,0,0:0:0:0:
64,192,4961,1,0,0:0:0:0:
320,192,4961,1,0,0:0:0:0:
448,192,5143,1,0,0:0:0:0:
64,192,5324,1,0,0:0:0:0:
192,192,5324,1,0,0:0:0:0:
448,192,5506,1,0,0:0:0:0:
64,192,5688,1,0,0:0:0:0:
320,192,5688,1,0,0:0:0:0:
448,192,5870,1,0,0:0:0:0:
64,192,6052,1,0,0:0:0:0:
192,192,6052,1,0,0:0:0:0:
320,192,6234,1,0,0:0:0:0:
64,192,6415,1,0,0:0:0:0:
448,192,6415,1,0,0:0:0:0:
320,192,6597,1,0,0:0:0:0:
64,192,6779,1,0,0:0:0:0:
192,192,6779,1,0,0:0:0:0:
320,192,6961,1,0,0:0:0:0:
64,192,7143,1,0,0:0:0:0:
448,192,7143,1,0,0:0:0:0:
192,192,7324,1,0,0:0:0:0:
64,192,7506,1,0,0:0:0:0:
320,192,7506,1,0,0:0:0:0:
192,192,7688,1,0,0:0:0:0:
64,192,7870,1,0,0:0:0:0:
448,192,7870,1,0,0:0:0:0:
192,192,8052,1,0,0:0:0:0:
64,192,8234,1,0,0:0:0:0:
320,192,8234,1,0,0:0:0:0:
192,192,8415,1,0,0:0:0:0:
64,192,8597,1,0,0:0:0:0:
448,192,8597,1,0,0:0:0:0:
192,192,8779,1,0,0:0:0:0:
320,192,8961,1,0,0:0:0:0:
448,192,8961,1,0,0:0:0:0:
192,192,9143,1,0,0:0:0:0:
64,192,9324,1,0,0:0:0:0:
448,192,9324,1,0,0:0:0:0:
192,192,9506,1,0,0:0:0:0:
320,192,9688,1,0,0:0:0:0:
448,192,9688,1,0,0:0:0:0:
192,192,9870,1,0,0:0:0:0:
64,192,10052,1,0,0:0:0:0:
448,192,10052,1,0,0:0:0:0:
320,192,10143,1,0,0:0:0:0:
192,192,10234,1,0,0:0:0:0:
320,192,10324,1,0,0:0:0:0:
448,192,10324,1,0,0:0:0:0:
64,192,10415,1,0,0:0:0:0:
192,192,10415,1,0,0:0:0:0:
320,192,10597,1,0,0:0:0:0:
192,192,10779,1,0,0:0:0:0:
448,192,10779,1,0,0:0:0:0:
320,192,10961,1,0,0:0:0:0:
64,192,11143,1,0,0:0:0:0:
192,192,11143,1,0,0:0:0:0:
320,192,11324,1,0,0:0:0:0:
192,192,11506,1,0,0:0:0:0:
448,192,11506,1,0,0:0:0:0:
320,192,11688,1,0,0:0:0:0:
64,192,11870,1,0,0:0:0:0:
192,192,11870,1,0,0:0:0:0:
320,192,12052,1,0,0:0:0:0:
192,192,12143,1,0,0:0:0:0:
64,192,12234,1,0,0:0:0:0:
448,192,12234,1,0,0:0:0:0:
320,192,12415,1,0,0:0:0:0:
64,192,12597,1,0,0:0:0:0:
192,192,12597,1,0,0:0:0:0:
320,192,12779,1,0,0:0:0:0:
192,192,12870,1,0,0:0:0:0:
64,192,12961,1,0,0:0:0:0:
448,192,12961,1,0,0:0:0:0:
320,192,13143,1,0,0:0:0:0:
192,192,13324,1,0,0:0:0:0:
64,192,13324,1,0,0:0:0:0:
448,192,13506,1,0,0:0:0:0:
192,192,13597,1,0,0:0:0:0:
64,192,13688,1,0,0:0:0:0:
320,192,13688,1,0,0:0:0:0:
448,192,13870,1,0,0:0:0:0:
64,192,14052,1,0,0:0:0:0:
192,192,14052,1,0,0:0:0:0:
448,192,14234,1,0,0:0:0:0:
192,192,14324,1,0,0:0:0:0:
64,192,14415,1,0,0:0:0:0:
320,192,14415,1,0,0:0:0:0:
448,192,14597,1,0,0:0:0:0:
64,192,14688,1,0,0:0:0:0:
192,192,14688,1,0,0:0:0:0:
320,192,14779,1,0,0:0:0:0:
448,192,14779,1,0,0:0:0:0:
64,192,15052,1,0,0:0:0:0:
192,192,15052,1,0,0:0:0:0:
64,192,15324,1,0,0:0:0:0:
320,192,15324,1,0,0:0:0:0:
64,192,15506,1,0,0:0:0:0:
448,192,15506,1,0,0:0:0:0:
320,192,15779,1,0,0:0:0:0:
448,192,15779,1,0,0:0:0:0:
64,192,16052,1,0,0:0:0:0:
192,192,16052,1,0,0:0:0:0:
64,192,16234,1,0,0:0:0:0:
320,192,16234,1,0,0:0:0:0:
448,192,16234,1,0,0:0:0:0:
192,192,16415,1,0,0:0:0:0:
64,192,16597,1,0,0:0:0:0:
448,192,16597,1,0,0:0:0:0:
448,192,16779,1,0,0:0:0:0:
192,192,16870,1,0,0:0:0:0:
64,192,16961,1,0,0:0:0:0:
320,192,16961,1,0,0:0:0:0:
320,192,17234,1,0,0:0:0:0:
192,192,17324,1,0,0:0:0:0:
448,192,17324,1,0,0:0:0:0:
448,192,17506,1,0,0:0:0:0:
64,192,17688,1,0,0:0:0:0:
192,192,17688,1,0,0:0:0:0:
320,192,17961,1,0,0:0:0:0:
64,192,18052,1,0,0:0:0:0:
448,192,18052,1,0,0:0:0:0:
320,192,18234,1,0,0:0:0:0:
192,192,18324,1,0,0:0:0:0:
64,192,18415,1,0,0:0:0:0:
448,192,18415,1,0,0:0:0:0:
192,192,18506,1,0,0:0:0:0:
320,192,18506,1,0,0:0:0:0:
448,192,18688,1,0,0:0:0:0:
64,192,18779,1,0,0:0:0:0:
320,192,18779,1,0,0:0:0:0:
192,192,18961,1,0,0:0:0:0:
320,192,19143,1,0,0:0:0:0:
448,192,19143,1,0,0:0:0:0:
64,192,19234,1,0,0:0:0:0:
320,192,19324,1,0,0:0:0:0:
64,192,19506,1,0,0:0:0:0:
448,192,19506,1,0,0:0:0:0:
448,192,19688,1,0,0:0:0:0:
320,192,19779,1,0,0:0:0:0:
64,192,19870,1,0,0:0:0:0:
192,192,19870,1,0,0:0:0:0:
320,192,20143,1,0,0:0:0:0:
192,192,20234,1,0,0:0:0:0:
448,192,20234,1,0,0:0:0:0:
64,192,20415,1,0,0:0:0:0:
320,192,20597,1,0,0:0:0:0:
448,192,20597,1,0,0:0:0:0:
192,192,20870,1,0,0:0:0:0:
64,192,20961,1,0,0:0:0:0:
320,192,20961,1,0,0:0:0:0:
192,192,21143,1,0,0:0:0:0:
320,192,21324,1,0,0:0:0:0:
448,192,21324,1,0,0:0:0:0:
64,192,21688,1,0,0:0:0:0:
448,192,21688,1,0,0:0:0:0:
320,192,22052,1,0,0:0:0:0:
448,192,22052,1,0,0:0:0:0:
64,192,22143,1,0,0:0:0:0:
192,192,22234,1,0,0:0:0:0:
64,192,22415,1,0,0:0:0:0:
320,192,22415,1,0,0:0:0:0:
448,192,22597,1,0,0:0:0:0:
192,192,22688,1,0,0:0:0:0:
64,192,22779,1,0,0:0:0:0:
320,192,22779,1,0,0:0:0:0:
320,192,23052,1,0,0:0:0:0:
64,192,23143,1,0,0:0:0:0:
192,192,23143,1,0,0:0:0:0:
448,192,23324,1,0,0:0:0:0:
192,192,23506,1,0,0:0:0:0:
320,192,23506,1,0,0:0:0:0:
64,192,23779,1,0,0:0:0:0:
320,192,23870,1,0,0:0:0:0:
448,192,23870,1,0,0:0:0:0:
192,192,24052,1,0,0:0:0:0:
64,192,24234,1,0,0:0:0:0:
320,192,24234,1,0,0:0:0:0:
64,192,24597,1,0,0:0:0:0:
192,192,24597,1,0,0:0:0:0:
64,192,24961,1,0,0:0:0:0:
320,192,24961,1,0,0:0:0:0:
448,192,24961,1,0,0:0:0:0:
320,192,25234,1,0,0:0:0:0:
192,192,25324,1,0,0:0:0:0:
448,192,25324,1,0,0:0:0:0:
64,192,25506,1,0,0:0:0:0:
192,192,25688,1,0,0:0:0:0:
320,192,25688,1,0,0:0:0:0:
448,192,25961,1,0,0:0:0:0:
64,192,26052,1,0,0:0:0:0:
192,192,26052,1,0,0:0:0:0:
64,192,26234,1,0,0:0:0:0:
320,192,26234,1,0,0:0:0:0:
192,192,26415,1,0,0:0:0:0:
448,192,26415,1,0,0:0:0:0:
320,192,26688,1,0,0:0:0:0:
448,192,26688,1,0,0:0:0:0:
64,192,26779,1,0,0:0:0:0:
192,192,26779,1,0,0:0:0:0:
448,192,26961,1,0,0:0:0:0:
64,192,27143,1,0,0:0:0:0:
320,192,27143,1,0,0:0:0:0:
192,192,27234,1,0,0:0:0:0:
320,192,27324,1,0,0:0:0:0:
64,192,27415,1,0,0:0:0:0:
448,192,27415,1,0,0:0:0:0:
192,192,27506,1,0,0:0:0:0:
320,192,27597,1,0,0:0:0:0:
192,192,27688,1,0,0:0:0:0:
64,192,27779,1,0,0:0:0:0:
448,192,27870,1,0,0:0:0:0:
320,192,27930,1,0,0:0:0:0:
192,192,27991,1,0,0:0:0:0:
448,192,28052,1,0,0:0:0:0:
192,192,28112,1,0,0:0:0:0:
64,192,28173,1,0,0:0:0:0:
320,192,28234,1,0,0:0:0:0:
448,192,28294,1,0,0:0:0:0:
192,192,28355,1,0,0:0:0:0:
320,192,28415,1,0,0:0:0:0:
448,192,28476,1,0,0:0:0:0:
64,192,28537,1,0,0:0:0:0:
320,192,28597,1,0,0:0:0:0:
192,192,28658,1,0,0:0:0:0:
64,192,28718,1,0,0:0:0:0:
320,192,28779,1,0,0:0:0:0:
64,192,28840,1,0,0:0:0:0:
448,192,28900,1,0,0:0:0:0:
192,192,28961,1,0,0:0:0:0:
320,192,29021,1,0,0:0:0:0:
448,192,29082,1,0,0:0:0:0:
64,192,29143,1,0,0:0:0:0:
448,192,29203,1,0,0:0:0:0:
320,192,29264,1,0,0:0:0:0:
192,192,29324,1,0,0:0:0:0:
64,192,29385,1,0,0:0:0:0:
448,192,29446,1,0,0:0:0:0:
192,192,29506,1,0,0:0:0:0:
64,192,29567,1,0,0:0:0:0:
448,192,29627,1,0,0:0:0:0:
192,192,29688,1,0,0:0:0:0:
320,192,29749,1,0,0:0:0:0:
448,192,29809,1,0,0:0:0:0:
64,192,29870,1,0,0:0:0:0:
448,192,29930,1,0,0:0:0:0:
320,192,29991,1,0,0:0:0:0:
64,192,30052,1,0,0:0:0:0:
192,192,30112,1,0,0:0:0:0:
448,192,30173,1,0,0:0:0:0:
64,192,30234,1,0,0:0:0:0:
320,192,30294,1,0,0:0:0:0:
192,192,30355,1,0,0:0:0:0:
64,192,30415,1,0,0:0:0:0:
448,192,30476,1,0,0:0:0:0:
320,192,30537,1,0,0:0:0:0:
192,192,30597,1,0,0:0:0:0:
448,192,30658,1,0,0:0:0:0:
320,192,30718,1,0,0:0:0:0:
64,192,30779,1,0,0:0:0:0:
192,192,30840,1,0,0:0:0:0:
320,192,30900,1,0,0:0:0:0:
64,192,30961,1,0,0:0:0:0:
320,192,31021,1,0,0:0:0:0:
448,192,31082,1,0,0:0:0:0:
192,192,31143,1,0,0:0:0:0:
64,192,31203,1,0,0:0:0:0:
320,192,31264,1,0,0:0:0:0:
192,192,31324,1,0,0:0:0:0:
64,192,31385,1,0,0:0:0:0:
448,192,31446,1,0,0:0:0:0:
192,192,31506,1,0,0:0:0:0:
320,192,31567,1,0,0:0:0:0:
448,192,31627,1,0,0:0:0:0:
64,192,31688,1,0,0:0:0:0:
320,192,31749,1,0,0:0:0:0:
448,192,31809,1,0,0:0:0:0:
192,192,31870,1,0,0:0:0:0:
64,192,31930,1,0,0:0:0:0:
320,192,31991,1,0,0:0:0:0:
64,192,32052,1,0,0:0:0:0:
192,192,32112,1,0,0:0:0:0:
320,192,32173,1,0,0:0:0:0:
448,192,32234,1,0,0:0:0:0:
320,192,32324,1,0,0:0:0:0:
192,192,32415,1,0,0:0:0:0:
320,192,32506,1,0,0:0:0:0:
64,192,32597,1,0,0:0:0:0:
448,192,32597,1,0,0:0:0:0:
192,192,32688,1,0,0:0:0:0:
64,192,32779,1,0,0:0:0:0:
320,192,32779,1,0,0:0:0:0:
448,192,32870,1,0,0:0:0:0:
320,192,32961,1,0,0:0:0:0:
64,192,33052,1,0,0:0:0:0:
192,192,33143,1,0,0:0:0:0:
448,192,33143,1,0,0:0:0:0:
320,192,33234,1,0,0:0:0:0:
64,192,33324,1,0,0:0:0:0:
192,192,33324,1,0,0:0:0:0:
320,192,33415,1,0,0:0:0:0:
448,192,33415,1,0,0:0:0:0:
192,192,33506,1,0,0:0:0:0:
64,192,33597,1,0,0:0:0:0:
448,192,33688,1,0,0:0:0:0:
320,192,33749,1,0,0:0:0:0:
192,192,33809,1,0,0:0:0:0:
448,192,33870,1,0,0:0:0:0:
192,192,33930,1,0,0:0:0:0:
64,192,33991,1,0,0:0:0:0:
320,192,34052,1,0,0:0:0:0:
448,192,34112,1,0,0:0:0:0:
192,192,34173,1,0,0:0:0:0:
320,192,34234,1,0,0:0:0:0:
448,192,34294,1,0,0:0:0:0:
64,192,34355,1,0,0:0:0:0:
320,192,34415,1,0,0:0:0:0:
192,192,34476,1,0,0:0:0:0:
64,192,34537,1,0,0:0:0:0:
320,192,34597,1,0,0:0:0:0:
64,192,34658,1,0,0:0:0:0:
448,192,34718,1,0,0:0:0:0:
192,192,34779,1,0,0:0:0:0:
320,192,34840,1,0,0:0:0:0:
448,192,34900,1,0,0:0:0:0:
64,192,34961,1,0,0:0:0:0:
448,192,35021,1,0,0:0:0:0:
320,192,35082,1,0,0:0:0:0:
192,192,35143,1,0,0:0:0:0:
64,192,35203,1,0,0:0:0:0:
448,192,35264,1,0,0:0:0:0:
192,192,35324,1,0,0:0:0:0:
64,192,35385,1,0,0:0:0:0:
448,192,35446,1,0,0:0:0:0:
192,192,35506,1,0,0:0:0:0:
320,192,35567,1,0,0:0:0:0:
448,192,35627,1,0,0:0:0:0:
192,192,35688,1,0,0:0:0:0:
448,192,35749,1,0,0:0:0:0:
320,192,35809,1,0,0:0:0:0:
64,192,35870,1,0,0:0:0:0:
192,192,35930,1,0,0:0:0:0:
448,192,35991,1,0,0:0:0:0:
64,192,36052,1,0,0:0:0:0:
320,192,36112,1,0,0:0:0:0:
192,192,36173,1,0,0:0:0:0:
64,192,36234,1,0,0:0:0:0:
448,192,36294,1,0,0:0:0:0:
320,192,36355,1,0,0:0:0:0:
192,192,36415,1,0,0:0:0:0:
448,192,36476,1,0,0:0:0:0:
320,192,36537,1,0,0:0:0:0:
64,192,36597,1,0,0:0:0:0:
192,192,36658,1,0,0:0:0:0:
320,192,36718,1,0,0:0:0:0:
64,192,36779,1,0,0:0:0:0:
192,192,36840,1,0,0:0:0:0:
448,192,36900,1,0,0:0:0:0:
320,192,36961,1,0,0:0:0:0:
64,192,37021,1,0,0:0:0:0:
448,192,37082,1,0,0:0:0:0:
192,192,37143,1,0,0:0:0:0:
64,192,37203,1,0,0:0:0:0:
320,192,37264,1,0,0:0:0:0:
448,192,37324,1,0,0:0:0:0:
192,192,37385,1,0,0:0:0:0:
320,192,37446,1,0,0:0:0:0:
448,192,37506,1,0,0:0:0:0:
64,192,37567,1,0,0:0:0:0:
320,192,37627,1,0,0:0:0:0:
192,192,37688,1,0,0:0:0:0:
64,192,37749,1,0,0:0:0:0:
320,192,37809,1,0,0:0:0:0:
64,192,37870,1,0,0:0:0:0:
192,192,37930,1,0,0:0:0:0:
320,192,37991,1,0,0:0:0:0:
448,192,38052,1,0,0:0:0:0:
192,192,38143,1,0,0:0:0:0:
320,192,38234,1,0,0:0:0:0:
192,192,38324,1,0,0:0:0:0:
64,192,38415,1,0,0:0:0:0:
448,192,38415,1,0,0:0:0:0:
192,192,38506,1,0,0:0:0:0:
320,192,38506,1,0,0:0:0:0:
448,192,38597,1,0,0:0:0:0:
192,192,38688,1,0,0:0:0:0:
320,192,38779,1,0,0:0:0:0:
448,192,38779,1,0,0:0:0:0:
64,192,38870,1,0,0:0:0:0:
320,192,38961,1,0,0:0:0:0:
192,192,39052,1,0,0:0:0:0:
64,192,39143,1,0,0:0:0:0:
448,192,39143,1,0,0:0:0:0:
320,192,39234,1,0,0:0:0:0:
64,192,39324,1,0,0:0:0:0:
192,192,39415,1,0,0:0:0:0:
320,192,39415,1,0,0:0:0:0:
448,192,39506,1,0,0:0:0:0:
320,192,39567,1,0,0:0:0:0:
192,192,39627,1,0,0:0:0:0:
448,192,39688,1,0,0:0:0:0:
192,192,39749,1,0,0:0:0:0:
64,192,39809,1,0,0:0:0:0:
320,192,39870,1,0,0:0:0:0:
448,192,39930,1,0,0:0:0:0:
192,192,39991,1,0,0:0:0:0:
320,192,40052,1,0,0:0:0:0:
448,192,40112,1,0,0:0:0:0:
64,192,40173,1,0,0:0:0:0:
320,192,40234,1,0,0:0:0:0:
192,192,40294,1,0,0:0:0:0:
64,192,40355,1,0,0:0:0:0:
320,192,40415,1,0,0:0:0:0:
64,192,40476,1,0,0:0:0:0:
448,192,40537,1,0,0:0:0:0:
192,192,40597,1,0,0:0:0:0:
320,192,40658,1,0,0:0:0:0:
448,192,40718,1,0,0:0:0:0:
64,192,40779,1,0,0:0:0:0:
448,192,40840,1,0,0:0:0:0:
320,192,40900,1,0,0:0:0:0:
192,192,40961,1,0,0:0:0:0:
64,192,41021,1,0,0:0:0:0:
448,192,41082,1,0,0:0:0:0:
192,192,41143,1,0,0:0:0:0:
64,192,41203,1,0,0:0:0:0:
448,192,41264,1,0,0:0:0:0:
192,192,41324,1,0,0:0:0:0:
320,192,41385,1,0,0:0:0:0:
448,192,41446,1,0,0:0:0:0:
64,192,41506,1,0,0:0:0:0:
448,192,41567,1,0,0:0:0:0:
320,192,41627,1,0,0:0:0:0:
64,192,41688,1,0,0:0:0:0:
192,192,41749,1,0,0:0:0:0:
448,192,41809,1,0,0:0:0:0:
64,192,41870,1,0,0:0:0:0:
320,192,41930,1,0,0:0:0:0:
192,192,41991,1,0,0:0:0:0:
64,192,42052,1,0,0:0:0:0:
448,192,42112,1,0,0:0:0:0:
320,192,42173,1,0,0:0:0:0:
192,192,42234,1,0,0:0:0:0:
448,192,42294,1,0,0:0:0:0:
320,192,42355,1,0,0:0:0:0:
64,192,42415,1,0,0:0:0:0:
192,192,42476,1,0,0:0:0:0:
320,192,42537,1,0,0:0:0:0:
64,192,42597,1,0,0:0:0:0:
320,192,42658,1,0,0:0:0:0:
448,192,42718,1,0,0:0:0:0:
192,192,42779,1,0,0:0:0:0:
64,192,42840,1,0,0:0:0:0:
320,192,42900,1,0,0:0:0:0:
192,192,42961,1,0,0:0:0:0:
64,192,43021,1,0,0:0:0:0:
448,192,43082,1,0,0:0:0:0:
192,192,43143,1,0,0:0:0:0:
320,192,43203,1,0,0:0:0:0:
448,192,43264,1,0,0:0:0:0:
64,192,43324,1,0,0:0:0:0:
320,192,43385,1,0,0:0:0:0:
448,192,43446,1,0,0:0:0:0:
192,192,43506,1,0,0:0:0:0:
64,192,43567,1,0,0:0:0:0:
320,192,43627,1,0,0:0:0:0:
64,192,43688,1,0,0:0:0:0:
192,192,43749,1,0,0:0:0:0:
320,192,43809,1,0,0:0:0:0:
448,192,43870,1,0,0:0:0:0:
320,192,43961,1,0,0:0:0:0:
192,192,44052,1,0,0:0:0:0:
320,192,44143,1,0,0:0:0:0:
64,192,44234,1,0,0:0:0:0:
448,192,44234,1,0,0:0:0:0:
192,192,44324,1,0,0:0:0:0:
64,192,44415,1,0,0:0:0:0:
320,192,44415,1,0,0:0:0:0:
448,192,44506,1,0,0:0:0:0:
320,192,44597,1,0,0:0:0:0:
64,192,44688,1,0,0:0:0:0:
192,192,44779,1,0,0:0:0:0:
448,192,44779,1,0,0:0:0:0:
320,192,44870,1,0,0:0:0:0:
64,192,44961,1,0,0:0:0:0:
192,192,44961,1,0,0:0:0:0:
448,192,45052,1,0,0:0:0:0:
320,192,45143,1,0,0:0:0:0:
64,192,45234,1,0,0:0:0:0:
448,192,45324,1,0,0:0:0:0:
320,192,45385,1,0,0:0:0:0:
192,192,45446,1,0,0:0:0:0:
448,192,45506,1,0,0:0:0:0:
192,192,45567,1,0,0:0:0:0:
64,192,45627,1,0,0:0:0:0:
320,192,45688,1,0,0:0:0:0:
448,192,45749,1,0,0:0:0:0:
192,192,45809,1,0,0:0:0:0:
320,192,45870,1,0,0:0:0:0:
448,192,45930,1,0,0:0:0:0:
64,192,45991,1,0,0:0:0:0:
320,192,46052,1,0,0:0:0:0:
192,192,46112,1,0,0:0:0:0:
64,192,46173,1,0,0:0:0:0:
448,192,46234,1,0,0:0:0:0:
64,192,46294,1,0,0:0:0:0:
192,192,46355,1,0,0:0:0:0:
320,192,46415,1,0,0:0:0:0:
64,192,46476,1,0,0:0:0:0:
448,192,46537,1,0,0:0:0:0:
192,192,46597,1,0,0:0:0:0:
320,192,46658,1,0,0:0:0:0:
448,192,46718,1,0,0:0:0:0:
64,192,46779,1,0,0:0:0:0:
320,192,46840,1,0,0:0:0:0:
64,192,46900,1,0,0:0:0:0:
192,192,46961,1,0,0:0:0:0:
448,192,47021,1,0,0:0:0:0:
320,192,47082,1,0,0:0:0:0:
64,192,47143,1,0,0:0:0:0:
192,192,47203,1,0,0:0:0:0:
320,192,47264,1,0,0:0:0:0:
64,192,47324,1,0,0:0:0:0:
320,192,47385,1,0,0:0:0:0:
448,192,47446,1,0,0:0:0:0:
192,192,47506,1,0,0:0:0:0:
64,192,47567,1,0,0:0:0:0:
320,192,47627,1,0,0:0:0:0:
192,192,47688,1,0,0:0:0:0:
64,192,47749,1,0,0:0:0:0:
448,192,47809,1,0,0:0:0:0:
192,192,47870,1,0,0:0:0:0:
320,192,47930,1,0,0:0:0:0:
448,192,47991,1,0,0:0:0:0:
64,192,48052,1,0,0:0:0:0:
320,192,48112,1,0,0:0:0:0:
448,192,48173,1,0,0:0:0:0:
192,192,48234,1,0,0:0:0:0:
64,192,48294,1,0,0:0:0:0:
320,192,48355,1,0,0:0:0:0:
192,192,48415,1,0,0:0:0:0:
64,192,48476,1,0,0:0:0:0:
320,192,48537,1,0,0:0:0:0:
448,192,48597,1,0,0:0:0:0:
64,192,48658,1,0,0:0:0:0:
192,192,48718,1,0,0:0:0:0:
320,192,48779,1,0,0:0:0:0:
64,192,48840,1,0,0:0:0:0:
192,192,48900,1,0,0:0:0:0:
448,192,48961,1,0,0:0:0:0:
64,192,49021,1,0,0:0:0:0:
448,192,49082,1,0,0:0:0:0:
192,192,49143,1,0,0:0:0:0:
320,192,49203,1,0,0:0:0:0:
192,192,49264,1,0,0:0:0:0:
448,192,49324,1,0,0:0:0:0:
320,192,49385,1,0,0:0:0:0:
64,192,49446,1,0,0:0:0:0:
320,192,49506,1,0,0:0:0:0:
192,192,49567,1,0,0:0:0:0:
64,192,49627,1,0,0:0:0:0:
448,192,49688,1,0,0:0:0:0:
320,192,49749,1,0,0:0:0:0:
192,192,49809,1,0,0:0:0:0:
448,192,49870,1,0,0:0:0:0:
192,192,49930,1,0,0:0:0:0:
64,192,49991,1,0,0:0:0:0:
320,192,50052,1,0,0:0:0:0:
448,192,50112,1,0,0:0:0:0:
192,192,50173,1,0,0:0:0:0:
320,192,50234,1,0,0:0:0:0:
448,192,50294,1,0,0:0:0:0:
64,192,50355,1,0,0:0:0:0:
320,192,50415,1,0,0:0:0:0:
192,192,50476,1,0,0:0:0:0:
64,192,50537,1,0,0:0:0:0:
448,192,50597,1,0,0:0:0:0:
192,192,50658,1,0,0:0:0:0:
64,192,50718,1,0,0:0:0:0:
320,192,50779,1,0,0:0:0:0:
448,192,50840,1,0,0:0:0:0:
192,192,50900,1,0,0:0:0:0:
320,192,50961,1,0,0:0:0:0:
448,192,51021,1,0,0:0:0:0:
64,192,51082,1,0,0:0:0:0:
192,192,51143,1,0,0:0:0:0:
320,192,51143,1,0,0:0:0:0:
448,192,51234,1,0,0:0:0:0:
192,192,51324,1,0,0:0:0:0:
320,192,51415,1,0,0:0:0:0:
448,192,51415,1,0,0:0:0:0:
64,192,51688,1,0,0:0:0:0:
192,192,51688,1,0,0:0:0:0:
320,192,51779,1,0,0:0:0:0:
192,192,51870,1,0,0:0:0:0:
320,192,51961,1,0,0:0:0:0:
448,192,51961,1,0,0:0:0:0:
64,192,52234,1,0,0:0:0:0:
192,192,52234,1,0,0:0:0:0:
320,192,52324,1,0,0:0:0:0:
192,192,52415,1,0,0:0:0:0:
320,192,52506,1,0,0:0:0:0:
64,192,52597,1,0,0:0:0:0:
448,192,52597,1,0,0:0:0:0:
320,192,52688,1,0,0:0:0:0:
192,192,52779,1,0,0:0:0:0:
320,192,52870,1,0,0:0:0:0:
448,192,52870,1,0,0:0:0:0:
64,192,53143,1,0,0:0:0:0:
192,192,53143,1,0,0:0:0:0:
320,192,53234,1,0,0:0:0:0:
192,192,53324,1,0,0:0:0:0:
320,192,53415,1,0,0:0:0:0:
448,192,53415,1,0,0:0:0:0:
64,192,53688,1,0,0:0:0:0:
192,192,53688,1,0,0:0:0:0:
320,192,53779,1,0,0:0:0:0:
192,192,53870,1,0,0:0:0:0:
448,192,53961,1,0,0:0:0:0:
64,192,54052,1,0,0:0:0:0:
320,192,54052,1,0,0:0:0:0:
192,192,54143,1,0,0:0:0:0:
320,192,54234,1,0,0:0:0:0:
64,192,54324,1,0,0:0:0:0:
448,192,54324,1,0,0:0:0:0:
64,192,54597,1,0,0:0:0:0:
320,192,54597,1,0,0:0:0:0:
192,192,54688,1,0,0:0:0:0:
320,192,54779,1,0,0:0:0:0:
64,192,54870,1,0,0:0:0:0:
448,192,54870,1,0,0:0:0:0:
64,192,55143,1,0,0:0:0:0:
320,192,55143,1,0,0:0:0:0:
192,192,55234,1,0,0:0:0:0:
64,192,55324,1,0,0:0:0:0:
448,192,55415,1,0,0:0:0:0:
64,192,55506,1,0,0:0:0:0:
320,192,55506,1,0,0:0:0:0:
192,192,55597,1,0,0:0:0:0:
320,192,55688,1,0,0:0:0:0:
64,192,55779,1,0,0:0:0:0:
448,192,55779,1,0,0:0:0:0:
64,192,56052,1,0,0:0:0:0:
320,192,56052,1,0,0:0:0:0:
192,192,56143,1,0,0:0:0:0:
320,192,56234,1,0,0:0:0:0:
64,192,56324,1,0,0:0:0:0:
448,192,56324,1,0,0:0:0:0:
64,192,56597,1,0,0:0:0:0:
320,192,56597,1,0,0:0:0:0:
192,192,56688,1,0,0:0:0:0:
320,192,56779,1,0,0:0:0:0:
64,192,56870,1,0,0:0:0:0:
448,192,56870,1,0,0:0:0:0:
192,192,56961,1,0,0:0:0:0:
320,192,56961,1,0,0:0:0:0:
64,192,57052,1,0,0:0:0:0:
192,192,57143,1,0,0:0:0:0:
320,192,57234,1,0,0:0:0:0:
448,192,57234,1,0,0:0:0:0:
320,192,57506,1,0,0:0:0:0:
448,192,57506,1,0,0:0:0:0:
64,192,57597,1,0,0:0:0:0:
320,192,57688,1,0,0:0:0:0:
192,192,57779,1,0,0:0:0:0:
448,192,57779,1,0,0:0:0:0:
64,192,58052,1,0,0:0:0:0:
192,192,58052,1,0,0:0:0:0:
320,192,58143,1,0,0:0:0:0:
64,192,58234,1,0,0:0:0:0:
448,192,58324,1,0,0:0:0:0:
192,192,58415,1,0,0:0:0:0:
320,192,58415,1,0,0:0:0:0:
64,192,58506,1,0,0:0:0:0:
192,192,58597,1,0,0:0:0:0:
64,192,58688,1,0,0:0:0:0:
448,192,58688,1,0,0:0:0:0:
320,192,58961,1,0,0:0:0:0:
448,192,58961,1,0,0:0:0:0:
64,192,59052,1,0,0:0:0:0:
320,192,59143,1,0,0:0:0:0:
64,192,59234,1,0,0:0:0:0:
448,192,59234,1,0,0:0:0:0:
64,192,59506,1,0,0:0:0:0:
192,192,59506,1,0,0:0:0:0:
320,192,59597,1,0,0:0:0:0:
64,192,59688,1,0,0:0:0:0:
448,192,59779,1,0,0:0:0:0:
192,192,59870,1,0,0:0:0:0:
320,192,59870,1,0,0:0:0:0:
64,192,59961,1,0,0:0:0:0:
192,192,60052,1,0,0:0:0:0:
320,192,60143,1,0,0:0:0:0:
448,192,60143,1,0,0:0:0:0:
320,192,60415,1,0,0:0:0:0:
448,192,60415,1,0,0:0:0:0:
64,192,60506,1,0,0:0:0:0:
320,192,60597,1,0,0:0:0:0:
192,192,60688,1,0,0:0:0:0:
448,192,60688,1,0,0:0:0:0:
64,192,60961,1,0,0:0:0:0:
192,192,60961,1,0,0:0:0:0:
320,192,61052,1,0,0:0:0:0:
64,192,61143,1,0,0:0:0:0:
448,192,61234,1,0,0:0:0:0:
192,192,61324,1,0,0:0:0:0:
320,192,61324,1,0,0:0:0:0:
64,192,61415,1,0,0:0:0:0:
192,192,61506,1,0,0:0:0:0:
64,192,61597,1,0,0:0:0:0:
448,192,61597,1,0,0:0:0:0:
192,192,61779,1,0,0:0:0:0:
320,192,61870,1,0,0:0:0:0:
448,192,61870,1,0,0:0:0:0:
64,192,61961,1,0,0:0:0:0:
320,192,62052,1,0,0:0:0:0:
64,192,62143,1,0,0:0:0:0:
448,192,62143,1,0,0:0:0:0:
192,192,62234,1,0,0:0:0:0:
448,192,62324,1,0,0:0:0:0:
64,192,62415,1,0,0:0:0:0:
320,192,62415,1,0,0:0:0:0:
192,192,62506,1,0,0:0:0:0:
448,192,62597,1,0,0:0:0:0:
320,192,62688,1,0,0:0:0:0:
64,192,62779,1,0,0:0:0:0:
192,192,62779,1,0,0:0:0:0:
64,192,62961,1,0,0:0:0:0:
192,192,63143,1,0,0:0:0:0:
448,192,63143,1,0,0:0:0:0:
320,192,63324,128,0,63506:0:0:0:0:
64,192,63506,1,0,0:0:0:0:
192,192,63506,128,0,64506:0:0:0:0:
448,192,63688,1,0,0:0:0:0:
64,192,63870,1,0,0:0:0:0:
320,192,63870,1,0,0:0:0:0:
320,192,64234,1,0,0:0:0:0:
448,192,64234,1,0,0:0:0:0:
64,192,64415,1,0,0:0:0:0:
320,192,64506,1,0,0:0:0:0:
64,192,64597,1,0,0:0:0:0:
192,192,64597,1,0,0:0:0:0:
320,192,64870,1,0,0:0:0:0:
192,192,64961,1,0,0:0:0:0:
448,192,64961,1,0,0:0:0:0:
192,192,65143,1,0,0:0:0:0:
64,192,65234,1,0,0:0:0:0:
320,192,65324,1,0,0:0:0:0:
448,192,65324,1,0,0:0:0:0:
192,192,65415,1,0,0:0:0:0:
448,192,65506,1,0,0:0:0:0:
64,192,65597,1,0,0:0:0:0:
192,192,65688,1,0,0:0:0:0:
320,192,65688,1,0,0:0:0:0:
448,192,65749,1,0,0:0:0:0:
64,192,65809,1,0,0:0:0:0:
320,192,65870,1,0,0:0:0:0:
448,192,65930,1,0,0:0:0:0:
192,192,65991,1,0,0:0:0:0:
64,192,66052,1,0,0:0:0:0:
448,192,66112,1,0,0:0:0:0:
320,192,66173,1,0,0:0:0:0:
192,192,66234,1,0,0:0:0:0:
448,192,66324,1,0,0:0:0:0:
64,192,66415,1,0,0:0:0:0:
320,192,66415,1,0,0:0:0:0:
448,192,66506,1,0,0:0:0:0:
64,192,66597,1,0,0:0:0:0:
192,192,66688,1,0,0:0:0:0:
320,192,66779,128,0,67143:0:0:0:0:
448,192,66779,1,0,0:0:0:0:
64,192,67143,1,0,0:0:0:0:
192,192,67143,1,0,0:0:0:0:
320,192,67324,1,0,0:0:0:0:
192,192,67415,1,0,0:0:0:0:
64,192,67506,1,0,0:0:0:0:
448,192,67506,1,0,0:0:0:0:
192,192,67597,1,0,0:0:0:0:
448,192,67688,1,0,0:0:0:0:
320,192,67779,1,0,0:0:0:0:
64,192,67870,1,0,0:0:0:0:
192,192,67870,1,0,0:0:0:0:
448,192,67961,1,0,0:0:0:0:
64,192,68052,1,0,0:0:0:0:
320,192,68143,1,0,0:0:0:0:
192,192,68234,1,0,0:0:0:0:
448,192,68234,1,0,0:0:0:0:
64,192,68324,1,0,0:0:0:0:
320,192,68415,1,0,0:0:0:0:
192,192,68506,1,0,0:0:0:0:
64,192,68597,1,0,0:0:0:0:
448,192,68597,1,0,0:0:0:0:
448,192,68779,1,0,0:0:0:0:
320,192,68870,1,0,0:0:0:0:
64,192,68961,1,0,0:0:0:0:
192,192,68961,1,0,0:0:0:0:
320,192,69143,1,0,0:0:0:0:
192,192,69234,1,0,0:0:0:0:
64,192,69324,1,0,0:0:0:0:
448,192,69324,1,0,0:0:0:0:
320,192,69415,1,0,0:0:0:0:
64,192,69506,1,0,0:0:0:0:
448,192,69597,1,0,0:0:0:0:
192,192,69688,1,0,0:0:0:0:
320,192,69688,1,0,0:0:0:0:
64,192,69779,1,0,0:0:0:0:
320,192,69870,1,0,0:0:0:0:
192,192,69961,1,0,0:0:0:0:
64,192,70052,1,0,0:0:0:0:
448,192,70052,1,0,0:0:0:0:
320,192,70143,1,0,0:0:0:0:
320,192,70324,1,0,0:0:0:0:
64,192,70415,1,0,0:0:0:0:
192,192,70415,1,0,0:0:0:0:
448,192,70506,1,0,0:0:0:0:
64,192,70597,1,0,0:0:0:0:
320,192,70688,1,0,0:0:0:0:
192,192,70779,1,0,0:0:0:0:
448,192,70779,1,0,0:0:0:0:
64,192,70870,1,0,0:0:0:0:
448,192,70961,1,0,0:0:0:0:
192,192,71052,1,0,0:0:0:0:
320,192,71143,1,0,0:0:0:0:
448,192,71143,1,0,0:0:0:0:
64,192,71234,1,0,0:0:0:0:
320,192,71324,1,0,0:0:0:0:
192,192,71415,1,0,0:0:0:0:
64,192,71506,1,0,0:0:0:0:
448,192,71506,1,0,0:0:0:0:
448,192,71688,1,0,0:0:0:0:
192,192,71779,1,0,0:0:0:0:
64,192,71870,1,0,0:0:0:0:
320,192,71870,1,0,0:0:0:0:
320,192,72052,1,0,0:0:0:0:
192,192,72143,1,0,0:0:0:0:
64,192,72234,1,0,0:0:0:0:
448,192,72234,1,0,0:0:0:0:
192,192,72415,1,0,0:0:0:0:
64,192,72506,1,0,0:0:0:0:
320,192,72597,1,0,0:0:0:0:
448,192,72597,1,0,0:0:0:0:
448,192,72779,1,0,0:0:0:0:
320,192,72870,1,0,0:0:0:0:
192,192,72961,1,0,0:0:0:0:
320,192,73143,1,0,0:0:0:0:
448,192,73143,1,0,0:0:0:0:
64,192,73234,1,0,0:0:0:0:
192,192,73234,1,0,0:0:0:0:
320,192,73324,1,0,0:0:0:0:
448,192,73324,1,0,0:0:0:0:
192,192,73506,1,0,0:0:0:0:
64,192,73688,1,0,0:0:0:0:
320,192,73688,1,0,0:0:0:0:
448,192,73870,1,0,0:0:0:0:
64,192,74052,1,0,0:0:0:0:
192,192,74052,1,0,0:0:0:0:
320,192,74112,1,0,0:0:0:0:
64,192,74173,1,0,0:0:0:0:
448,192,74234,1,0,0:0:0:0:
320,192,74294,1,0,0:0:0:0:
192,192,74355,1,0,0:0:0:0:
64,192,74415,128,0,74779:0:0:0:0:
448,192,74415,1,0,0:0:0:0:
448,192,74597,1,0,0:0:0:0:
192,192,74779,1,0,0:0:0:0:
320,192,74779,1,0,0:0:0:0:
448,192,74870,1,0,0:0:0:0:
320,192,74961,1,0,0:0:0:0:
192,192,75052,1,0,0:0:0:0:
64,192,75143,1,0,0:0:0:0:
448,192,75143,1,0,0:0:0:0:
320,192,75234,1,0,0:0:0:0:
64,192,75324,1,0,0:0:0:0:
192,192,75324,1,0,0:0:0:0:
448,192,75415,1,0,0:0:0:0:
64,192,75506,1,0,0:0:0:0:
320,192,75506,1,0,0:0:0:0:
448,192,75567,1,0,0:0:0:0:
192,192,75627,1,0,0:0:0:0:
64,192,75688,1,0,0:0:0:0:
448,192,75749,1,0,0:0:0:0:
320,192,75809,1,0,0:0:0:0:
192,192,75870,1,0,0:0:0:0:
320,192,75930,1,0,0:0:0:0:
192,192,75991,1,0,0:0:0:0:
64,192,76052,1,0,0:0:0:0:
448,192,76112,1,0,0:0:0:0:
320,192,76173,1,0,0:0:0:0:
64,192,76234,1,0,0:0:0:0:
192,192,76294,1,0,0:0:0:0:
320,192,76355,1,0,0:0:0:0:
64,192,76415,1,0,0:0:0:0:
320,192,76476,1,0,0:0:0:0:
448,192,76537,1,0,0:0:0:0:
192,192,76597,1,0,0:0:0:0:
320,192,76658,1,0,0:0:0:0:
64,192,76718,1,0,0:0:0:0:
192,192,76779,1,0,0:0:0:0:
448,192,76840,1,0,0:0:0:0:
320,192,76900,1,0,0:0:0:0:
192,192,76961,1,0,0:0:0:0:
320,192,77021,1,0,0:0:0:0:
64,192,77082,1,0,0:0:0:0:
192,192,77143,1,0,0:0:0:0:
320,192,77203,1,0,0:0:0:0:
448,192,77264,1,0,0:0:0:0:
64,192,77324,128,0,77688:0:0:0:0:
192,192,77324,1,0,0:0:0:0:
320,192,77506,1,0,0:0:0:0:
448,192,77567,1,0,0:0:0:0:
192,192,77627,1,0,0:0:0:0:
320,192,77688,1,0,0:0:0:0:
448,192,77749,1,0,0:0:0:0:
64,192,77809,1,0,0:0:0:0:
320,192,77870,1,0,0:0:0:0:
192,192,77930,1,0,0:0:0:0:
64,192,77991,1,0,0:0:0:0:
448,192,78052,1,0,0:0:0:0:
320,192,78112,1,0,0:0:0:0:
192,192,78173,1,0,0:0:0:0:
448,192,78234,1,0,0:0:0:0:
192,192,78294,1,0,0:0:0:0:
64,192,78355,1,0,0:0:0:0:
320,192,78415,1,0,0:0:0:0:
192,192,78476,1,0,0:0:0:0:
448,192,78537,1,0,0:0:0:0:
320,192,78597,1,0,0:0:0:0:
64,192,78658,1,0,0:0:0:0:
320,192,78718,1,0,0:0:0:0:
192,192,78779,1,0,0:0:0:0:
448,192,78779,1,0,0:0:0:0:
64,192,78870,1,0,0:0:0:0:
320,192,78961,1,0,0:0:0:0:
64,192,79052,1,0,0:0:0:0:
192,192,79143,1,0,0:0:0:0:
320,192,79143,1,0,0:0:0:0:
448,192,79234,1,0,0:0:0:0:
192,192,79324,1,0,0:0:0:0:
320,192,79415,1,0,0:0:0:0:
64,192,79506,1,0,0:0:0:0:
448,192,79506,1,0,0:0:0:0:
192,192,79597,1,0,0:0:0:0:
448,192,79688,1,0,0:0:0:0:
64,192,79779,1,0,0:0:0:0:
192,192,79870,1,0,0:0:0:0:
448,192,79870,1,0,0:0:0:0:
320,192,79961,1,0,0:0:0:0:
64,192,80052,1,0,0:0:0:0:
448,192,80143,1,0,0:0:0:0:
64,192,80234,1,0,0:0:0:0:
192,192,80234,1,0,0:0:0:0:
320,192,80324,1,0,0:0:0:0:
192,192,80415,1,0,0:0:0:0:
448,192,80506,1,0,0:0:0:0:
64,192,80597,1,0,0:0:0:0:
320,192,80597,1,0,0:0:0:0:
192,192,80688,1,0,0:0:0:0:
448,192,80779,1,0,0:0:0:0:
320,192,80870,1,0,0:0:0:0:
448,192,80961,1,0,0:0:0:0:
64,192,81052,1,0,0:0:0:0:
192,192,81143,1,0,0:0:0:0:
448,192,81234,1,0,0:0:0:0:
64,192,81324,1,0,0:0:0:0:
192,192,81324,1,0,0:0:0:0:
320,192,81415,1,0,0:0:0:0:
64,192,81506,1,0,0:0:0:0:
448,192,81597,1,0,0:0:0:0:
192,192,81688,1,0,0:0:0:0:
320,192,81688,1,0,0:0:0:0:
64,192,81779,1,0,0:0:0:0:
320,192,81870,1,0,0:0:0:0:
192,192,81961,1,0,0:0:0:0:
64,192,82052,1,0,0:0:0:0:
448,192,82052,1,0,0:0:0:0:
320,192,82143,1,0,0:0:0:0:
448,192,82234,1,0,0:0:0:0:
320,192,82324,1,0,0:0:0:0:
64,192,82415,1,0,0:0:0:0:
192,192,82415,1,0,0:0:0:0:
448,192,82506,1,0,0:0:0:0:
64,192,82597,1,0,0:0:0:0:
320,192,82597,1,0,0:0:0:0:
192,192,82688,1,0,0:0:0:0:
320,192,82779,1,0,0:0:0:0:
448,192,82779,1,0,0:0:0:0:
64,192,82870,1,0,0:0:0:0:
192,192,82961,1,0,0:0:0:0:
320,192,82961,1,0,0:0:0:0:
448,192,83052,1,0,0:0:0:0:
192,192,83143,1,0,0:0:0:0:
320,192,83143,1,0,0:0:0:0:
448,192,83234,1,0,0:0:0:0:
64,192,83324,1,0,0:0:0:0:
192,192,83415,1,0,0:0:0:0:
448,192,83415,1,0,0:0:0:0:
64,192,83506,1,0,0:0:0:0:
320,192,83597,1,0,0:0:0:0:
64,192,83688,1,0,0:0:0:0:
192,192,83688,1,0,0:0:0:0:
320,192,83779,1,0,0:0:0:0:
448,192,83779,1,0,0:0:0:0:
64,192,83870,1,0,0:0:0:0:
192,192,83870,1,0,0:0:0:0:
448,192,83961,1,0,0:0:0:0:
320,192,84052,1,0,0:0:0:0:
192,192,84143,1,0,0:0:0:0:
64,192,84234,1,0,0:0:0:0:
320,192,84234,1,0,0:0:0:0:
192,192,84324,1,0,0:0:0:0:
448,192,84415,1,0,0:0:0:0:
64,192,84506,128,0,84688:0:0:0:0:
320,192,84688,1,0,0:0:0:0:
448,192,84779,1,0,0:0:0:0:
64,192,84870,1,0,0:0:0:0:
448,192,84961,1,0,0:0:0:0:
320,192,85052,1,0,0:0:0:0:
192,192,85143,1,0,0:0:0:0:
320,192,85234,1,0,0:0:0:0:
64,192,85324,1,0,0:0:0:0:
448,192,85324,1,0,0:0:0:0:
192,192,85415,1,0,0:0:0:0:
320,192,85506,1,0,0:0:0:0:
448,192,85506,1,0,0:0:0:0:
64,192,85597,1,0,0:0:0:0:
320,192,85688,1,0,0:0:0:0:
64,192,85779,1,0,0:0:0:0:
448,192,85870,1,0,0:0:0:0:
192,192,85961,1,0,0:0:0:0:
320,192,86052,128,0,87688:0:0:0:0:
448,192,97688,5,0,0:0:0:0:
64,192,97779,1,0,0:0:0:0:
192,192,97870,1,0,0:0:0:0:
320,192,97961,1,0,0:0:0:0:
64,192,98052,1,0,0:0:0:0:
320,192,98143,1,0,0:0:0:0:
448,192,98234,1,0,0:0:0:0:
64,192,98324,1,0,0:0:0:0:
448,192,98415,1,0,0:0:0:0:
192,192,98506,1,0,0:0:0:0:
64,192,98597,1,0,0:0:0:0:
448,192,98688,1,0,0:0:0:0:
192,192,98779,1,0,0:0:0:0:
320,192,98870,1,0,0:0:0:0:
64,192,98961,1,0,0:0:0:0:
320,192,99052,1,0,0:0:0:0:
448,192,99143,1,0,0:0:0:0:
192,192,99234,1,0,0:0:0:0:
320,192,99324,1,0,0:0:0:0:
64,192,99415,1,0,0:0:0:0:
448,192,99506,1,0,0:0:0:0:
192,192,99597,1,0,0:0:0:0:
64,192,99688,1,0,0:0:0:0:
192,192,99779,1,0,0:0:0:0:
448,192,99870,1,0,0:0:0:0:
64,192,99961,1,0,0:0:0:0:
448,192,100052,1,0,0:0:0:0:
320,192,100143,1,0,0:0:0:0:
192,192,100234,1,0,0:0:0:0:
64,192,100324,1,0,0:0:0:0:
320,192,100415,1,0,0:0:0:0:
192,192,100506,1,0,0:0:0:0:
448,192,100597,1,0,0:0:0:0:
320,192,100688,1,0,0:0:0:0:
192,192,100779,1,0,0:0:0:0:
448,192,100870,1,0,0:0:0:0:
64,192,100961,1,0,0:0:0:0:
192,192,101052,1,0,0:0:0:0:
320,192,101143,1,0,0:0:0:0:
64,192,101234,1,0,0:0:0:0:
448,192,101324,1,0,0:0:0:0:
320,192,101415,1,0,0:0:0:0:
448,192,101506,1,0,0:0:0:0:
192,192,101597,1,0,0:0:0:0:
64,192,101688,1,0,0:0:0:0:
448,192,101779,1,0,0:0:0:0:
320,192,101870,1,0,0:0:0:0:
64,192,101961,1,0,0:0:0:0:
448,192,102052,1,0,0:0:0:0:
192,192,102143,1,0,0:0:0:0:
320,192,102234,1,0,0:0:0:0:
192,192,102324,1,0,0:0:0:0:
448,192,102415,1,0,0:0:0:0:
320,192,102506,1,0,0:0:0:0:
64,192,102597,1,0,0:0:0:0:
192,192,102688,1,0,0:0:0:0:
64,192,102779,1,0,0:0:0:0:
448,192,102870,1,0,0:0:0:0:
192,192,102961,1,0,0:0:0:0:
320,192,103052,1,0,0:0:0:0:
64,192,103143,1,0,0:0:0:0:
448,192,103234,1,0,0:0:0:0:
320,192,103324,1,0,0:0:0:0:
192,192,103415,1,0,0:0:0:0:
448,192,103506,1,0,0:0:0:0:
192,192,103597,1,0,0:0:0:0:
320,192,103688,1,0,0:0:0:0:
448,192,103779,1,0,0:0:0:0:
64,192,103870,1,0,0:0:0:0:
320,192,103961,1,0,0:0:0:0:
192,192,104052,1,0,0:0:0:0:
64,192,104143,1,0,0:0:0:0:
448,192,104234,1,0,0:0:0:0:
192,192,104324,1,0,0:0:0:0:
448,192,104415,1,0,0:0:0:0:
320,192,104506,1,0,0:0:0:0:
192,192,104597,1,0,0:0:0:0:
64,192,104688,1,0,0:0:0:0:
320,192,104779,1,0,0:0:0:0:
192,192,104870,1,0,0:0:0:0:
448,192,104961,1,0,0:0:0:0:
320,192,105052,1,0,0:0:0:0:
192,192,105143,1,0,0:0:0:0:
320,192,105234,1,0,0:0:0:0:
448,192,105324,1,0,0:0:0:0:
64,192,105415,1,0,0:0:0:0:
192,192,105506,1,0,0:0:0:0:
64,192,105597,1,0,0:0:0:0:
320,192,105688,1,0,0:0:0:0:
192,192,105779,1,0,0:0:0:0:
448,192,105870,1,0,0:0:0:0:
64,192,105961,1,0,0:0:0:0:
192,192,106052,1,0,0:0:0:0:
320,192,106143,1,0,0:0:0:0:
448,192,106234,1,0,0:0:0:0:
320,192,106324,1,0,0:0:0:0:
64,192,106415,1,0,0:0:0:0:
448,192,106506,1,0,0:0:0:0:
64,192,106597,1,0,0:0:0:0:
448,192,106688,1,0,0:0:0:0:
192,192,106779,1,0,0:0:0:0:
64,192,106870,1,0,0:0:0:0:
192,192,106961,1,0,0:0:0:0:
448,192,107052,1,0,0:0:0:0:
320,192,107143,1,0,0:0:0:0:
64,192,107234,1,0,0:0:0:0:
320,192,107324,1,0,0:0:0:0:
64,192,107415,1,0,0:0:0:0:
448,192,107506,1,0,0:0:0:0:
320,192,107597,1,0,0:0:0:0:
448,192,107688,1,0,0:0:0:0:
192,192,107779,1,0,0:0:0:0:
64,192,107870,1,0,0:0:0:0:
320,192,107870,1,0,0:0:0:0:
448,192,107961,1,0,0:0:0:0:
64,192,108052,1,0,0:0:0:0:
448,192,108143,1,0,0:0:0:0:
192,192,108234,1,0,0:0:0:0:
320,192,108234,1,0,0:0:0:0:
64,192,108324,1,0,0:0:0:0:
192,192,108415,1,0,0:0:0:0:
448,192,108506,1,0,0:0:0:0:
192,192,108597,1,0,0:0:0:0:
320,192,108597,1,0,0:0:0:0:
448,192,108688,1,0,0:0:0:0:
64,192,108779,1,0,0:0:0:0:
320,192,108870,1,0,0:0:0:0:
64,192,108961,1,0,0:0:0:0:
192,192,108961,1,0,0:0:0:0:
448,192,109052,1,0,0:0:0:0:
192,192,109143,1,0,0:0:0:0:
64,192,109234,1,0,0:0:0:0:
320,192,109234,1,0,0:0:0:0:
448,192,109324,1,0,0:0:0:0:
320,192,109385,1,0,0:0:0:0:
192,192,109446,1,0,0:0:0:0:
448,192,109506,1,0,0:0:0:0:
192,192,109567,1,0,0:0:0:0:
64,192,109627,1,0,0:0:0:0:
320,192,109688,1,0,0:0:0:0:
448,192,109749,1,0,0:0:0:0:
192,192,109809,1,0,0:0:0:0:
320,192,109870,1,0,0:0:0:0:
448,192,109930,1,0,0:0:0:0:
64,192,109991,1,0,0:0:0:0:
320,192,110052,1,0,0:0:0:0:
192,192,110112,1,0,0:0:0:0:
64,192,110173,1,0,0:0:0:0:
320,192,110234,1,0,0:0:0:0:
64,192,110294,1,0,0:0:0:0:
448,192,110355,1,0,0:0:0:0:
192,192,110415,1,0,0:0:0:0:
320,192,110476,1,0,0:0:0:0:
448,192,110537,1,0,0:0:0:0:
64,192,110597,1,0,0:0:0:0:
448,192,110658,1,0,0:0:0:0:
320,192,110718,1,0,0:0:0:0:
192,192,110779,1,0,0:0:0:0:
64,192,110840,1,0,0:0:0:0:
448,192,110900,1,0,0:0:0:0:
192,192,110961,1,0,0:0:0:0:
64,192,111021,1,0,0:0:0:0:
448,192,111082,1,0,0:0:0:0:
192,192,111143,1,0,0:0:0:0:
320,192,111203,1,0,0:0:0:0:
448,192,111264,1,0,0:0:0:0:
64,192,111324,1,0,0:0:0:0:
448,192,111385,1,0,0:0:0:0:
320,192,111446,1,0,0:0:0:0:
64,192,111506,1,0,0:0:0:0:
192,192,111567,1,0,0:0:0:0:
448,192,111627,1,0,0:0:0:0:
64,192,111688,1,0,0:0:0:0:
320,192,111749,1,0,0:0:0:0:
192,192,111809,1,0,0:0:0:0:
64,192,111870,1,0,0:0:0:0:
448,192,111930,1,0,0:0:0:0:
320,192,111991,1,0,0:0:0:0:
192,192,112052,1,0,0:0:0:0:
448,192,112112,1,0,0:0:0:0:
320,192,112173,1,0,0:0:0:0:
64,192,112234,1,0,0:0:0:0:
192,192,112294,1,0,0:0:0:0:
320,192,112355,1,0,0:0:0:0:
64,192,112415,1,0,0:0:0:0:
320,192,112476,1,0,0:0:0:0:
448,192,112537,1,0,0:0:0:0:
192,192,112597,1,0,0:0:0:0:
64,192,112658,1,0,0:0:0:0:
320,192,112718,1,0,0:0:0:0:
192,192,112779,1,0,0:0:0:0:
64,192,112840,1,0,0:0:0:0:
448,192,112900,1,0,0:0:0:0:
192,192,112961,1,0,0:0:0:0:
320,192,113021,1,0,0:0:0:0:
448,192,113082,1,0,0:0:0:0:
64,192,113143,1,0,0:0:0:0:
320,192,113203,1,0,0:0:0:0:
448,192,113264,1,0,0:0:0:0:
192,192,113324,1,0,0:0:0:0:
64,192,113385,1,0,0:0:0:0:
320,192,113446,1,0,0:0:0:0:
64,192,113506,1,0,0:0:0:0:
192,192,113567,1,0,0:0:0:0:
320,192,113627,1,0,0:0:0:0:
448,192,113688,1,0,0:0:0:0:
192,192,113749,1,0,0:0:0:0:
64,192,113809,1,0,0:0:0:0:
320,192,113870,1,0,0:0:0:0:
192,192,113930,1,0,0:0:0:0:
64,192,113991,1,0,0:0:0:0:
448,192,114052,1,0,0:0:0:0:
192,192,114112,1,0,0:0:0:0:
320,192,114173,1,0,0:0:0:0:
448,192,114234,1,0,0:0:0:0:
192,192,114294,1,0,0:0:0:0:
320,192,114355,1,0,0:0:0:0:
64,192,114415,1,0,0:0:0:0:
448,192,114476,1,0,0:0:0:0:
192,192,114537,1,0,0:0:0:0:
64,192,114597,1,0,0:0:0:0:
320,192,114658,1,0,0:0:0:0:
192,192,114718,1,0,0:0:0:0:
64,192,114779,1,0,0:0:0:0:
320,192,114840,1,0,0:0:0:0:
448,192,114900,1,0,0:0:0:0:
320,192,114961,1,0,0:0:0:0:
64,192,115021,1,0,0:0:0:0:
192,192,115082,1,0,0:0:0:0:
448,192,115143,1,0,0:0:0:0:
320,192,115203,1,0,0:0:0:0:
192,192,115264,1,0,0:0:0:0:
448,192,115324,1,0,0:0:0:0:
192,192,115385,1,0,0:0:0:0:
64,192,115446,1,0,0:0:0:0:
320,192,115506,1,0,0:0:0:0:
448,192,115567,1,0,0:0:0:0:
192,192,115627,1,0,0:0:0:0:
320,192,115688,1,0,0:0:0:0:
448,192,115749,1,0,0:0:0:0:
64,192,115809,1,0,0:0:0:0:
320,192,115870,1,0,0:0:0:0:
192,192,115930,1,0,0:0:0:0:
64,192,115991,1,0,0:0:0:0:
320,192,116052,1,0,0:0:0:0:
64,192,116112,1,0,0:0:0:0:
448,192,116173,1,0,0:0:0:0:
192,192,116234,1,0,0:0:0:0:
320,192,116294,1,0,0:0:0:0:
448,192,116355,1,0,0:0:0:0:
64,192,116415,1,0,0:0:0:0:
448,192,116476,1,0,0:0:0:0:
320,192,116537,1,0,0:0:0:0:
192,192,116597,1,0,0:0:0:0:
64,192,116658,1,0,0:0:0:0:
448,192,116718,1,0,0:0:0:0:
192,192,116779,1,0,0:0:0:0:
64,192,116840,1,0,0:0:0:0:
448,192,116900,1,0,0:0:0:0:
192,192,116961,1,0,0:0:0:0:
320,192,117021,1,0,0:0:0:0:
448,192,117082,1,0,0:0:0:0:
192,192,117143,1,0,0:0:0:0:
448,192,117203,1,0,0:0:0:0:
320,192,117264,1,0,0:0:0:0:
64,192,117324,1,0,0:0:0:0:
192,192,117385,1,0,0:0:0:0:
448,192,117446,1,0,0:0:0:0:
64,192,117506,1,0,0:0:0:0:
320,192,117567,1,0,0:0:0:0:
192,192,117627,1,0,0:0:0:0:
64,192,117688,1,0,0:0:0:0:
448,192,117749,1,0,0:0:0:0:
320,192,117809,1,0,0:0:0:0:
192,192,117870,1,0,0:0:0:0:
448,192,117930,1,0,0:0:0:0:
320,192,117991,1,0,0:0:0:0:
64,192,118052,1,0,0:0:0:0:
192,192,118112,1,0,0:0:0:0:
320,192,118173,1,0,0:0:0:0:
64,192,118234,1,0,0:0:0:0:
192,192,118294,1,0,0:0:0:0:
448,192,118355,1,0,0:0:0:0:
320,192,118415,1,0,0:0:0:0:
64,192,118476,1,0,0:0:0:0:
320,192,118537,1,0,0:0:0:0:
192,192,118597,1,0,0:0:0:0:
64,192,118658,1,0,0:0:0:0:
320,192,118718,1,0,0:0:0:0:
448,192,118779,1,0,0:0:0:0:
192,192,118840,1,0,0:0:0:0:
320,192,118900,1,0,0:0:0:0:
448,192,118961,1,0,0:0:0:0:
64,192,119021,1,0,0:0:0:0:
320,192,119082,1,0,0:0:0:0:
192,192,119143,1,0,0:0:0:0:
64,192,119203,1,0,0:0:0:0:
320,192,119264,1,0,0:0:0:0:
64,192,119324,1,0,0:0:0:0:
192,192,119385,1,0,0:0:0:0:
320,192,119446,1,0,0:0:0:0:
448,192,119506,1,0,0:0:0:0:
192,192,119567,1,0,0:0:0:0:
64,192,119627,1,0,0:0:0:0:
448,192,119688,1,0,0:0:0:0:
320,192,119749,1,0,0:0:0:0:
64,192,119809,1,0,0:0:0:0:
192,192,119870,1,0,0:0:0:0:
320,192,119930,1,0,0:0:0:0:
448,192,119991,1,0,0:0:0:0:
64,192,120052,1,0,0:0:0:0:
320,192,120112,1,0,0:0:0:0:
448,192,120173,1,0,0:0:0:0:
192,192,120234,1,0,0:0:0:0:
64,192,120294,1,0,0:0:0:0:
320,192,120355,1,0,0:0:0:0:
192,192,120415,1,0,0:0:0:0:
64,192,120476,1,0,0:0:0:0:
320,192,120537,1,0,0:0:0:0:
448,192,120597,1,0,0:0:0:0:
192,192,120658,1,0,0:0:0:0:
448,192,120718,1,0,0:0:0:0:
320,192,120779,1,0,0:0:0:0:
64,192,120840,1,0,0:0:0:0:
192,192,120900,1,0,0:0:0:0:
448,192,120961,1,0,0:0:0:0:
320,192,121021,1,0,0:0:0:0:
192,192,121082,1,0,0:0:0:0:
448,192,121143,1,0,0:0:0:0:
192,192,121203,1,0,0:0:0:0:
64,192,121264,1,0,0:0:0:0:
320,192,121324,1,0,0:0:0:0:
448,192,121385,1,0,0:0:0:0:
192,192,121446,1,0,0:0:0:0:
320,192,121506,1,0,0:0:0:0:
448,192,121567,1,0,0:0:0:0:
64,192,121627,1,0,0:0:0:0:
320,192,121688,1,0,0:0:0:0:
192,192,121749,1,0,0:0:0:0:
64,192,121809,1,0,0:0:0:0:
320,192,121870,1,0,0:0:0:0:
64,192,121930,1,0,0:0:0:0:
448,192,121991,1,0,0:0:0:0:
192,192,122052,1,0,0:0:0:0:
320,192,122112,1,0,0:0:0:0:
448,192,122173,1,0,0:0:0:0:
64,192,122234,1,0,0:0:0:0:
448,192,122294,1,0,0:0:0:0:
320,192,122355,1,0,0:0:0:0:
192,192,122415,1,0,0:0:0:0:
64,192,122476,1,0,0:0:0:0:
448,192,122537,1,0,0:0:0:0:
192,192,122597,1,0,0:0:0:0:
64,192,122658,1,0,0:0:0:0:
448,192,122718,1,0,0:0:0:0:
192,192,122779,1,0,0:0:0:0:
320,192,122840,1,0,0:0:0:0:
448,192,122900,1,0,0:0:0:0:
64,192,122961,1,0,0:0:0:0:
448,192,123021,1,0,0:0:0:0:
320,192,123082,1,0,0:0:0:0:
64,192,123143,1,0,0:0:0:0:
192,192,123203,1,0,0:0:0:0:
448,192,123264,1,0,0:0:0:0:
64,192,123324,1,0,0:0:0:0:
320,192,123385,1,0,0:0:0:0:
192,192,123446,1,0,0:0:0:0:
64,192,123506,1,0,0:0:0:0:
448,192,123567,1,0,0:0:0:0:
320,192,123627,1,0,0:0:0:0:
192,192,123688,1,0,0:0:0:0:
448,192,123749,1,0,0:0:0:0:
320,192,123809,1,0,0:0:0:0:
64,192,123870,1,0,0:0:0:0:
192,192,123930,1,0,0:0:0:0:
320,192,123991,1,0,0:0:0:0:
64,192,124052,1,0,0:0:0:0:
320,192,124112,1,0,0:0:0:0:
448,192,124173,1,0,0:0:0:0:
192,192,124234,1,0,0:0:0:0:
64,192,124294,1,0,0:0:0:0:
320,192,124355,1,0,0:0:0:0:
192,192,124415,1,0,0:0:0:0:
64,192,124476,1,0,0:0:0:0:
448,192,124537,1,0,0:0:0:0:
192,192,124597,1,0,0:0:0:0:
320,192,124658,1,0,0:0:0:0:
448,192,124718,1,0,0:0:0:0:
64,192,124779,1,0,0:0:0:0:
320,192,124840,1,0,0:0:0:0:
448,192,124900,1,0,0:0:0:0:
192,192,124961,1,0,0:0:0:0:
64,192,125021,1,0,0:0:0:0:
320,192,125082,1,0,0:0:0:0:
64,192,125143,1,0,0:0:0:0:
192,192,125203,1,0,0:0:0:0:
320,192,125264,1,0,0:0:0:0:
448,192,125324,1,0,0:0:0:0:
192,192,125385,1,0,0:0:0:0:
64,192,125446,1,0,0:0:0:0:
320,192,125506,1,0,0:0:0:0:
192,192,125567,1,0,0:0:0:0:
64,192,125627,1,0,0:0:0:0:
448,192,125688,1,0,0:0:0:0:
192,192,125749,1,0,0:0:0:0:
320,192,125809,1,0,0:0:0:0:
448,192,125870,1,0,0:0:0:0:
192,192,125930,1,0,0:0:0:0:
320,192,125991,1,0,0:0:0:0:
64,192,126052,1,0,0:0:0:0:
448,192,126112,1,0,0:0:0:0:
192,192,126173,1,0,0:0:0:0:
64,192,126234,1,0,0:0:0:0:
320,192,126294,1,0,0:0:0:0:
192,192,126355,1,0,0:0:0:0:
64,192,126415,1,0,0:0:0:0:
320,192,126476,1,0,0:0:0:0:
448,192,126537,1,0,0:0:0:0:
320,192,126597,1,0,0:0:0:0:
64,192,126658,1,0,0:0:0:0:
192,192,126718,1,0,0:0:0:0:
448,192,126779,1,0,0:0:0:0:
320,192,126840,1,0,0:0:0:0:
192,192,126900,1,0,0:0:0:0:
448,192,126961,1,0,0:0:0:0:
192,192,127021,1,0,0:0:0:0:
64,192,127082,1,0,0:0:0:0:
320,192,127143,1,0,0:0:0:0:
448,192,127203,1,0,0:0:0:0:
192,192,127264,1,0,0:0:0:0:
320,192,127324,1,0,0:0:0:0:
448,192,127385,1,0,0:0:0:0:
64,192,127446,1,0,0:0:0:0:
320,192,127506,1,0,0:0:0:0:
192,192,127567,1,0,0:0:0:0:
64,192,127627,1,0,0:0:0:0:
448,192,127688,1,0,0:0:0:0:
64,192,127749,1,0,0:0:0:0:
192,192,127809,1,0,0:0:0:0:
320,192,127870,1,0,0:0:0:0:
64,192,127930,1,0,0:0:0:0:
448,192,127991,1,0,0:0:0:0:
192,192,128052,1,0,0:0:0:0:
320,192,128112,1,0,0:0:0:0:
448,192,128173,1,0,0:0:0:0:
64,192,128234,1,0,0:0:0:0:
320,192,128294,1,0,0:0:0:0:
64,192,128355,1,0,0:0:0:0:
192,192,128415,1,0,0:0:0:0:
448,192,128476,1,0,0:0:0:0:
320,192,128537,1,0,0:0:0:0:
64,192,128597,1,0,0:0:0:0:
192,192,128658,1,0,0:0:0:0:
320,192,128718,1,0,0:0:0:0:
64,192,128779,1,0,0:0:0:0:
320,192,128840,1,0,0:0:0:0:
448,192,128900,1,0,0:0:0:0:
192,192,128961,1,0,0:0:0:0:
64,192,129021,1,0,0:0:0:0:
320,192,129082,1,0,0:0:0:0:
192,192,129143,1,0,0:0:0:0:
64,192,129203,1,0,0:0:0:0:
448,192,129264,1,0,0:0:0:0:
192,192,129324,1,0,0:0:0:0:
320,192,129385,1,0,0:0:0:0:
448,192,129446,1,0,0:0:0:0:
64,192,129506,1,0,0:0:0:0:
320,192,129567,1,0,0:0:0:0:
448,192,129627,1,0,0:0:0:0:
192,192,129688,1,0,0:0:0:0:
64,192,129749,1,0,0:0:0:0:
320,192,129809,1,0,0:0:0:0:
192,192,129870,1,0,0:0:0:0:
64,192,129930,1,0,0:0:0:0:
320,192,129991,1,0,0:0:0:0:
448,192,130052,1,0,0:0:0:0:
64,192,130112,1,0,0:0:0:0:
448,192,130173,1,0,0:0:0:0:
320,192,130234,1,0,0:0:0:0:
64,192,130294,1,0,0:0:0:0:
192,192,130355,1,0,0:0:0:0:
448,192,130415,1,0,0:0:0:0:
64,192,130476,1,0,0:0:0:0:
448,192,130537,1,0,0:0:0:0:
192,192,130597,1,0,0:0:0:0:
320,192,130658,1,0,0:0:0:0:
192,192,130718,1,0,0:0:0:0:
448,192,130779,1,0,0:0:0:0:
320,192,130840,1,0,0:0:0:0:
64,192,130900,1,0,0:0:0:0:
320,192,130961,1,0,0:0:0:0:
192,192,131021,1,0,0:0:0:0:
64,192,131082,1,0,0:0:0:0:
448,192,131143,1,0,0:0:0:0:
320,192,131203,1,0,0:0:0:0:
192,192,131264,1,0,0:0:0:0:
448,192,131324,1,0,0:0:0:0:
192,192,131385,1,0,0:0:0:0:
64,192,131446,1,0,0:0:0:0:
320,192,131506,1,0,0:0:0:0:
448,192,131567,1,0,0:0:0:0:
192,192,131627,1,0,0:0:0:0:
320,192,131688,1,0,0:0:0:0:
448,192,131749,1,0,0:0:0:0:
64,192,131809,1,0,0:0:0:0:
320,192,131870,1,0,0:0:0:0:
192,192,131930,1,0,0:0:0:0:
64,192,131991,1,0,0:0:0:0:
448,192,132052,1,0,0:0:0:0:
192,192,132112,1,0,0:0:0:0:
64,192,132173,1,0,0:0:0:0:
320,192,132234,1,0,0:0:0:0:
448,192,132294,1,0,0:0:0:0:
192,192,132355,1,0,0:0:0:0:
320,192,132415,1,0,0:0:0:0:
448,192,132476,1,0,0:0:0:0:
64,192,132537,1,0,0:0:0:0:
192,192,132597,1,0,0:0:0:0:
320,192,132597,128,0,135506:0:0:0:0:
64,192,132779,1,0,0:0:0:0:
192,192,132779,1,0,0:0:0:0:
448,192,132961,1,0,0:0:0:0:
64,192,133052,1,0,0:0:0:0:
192,192,133143,1,0,0:0:0:0:
448,192,133143,1,0,0:0:0:0:
64,192,133324,1,0,0:0:0:0:
192,192,133415,1,0,0:0:0:0:
64,192,133506,1,0,0:0:0:0:
448,192,133506,1,0,0:0:0:0:
192,192,133688,1,0,0:0:0:0:
448,192,133779,1,0,0:0:0:0:
64,192,133870,1,0,0:0:0:0:
192,192,133870,1,0,0:0:0:0:
448,192,134052,1,0,0:0:0:0:
192,192,134143,1,0,0:0:0:0:
64,192,134234,1,0,0:0:0:0:
448,192,134234,1,0,0:0:0:0:
192,192,134415,1,0,0:0:0:0:
64,192,134506,1,0,0:0:0:0:
192,192,134597,1,0,0:0:0:0:
448,192,134597,1,0,0:0:0:0:
64,192,134779,1,0,0:0:0:0:
448,192,134779,1,0,0:0:0:0:
192,192,134870,1,0,0:0:0:0:
448,192,134961,1,0,0:0:0:0:
64,192,135052,1,0,0:0:0:0:
192,192,135143,1,0,0:0:0:0:
448,192,135234,1,0,0:0:0:0:
192,192,135324,1,0,0:0:0:0:
64,192,135415,1,0,0:0:0:0:
192,192,135506,1,0,0:0:0:0:
448,192,135506,1,0,0:0:0:0:
320,192,135597,1,0,0:0:0:0:
64,192,135688,1,0,0:0:0:0:
192,192,135688,1,0,0:0:0:0:
64,192,135870,1,0,0:0:0:0:
448,192,135870,128,0,136234:0:0:0:0:
320,192,135961,1,0,0:0:0:0:
64,192,136052,1,0,0:0:0:0:
192,192,136052,1,0,0:0:0:0:
320,192,136234,1,0,0:0:0:0:
192,192,136324,1,0,0:0:0:0:
64,192,136415,1,0,0:0:0:0:
448,192,136415,1,0,0:0:0:0:
192,192,136597,1,0,0:0:0:0:
320,192,136597,128,0,136961:0:0:0:0:
64,192,136688,1,0,0:0:0:0:
192,192,136779,1,0,0:0:0:0:
448,192,136779,1,0,0:0:0:0:
64,192,136961,1,0,0:0:0:0:
448,192,137052,1,0,0:0:0:0:
64,192,137143,1,0,0:0:0:0:
320,192,137143,1,0,0:0:0:0:
192,192,137324,128,0,137688:0:0:0:0:
448,192,137324,1,0,0:0:0:0:
64,192,137415,1,0,0:0:0:0:
320,192,137506,1,0,0:0:0:0:
448,192,137506,1,0,0:0:0:0:
64,192,137688,1,0,0:0:0:0:
320,192,137779,1,0,0:0:0:0:
192,192,137870,1,0,0:0:0:0:
448,192,137870,1,0,0:0:0:0:
320,192,137961,1,0,0:0:0:0:
64,192,138052,1,0,0:0:0:0:
192,192,138052,1,0,0:0:0:0:
320,192,138143,1,0,0:0:0:0:
448,192,138143,1,0,0:0:0:0:
64,192,138234,1,0,0:0:0:0:
192,192,138234,1,0,0:0:0:0:
320,192,138324,1,0,0:0:0:0:
448,192,138324,1,0,0:0:0:0:
64,192,138415,1,0,0:0:0:0:
192,192,138415,1,0,0:0:0:0:
448,192,138506,1,0,0:0:0:0:
192,192,138597,1,0,0:0:0:0:
320,192,138597,1,0,0:0:0:0:
64,192,138779,1,0,0:0:0:0:
448,192,138779,128,0,139143:0:0:0:0:
320,192,138870,1,0,0:0:0:0:
64,192,138961,1,0,0:0:0:0:
192,192,138961,1,0,0:0:0:0:
320,192,139143,1,0,0:0:0:0:
192,192,139234,1,0,0:0:0:0:
64,192,139324,1,0,0:0:0:0:
448,192,139324,1,0,0:0:0:0:
192,192,139506,1,0,0:0:0:0:
320,192,139506,128,0,139870:0:0:0:0:
64,192,139597,1,0,0:0:0:0:
192,192,139688,1,0,0:0:0:0:
448,192,139688,1,0,0:0:0:0:
64,192,139870,1,0,0:0:0:0:
448,192,139961,1,0,0:0:0:0:
64,192,140052,1,0,0:0:0:0:
320,192,140052,1,0,0:0:0:0:
192,192,140234,128,0,140597:0:0:0:0:
448,192,140234,1,0,0:0:0:0:
64,192,140324,1,0,0:0:0:0:
320,192,140415,1,0,0:0:0:0:
448,192,140415,1,0,0:0:0:0:
64,192,140597,1,0,0:0:0:0:
448,192,140688,1,0,0:0:0:0:
64,192,140779,1,0,0:0:0:0:
320,192,140779,1,0,0:0:0:0:
448,192,140870,1,0,0:0:0:0:
192,192,140961,1,0,0:0:0:0:
64,192,141052,1,0,0:0:0:0:
320,192,141143,1,0,0:0:0:0:
64,192,141234,1,0,0:0:0:0:
192,192,141324,1,0,0:0:0:0:
448,192,141324,1,0,0:0:0:0:
320,192,141415,1,0,0:0:0:0:
64,192,141506,1,0,0:0:0:0:
192,192,141506,1,0,0:0:0:0:
64,192,141688,1,0,0:0:0:0:
448,192,141688,128,0,142052:0:0:0:0:
320,192,141779,1,0,0:0:0:0:
64,192,141870,1,0,0:0:0:0:
192,192,141870,1,0,0:0:0:0:
320,192,142052,1,0,0:0:0:0:
192,192,142143,1,0,0:0:0:0:
64,192,142234,1,0,0:0:0:0:
320,192,142234,1,0,0:0:0:0:
192,192,142415,1,0,0:0:0:0:
320,192,142415,128,0,142779:0:0:0:0:
64,192,142597,1,0,0:0:0:0:
448,192,142597,1,0,0:0:0:0:
192,192,142688,1,0,0:0:0:0:
64,192,142779,1,0,0:0:0:0:
448,192,142779,1,0,0:0:0:0:
320,192,142870,1,0,0:0:0:0:
192,192,142961,1,0,0:0:0:0:
448,192,143052,1,0,0:0:0:0:
192,192,143143,128,0,143506:0:0:0:0:
320,192,143143,1,0,0:0:0:0:
64,192,143234,1,0,0:0:0:0:
320,192,143324,1,0,0:0:0:0:
64,192,143415,1,0,0:0:0:0:
448,192,143506,1,0,0:0:0:0:
320,192,143597,1,0,0:0:0:0:
448,192,143688,1,0,0:0:0:0:
192,192,143779,1,0,0:0:0:0:
64,192,143870,1,0,0:0:0:0:
320,192,143870,1,0,0:0:0:0:
448,192,143961,1,0,0:0:0:0:
192,192,144052,1,0,0:0:0:0:
320,192,144143,1,0,0:0:0:0:
64,192,144234,1,0,0:0:0:0:
192,192,144234,1,0,0:0:0:0:
448,192,144324,1,0,0:0:0:0:
64,192,144506,1,0,0:0:0:0:
192,192,144506,1,0,0:0:0:0:
64,192,144779,1,0,0:0:0:0:
192,192,144779,1,0,0:0:0:0:
448,192,144870,1,0,0:0:0:0:
64,192,145052,1,0,0:0:0:0:
192,192,145052,1,0,0:0:0:0:
64,192,145324,1,0,0:0:0:0:
192,192,145324,1,0,0:0:0:0:
448,192,145415,1,0,0:0:0:0:
64,192,145506,1,0,0:0:0:0:
192,192,145597,1,0,0:0:0:0:
320,192,145688,1,0,0:0:0:0:
448,192,145688,1,0,0:0:0:0:
64,192,145779,1,0,0:0:0:0:
320,192,145961,1,0,0:0:0:0:
448,192,145961,1,0,0:0:0:0:
320,192,146234,1,0,0:0:0:0:
448,192,146234,1,0,0:0:0:0:
64,192,146324,1,0,0:0:0:0:
320,192,146506,1,0,0:0:0:0:
448,192,146506,1,0,0:0:0:0:
320,192,146779,1,0,0:0:0:0:
448,192,146779,1,0,0:0:0:0:
192,192,146870,1,0,0:0:0:0:
448,192,146961,1,0,0:0:0:0:
320,192,147052,1,0,0:0:0:0:
64,192,147143,1,0,0:0:0:0:
192,192,147143,1,0,0:0:0:0:
448,192,147143,1,0,0:0:0:0:
320,192,147234,1,0,0:0:0:0:
64,192,147415,1,0,0:0:0:0:
192,192,147415,1,0,0:0:0:0:
64,192,147688,1,0,0:0:0:0:
192,192,147688,1,0,0:0:0:0:
320,192,147779,1,0,0:0:0:0:
64,192,147961,1,0,0:0:0:0:
192,192,147961,1,0,0:0:0:0:
64,192,148234,1,0,0:0:0:0:
192,192,148234,1,0,0:0:0:0:
320,192,148324,1,0,0:0:0:0:
64,192,148415,1,0,0:0:0:0:
192,192,148506,1,0,0:0:0:0:
64,192,148597,1,0,0:0:0:0:
320,192,148597,1,0,0:0:0:0:
448,192,148597,1,0,0:0:0:0:
192,192,148688,1,0,0:0:0:0:
320,192,148870,1,0,0:0:0:0:
448,192,148870,1,0,0:0:0:0:
320,192,149143,1,0,0:0:0:0:
448,192,149143,1,0,0:0:0:0:
192,192,149234,1,0,0:0:0:0:
320,192,149415,1,0,0:0:0:0:
448,192,149415,1,0,0:0:0:0:
320,192,149688,1,0,0:0:0:0:
448,192,149688,1,0,0:0:0:0:
64,192,149779,1,0,0:0:0:0:
192,192,149779,1,0,0:0:0:0:
64,192,149961,1,0,0:0:0:0:
320,192,149961,1,0,0:0:0:0:
448,192,149961,1,0,0:0:0:0:
