osu file format v14

[General]
AudioFilename: audio.mp3
AudioLeadIn: 0
PreviewTime: 53707
Countdown: 1
SampleSet: Normal
StackLeniency: 0.5
Mode: 0
LetterboxInBreaks: 0
WidescreenStoryboard: 1

[Editor]
DistanceSpacing: 1
BeatDivisor: 4
GridSize: 16
TimelineZoom: 2

[Metadata]
Title:Dash&Daaash!! (TV Size)
TitleUnicode:Dash&Daaash!! (TV Size)
Artist:Fudanjuku
ArtistUnicode:風男塾
Creator:Jelljel
Version:Normal
Source:群青のマグメル
Tags:Gunjou no Magmel Magmel of the Sea Blue op tvsize Q-MHz J-pop Japanese
BeatmapID:1993460
BeatmapSetID:954376

[Difficulty]
HPDrainRate:4
CircleSize:3
OverallDifficulty:3
ApproachRate:4
SliderMultiplier:1
SliderTickRate:1

[Events]
//Background and Video events
Video,-425,"magmelvideo.mp4"
0,0,"newbg.jpg",0,0
//Break Periods
//Storyboard Layer 0 (Background)
//Storyboard Layer 1 (Fail)
//Storyboard Layer 2 (Pass)
//Storyboard Layer 3 (Foreground)
//Storyboard Sound Samples

[TimingPoints]
107,400,4,1,2,40,1,0
107,-100,4,1,2,40,0,0
14507,-100,4,3,2,40,0,0
20307,-100,4,1,2,40,0,0
54507,-100,4,1,2,60,0,1
67307,-100,4,1,2,40,0,0
88307,-100,4,1,2,10,0,0

[Colours]
Combo1 : 192,192,192
Combo2 : 254,179,65
Combo3 : 0,128,128
Combo4 : 0,128,64

[HitObjects]
203,248,107,6,0,B|192:195|192:195|213:143,1,100,4|0,3:0|2:0,0:0:0:0:
266,69,907,2,0,P|315:47|373:72,1,100,4|0,3:0|2:0,0:0:0:0:
406,146,1707,2,0,L|396:257,1,100,4|0,3:0|2:0,0:0:0:0:
316,304,2507,2,0,L|307:204,1,100,4|0,3:0|2:0,0:0:0:0:
294,105,3307,5,0,3:0:0:0:
196,84,3707,1,0,3:0:0:0:
107,130,4107,1,0,3:0:0:0:
62,219,4507,1,0,3:0:0:0:
115,303,4907,6,0,P|164:325|222:300,1,100,4|0,0:0|0:0,0:0:0:0:
255,225,5707,2,0,L|246:129,1,75,0|0,0:0|0:0,0:0:0:0:
237,69,6307,5,4,3:0:0:0:
237,69,6507,2,0,B|290:61|290:61|343:77,1,100,4|0,3:0|0:0,0:0:0:0:
405,145,7307,5,8,3:0:0:0:
385,240,7707,1,8,1:0:0:0:
311,172,8107,6,0,P|262:150|204:175,1,100,0|0,0:0|0:0,0:0:0:0:
149,234,8907,1,0,0:0:0:0:
158,333,9307,1,0,0:0:0:0:
239,274,9707,6,0,P|288:252|346:277,1,100
379,351,10507,1,0,0:0:0:0:
447,278,10907,1,0,0:0:0:0:
399,190,11307,6,0,B|386:139|386:139|397:81,1,100,0|0,0:0|0:0,0:0:0:0:
436,1,12107,1,0,0:0:0:0:
338,21,12507,1,0,0:0:0:0:
272,96,12907,6,0,L|281:207,1,100,8|8,0:0|0:0,0:0:0:0:
356,260,13707,2,0,L|364:160,1,100,8|8,0:0|0:0,0:0:0:0:
306,79,14507,6,0,P|257:57|199:82,1,100,0|0,0:0|0:0,0:0:0:0:
157,151,15307,1,0,0:0:0:0:
181,248,15707,1,0,0:0:0:0:
133,335,16107,6,0,P|84:357|26:332,1,100,8|0,0:0|0:0,0:0:0:0:
15,248,16907,1,0,0:0:0:0:
67,162,17307,1,0,0:0:0:0:
148,219,17707,6,0,B|195:230|195:230|254:201,1,100,8|0,0:0|0:0,0:0:0:0:
288,119,18507,2,0,B|240:107|240:107|181:136,1,100,8|0,0:0|0:0,0:0:0:0:
148,219,19307,1,8,0:0:0:0:
177,314,19707,1,0,3:0:0:0:
243,239,20107,1,0,0:0:0:0:
274,334,20507,5,0,0:0:0:0:
345,264,20907,6,0,P|367:215|342:157,1,100,0|0,0:0|3:0,0:0:0:0:
275,112,21707,1,0,3:0:0:0:
176,130,22107,1,0,3:0:0:0:
103,199,22507,1,0,3:0:0:0:
76,295,22907,1,0,3:0:0:0:
162,344,23307,6,0,L|257:335,1,75,4|4,3:0|3:0,0:0:0:0:
324,327,23907,1,4,3:0:0:0:
324,327,24107,6,0,P|302:278|327:220,1,100,4|0,3:0|0:0,0:0:0:0:
376,157,24907,1,0,0:0:0:0:
432,239,25307,1,0,0:0:0:0:
460,143,25707,6,0,B|469:90|469:90|456:44,1,100,0|0,0:0|0:0,0:0:0:0:
362,11,26507,1,0,0:0:0:0:
298,88,26907,1,0,0:0:0:0:
213,34,27307,6,0,P|191:83|216:141,1,100,8|8,0:0|0:0,0:0:0:0:
278,191,28107,2,0,P|300:240|275:298,1,100,8|8,0:0|0:0,0:0:0:0:
194,318,28907,1,8,0:0:0:0:
118,252,29307,1,8,1:0:0:0:
100,153,29707,6,0,L|109:41,1,100,8|0,0:0|0:0,0:0:0:0:
183,119,30507,6,0,P|232:141|290:116,1,100,12|0,3:0|0:0,0:0:0:0:
345,58,31307,2,0,B|366:116|366:116|356:162,1,100,12|0,3:0|0:0,0:0:0:0:
303,237,32107,5,0,0:0:0:0:
401,221,32507,1,8,0:0:0:0:
362,313,32907,1,4,3:0:0:0:
460,297,33307,1,8,0:0:0:0:
401,221,33707,6,0,P|379:172|404:114,1,100,0|4,0:0|3:0,0:0:0:0:
427,36,34507,2,0,L|331:44,1,75,8|8,0:0|0:0,0:0:0:0:
271,52,35107,1,8,1:0:0:0:
271,54,37107,6,0,B|278:115,1,50,4|4,3:0|3:0,0:0:0:0:
284,203,37707,2,0,P|247:222|207:213,1,75,8|8,0:0|0:0,0:0:0:0:
155,162,38307,1,8,0:0:0:0:
155,162,39307,6,0,P|149:120|170:85,1,75,0|0,0:0|0:0,0:0:0:0:
230,38,39907,2,0,B|273:10|319:44|319:44|371:84|418:28,1,200,8|0,0:0|0:0,0:0:0:0:
448,128,41107,6,0,P|459:175|437:219,1,100
397,250,41707,1,0,0:0:0:0:
343,165,42107,1,0,0:0:0:0:
291,250,42507,1,0,0:0:0:0:
348,331,42907,1,0,0:0:0:0:
249,350,43307,6,0,L|137:340,2,100,0|0|0,0:0|1:0|0:0,0:0:0:0:
312,271,44507,1,0,0:0:0:0:
267,181,44907,2,0,P|218:159|160:184,1,100,0|0,0:0|0:0,0:0:0:0:
105,242,45707,5,0,0:0:0:0:
84,144,46107,1,0,0:0:0:0:
138,59,46507,6,0,P|203:34|175:171,1,300,8|0,1:0|0:0,3:0:0:0:
82,131,48107,2,0,P|17:106|45:243,1,300,8|0,0:0|0:0,3:0:0:0:
138,206,49707,5,8,0:0:0:0:
230,167,50107,1,0,0:0:0:0:
305,232,50507,1,8,1:0:0:0:
334,327,50907,1,8,1:0:0:0:
404,255,51307,5,8,0:0:0:0:
424,157,51707,1,0,0:0:0:0:
389,63,52107,1,8,0:0:0:0:
294,31,52507,1,8,0:0:0:0:
223,101,52907,6,0,P|216:140|236:187,1,75,4|4,0:0|0:0,0:0:0:0:
272,246,53507,1,4,0:0:0:0:
272,246,53707,6,0,P|304:238|338:250,2,50,0|0|0,0:0|0:0|0:0,0:0:0:0:
232,276,54307,1,0,0:0:0:0:
234,325,54507,6,0,P|283:347|341:322,1,100,4|0,0:0|0:0,0:0:0:0:
387,256,55307,1,0,0:0:0:0:
368,157,55707,1,0,0:0:0:0:
285,100,56107,2,0,L|173:109,1,100,8|8,0:0|0:0,0:0:0:0:
128,190,56907,2,0,L|239:199,1,100,8|8,0:0|0:0,0:0:0:0:
326,213,57707,6,0,P|348:262|323:320,1,100,0|0,0:0|0:0,0:0:0:0:
243,340,58507,1,0,0:0:0:0:
157,287,58907,1,0,0:0:0:0:
123,192,59307,2,0,L|133:80,1,100,8|8,0:0|0:0,0:0:0:0:
211,144,60107,2,0,L|219:243,1,100,8|8,0:0|0:0,0:0:0:0:
133,283,60907,6,0,P|111:234|136:176,1,100,0|8,0:0|0:0,0:0:0:0:
211,144,61707,1,0,0:0:0:0:
291,204,62107,1,0,0:0:0:0:
369,142,62507,6,0,P|391:93|366:35,1,100,8|0,0:0|0:0,0:0:0:0:
292,1,63307,1,0,0:0:0:0:
195,26,63707,1,0,0:0:0:0:
230,119,64107,6,0,B|243:177|243:177|228:227,1,100,0|0,0:0|0:0,0:0:0:0:
172,296,64907,1,8,0:0:0:0:
271,289,65307,1,0,0:0:0:0:
348,225,65707,6,0,P|370:176|345:118,1,100,8|8,0:0|1:0,0:0:0:0:
269,179,66507,2,0,P|220:201|162:176,1,100,12|12,0:0|0:0,0:0:0:0:
129,100,67307,5,0,0:0:0:0:
215,49,67707,1,0,0:0:0:0:
281,123,68107,2,0,P|330:145|388:120,1,100,0|0,0:0|0:0,0:0:0:0:
422,46,68907,1,0,0:0:0:0:
454,140,69307,6,0,L|444:251,1,100,0|0,0:0|0:0,0:0:0:0:
432,339,70107,1,0,0:0:0:0:
357,272,70507,6,0,P|308:250|250:275,1,100,0|0,0:0|0:0,0:0:0:0:
186,324,71307,1,0,0:0:0:0:
149,231,71707,1,0,0:0:0:0:
202,146,72107,6,0,B|215:88|215:88|200:34,1,100,8|8,0:0|0:0,0:0:0:0:
116,0,72907,2,0,B|103:58|103:58|118:112,1,100,8|8,0:0|0:0,0:0:0:0:
202,146,73707,6,0,P|251:168|309:143,1,100,0|0,0:0|0:0,0:0:0:0:
358,80,74507,1,0,0:0:0:0:
437,140,74907,1,0,0:0:0:0:
364,208,75307,2,0,P|342:257|367:315,1,100
436,356,76107,2,0,P|458:307|433:249,1,100,0|0,0:0|0:0,0:0:0:0:
364,208,76907,5,8,0:0:0:0:
269,176,77307,1,8,0:0:0:0:
188,235,77707,2,0,P|139:257|81:232,1,100,8|8,0:0|0:0,0:0:0:0:
52,155,78507,1,8,0:0:0:0:
28,57,78907,1,8,0:0:0:0:
124,84,79307,2,0,B|176:98|176:98|223:86,1,100,8|0,0:0|0:0,0:0:0:0:
310,41,80107,6,0,L|300:152,1,100,4|0,3:0|2:0,0:0:0:0:
282,238,80907,2,0,P|233:260|175:235,1,100,4|0,3:0|2:0,0:0:0:0:
112,186,81707,2,0,P|90:235|115:293,1,100,4|0,3:0|2:0,0:0:0:0:
177,343,82507,2,0,L|288:333,1,100,4|0,3:0|2:0,0:0:0:0:
330,250,83307,5,0,3:0:0:0:
340,150,83707,1,0,3:0:0:0:
291,62,84107,1,0,3:0:0:0:
195,32,84507,1,0,3:0:0:0:
119,97,84907,5,4,0:0:0:0:
157,189,85307,1,0,0:0:0:0:
97,269,85707,2,0,B|85:326|85:326|106:368,1,100,0|0,0:0|0:0,0:0:0:0:
256,192,86507,12,0,88307,0:0:0:0:
