osu file format v14

[General]
AudioFilename: audio.mp3
AudioLeadIn: 0
PreviewTime: 53975
Countdown: 0
SampleSet: Normal
StackLeniency: 0.7
Mode: 1
LetterboxInBreaks: 0
WidescreenStoryboard: 1

[Editor]
DistanceSpacing: 1.3
BeatDivisor: 12
GridSize: 16
TimelineZoom: 3.250003

[Metadata]
Title:Dash & Daaash!! (TV Size)
TitleUnicode:Dash&Daaash!! (TV Size)
Artist:Fudanjuku
ArtistUnicode:風男塾
Creator:iloveyou4ever
Version:Ura Oni
Source:群青のマグメル
Tags:dash and daaash q-mhz fanfare gunjou no magumeru ultramarine magmell anime opening op short version ver female vocalist japanese jpop j-pop pop
BeatmapID:4352389
BeatmapSetID:2078023

[Difficulty]
HPDrainRate:6
CircleSize:5
OverallDifficulty:6.5
ApproachRate:5
SliderMultiplier:1.4
SliderTickRate:1

[Events]
//Background and Video events
0,0,"gunjyo-magumeru_L.jpg",0,-15
//Break Periods
2,85400,86700
//Storyboard Layer 0 (Background)
//Storyboard Layer 1 (Fail)
//Storyboard Layer 2 (Pass)
//Storyboard Layer 3 (Foreground)
//Storyboard Layer 4 (Overlay)
//Storyboard Sound Samples

[TimingPoints]
400,400,4,1,0,100,1,0
400,-66.6666666666667,4,1,0,100,0,0
7797,-65.0406504065041,4,1,0,100,0,0
7897,-63.2391070638083,4,1,0,100,0,0
7997,-61.5384615384615,4,1,0,100,0,0
8097,-59.9232981783317,4,1,0,100,0,0
8197,-58.3941605839416,4,1,0,100,0,0
8297,-56.9378807720777,4,1,0,100,0,0
8397,-55.5555555555556,4,1,0,100,0,0
13997,-56.6027056093281,4,1,0,100,0,0
14097,-57.6934171810996,4,1,0,100,0,0
14197,-58.8235294117647,4,1,0,100,0,0
14297,-59.9988000239995,4,1,0,100,0,0
14397,-61.2257393008021,4,1,0,100,0,0
14497,-62.5,4,1,0,100,0,0
14597,-63.8284291823578,4,1,0,100,0,0
14797,-66.6666666666667,4,1,0,95,0,0
15000,-71.4285714285714,4,1,0,95,0,0
16400,-71.4285714285714,4,1,0,90,0,0
20397,-69.6864111498258,4,1,0,90,0,0
20497,-68.4041316095492,4,1,0,90,0,0
20597,-67.1681891456206,4,1,0,95,0,0
20697,-65.9804697809448,4,1,0,95,0,0
20797,-64.8298217179903,4,1,0,95,0,0
21197,-60.6060606060606,4,1,0,100,0,0
21597,-74.0740740740741,4,1,0,100,0,0
21797,-72.3536647131177,4,1,0,100,0,0
21997,-70.7063565014495,4,1,0,100,0,0
22197,-69.1371681415929,4,1,0,100,0,0
22397,-67.6315433518193,4,1,0,100,0,0
22597,-66.1944793804197,4,1,0,100,0,0
22797,-64.8130144533022,4,1,0,100,0,0
22897,-64.1477965231894,4,1,0,100,0,0
22997,-63.4920634920635,4,1,0,100,0,0
23097,-62.8496009050343,4,1,0,100,0,0
23197,-62.2238815257296,4,1,0,100,0,0
23297,-61.6067028092656,4,1,0,100,0,0
23397,-61.0016470444702,4,1,0,100,0,0
23597,-59.8300825655139,4,1,0,100,0,0
23897,-58.1530588508956,4,1,0,100,0,0
24197,-56.5642853102551,4,1,0,100,0,0
24397,-55.5555555555556,4,1,0,100,0,0
29997,-56.6059096569682,4,1,0,100,0,0
30047,-57.1461226355792,4,1,0,100,0,0
30097,-57.6934171810996,4,1,0,100,0,0
30197,-58.8235294117647,4,1,0,100,0,0
30297,-60.0024000960038,4,1,0,100,0,0
30397,-61.2257393008021,4,1,0,100,0,0
30497,-62.5,4,1,0,100,0,0
30597,-63.8284291823578,4,1,0,100,0,0
30797,-66.6666666666667,4,1,0,100,0,0
32800,-64.9350649350649,4,1,0,100,0,0
32900,-63.2911392405063,4,1,0,100,0,0
33000,-61.7283950617284,4,1,0,100,0,0
33100,-60.2409638554217,4,1,0,100,0,0
33200,-58.8235294117647,4,1,0,100,0,0
33600,-60.2409638554217,4,1,0,100,0,0
33700,-61.7283950617284,4,1,0,100,0,0
33800,-63.2911392405063,4,1,0,100,0,0
33900,-64.9350649350649,4,1,0,100,0,0
34000,-66.6666666666667,4,1,0,100,0,0
34200,-55.5555555555556,4,1,0,100,0,0
35600,-66.6666666666667,4,1,0,90,0,0
37400,-55.5555555555556,4,1,0,100,0,0
38800,-58.8235294117647,4,1,0,90,0,0
39000,-62.5,4,1,0,90,0,0
39200,-66.6666666666667,4,1,0,90,0,0
39400,-71.4285714285714,4,1,0,90,0,0
39600,-58.8235294117647,4,1,0,100,0,0
41400,-76.9230769230769,4,1,0,95,0,0
45797,-75.6315232188776,4,1,0,95,0,0
45897,-74.5323097562793,4,1,0,95,0,0
45997,-73.4699875101021,4,1,0,95,0,0
46097,-72.4322758221063,4,1,0,95,0,0
46197,-71.4285714285714,4,1,0,95,0,0
46397,-69.4975328375843,4,1,0,95,0,0
46597,-67.6681553660847,4,1,0,95,0,0
46800,-66.6666666666667,4,1,0,100,0,0
47200,-76.9230769230769,4,1,0,100,0,0
48200,-66.6666666666667,4,1,0,100,0,0
48800,-76.9230769230769,4,1,0,100,0,0
49200,-66.6666666666667,4,1,0,100,0,0
51897,-74.0740740740741,4,1,0,100,0,0
51997,-72.6058229870036,4,1,0,100,0,0
52197,-69.8421567257997,4,1,0,100,0,0
52397,-67.2766415500538,4,1,0,100,0,0
52497,-66.0676532769556,4,1,0,100,0,0
52597,-64.8971380362126,4,1,0,100,0,0
52697,-63.7673766101263,4,1,0,100,0,0
52797,-62.6762770291445,4,1,0,100,0,0
52897,-61.6256855857521,4,1,0,100,0,0
52997,-60.6060606060606,4,1,0,100,0,0
53200,-57.1428571428571,4,1,0,100,0,0
54800,-55.5555555555556,4,1,0,100,0,1
67600,-71.4285714285714,4,1,0,100,0,0
76397,-69.23289947383,4,1,0,100,0,0
76497,-67.16593343856,4,1,0,100,0,0
76547,-66.1780520490379,4,1,0,100,0,0
76597,-65.2188091045458,4,1,0,100,0,0
76697,-63.3813975598162,4,1,0,100,0,0
76797,-61.6446800641105,4,1,0,100,0,0
76847,-60.8115298660626,4,1,0,100,0,0
76897,-60.0006000060001,4,1,0,100,0,0
76997,-58.4419379346619,4,1,0,100,0,0
77097,-56.9622055765999,4,1,0,100,0,0
77200,-55.5555555555556,4,1,0,100,0,1
80400,-55.5555555555556,4,1,0,100,0,0
81000,-62.5,4,1,0,100,0,0
90000,-66.6666666666667,4,1,0,100,0,0

[HitObjects]
419,179,400,5,12,0:0:0:0:
396,166,1000,1,8,0:0:0:0:
450,176,1200,1,4,0:0:0:0:
349,192,1600,1,0,0:0:0:0:
349,192,1800,1,0,0:0:0:0:
386,168,2000,1,12,0:0:0:0:
452,190,2600,1,8,0:0:0:0:
462,176,2800,1,4,0:0:0:0:
410,187,3200,1,8,0:0:0:0:
410,187,3400,1,8,0:0:0:0:
444,178,3600,1,4,0:0:0:0:
407,176,3800,1,0,0:0:0:0:
435,169,4000,1,8,0:0:0:0:
432,170,4200,1,8,0:0:0:0:
443,170,4400,1,0,0:0:0:0:
441,170,4500,1,0,0:0:0:0:
433,173,4600,1,0,0:0:0:0:
431,173,4700,1,0,0:0:0:0:
448,165,4800,1,8,0:0:0:0:
446,165,4900,1,8,0:0:0:0:
446,165,5000,1,8,0:0:0:0:
428,174,5200,1,4,0:0:0:0:
385,161,6600,1,4,0:0:0:0:
385,161,6800,1,4,0:0:0:0:
399,175,7600,1,4,0:0:0:0:
380,164,7800,1,8,0:0:0:0:
380,164,7900,1,8,0:0:0:0:
380,164,8000,1,8,0:0:0:0:
380,164,8100,1,8,0:0:0:0:
380,164,8200,1,8,0:0:0:0:
400,176,8300,1,8,0:0:0:0:
399,175,8400,1,4,0:0:0:0:
429,170,8600,1,8,0:0:0:0:
408,177,8800,1,0,0:0:0:0:
408,177,8900,1,0,0:0:0:0:
398,191,9000,1,8,0:0:0:0:
421,196,9100,1,0,0:0:0:0:
413,186,9200,1,8,0:0:0:0:
366,197,9250,1,8,0:0:0:0:
432,176,9300,1,0,0:0:0:0:
480,176,9400,1,8,0:0:0:0:
442,182,9500,1,8,0:0:0:0:
356,168,9550,1,0,0:0:0:0:
448,189,9600,1,0,0:0:0:0:
400,192,9700,1,0,0:0:0:0:
437,173,9800,1,8,0:0:0:0:
397,188,9900,1,8,0:0:0:0:
421,167,10000,1,0,0:0:0:0:
422,174,10200,1,8,0:0:0:0:
352,144,10400,1,0,0:0:0:0:
416,174,10500,1,0,0:0:0:0:
436,161,10600,1,8,0:0:0:0:
460,175,10700,1,0,0:0:0:0:
442,179,10800,1,8,0:0:0:0:
376,184,10850,1,8,0:0:0:0:
434,220,10900,1,0,0:0:0:0:
464,176,11000,1,8,0:0:0:0:
345,179,11100,1,8,0:0:0:0:
356,168,11150,1,0,0:0:0:0:
433,180,11200,1,0,0:0:0:0:
431,168,11300,1,0,0:0:0:0:
421,164,11400,1,8,0:0:0:0:
432,240,11500,1,8,0:0:0:0:
442,173,11600,1,0,0:0:0:0:
384,160,11800,1,8,0:0:0:0:
368,160,12000,1,0,0:0:0:0:
368,160,12100,1,0,0:0:0:0:
431,168,12200,1,8,0:0:0:0:
429,184,12300,1,0,0:0:0:0:
446,167,12400,1,8,0:0:0:0:
361,206,12450,1,8,0:0:0:0:
352,176,12500,1,0,0:0:0:0:
432,192,12600,1,8,0:0:0:0:
369,177,12700,1,0,0:0:0:0:
336,177,12750,1,8,0:0:0:0:
448,161,12800,1,0,0:0:0:0:
400,176,12900,1,0,0:0:0:0:
416,160,13000,1,8,0:0:0:0:
448,174,13100,1,0,0:0:0:0:
405,178,13200,1,8,0:0:0:0:
448,161,13250,1,8,0:0:0:0:
405,178,13300,1,8,0:0:0:0:
405,178,13400,1,8,0:0:0:0:
467,180,13500,1,0,0:0:0:0:
466,197,13600,1,8,0:0:0:0:
466,197,13650,1,8,0:0:0:0:
416,177,13700,1,8,0:0:0:0:
480,160,13800,1,8,0:0:0:0:
440,182,13900,1,0,0:0:0:0:
416,169,14000,1,8,0:0:0:0:
444,184,14100,1,0,0:0:0:0:
421,176,14200,1,8,0:0:0:0:
421,176,14300,1,8,0:0:0:0:
463,164,14400,1,0,0:0:0:0:
368,176,14500,1,0,0:0:0:0:
416,176,14600,1,8,0:0:0:0:
352,176,14800,1,4,0:0:0:0:
464,176,15200,1,8,0:0:0:0:
432,160,15400,1,0,0:0:0:0:
440,198,15500,1,0,0:0:0:0:
464,176,15600,1,8,0:0:0:0:
464,160,15800,1,0,0:0:0:0:
448,176,15900,1,8,0:0:0:0:
438,170,16100,1,8,0:0:0:0:
423,173,16200,1,0,0:0:0:0:
420,173,16300,1,0,0:0:0:0:
428,176,16400,1,8,0:0:0:0:
470,176,16600,1,0,0:0:0:0:
448,176,16800,1,8,0:0:0:0:
454,164,16900,1,8,0:0:0:0:
464,176,17000,1,0,0:0:0:0:
320,144,17100,1,0,0:0:0:0:
400,192,17200,1,8,0:0:0:0:
432,192,17400,1,0,0:0:0:0:
432,176,17500,1,8,0:0:0:0:
403,174,17700,1,8,0:0:0:0:
470,156,17800,1,0,0:0:0:0:
416,176,18000,1,0,0:0:0:0:
382,183,18400,1,0,0:0:0:0:
397,194,18600,1,8,0:0:0:0:
423,186,18700,1,0,0:0:0:0:
448,176,18800,1,8,0:0:0:0:
426,167,18900,1,8,0:0:0:0:
451,161,19000,1,0,0:0:0:0:
432,176,19100,1,0,0:0:0:0:
432,160,19200,1,8,0:0:0:0:
407,178,19400,1,8,0:0:0:0:
310,176,19600,1,0,0:0:0:0:
469,157,19800,1,0,0:0:0:0:
469,157,19900,1,0,0:0:0:0:
448,176,20000,1,8,0:0:0:0:
428,247,20200,1,8,0:0:0:0:
410,172,20400,1,8,0:0:0:0:
458,170,20500,1,0,0:0:0:0:
448,160,20600,1,0,0:0:0:0:
448,160,20700,1,0,0:0:0:0:
480,176,20800,1,8,0:0:0:0:
448,176,21200,1,4,0:0:0:0:
400,160,21600,1,0,0:0:0:0:
368,128,21800,1,8,0:0:0:0:
432,176,22000,1,0,0:0:0:0:
400,176,22200,1,0,0:0:0:0:
416,160,22400,1,8,0:0:0:0:
416,176,22600,1,0,0:0:0:0:
432,160,22800,1,8,0:0:0:0:
432,152,22900,1,0,0:0:0:0:
464,176,23000,1,8,0:0:0:0:
391,162,23100,1,8,0:0:0:0:
432,176,23200,1,0,0:0:0:0:
432,192,23300,1,0,0:0:0:0:
464,176,23400,1,8,0:0:0:0:
416,160,23600,1,12,0:0:0:0:
416,160,23900,1,12,0:0:0:0:
416,176,24200,1,4,0:0:0:0:
416,176,24400,1,12,0:0:0:0:
429,183,24600,1,0,0:0:0:0:
429,182,24800,1,0,0:0:0:0:
479,165,24900,1,0,0:0:0:0:
472,162,25000,1,8,0:0:0:0:
407,151,25100,1,0,0:0:0:0:
447,166,25200,1,8,0:0:0:0:
433,176,25300,1,0,0:0:0:0:
417,164,25350,1,0,0:0:0:0:
471,173,25400,1,8,0:0:0:0:
410,145,25500,1,0,0:0:0:0:
472,177,25600,1,8,0:0:0:0:
472,177,25650,1,8,0:0:0:0:
490,175,25700,1,0,0:0:0:0:
445,170,25800,1,8,0:0:0:0:
423,171,25900,1,8,0:0:0:0:
377,165,26000,1,0,0:0:0:0:
402,170,26200,1,8,0:0:0:0:
440,179,26400,1,0,0:0:0:0:
440,179,26500,1,0,0:0:0:0:
427,175,26600,1,8,0:0:0:0:
415,169,26700,1,0,0:0:0:0:
406,174,26800,1,8,0:0:0:0:
480,160,26850,1,8,0:0:0:0:
409,174,26900,1,0,0:0:0:0:
397,175,27000,1,8,0:0:0:0:
395,169,27100,1,0,0:0:0:0:
432,160,27150,1,8,0:0:0:0:
432,160,27200,1,0,0:0:0:0:
383,172,27300,1,0,0:0:0:0:
436,173,27400,1,8,0:0:0:0:
448,174,27500,1,8,0:0:0:0:
448,179,27600,1,0,0:0:0:0:
387,171,27800,1,8,0:0:0:0:
393,168,28000,1,0,0:0:0:0:
395,169,28100,1,0,0:0:0:0:
437,168,28200,1,8,0:0:0:0:
391,166,28300,1,0,0:0:0:0:
409,165,28400,1,8,0:0:0:0:
433,164,28450,1,8,0:0:0:0:
432,166,28500,1,0,0:0:0:0:
422,148,28600,1,8,0:0:0:0:
460,183,28700,1,0,0:0:0:0:
394,184,28800,1,8,0:0:0:0:
423,170,28850,1,8,0:0:0:0:
377,188,28900,1,0,0:0:0:0:
446,176,29000,1,8,0:0:0:0:
430,165,29100,1,0,0:0:0:0:
426,155,29200,1,8,0:0:0:0:
436,169,29400,1,0,0:0:0:0:
436,169,29500,1,0,0:0:0:0:
417,170,29600,1,8,0:0:0:0:
417,170,29700,1,8,0:0:0:0:
445,161,29800,1,0,0:0:0:0:
445,161,29900,1,0,0:0:0:0:
464,160,30000,1,8,0:0:0:0:
429,179,30050,1,8,0:0:0:0:
464,160,30100,1,8,0:0:0:0:
429,158,30200,1,0,0:0:0:0:
429,158,30300,1,0,0:0:0:0:
370,158,30400,1,8,0:0:0:0:
432,176,30500,1,0,0:0:0:0:
448,176,30600,1,8,0:0:0:0:
400,176,30800,5,4,0:0:0:0:
416,176,31200,1,8,0:0:0:0:
400,144,31600,1,4,0:0:0:0:
400,176,32000,1,0,0:0:0:0:
400,176,32400,1,12,0:0:0:0:
432,192,32800,1,8,0:0:0:0:
432,192,32900,1,8,0:0:0:0:
432,192,33000,1,8,0:0:0:0:
432,192,33100,1,8,0:0:0:0:
384,160,33200,1,4,0:0:0:0:
400,192,33600,1,0,0:0:0:0:
400,192,33700,1,0,0:0:0:0:
448,160,33800,1,8,0:0:0:0:
448,192,33900,1,8,0:0:0:0:
416,256,34000,1,0,0:0:0:0:
432,160,34200,1,12,0:0:0:0:
432,160,34400,1,12,0:0:0:0:
464,176,34600,1,0,0:0:0:0:
464,176,34700,1,0,0:0:0:0:
432,208,34800,1,12,0:0:0:0:
384,160,34900,1,0,0:0:0:0:
432,128,34950,1,0,0:0:0:0:
384,160,35000,1,0,0:0:0:0:
384,160,35100,1,12,0:0:0:0:
400,176,35300,1,0,0:0:0:0:
448,160,35400,1,12,0:0:0:0:
448,176,35800,1,8,0:0:0:0:
448,176,36000,1,0,0:0:0:0:
448,192,36100,1,8,0:0:0:0:
448,176,36200,1,8,0:0:0:0:
432,256,36400,1,8,0:0:0:0:
432,160,36600,1,0,0:0:0:0:
416,176,36666,1,8,0:0:0:0:
416,176,36733,1,8,0:0:0:0:
448,176,36800,1,0,0:0:0:0:
448,176,37000,1,8,0:0:0:0:
400,160,37200,1,0,0:0:0:0:
480,144,37400,1,12,0:0:0:0:
480,144,37600,1,12,0:0:0:0:
432,160,37800,1,0,0:0:0:0:
432,160,37900,1,0,0:0:0:0:
464,176,38000,1,12,0:0:0:0:
432,160,38200,1,0,0:0:0:0:
448,176,38300,1,12,0:0:0:0:
464,176,38400,1,0,0:0:0:0:
464,176,38450,1,0,0:0:0:0:
448,160,38500,1,0,0:0:0:0:
432,160,38600,1,12,0:0:0:0:
448,160,39000,1,8,0:0:0:0:
464,176,39200,1,0,0:0:0:0:
432,176,39400,1,8,0:0:0:0:
416,160,39600,1,4,0:0:0:0:
432,176,39900,1,12,0:0:0:0:
432,192,40200,1,4,0:0:0:0:
256,192,40300,12,0,41200,0:0:0:0:
432,176,41400,5,8,0:0:0:0:
368,160,41600,1,0,0:0:0:0:
432,192,41700,1,0,0:0:0:0:
448,160,41800,1,8,0:0:0:0:
448,160,41900,1,8,0:0:0:0:
416,160,42000,1,0,0:0:0:0:
384,240,42200,1,0,0:0:0:0:
416,160,42400,1,8,0:0:0:0:
368,160,42600,1,0,0:0:0:0:
400,176,42700,1,8,0:0:0:0:
400,160,42800,1,0,0:0:0:0:
400,160,43000,1,0,0:0:0:0:
448,160,43200,1,8,0:0:0:0:
448,192,43400,1,8,0:0:0:0:
416,160,43600,1,0,0:0:0:0:
432,176,44000,1,0,0:0:0:0:
416,192,44200,1,8,0:0:0:0:
432,192,44300,1,8,0:0:0:0:
432,176,44400,1,0,0:0:0:0:
416,176,44600,1,0,0:0:0:0:
432,176,44800,1,8,0:0:0:0:
432,176,44900,1,8,0:0:0:0:
432,176,45000,1,8,0:0:0:0:
416,192,45100,1,8,0:0:0:0:
416,176,45200,1,0,0:0:0:0:
448,192,45400,1,8,0:0:0:0:
448,160,45600,1,0,0:0:0:0:
448,176,45800,1,0,0:0:0:0:
448,192,45900,1,0,0:0:0:0:
448,160,46000,1,8,0:0:0:0:
416,192,46100,1,8,0:0:0:0:
384,176,46200,1,0,0:0:0:0:
448,160,46400,1,8,0:0:0:0:
400,272,46600,1,8,0:0:0:0:
384,176,46800,1,4,0:0:0:0:
448,160,47200,1,8,0:0:0:0:
496,176,48000,1,8,0:0:0:0:
416,160,48200,1,4,0:0:0:0:
416,160,48400,1,4,0:0:0:0:
448,160,48800,1,8,0:0:0:0:
448,176,49200,1,4,0:0:0:0:
448,176,49500,1,4,0:0:0:0:
448,176,49800,1,4,0:0:0:0:
448,192,50000,1,12,0:0:0:0:
448,160,50200,1,0,0:0:0:0:
448,160,50300,1,0,0:0:0:0:
432,160,50400,1,8,0:0:0:0:
480,160,50600,1,0,0:0:0:0:
432,144,50800,1,8,0:0:0:0:
432,144,50900,1,8,0:0:0:0:
416,160,51000,1,0,0:0:0:0:
416,160,51100,1,0,0:0:0:0:
432,160,51200,1,8,0:0:0:0:
416,160,51400,1,8,0:0:0:0:
480,176,51600,1,4,0:0:0:0:
400,176,51900,1,0,0:0:0:0:
480,160,52000,1,8,0:0:0:0:
432,176,52200,1,8,0:0:0:0:
422,152,52400,1,8,0:0:0:0:
425,176,52500,1,0,0:0:0:0:
431,168,52600,1,8,0:0:0:0:
431,168,52700,1,8,0:0:0:0:
447,159,52800,1,0,0:0:0:0:
447,159,52900,1,0,0:0:0:0:
423,153,53000,1,8,0:0:0:0:
496,128,53200,1,12,0:0:0:0:
464,160,53500,1,12,0:0:0:0:
464,160,53800,1,12,0:0:0:0:
448,144,54000,1,4,0:0:0:0:
384,176,54800,1,4,0:0:0:0:
464,176,55000,1,8,0:0:0:0:
416,160,55200,1,0,0:0:0:0:
416,160,55300,1,0,0:0:0:0:
400,240,55350,1,0,0:0:0:0:
416,160,55400,1,8,0:0:0:0:
447,165,55500,1,0,0:0:0:0:
416,160,55600,1,8,0:0:0:0:
400,144,55650,1,0,0:0:0:0:
448,176,55700,1,0,0:0:0:0:
432,160,55800,1,8,0:0:0:0:
448,165,55900,1,0,0:0:0:0:
432,167,56000,1,8,0:0:0:0:
416,160,56050,1,8,0:0:0:0:
448,160,56100,1,0,0:0:0:0:
384,160,56200,1,8,0:0:0:0:
416,176,56300,1,0,0:0:0:0:
432,176,56400,1,8,0:0:0:0:
432,160,56600,1,0,0:0:0:0:
438,174,56700,1,0,0:0:0:0:
384,176,56800,1,8,0:0:0:0:
448,176,56850,1,8,0:0:0:0:
432,160,56900,1,0,0:0:0:0:
448,176,57000,1,8,0:0:0:0:
448,176,57100,1,0,0:0:0:0:
416,160,57200,1,8,0:0:0:0:
448,192,57250,1,0,0:0:0:0:
464,176,57300,1,0,0:0:0:0:
400,192,57400,1,8,0:0:0:0:
448,176,57500,1,0,0:0:0:0:
352,144,57600,1,8,0:0:0:0:
448,183,57650,1,8,0:0:0:0:
368,176,57700,1,0,0:0:0:0:
464,192,57750,1,0,0:0:0:0:
448,160,57800,1,8,0:0:0:0:
432,176,57900,1,0,0:0:0:0:
448,160,58000,1,8,0:0:0:0:
448,176,58200,1,0,0:0:0:0:
431,179,58300,1,0,0:0:0:0:
423,168,58400,1,8,0:0:0:0:
384,176,58500,1,8,0:0:0:0:
384,176,58550,1,8,0:0:0:0:
416,176,58600,1,0,0:0:0:0:
432,192,58700,1,8,0:0:0:0:
464,176,58800,1,0,0:0:0:0:
480,176,58900,1,0,0:0:0:0:
480,176,58950,1,0,0:0:0:0:
448,160,59000,1,8,0:0:0:0:
448,176,59100,1,8,0:0:0:0:
448,176,59200,1,0,0:0:0:0:
432,160,59300,1,0,0:0:0:0:
448,208,59350,1,0,0:0:0:0:
384,160,59400,1,8,0:0:0:0:
416,160,59500,1,0,0:0:0:0:
384,160,59600,1,8,0:0:0:0:
448,176,59800,1,0,0:0:0:0:
400,224,59900,1,0,0:0:0:0:
400,176,60000,1,8,0:0:0:0:
448,176,60050,1,8,0:0:0:0:
384,160,60100,1,0,0:0:0:0:
400,160,60200,1,8,0:0:0:0:
432,176,60300,1,0,0:0:0:0:
448,176,60400,1,8,0:0:0:0:
432,160,60450,1,0,0:0:0:0:
448,160,60500,1,0,0:0:0:0:
416,176,60600,1,8,0:0:0:0:
416,176,60700,1,0,0:0:0:0:
381,200,60750,1,0,0:0:0:0:
416,160,60800,1,8,0:0:0:0:
464,175,60850,1,8,0:0:0:0:
448,176,60900,1,0,0:0:0:0:
400,176,61000,1,8,0:0:0:0:
464,176,61100,1,8,0:0:0:0:
448,160,61200,1,4,0:0:0:0:
352,128,61400,1,0,0:0:0:0:
480,192,61600,1,8,0:0:0:0:
448,176,61650,1,8,0:0:0:0:
429,196,61700,1,8,0:0:0:0:
429,196,61750,1,8,0:0:0:0:
407,189,61800,1,0,0:0:0:0:
448,192,61900,1,0,0:0:0:0:
448,176,62000,1,8,0:0:0:0:
394,194,62050,1,8,0:0:0:0:
400,160,62100,1,0,0:0:0:0:
419,183,62200,1,8,0:0:0:0:
424,175,62300,1,0,0:0:0:0:
377,185,62350,1,0,0:0:0:0:
449,181,62400,1,8,0:0:0:0:
448,224,62500,1,0,0:0:0:0:
464,176,62600,1,8,0:0:0:0:
416,224,62700,1,8,0:0:0:0:
448,160,62800,1,0,0:0:0:0:
448,160,63000,1,0,0:0:0:0:
464,176,63200,1,8,0:0:0:0:
443,171,63250,1,8,0:0:0:0:
416,176,63300,1,8,0:0:0:0:
437,171,63350,1,8,0:0:0:0:
372,168,63400,1,0,0:0:0:0:
385,176,63500,1,0,0:0:0:0:
401,171,63600,1,8,0:0:0:0:
426,162,63700,1,0,0:0:0:0:
373,191,63750,1,0,0:0:0:0:
400,176,63800,1,8,0:0:0:0:
431,182,63900,1,8,0:0:0:0:
442,182,63950,1,8,0:0:0:0:
422,168,64000,1,0,0:0:0:0:
432,192,64100,1,0,0:0:0:0:
432,176,64200,1,8,0:0:0:0:
462,171,64400,1,0,0:0:0:0:
451,155,64500,1,8,0:0:0:0:
451,155,64550,1,8,0:0:0:0:
481,175,64600,1,0,0:0:0:0:
424,173,64700,1,8,0:0:0:0:
408,151,64800,1,0,0:0:0:0:
408,151,64850,1,0,0:0:0:0:
503,183,64900,1,8,0:0:0:0:
503,183,64950,1,8,0:0:0:0:
483,176,65000,1,0,0:0:0:0:
435,171,65100,1,8,0:0:0:0:
432,160,65200,1,0,0:0:0:0:
474,168,65300,1,8,0:0:0:0:
449,165,65350,1,0,0:0:0:0:
449,165,65400,1,0,0:0:0:0:
421,186,65500,1,8,0:0:0:0:
386,198,65550,1,8,0:0:0:0:
379,182,65600,1,0,0:0:0:0:
410,162,65650,1,0,0:0:0:0:
433,162,65700,1,8,0:0:0:0:
425,165,65800,1,0,0:0:0:0:
460,173,65900,1,8,0:0:0:0:
443,157,66000,1,0,0:0:0:0:
459,178,66100,1,0,0:0:0:0:
432,160,66200,1,0,0:0:0:0:
400,160,66300,1,0,0:0:0:0:
448,160,66400,1,8,0:0:0:0:
432,160,66500,5,8,0:0:0:0:
432,160,66600,1,8,0:0:0:0:
432,160,66700,1,8,0:0:0:0:
448,176,66800,1,0,0:0:0:0:
368,224,66900,1,0,0:0:0:0:
448,176,67000,1,0,0:0:0:0:
448,176,67100,1,0,0:0:0:0:
400,160,67200,1,8,0:0:0:0:
417,163,67600,5,4,0:0:0:0:
413,179,67900,1,8,0:0:0:0:
461,167,68000,1,0,0:0:0:0:
410,178,68200,1,8,0:0:0:0:
387,172,68400,1,0,0:0:0:0:
413,166,68500,1,8,0:0:0:0:
434,159,68700,1,8,0:0:0:0:
416,176,68800,1,0,0:0:0:0:
466,176,68900,1,0,0:0:0:0:
421,150,69000,1,8,0:0:0:0:
421,170,69200,1,0,0:0:0:0:
439,152,69400,1,0,0:0:0:0:
411,171,69600,1,8,0:0:0:0:
456,162,69700,1,0,0:0:0:0:
432,160,69800,1,8,0:0:0:0:
432,160,69900,1,8,0:0:0:0:
421,150,70000,1,0,0:0:0:0:
456,185,70200,1,0,0:0:0:0:
436,180,70300,1,8,0:0:0:0:
441,175,70400,1,0,0:0:0:0:
454,157,70500,1,0,0:0:0:0:
439,148,70600,1,8,0:0:0:0:
452,168,70800,1,0,0:0:0:0:
408,178,71100,1,8,0:0:0:0:
437,172,71200,1,0,0:0:0:0:
420,175,71400,1,0,0:0:0:0:
450,180,71600,1,8,0:0:0:0:
443,159,71700,1,8,0:0:0:0:
430,159,71900,1,8,0:0:0:0:
445,145,72000,1,0,0:0:0:0:
468,171,72100,1,8,0:0:0:0:
436,164,72200,1,0,0:0:0:0:
407,158,72400,1,8,0:0:0:0:
416,170,72600,1,0,0:0:0:0:
410,182,72700,1,8,0:0:0:0:
458,163,72800,1,0,0:0:0:0:
479,170,73000,1,8,0:0:0:0:
428,168,73100,1,0,0:0:0:0:
417,155,73200,1,8,0:0:0:0:
401,157,73300,1,8,0:0:0:0:
485,159,73400,1,0,0:0:0:0:
469,162,73600,1,8,0:0:0:0:
434,162,73800,1,8,0:0:0:0:
425,143,74000,1,4,0:0:0:0:
416,160,74300,1,8,0:0:0:0:
432,176,74400,1,0,0:0:0:0:
416,160,74600,1,8,0:0:0:0:
320,160,74800,1,4,0:0:0:0:
400,160,75200,1,0,0:0:0:0:
448,160,75400,1,8,0:0:0:0:
448,160,75500,1,8,0:0:0:0:
400,176,75600,1,4,0:0:0:0:
448,192,75800,1,0,0:0:0:0:
384,176,75900,1,8,0:0:0:0:
480,176,76000,1,0,0:0:0:0:
480,176,76100,1,0,0:0:0:0:
416,160,76200,1,8,0:0:0:0:
432,176,76400,1,8,0:0:0:0:
432,240,76500,1,0,0:0:0:0:
361,168,76550,1,0,0:0:0:0:
464,192,76600,1,0,0:0:0:0:
432,176,76700,1,8,0:0:0:0:
400,176,76800,1,0,0:0:0:0:
374,190,76850,1,0,0:0:0:0:
464,160,76900,1,0,0:0:0:0:
448,160,77000,1,8,0:0:0:0:
464,176,77100,1,8,0:0:0:0:
448,160,77200,1,4,0:0:0:0:
448,176,77400,1,0,0:0:0:0:
448,176,77500,1,0,0:0:0:0:
432,176,77600,1,8,0:0:0:0:
438,169,77700,1,8,0:0:0:0:
432,160,77800,1,0,0:0:0:0:
398,174,77900,1,0,0:0:0:0:
453,168,78000,1,8,0:0:0:0:
480,192,78100,1,0,0:0:0:0:
453,194,78150,1,0,0:0:0:0:
424,173,78200,1,8,0:0:0:0:
376,140,78300,1,0,0:0:0:0:
464,171,78400,1,8,0:0:0:0:
463,171,78450,1,8,0:0:0:0:
450,171,78500,1,0,0:0:0:0:
404,144,78600,1,8,0:0:0:0:
432,176,78700,1,0,0:0:0:0:
432,160,78800,1,8,0:0:0:0:
424,173,78850,1,0,0:0:0:0:
424,173,78900,1,0,0:0:0:0:
433,157,79000,1,8,0:0:0:0:
464,176,79100,1,0,0:0:0:0:
464,176,79200,1,8,0:0:0:0:
454,161,79250,1,8,0:0:0:0:
410,183,79300,1,0,0:0:0:0:
397,122,79400,1,8,0:0:0:0:
410,183,79500,1,0,0:0:0:0:
437,153,79600,1,8,0:0:0:0:
437,153,79650,1,8,0:0:0:0:
437,153,79700,1,8,0:0:0:0:
436,175,79750,1,8,0:0:0:0:
455,165,79800,1,0,0:0:0:0:
413,164,79900,1,8,0:0:0:0:
413,164,79950,1,8,0:0:0:0:
391,144,80000,1,0,0:0:0:0:
432,160,80100,1,8,0:0:0:0:
400,208,80200,1,0,0:0:0:0:
432,160,80400,1,12,0:0:0:0:
407,175,81000,1,8,0:0:0:0:
496,176,81200,1,4,0:0:0:0:
449,169,81600,1,0,0:0:0:0:
435,169,81800,1,0,0:0:0:0:
460,164,82000,1,12,0:0:0:0:
458,182,82600,1,8,0:0:0:0:
452,168,82800,1,4,0:0:0:0:
458,150,83200,1,8,0:0:0:0:
458,150,83400,1,8,0:0:0:0:
439,150,83600,1,4,0:0:0:0:
485,164,83800,1,0,0:0:0:0:
439,150,84000,1,8,0:0:0:0:
439,150,84200,1,8,0:0:0:0:
423,167,84400,1,0,0:0:0:0:
423,167,84500,1,0,0:0:0:0:
427,198,84600,1,0,0:0:0:0:
427,198,84700,1,0,0:0:0:0:
453,181,84800,1,8,0:0:0:0:
453,181,84900,1,8,0:0:0:0:
453,181,85000,1,8,0:0:0:0:
416,173,85200,1,4,0:0:0:0:
448,208,87900,5,0,0:0:0:0:
448,208,87950,1,0,0:0:0:0:
448,208,88000,1,0,0:0:0:0:
433,179,88400,1,12,0:0:0:0:
256,192,88500,12,0,89900,0:0:0:0:
318,201,90000,5,0,0:0:0:0:
318,201,90066,1,0,0:0:0:0:
318,201,90133,1,0,0:0:0:0:
318,201,90200,1,0,0:0:0:0:
