osu file format v14

[General]
AudioFilename: audio.mp3
AudioLeadIn: 0
PreviewTime: 53975
Countdown: 0
SampleSet: Normal
StackLeniency: 0.7
Mode: 1
LetterboxInBreaks: 0
WidescreenStoryboard: 1

[Editor]
DistanceSpacing: 1.3
BeatDivisor: 4
GridSize: 16
TimelineZoom: 2.150004

[Metadata]
Title:Dash & Daaash!! (TV Size)
TitleUnicode:Dash&Daaash!! (TV Size)
Artist:Fudanjuku
ArtistUnicode:風男塾
Creator:iloveyou4ever
Version:Oni
Source:群青のマグメル
Tags:dash and daaash q-mhz fanfare gunjou no magumeru ultramarine magmell anime opening op short version ver female vocalist japanese jpop j-pop pop
BeatmapID:4352479
BeatmapSetID:2078023

[Difficulty]
HPDrainRate:5.5
CircleSize:5
OverallDifficulty:5.5
ApproachRate:5
SliderMultiplier:1.4
SliderTickRate:1

[Events]
//Background and Video events
0,0,"gunjyo-magumeru_L.jpg",0,-15
//Break Periods
2,85400,86800
//Storyboard Layer 0 (Background)
//Storyboard Layer 1 (Fail)
//Storyboard Layer 2 (Pass)
//Storyboard Layer 3 (Foreground)
//Storyboard Layer 4 (Overlay)
//Storyboard Sound Samples

[TimingPoints]
400,400,4,1,0,100,1,0
7797,-100,4,1,0,100,0,0
7897,-100,4,1,0,100,0,0
7997,-100,4,1,0,100,0,0
8097,-100,4,1,0,100,0,0
8197,-100,4,1,0,100,0,0
8297,-100,4,1,0,100,0,0
8397,-100,4,1,0,100,0,0
13997,-100,4,1,0,100,0,0
14097,-100,4,1,0,100,0,0
14197,-100,4,1,0,100,0,0
14297,-100,4,1,0,100,0,0
14397,-100,4,1,0,100,0,0
14497,-100,4,1,0,100,0,0
14597,-100,4,1,0,100,0,0
14797,-100,4,1,0,95,0,0
16400,-100,4,1,0,90,0,0
20497,-100,4,1,0,95,0,0
20597,-100,4,1,0,95,0,0
20697,-100,4,1,0,95,0,0
20797,-100,4,1,0,95,0,0
21197,-100,4,1,0,100,0,0
21597,-100,4,1,0,100,0,0
21797,-100,4,1,0,100,0,0
21997,-100,4,1,0,100,0,0
22197,-100,4,1,0,100,0,0
22397,-100,4,1,0,100,0,0
22597,-100,4,1,0,100,0,0
22797,-100,4,1,0,100,0,0
22997,-100,4,1,0,100,0,0
23197,-100,4,1,0,100,0,0
23297,-100,4,1,0,100,0,0
23397,-100,4,1,0,100,0,0
23497,-100,4,1,0,100,0,0
23597,-100,4,1,0,100,0,0
23897,-100,4,1,0,100,0,0
24197,-100,4,1,0,100,0,0
24397,-100,4,1,0,100,0,0
30000,-100,4,1,0,100,0,0
30100,-100,4,1,0,100,0,0
30200,-100,4,1,0,100,0,0
30300,-100,4,1,0,100,0,0
30400,-100,4,1,0,100,0,0
30500,-100,4,1,0,100,0,0
30600,-100,4,1,0,100,0,0
30800,-100,4,1,0,100,0,0
32797,-100,4,1,0,100,0,0
32897,-100,4,1,0,100,0,0
32997,-100,4,1,0,100,0,0
33097,-100,4,1,0,100,0,0
33197,-100,4,1,0,100,0,0
33600,-100,4,1,0,100,0,0
33700,-100,4,1,0,100,0,0
33800,-100,4,1,0,100,0,0
33900,-100,4,1,0,100,0,0
34000,-100,4,1,0,100,0,0
34200,-100,4,1,0,100,0,0
35600,-100,4,1,0,90,0,0
37400,-100,4,1,0,100,0,0
38800,-100,4,1,0,90,0,0
39600,-100,4,1,0,100,0,0
40600,-111.111111111111,4,1,0,95,0,0
45797,-111.111111111111,4,1,0,95,0,0
45897,-111.111111111111,4,1,0,95,0,0
45997,-108.695652173913,4,1,0,95,0,0
46197,-106.382978723404,4,1,0,95,0,0
46397,-104.166666666667,4,1,0,95,0,0
46597,-102.040816326531,4,1,0,95,0,0
46800,-100,4,1,0,100,0,0
51997,-100,4,1,0,100,0,0
52197,-100,4,1,0,100,0,0
52397,-100,4,1,0,100,0,0
52497,-100,4,1,0,100,0,0
52597,-100,4,1,0,100,0,0
52697,-100,4,1,0,100,0,0
52797,-100,4,1,0,100,0,0
52897,-100,4,1,0,100,0,0
52997,-100,4,1,0,100,0,0
53197,-100,4,1,0,100,0,0
54800,-100,4,1,0,100,0,1
67600,-100,4,1,0,100,0,0
76397,-100,4,1,0,100,0,0
76497,-100,4,1,0,100,0,0
76597,-100,4,1,0,100,0,0
76697,-100,4,1,0,100,0,0
76797,-100,4,1,0,100,0,0
76897,-100,4,1,0,100,0,0
76997,-100,4,1,0,100,0,0
77097,-100,4,1,0,100,0,0
77200,-100,4,1,0,100,0,1
80400,-100,4,1,0,100,0,0
81000,-100,4,1,0,100,0,0

[HitObjects]
419,179,400,5,12,0:0:0:0:
450,176,1200,1,4,0:0:0:0:
428,171,2000,1,12,0:0:0:0:
462,176,2800,1,4,0:0:0:0:
456,167,3600,1,4,0:0:0:0:
345,185,3800,1,0,0:0:0:0:
442,178,4000,1,8,0:0:0:0:
442,178,4200,1,8,0:0:0:0:
399,183,4400,1,0,0:0:0:0:
431,173,4500,1,0,0:0:0:0:
431,173,4600,1,0,0:0:0:0:
436,182,4800,1,8,0:0:0:0:
422,268,5000,1,0,0:0:0:0:
426,153,5200,1,12,0:0:0:0:
385,161,6600,1,4,0:0:0:0:
385,161,6800,1,4,0:0:0:0:
399,175,7600,1,4,0:0:0:0:
380,164,7800,1,8,0:0:0:0:
380,164,7900,1,8,0:0:0:0:
380,164,8000,1,8,0:0:0:0:
380,164,8100,1,8,0:0:0:0:
380,164,8200,1,8,0:0:0:0:
399,175,8400,1,4,0:0:0:0:
429,170,8600,1,8,0:0:0:0:
408,177,8800,1,0,0:0:0:0:
408,177,8900,1,0,0:0:0:0:
398,191,9000,1,8,0:0:0:0:
448,176,9200,1,0,0:0:0:0:
480,176,9400,1,8,0:0:0:0:
448,160,9500,1,0,0:0:0:0:
437,173,9800,1,8,0:0:0:0:
421,167,10000,1,0,0:0:0:0:
422,174,10200,1,8,0:0:0:0:
352,144,10400,1,0,0:0:0:0:
416,174,10500,1,0,0:0:0:0:
436,161,10600,1,8,0:0:0:0:
327,144,10800,1,0,0:0:0:0:
464,176,11000,1,8,0:0:0:0:
464,160,11100,1,0,0:0:0:0:
421,164,11400,1,8,0:0:0:0:
442,173,11600,1,0,0:0:0:0:
384,160,11800,1,8,0:0:0:0:
368,160,12000,1,0,0:0:0:0:
368,160,12100,1,0,0:0:0:0:
431,168,12200,1,8,0:0:0:0:
352,176,12400,1,0,0:0:0:0:
432,192,12600,1,8,0:0:0:0:
400,176,12700,1,0,0:0:0:0:
378,153,13000,1,0,0:0:0:0:
378,178,13200,1,12,0:0:0:0:
460,165,13400,1,0,0:0:0:0:
416,192,13500,1,8,0:0:0:0:
348,142,13700,1,0,0:0:0:0:
480,160,13800,1,8,0:0:0:0:
400,160,14000,1,8,0:0:0:0:
368,160,14100,1,0,0:0:0:0:
416,176,14200,1,8,0:0:0:0:
416,176,14300,1,8,0:0:0:0:
400,160,14400,1,0,0:0:0:0:
416,176,14600,1,8,0:0:0:0:
352,176,14800,1,4,0:0:0:0:
432,160,15400,1,0,0:0:0:0:
464,176,15600,1,8,0:0:0:0:
464,160,15800,1,0,0:0:0:0:
448,176,15900,1,8,0:0:0:0:
489,186,16100,1,8,0:0:0:0:
372,175,16200,1,0,0:0:0:0:
361,181,16400,1,8,0:0:0:0:
417,162,17000,1,8,0:0:0:0:
474,149,17200,1,0,0:0:0:0:
432,192,17400,1,0,0:0:0:0:
449,176,17500,1,8,0:0:0:0:
398,193,17700,1,8,0:0:0:0:
392,185,17800,1,0,0:0:0:0:
416,176,18000,1,0,0:0:0:0:
416,176,18600,1,8,0:0:0:0:
416,192,18800,1,8,0:0:0:0:
451,161,19000,1,0,0:0:0:0:
480,160,19100,1,0,0:0:0:0:
400,192,19200,1,8,0:0:0:0:
464,160,19400,1,8,0:0:0:0:
448,160,19600,1,0,0:0:0:0:
432,256,20200,1,0,0:0:0:0:
416,160,20400,1,8,0:0:0:0:
448,160,20600,1,0,0:0:0:0:
448,160,20700,1,0,0:0:0:0:
480,176,20800,1,8,0:0:0:0:
448,176,21200,1,4,0:0:0:0:
400,160,21600,1,0,0:0:0:0:
368,128,21800,1,8,0:0:0:0:
432,176,22000,1,0,0:0:0:0:
400,176,22200,1,0,0:0:0:0:
416,160,22400,1,8,0:0:0:0:
416,176,22600,1,0,0:0:0:0:
432,160,22800,1,8,0:0:0:0:
464,176,23000,1,8,0:0:0:0:
432,176,23200,1,0,0:0:0:0:
344,168,23400,1,0,0:0:0:0:
416,160,23600,1,12,0:0:0:0:
416,160,23900,1,12,0:0:0:0:
416,176,24200,1,4,0:0:0:0:
416,176,24400,1,12,0:0:0:0:
384,154,24800,1,0,0:0:0:0:
436,178,25000,1,8,0:0:0:0:
443,154,25100,1,8,0:0:0:0:
425,163,25200,1,8,0:0:0:0:
353,171,25400,1,8,0:0:0:0:
429,170,25500,1,0,0:0:0:0:
415,169,25700,1,0,0:0:0:0:
424,171,25800,1,8,0:0:0:0:
377,165,26000,1,0,0:0:0:0:
422,184,26200,1,8,0:0:0:0:
440,179,26400,1,0,0:0:0:0:
343,143,26600,1,0,0:0:0:0:
415,169,26700,1,0,0:0:0:0:
406,174,26800,1,8,0:0:0:0:
397,175,27000,1,8,0:0:0:0:
395,169,27100,1,0,0:0:0:0:
383,172,27300,1,0,0:0:0:0:
436,173,27400,1,8,0:0:0:0:
448,179,27600,1,0,0:0:0:0:
393,168,28000,1,0,0:0:0:0:
437,168,28200,1,8,0:0:0:0:
383,159,28300,1,0,0:0:0:0:
409,165,28400,1,8,0:0:0:0:
450,172,28600,1,0,0:0:0:0:
394,184,28800,1,8,0:0:0:0:
384,173,28900,1,8,0:0:0:0:
400,164,29000,1,0,0:0:0:0:
398,164,29100,1,0,0:0:0:0:
402,152,29200,1,8,0:0:0:0:
420,178,29400,1,8,0:0:0:0:
448,160,29600,1,0,0:0:0:0:
363,166,29800,1,0,0:0:0:0:
464,160,30000,1,8,0:0:0:0:
426,175,30100,1,8,0:0:0:0:
448,160,30200,1,0,0:0:0:0:
464,160,30400,1,8,0:0:0:0:
410,180,30500,1,0,0:0:0:0:
431,198,30600,1,8,0:0:0:0:
400,176,30800,5,4,0:0:0:0:
400,144,31600,1,4,0:0:0:0:
400,176,32400,1,12,0:0:0:0:
432,192,32800,1,8,0:0:0:0:
432,192,32900,1,8,0:0:0:0:
432,192,33000,1,8,0:0:0:0:
384,160,33200,1,4,0:0:0:0:
400,192,33600,1,0,0:0:0:0:
400,192,33700,1,0,0:0:0:0:
448,160,33800,1,8,0:0:0:0:
384,176,33900,1,8,0:0:0:0:
416,256,34000,1,0,0:0:0:0:
432,160,34200,1,12,0:0:0:0:
432,160,34400,1,12,0:0:0:0:
396,235,34600,1,0,0:0:0:0:
432,160,34700,1,0,0:0:0:0:
448,160,34800,1,8,0:0:0:0:
460,154,35100,1,4,0:0:0:0:
448,160,35400,1,12,0:0:0:0:
414,176,35800,1,0,0:0:0:0:
400,144,36000,1,8,0:0:0:0:
428,338,36200,1,0,0:0:0:0:
384,176,36400,1,8,0:0:0:0:
432,176,36700,1,0,0:0:0:0:
396,195,37000,1,8,0:0:0:0:
480,144,37400,1,12,0:0:0:0:
480,144,37600,1,12,0:0:0:0:
432,160,37800,1,0,0:0:0:0:
304,160,37900,1,0,0:0:0:0:
416,176,38000,1,8,0:0:0:0:
432,176,38300,1,4,0:0:0:0:
416,160,38600,1,12,0:0:0:0:
416,160,39600,1,4,0:0:0:0:
432,176,39900,1,12,0:0:0:0:
432,192,40200,1,4,0:0:0:0:
454,189,40800,1,0,0:0:0:0:
412,172,41000,1,0,0:0:0:0:
429,165,41200,1,8,0:0:0:0:
440,167,41400,1,0,0:0:0:0:
427,175,41600,1,8,0:0:0:0:
448,160,41800,1,8,0:0:0:0:
416,160,42000,1,0,0:0:0:0:
416,160,42400,1,8,0:0:0:0:
400,160,42800,1,0,0:0:0:0:
400,160,43000,1,0,0:0:0:0:
448,160,43200,1,8,0:0:0:0:
400,176,43400,1,8,0:0:0:0:
416,160,43600,1,0,0:0:0:0:
432,160,44000,1,8,0:0:0:0:
416,160,44200,1,0,0:0:0:0:
416,176,44600,1,0,0:0:0:0:
432,176,44800,1,8,0:0:0:0:
432,176,45000,1,8,0:0:0:0:
416,176,45200,1,0,0:0:0:0:
432,176,45400,1,8,0:0:0:0:
448,160,45600,1,0,0:0:0:0:
448,160,46000,1,8,0:0:0:0:
384,176,46200,1,0,0:0:0:0:
448,160,46400,1,8,0:0:0:0:
356,188,46600,1,8,0:0:0:0:
384,176,46800,1,4,0:0:0:0:
448,160,47200,1,8,0:0:0:0:
496,176,48000,1,8,0:0:0:0:
416,160,48200,1,4,0:0:0:0:
416,160,48400,1,4,0:0:0:0:
448,160,48800,1,8,0:0:0:0:
448,176,49200,1,4,0:0:0:0:
448,176,49500,1,4,0:0:0:0:
448,176,49800,1,4,0:0:0:0:
448,192,50000,1,12,0:0:0:0:
432,160,50400,1,8,0:0:0:0:
480,160,50600,1,0,0:0:0:0:
432,144,50800,1,8,0:0:0:0:
416,160,51000,1,0,0:0:0:0:
432,160,51200,1,8,0:0:0:0:
416,160,51400,1,8,0:0:0:0:
480,176,51600,1,4,0:0:0:0:
480,160,52000,1,8,0:0:0:0:
384,144,52200,1,0,0:0:0:0:
432,155,52300,1,0,0:0:0:0:
449,166,52400,1,8,0:0:0:0:
466,168,52600,1,0,0:0:0:0:
448,176,52800,1,8,0:0:0:0:
432,176,52900,1,8,0:0:0:0:
464,160,53000,1,0,0:0:0:0:
496,128,53200,1,12,0:0:0:0:
464,160,53500,1,12,0:0:0:0:
464,160,53800,1,12,0:0:0:0:
448,144,54000,1,4,0:0:0:0:
384,176,54800,1,4,0:0:0:0:
469,168,55200,1,8,0:0:0:0:
442,165,55400,1,0,0:0:0:0:
442,165,55500,1,0,0:0:0:0:
416,160,55600,1,8,0:0:0:0:
417,167,55800,1,8,0:0:0:0:
366,158,55900,1,8,0:0:0:0:
462,177,56000,1,0,0:0:0:0:
462,177,56100,1,0,0:0:0:0:
411,162,56200,1,8,0:0:0:0:
432,176,56400,1,8,0:0:0:0:
394,179,56600,1,0,0:0:0:0:
384,176,56800,1,8,0:0:0:0:
384,176,56900,1,8,0:0:0:0:
400,160,57000,1,0,0:0:0:0:
416,160,57200,1,8,0:0:0:0:
400,160,57400,1,0,0:0:0:0:
416,160,57600,1,8,0:0:0:0:
380,204,57700,1,0,0:0:0:0:
352,160,57800,1,0,0:0:0:0:
384,176,58000,1,8,0:0:0:0:
432,176,58400,1,0,0:0:0:0:
400,176,58600,1,8,0:0:0:0:
394,169,58700,1,0,0:0:0:0:
430,165,58800,1,8,0:0:0:0:
464,176,59000,1,0,0:0:0:0:
432,160,59100,1,0,0:0:0:0:
448,160,59200,1,8,0:0:0:0:
448,160,59300,1,8,0:0:0:0:
416,160,59400,1,0,0:0:0:0:
384,160,59600,1,8,0:0:0:0:
448,176,59800,1,0,0:0:0:0:
400,176,60000,1,8,0:0:0:0:
384,160,60100,1,0,0:0:0:0:
416,160,60200,1,8,0:0:0:0:
448,176,60400,1,0,0:0:0:0:
400,176,60600,1,8,0:0:0:0:
448,176,60800,1,0,0:0:0:0:
448,176,60900,1,0,0:0:0:0:
400,176,61000,1,8,0:0:0:0:
397,155,61200,1,4,0:0:0:0:
480,192,61600,1,8,0:0:0:0:
366,171,61800,1,0,0:0:0:0:
413,175,62000,1,8,0:0:0:0:
414,167,62100,1,8,0:0:0:0:
403,305,62200,1,0,0:0:0:0:
428,200,62300,1,0,0:0:0:0:
382,199,62400,1,8,0:0:0:0:
464,176,62600,1,8,0:0:0:0:
448,160,62800,1,0,0:0:0:0:
464,176,63200,1,8,0:0:0:0:
381,146,63400,1,0,0:0:0:0:
440,172,63600,1,8,0:0:0:0:
432,162,63700,1,0,0:0:0:0:
400,176,63800,1,8,0:0:0:0:
451,174,63900,1,8,0:0:0:0:
420,165,64000,1,0,0:0:0:0:
423,153,64200,1,8,0:0:0:0:
407,154,64400,1,0,0:0:0:0:
448,176,64600,1,0,0:0:0:0:
416,192,64700,1,8,0:0:0:0:
456,174,64900,1,8,0:0:0:0:
419,173,65000,1,0,0:0:0:0:
328,170,65200,1,0,0:0:0:0:
328,170,65400,1,0,0:0:0:0:
398,160,65500,1,8,0:0:0:0:
398,160,65700,1,8,0:0:0:0:
383,157,65800,1,0,0:0:0:0:
383,157,65900,1,0,0:0:0:0:
386,152,66000,1,8,0:0:0:0:
432,160,66200,1,0,0:0:0:0:
382,194,66400,1,8,0:0:0:0:
432,160,66500,5,8,0:0:0:0:
432,160,66600,1,8,0:0:0:0:
432,160,66700,1,8,0:0:0:0:
448,176,66800,1,0,0:0:0:0:
417,163,67000,1,0,0:0:0:0:
417,163,67100,1,0,0:0:0:0:
417,163,67200,1,8,0:0:0:0:
417,163,67600,5,4,0:0:0:0:
413,179,67900,1,8,0:0:0:0:
461,167,68000,1,0,0:0:0:0:
410,178,68200,1,8,0:0:0:0:
387,172,68400,1,0,0:0:0:0:
437,216,68700,1,0,0:0:0:0:
416,176,68800,1,8,0:0:0:0:
447,201,69000,1,0,0:0:0:0:
381,175,69200,1,8,0:0:0:0:
432,176,69600,1,8,0:0:0:0:
496,160,69800,1,0,0:0:0:0:
496,160,69900,1,0,0:0:0:0:
432,160,70000,1,8,0:0:0:0:
448,176,70300,1,0,0:0:0:0:
384,176,70600,1,8,0:0:0:0:
452,168,70800,1,0,0:0:0:0:
408,178,71100,1,8,0:0:0:0:
437,172,71200,1,0,0:0:0:0:
420,175,71400,1,0,0:0:0:0:
450,180,71600,1,8,0:0:0:0:
416,160,71900,1,0,0:0:0:0:
400,160,72000,1,8,0:0:0:0:
471,161,72200,1,8,0:0:0:0:
464,158,72400,1,0,0:0:0:0:
430,159,72800,1,0,0:0:0:0:
479,170,73000,1,8,0:0:0:0:
464,176,73100,1,8,0:0:0:0:
384,192,73200,1,0,0:0:0:0:
485,159,73400,1,0,0:0:0:0:
469,162,73600,1,8,0:0:0:0:
425,143,74000,1,4,0:0:0:0:
416,160,74300,1,8,0:0:0:0:
384,272,74400,1,0,0:0:0:0:
416,160,74600,1,8,0:0:0:0:
320,160,74800,1,4,0:0:0:0:
400,160,75200,1,0,0:0:0:0:
448,160,75400,1,8,0:0:0:0:
400,176,75600,1,4,0:0:0:0:
448,192,75800,1,0,0:0:0:0:
384,176,75900,1,8,0:0:0:0:
432,160,76100,1,8,0:0:0:0:
352,128,76200,1,0,0:0:0:0:
432,176,76400,1,8,0:0:0:0:
464,192,76600,1,0,0:0:0:0:
432,176,76700,1,8,0:0:0:0:
400,176,76800,1,0,0:0:0:0:
464,160,76900,1,0,0:0:0:0:
448,160,77000,1,8,0:0:0:0:
448,160,77200,1,4,0:0:0:0:
432,176,77600,1,8,0:0:0:0:
432,160,77800,1,0,0:0:0:0:
480,160,78000,1,0,0:0:0:0:
480,192,78100,1,0,0:0:0:0:
480,192,78200,1,8,0:0:0:0:
448,176,78400,1,8,0:0:0:0:
480,160,78500,1,0,0:0:0:0:
464,176,78600,1,8,0:0:0:0:
448,176,78700,1,8,0:0:0:0:
400,176,78800,1,0,0:0:0:0:
464,176,79000,1,0,0:0:0:0:
464,176,79200,1,8,0:0:0:0:
384,192,79300,1,8,0:0:0:0:
432,176,79400,1,0,0:0:0:0:
432,176,79500,1,0,0:0:0:0:
464,176,79600,1,8,0:0:0:0:
416,176,79800,1,0,0:0:0:0:
432,160,79900,1,0,0:0:0:0:
432,176,80000,1,8,0:0:0:0:
432,160,80100,1,8,0:0:0:0:
400,208,80200,1,0,0:0:0:0:
432,160,80400,1,12,0:0:0:0:
496,176,81200,1,4,0:0:0:0:
512,128,82000,1,12,0:0:0:0:
452,168,82800,1,4,0:0:0:0:
439,150,83600,1,4,0:0:0:0:
485,164,83800,1,0,0:0:0:0:
439,150,84000,1,8,0:0:0:0:
439,150,84200,1,8,0:0:0:0:
423,167,84400,1,0,0:0:0:0:
400,144,84500,1,0,0:0:0:0:
368,144,84600,1,0,0:0:0:0:
448,176,84800,1,8,0:0:0:0:
398,165,85000,1,0,0:0:0:0:
410,152,85200,1,12,0:0:0:0:
416,256,88000,5,0,0:0:0:0:
433,179,88400,1,12,0:0:0:0:
256,192,88600,12,0,90200,0:0:0:0:
