osu file format v14

[General]
AudioFilename: audio.mp3
AudioLeadIn: 0
PreviewTime: 53975
Countdown: 0
SampleSet: Normal
StackLeniency: 0.7
Mode: 1
LetterboxInBreaks: 0
WidescreenStoryboard: 1

[Editor]
DistanceSpacing: 1.3
BeatDivisor: 4
GridSize: 16
TimelineZoom: 1.650004

[Metadata]
Title:Dash & Daaash!! (TV Size)
TitleUnicode:Dash&Daaash!! (TV Size)
Artist:Fudanjuku
ArtistUnicode:風男塾
Creator:iloveyou4ever
Version:Muzukashii
Source:群青のマグメル
Tags:dash and daaash q-mhz fanfare gunjou no magumeru ultramarine magmell anime opening op short version ver female vocalist japanese jpop j-pop pop
BeatmapID:4353063
BeatmapSetID:2078023

[Difficulty]
HPDrainRate:6
CircleSize:5
OverallDifficulty:5
ApproachRate:5
SliderMultiplier:1.4
SliderTickRate:1

[Events]
//Background and Video events
0,0,"gunjyo-magumeru_L.jpg",0,-15
//Break Periods
2,85400,86800
//Storyboard Layer 0 (Background)
//Storyboard Layer 1 (Fail)
//Storyboard Layer 2 (Pass)
//Storyboard Layer 3 (Foreground)
//Storyboard Layer 4 (Overlay)
//Storyboard Sound Samples

[TimingPoints]
400,400,4,1,0,100,1,0
7797,-100,4,1,0,100,0,0
7897,-100,4,1,0,100,0,0
7997,-100,4,1,0,100,0,0
8097,-100,4,1,0,100,0,0
8197,-100,4,1,0,100,0,0
8297,-100,4,1,0,100,0,0
8397,-100,4,1,0,100,0,0
13997,-100,4,1,0,100,0,0
14097,-100,4,1,0,100,0,0
14197,-100,4,1,0,100,0,0
14297,-100,4,1,0,100,0,0
14397,-100,4,1,0,100,0,0
14497,-100,4,1,0,100,0,0
14597,-100,4,1,0,100,0,0
14797,-100,4,1,0,95,0,0
16400,-100,4,1,0,90,0,0
20497,-100,4,1,0,95,0,0
20597,-100,4,1,0,95,0,0
20697,-100,4,1,0,95,0,0
20797,-100,4,1,0,95,0,0
21197,-100,4,1,0,100,0,0
21597,-100,4,1,0,100,0,0
21797,-100,4,1,0,100,0,0
21997,-100,4,1,0,100,0,0
22197,-100,4,1,0,100,0,0
22397,-100,4,1,0,100,0,0
22597,-100,4,1,0,100,0,0
22797,-100,4,1,0,100,0,0
22997,-100,4,1,0,100,0,0
23197,-100,4,1,0,100,0,0
23297,-100,4,1,0,100,0,0
23397,-100,4,1,0,100,0,0
23497,-100,4,1,0,100,0,0
23597,-100,4,1,0,100,0,0
23897,-100,4,1,0,100,0,0
24197,-100,4,1,0,100,0,0
24397,-100,4,1,0,100,0,0
30000,-100,4,1,0,100,0,0
30100,-100,4,1,0,100,0,0
30200,-100,4,1,0,100,0,0
30300,-100,4,1,0,100,0,0
30400,-100,4,1,0,100,0,0
30500,-100,4,1,0,100,0,0
30600,-100,4,1,0,100,0,0
30800,-100,4,1,0,100,0,0
32797,-100,4,1,0,100,0,0
32897,-100,4,1,0,100,0,0
32997,-100,4,1,0,100,0,0
33097,-100,4,1,0,100,0,0
33197,-100,4,1,0,100,0,0
33600,-100,4,1,0,100,0,0
33700,-100,4,1,0,100,0,0
33800,-100,4,1,0,100,0,0
33900,-100,4,1,0,100,0,0
34000,-100,4,1,0,100,0,0
34200,-100,4,1,0,100,0,0
35600,-100,4,1,0,90,0,0
37400,-100,4,1,0,100,0,0
38800,-100,4,1,0,90,0,0
39600,-100,4,1,0,100,0,0
40500,-111.111111111111,4,1,0,95,0,0
45797,-111.111111111111,4,1,0,95,0,0
45897,-111.111111111111,4,1,0,95,0,0
45997,-108.695652173913,4,1,0,95,0,0
46197,-106.382978723404,4,1,0,95,0,0
46397,-104.166666666667,4,1,0,95,0,0
46597,-102.040816326531,4,1,0,95,0,0
46800,-100,4,1,0,100,0,0
51997,-100,4,1,0,100,0,0
52197,-100,4,1,0,100,0,0
52397,-100,4,1,0,100,0,0
52497,-100,4,1,0,100,0,0
52597,-100,4,1,0,100,0,0
52697,-100,4,1,0,100,0,0
52797,-100,4,1,0,100,0,0
52897,-100,4,1,0,100,0,0
52997,-100,4,1,0,100,0,0
53197,-100,4,1,0,100,0,0
54800,-100,4,1,0,100,0,1
67600,-100,4,1,0,100,0,0
76397,-100,4,1,0,100,0,0
76497,-100,4,1,0,100,0,0
76597,-100,4,1,0,100,0,0
76697,-100,4,1,0,100,0,0
76797,-100,4,1,0,100,0,0
76897,-100,4,1,0,100,0,0
76997,-100,4,1,0,100,0,0
77097,-100,4,1,0,100,0,0
77200,-100,4,1,0,100,0,1
80400,-100,4,1,0,100,0,0
81000,-100,4,1,0,100,0,0

[HitObjects]
419,179,400,5,12,0:0:0:0:
450,176,1200,1,4,0:0:0:0:
428,171,2000,1,12,0:0:0:0:
462,176,2800,1,4,0:0:0:0:
456,167,3600,1,4,0:0:0:0:
345,185,3800,1,0,0:0:0:0:
442,178,4000,1,8,0:0:0:0:
442,178,4200,1,8,0:0:0:0:
399,183,4400,1,0,0:0:0:0:
431,173,4600,1,0,0:0:0:0:
436,182,4800,1,8,0:0:0:0:
426,153,5200,1,12,0:0:0:0:
385,161,6600,1,4,0:0:0:0:
385,161,6800,1,4,0:0:0:0:
399,175,7600,1,4,0:0:0:0:
380,164,7800,1,8,0:0:0:0:
380,164,7900,1,8,0:0:0:0:
380,164,8000,1,8,0:0:0:0:
380,164,8200,1,8,0:0:0:0:
399,175,8400,1,4,0:0:0:0:
464,144,8800,1,8,0:0:0:0:
400,160,9000,1,0,0:0:0:0:
448,160,9200,1,8,0:0:0:0:
416,176,9400,1,0,0:0:0:0:
448,160,9500,1,0,0:0:0:0:
437,173,9800,1,8,0:0:0:0:
421,167,10000,1,0,0:0:0:0:
416,160,10400,1,8,0:0:0:0:
480,160,10600,1,0,0:0:0:0:
432,160,10800,1,8,0:0:0:0:
416,176,11000,1,0,0:0:0:0:
464,160,11100,1,0,0:0:0:0:
421,164,11400,1,8,0:0:0:0:
442,173,11600,1,0,0:0:0:0:
400,176,12000,1,8,0:0:0:0:
464,160,12200,1,0,0:0:0:0:
432,160,12400,1,8,0:0:0:0:
400,144,12600,1,0,0:0:0:0:
400,176,12700,1,0,0:0:0:0:
466,168,13000,1,0,0:0:0:0:
393,163,13200,1,12,0:0:0:0:
421,198,13500,1,8,0:0:0:0:
453,171,13800,1,0,0:0:0:0:
459,166,14000,1,8,0:0:0:0:
443,172,14200,1,0,0:0:0:0:
443,172,14300,1,0,0:0:0:0:
443,172,14400,1,0,0:0:0:0:
416,176,14600,1,8,0:0:0:0:
352,176,14800,1,4,0:0:0:0:
432,160,15400,1,0,0:0:0:0:
464,176,15600,1,8,0:0:0:0:
391,174,15900,1,0,0:0:0:0:
400,176,16200,1,8,0:0:0:0:
416,192,16400,1,0,0:0:0:0:
417,162,17000,1,8,0:0:0:0:
474,149,17200,1,0,0:0:0:0:
368,192,17500,1,0,0:0:0:0:
432,176,17800,1,8,0:0:0:0:
416,176,18000,1,0,0:0:0:0:
416,176,18600,1,8,0:0:0:0:
416,192,18800,1,8,0:0:0:0:
451,161,19000,1,0,0:0:0:0:
400,192,19200,1,8,0:0:0:0:
464,160,19400,1,8,0:0:0:0:
448,160,19600,1,0,0:0:0:0:
464,176,20200,1,8,0:0:0:0:
416,160,20400,1,8,0:0:0:0:
448,160,20600,1,0,0:0:0:0:
448,160,20700,1,0,0:0:0:0:
432,192,20800,1,0,0:0:0:0:
448,176,21200,1,4,0:0:0:0:
400,160,21600,1,0,0:0:0:0:
368,128,21800,1,8,0:0:0:0:
432,176,22000,1,0,0:0:0:0:
400,176,22200,1,0,0:0:0:0:
416,160,22400,1,8,0:0:0:0:
432,160,22800,1,8,0:0:0:0:
464,176,23000,1,8,0:0:0:0:
432,176,23200,1,0,0:0:0:0:
344,168,23400,1,0,0:0:0:0:
416,160,23600,1,12,0:0:0:0:
416,160,23900,1,12,0:0:0:0:
416,176,24200,1,4,0:0:0:0:
416,176,24400,1,12,0:0:0:0:
436,178,25000,1,8,0:0:0:0:
425,163,25200,1,8,0:0:0:0:
352,160,25400,1,0,0:0:0:0:
429,170,25500,1,0,0:0:0:0:
424,171,25800,1,8,0:0:0:0:
377,165,26000,1,0,0:0:0:0:
405,252,26400,1,0,0:0:0:0:
416,208,26600,1,0,0:0:0:0:
432,160,26800,1,8,0:0:0:0:
416,160,27000,1,0,0:0:0:0:
400,160,27100,1,0,0:0:0:0:
448,160,27400,1,0,0:0:0:0:
384,176,27600,1,8,0:0:0:0:
424,176,28000,1,0,0:0:0:0:
437,168,28200,1,8,0:0:0:0:
448,192,28300,1,8,0:0:0:0:
448,192,28400,1,8,0:0:0:0:
352,160,28600,1,8,0:0:0:0:
432,160,28800,1,0,0:0:0:0:
400,164,29000,1,0,0:0:0:0:
402,152,29200,1,8,0:0:0:0:
415,183,29600,1,0,0:0:0:0:
407,204,29800,1,0,0:0:0:0:
464,160,30000,1,8,0:0:0:0:
439,168,30200,1,8,0:0:0:0:
439,168,30300,1,8,0:0:0:0:
382,162,30400,1,8,0:0:0:0:
412,236,30600,1,8,0:0:0:0:
400,176,30800,5,4,0:0:0:0:
400,144,31600,1,4,0:0:0:0:
400,176,32400,1,12,0:0:0:0:
432,192,32800,1,8,0:0:0:0:
448,176,32900,1,8,0:0:0:0:
432,192,33000,1,8,0:0:0:0:
384,160,33200,1,4,0:0:0:0:
448,160,33600,1,8,0:0:0:0:
416,240,34000,1,0,0:0:0:0:
432,160,34200,1,12,0:0:0:0:
432,160,34400,1,12,0:0:0:0:
384,192,34800,1,12,0:0:0:0:
460,154,35100,1,4,0:0:0:0:
448,160,35400,1,12,0:0:0:0:
310,178,35800,1,0,0:0:0:0:
464,160,36000,1,8,0:0:0:0:
384,192,36200,1,0,0:0:0:0:
384,176,36400,1,8,0:0:0:0:
432,176,36700,1,0,0:0:0:0:
396,195,37000,1,8,0:0:0:0:
480,144,37400,1,12,0:0:0:0:
480,144,37600,1,12,0:0:0:0:
416,192,38000,1,12,0:0:0:0:
432,176,38300,1,4,0:0:0:0:
416,160,38600,1,12,0:0:0:0:
416,160,39600,1,4,0:0:0:0:
432,176,39900,1,12,0:0:0:0:
432,192,40200,1,4,0:0:0:0:
432,208,40800,1,0,0:0:0:0:
429,165,41200,1,8,0:0:0:0:
440,167,41400,1,0,0:0:0:0:
427,175,41600,1,8,0:0:0:0:
448,160,41800,1,8,0:0:0:0:
416,160,42000,1,0,0:0:0:0:
416,160,42400,1,8,0:0:0:0:
400,160,42800,1,0,0:0:0:0:
448,160,43200,1,8,0:0:0:0:
371,185,43400,1,8,0:0:0:0:
416,160,43600,1,0,0:0:0:0:
434,154,44000,1,8,0:0:0:0:
411,154,44200,1,0,0:0:0:0:
416,176,44600,1,0,0:0:0:0:
432,176,44800,1,8,0:0:0:0:
432,176,45000,1,8,0:0:0:0:
416,176,45200,1,0,0:0:0:0:
464,160,45600,1,0,0:0:0:0:
448,160,46000,1,8,0:0:0:0:
384,176,46200,1,0,0:0:0:0:
448,160,46400,1,8,0:0:0:0:
384,176,46600,1,8,0:0:0:0:
384,176,46800,1,4,0:0:0:0:
448,160,47200,1,8,0:0:0:0:
496,176,48000,1,8,0:0:0:0:
416,160,48200,1,4,0:0:0:0:
416,160,48400,1,4,0:0:0:0:
448,160,48800,1,8,0:0:0:0:
448,176,49200,1,4,0:0:0:0:
448,176,49500,1,4,0:0:0:0:
448,176,49800,1,4,0:0:0:0:
448,192,50000,1,12,0:0:0:0:
432,160,50400,1,8,0:0:0:0:
480,160,50600,1,0,0:0:0:0:
432,144,50800,1,8,0:0:0:0:
416,160,51000,1,0,0:0:0:0:
432,160,51200,1,8,0:0:0:0:
416,160,51400,1,8,0:0:0:0:
480,176,51600,1,4,0:0:0:0:
438,180,52000,1,0,0:0:0:0:
433,173,52200,1,8,0:0:0:0:
429,173,52300,1,8,0:0:0:0:
429,173,52400,1,8,0:0:0:0:
475,162,52600,1,8,0:0:0:0:
368,175,52800,1,0,0:0:0:0:
464,160,53000,1,0,0:0:0:0:
496,128,53200,1,12,0:0:0:0:
464,160,53500,1,12,0:0:0:0:
464,160,53800,1,12,0:0:0:0:
448,144,54000,1,4,0:0:0:0:
384,176,54800,1,4,0:0:0:0:
469,168,55200,1,8,0:0:0:0:
442,165,55400,1,0,0:0:0:0:
416,160,55600,1,8,0:0:0:0:
373,176,55800,1,0,0:0:0:0:
373,176,55900,1,0,0:0:0:0:
462,177,56000,1,0,0:0:0:0:
282,92,56200,1,0,0:0:0:0:
432,176,56400,1,8,0:0:0:0:
324,170,56800,1,0,0:0:0:0:
469,175,57000,1,0,0:0:0:0:
415,182,57200,1,8,0:0:0:0:
407,155,57400,1,8,0:0:0:0:
410,161,57600,1,0,0:0:0:0:
353,217,57800,1,0,0:0:0:0:
416,172,58000,1,8,0:0:0:0:
414,159,58400,1,8,0:0:0:0:
450,166,58600,1,0,0:0:0:0:
394,169,58700,1,0,0:0:0:0:
443,167,58800,1,0,0:0:0:0:
464,176,59000,1,0,0:0:0:0:
448,160,59200,1,8,0:0:0:0:
470,166,59400,1,8,0:0:0:0:
438,167,59600,1,0,0:0:0:0:
400,176,60000,1,8,0:0:0:0:
407,171,60200,1,8,0:0:0:0:
390,161,60400,1,0,0:0:0:0:
447,168,60600,1,8,0:0:0:0:
400,176,60800,1,0,0:0:0:0:
397,155,61200,1,4,0:0:0:0:
480,192,61600,1,8,0:0:0:0:
429,167,62000,1,0,0:0:0:0:
429,167,62200,1,8,0:0:0:0:
429,167,62300,1,8,0:0:0:0:
367,177,62400,1,8,0:0:0:0:
464,176,62600,1,8,0:0:0:0:
448,160,62800,1,0,0:0:0:0:
464,176,63200,1,8,0:0:0:0:
377,198,63600,1,8,0:0:0:0:
361,193,63800,1,0,0:0:0:0:
361,193,63900,1,0,0:0:0:0:
361,193,64000,1,0,0:0:0:0:
423,153,64200,1,8,0:0:0:0:
407,154,64400,1,0,0:0:0:0:
416,192,64700,1,8,0:0:0:0:
346,179,65000,1,8,0:0:0:0:
328,170,65200,1,0,0:0:0:0:
379,180,65500,1,8,0:0:0:0:
471,179,65800,1,0,0:0:0:0:
386,152,66000,1,8,0:0:0:0:
378,207,66200,1,0,0:0:0:0:
382,194,66400,1,8,0:0:0:0:
432,160,66500,5,8,0:0:0:0:
432,160,66600,1,8,0:0:0:0:
378,207,66800,1,0,0:0:0:0:
448,176,67000,1,0,0:0:0:0:
398,177,67100,1,0,0:0:0:0:
398,177,67200,1,0,0:0:0:0:
417,163,67600,5,4,0:0:0:0:
413,179,67900,1,8,0:0:0:0:
415,174,68200,1,0,0:0:0:0:
397,152,68400,1,8,0:0:0:0:
423,171,68700,1,0,0:0:0:0:
421,173,69000,1,8,0:0:0:0:
421,170,69200,1,0,0:0:0:0:
441,159,69800,1,8,0:0:0:0:
432,160,70000,1,8,0:0:0:0:
448,176,70300,1,0,0:0:0:0:
384,176,70600,1,8,0:0:0:0:
452,168,70800,1,0,0:0:0:0:
346,136,71100,1,8,0:0:0:0:
399,205,71400,1,0,0:0:0:0:
450,180,71600,1,8,0:0:0:0:
449,191,71900,1,8,0:0:0:0:
471,161,72200,1,8,0:0:0:0:
464,158,72400,1,0,0:0:0:0:
447,162,73000,1,8,0:0:0:0:
447,162,73200,1,8,0:0:0:0:
469,162,73600,1,8,0:0:0:0:
425,143,74000,1,4,0:0:0:0:
354,154,74400,1,8,0:0:0:0:
416,160,74600,1,8,0:0:0:0:
320,160,74800,1,4,0:0:0:0:
400,160,75200,1,0,0:0:0:0:
448,160,75400,1,8,0:0:0:0:
400,176,75600,1,4,0:0:0:0:
427,168,76000,1,8,0:0:0:0:
426,169,76200,1,8,0:0:0:0:
421,154,76400,1,0,0:0:0:0:
492,175,76600,1,8,0:0:0:0:
432,176,76700,1,8,0:0:0:0:
492,175,76800,1,8,0:0:0:0:
448,160,77000,1,8,0:0:0:0:
448,160,77200,1,4,0:0:0:0:
432,176,77600,1,8,0:0:0:0:
432,160,77800,1,0,0:0:0:0:
422,179,78000,1,8,0:0:0:0:
404,182,78200,1,0,0:0:0:0:
448,176,78400,1,8,0:0:0:0:
464,176,78600,1,8,0:0:0:0:
400,176,78800,1,0,0:0:0:0:
389,178,79000,1,0,0:0:0:0:
464,176,79200,1,8,0:0:0:0:
384,192,79300,1,8,0:0:0:0:
416,182,79400,1,8,0:0:0:0:
464,176,79600,1,8,0:0:0:0:
416,176,79800,1,0,0:0:0:0:
432,160,79900,1,0,0:0:0:0:
442,168,80000,1,0,0:0:0:0:
400,208,80200,1,0,0:0:0:0:
432,160,80400,1,12,0:0:0:0:
496,176,81200,1,4,0:0:0:0:
512,128,82000,1,12,0:0:0:0:
452,168,82800,1,4,0:0:0:0:
439,150,83600,1,4,0:0:0:0:
485,164,83800,1,0,0:0:0:0:
439,150,84000,1,8,0:0:0:0:
439,150,84200,1,8,0:0:0:0:
423,167,84400,1,0,0:0:0:0:
368,144,84600,1,0,0:0:0:0:
448,176,84800,1,8,0:0:0:0:
410,152,85200,1,12,0:0:0:0:
416,256,88000,5,0,0:0:0:0:
433,179,88400,1,12,0:0:0:0:
256,192,88600,12,0,90200,0:0:0:0:
