osu file format v14

[General]
AudioFilename: audio.mp3
AudioLeadIn: 0
PreviewTime: 53900
Countdown: 0
SampleSet: Soft
StackLeniency: 0.4
Mode: 0
LetterboxInBreaks: 0
WidescreenStoryboard: 1

[Editor]
Bookmarks: 21200,24400,67600
DistanceSpacing: 1.7
BeatDivisor: 4
GridSize: 32
TimelineZoom: 1.6

[Metadata]
Title:Dash & Daaash!! (TV Size)
TitleUnicode:Dash & Daaash!! (TV Size)
Artist:Fudanjuku
ArtistUnicode:風男塾
Creator:RavxaL
Version:Normal
Source:群青のマグメル
Tags:gunjou no magmell ultramarine 風男塾 15th anniversary best funfare female vocalist q-mhz anime op op1 opening j-pop jpop alt alternate
BeatmapID:4558592
BeatmapSetID:2161300

[Difficulty]
HPDrainRate:4
CircleSize:3
OverallDifficulty:4
ApproachRate:4
SliderMultiplier:1
SliderTickRate:1

[Events]
//Background and Video events
0,0,"gunjyo-magumeru_L.jpg",0,0
//Break Periods
//Storyboard Layer 0 (Background)
//Storyboard Layer 1 (Fail)
//Storyboard Layer 2 (Pass)
//Storyboard Layer 3 (Foreground)
//Storyboard Layer 4 (Overlay)
//Storyboard Sound Samples

[TimingPoints]
400,400,4,2,1,85,1,0
3600,-100,4,2,1,65,0,0
4000,-100,4,2,1,70,0,0
4400,-100,4,2,1,75,0,0
4800,-100,4,2,1,80,0,0
6600,-100,4,2,1,75,0,0
6700,-100,4,2,1,5,0,0
6800,-100,4,2,1,75,0,0
6900,-100,4,2,1,5,0,0
7000,-100,4,2,1,80,0,0
8400,-100,4,2,1,75,0,0
13200,-100,4,2,1,85,0,0
14800,-100,4,2,1,65,0,0
21200,-100,4,2,1,85,0,0
21600,-100,4,2,1,65,0,0
22000,-100,4,2,1,70,0,0
22400,-100,4,2,1,75,0,0
23200,-100,4,2,1,80,0,0
23600,-100,4,2,1,85,0,0
24400,-100,4,2,1,80,0,0
30800,-100,4,2,1,85,0,0
34000,-100,4,2,1,80,0,0
34800,-100,4,2,1,85,0,0
35000,-100,4,2,1,5,0,0
35100,-100,4,2,1,85,0,0
35300,-100,4,2,1,5,0,0
35400,-100,4,2,1,85,0,0
35600,-100,4,2,1,5,0,0
35800,-100,4,2,1,75,0,0
35900,-100,4,2,1,5,0,0
36000,-100,4,2,1,75,0,0
36100,-100,4,2,1,5,0,0
36200,-100,4,2,1,75,0,0
36300,-100,4,2,1,5,0,0
36400,-100,4,2,1,75,0,0
37400,-100,4,2,1,85,0,0
38200,-100,4,2,1,5,0,0
38300,-100,4,2,1,85,0,0
38500,-100,4,2,1,5,0,0
38600,-100,4,2,1,85,0,0
38800,-100,4,2,1,5,0,0
39000,-100,4,2,1,75,0,0
39100,-100,4,2,1,5,0,0
39200,-100,4,2,1,75,0,0
39300,-100,4,2,1,5,0,0
39400,-100,4,2,1,75,0,0
39500,-100,4,2,1,5,0,0
39600,-100,4,2,1,80,0,0
40200,-100,4,2,1,85,0,0
46800,-111.111111111111,4,2,1,75,0,0
49200,-111.111111111111,4,2,1,85,0,0
50000,-99.9999999999999,4,2,1,85,0,0
54800,-99.9999999999999,4,2,1,85,0,1
67600,-99.9999999999999,4,2,1,75,0,0
76400,-99.9999999999999,4,2,1,80,0,0
77200,-99.9999999999999,4,2,1,75,0,0
79600,-99.9999999999999,4,2,1,80,0,0
80400,-99.9999999999999,4,2,1,85,0,0
83600,-99.9999999999999,4,2,1,65,0,0
84000,-99.9999999999999,4,2,1,70,0,0
84400,-99.9999999999999,4,2,1,75,0,0
84800,-99.9999999999999,4,2,1,80,0,0
85200,-99.9999999999999,4,2,1,85,0,0
90600,-99.9999999999999,4,2,1,45,0,0

[Colours]
Combo1 : 255,128,64
Combo2 : 255,255,128
Combo3 : 222,189,3
Combo4 : 192,192,192
Combo5 : 108,35,0

[HitObjects]
381,306,400,6,0,P|347:254|254:245,1,150,6|0,1:2|0:0,0:0:0:0:
198,293,1200,6,1,B|165:318|165:318|46:293,1,150,6|0,1:2|0:0,0:0:0:0:
2,231,2000,6,1,B|-7:176|24:145|15:79,1,150,6|0,1:2|0:0,0:0:0:0:
66,14,2800,6,1,P|102:11|132:29,1,50,6|0,1:2|0:0,0:0:0:0:
180,69,3200,2,1,P|216:72|246:54,1,50,2|0,1:2|0:0,0:0:0:0:
292,12,3600,6,0,L|364:18,1,50,6|2,1:2|1:2,0:0:0:0:
419,51,4000,2,0,P|428:85|425:106,1,50,2|2,1:2|1:2,0:0:0:0:
367,161,4400,2,0,P|375:210|383:259,1,100,10|10,0:2|0:2,0:0:0:0:
508,374,5200,1,6,1:2:0:0:
397,348,6600,5,0,1:0:0:0:
397,348,6800,1,0,1:0:0:0:
345,330,7600,5,4,1:2:0:0:
345,330,7800,2,0,B|317:320|290:339|290:339|264:343|237:321,1,100,8|8,0:0|0:0,0:0:0:0:
185,274,8400,6,0,P|202:233|206:214,1,50,4|10,1:2|0:2,0:0:0:0:
268,171,8800,2,0,P|251:130|247:111,1,50,0|10,1:0|0:2,0:0:0:0:
194,60,9200,2,0,P|159:64|141:75,1,50,0|10,1:0|0:2,0:0:0:0:
121,105,9500,1,0,1:0:0:0:
32,12,9800,1,10,0:2:0:0:
10,94,10000,6,0,L|22:157,1,50,0|10,1:0|0:2,0:0:0:0:
83,198,10400,2,0,L|71:261,1,50,0|10,1:0|0:2,0:0:0:0:
24,316,10800,2,0,P|53:334|69:335,1,50,0|10,1:0|0:2,0:0:0:0:
110,330,11100,1,0,1:0:0:0:
201,241,11400,1,10,0:2:0:0:
284,258,11600,6,0,L|348:270,1,50,0|10,1:0|0:2,0:0:0:0:
407,225,12000,2,0,L|419:160,1,50,0|10,1:0|0:2,0:0:0:0:
364,108,12400,2,0,L|351:43,1,50,0|10,1:0|0:2,0:0:0:0:
377,23,12700,1,0,1:0:0:0:
251,2,13000,1,10,0:2:0:0:
181,51,13200,6,0,P|154:53|122:35,1,50,6|10,1:2|0:2,0:0:0:0:
97,22,13500,2,0,P|109:52|99:92,1,75,2|10,1:2|0:2,0:0:0:0:
42,154,14000,2,0,P|37:187|41:206,1,50,2|10,1:2|0:2,0:0:0:0:
101,261,14400,1,10,0:2:0:0:
176,221,14600,1,10,0:2:0:0:
226,289,14800,6,0,L|332:301,1,100,6|0,1:2|1:0,0:0:0:0:
398,343,15400,1,2,0:2:0:0:
440,269,15600,2,0,P|449:233|437:176,1,75,2|2,1:2|0:2,0:0:0:0:
365,96,16200,1,2,0:2:0:0:
299,149,16400,6,0,P|260:152|211:105,1,100,2|0,1:2|1:0,0:0:0:0:
206,30,17000,1,6,0:3:0:0:
137,79,17200,2,0,L|45:69,1,75,2|2,1:2|0:2,0:0:0:0:
2,183,17800,1,2,0:2:0:0:
59,245,18000,6,0,L|43:346,1,100,2|0,1:2|1:0,0:0:0:0:
120,380,18600,1,2,0:2:0:0:
187,328,18800,2,0,L|245:323,1,50,2|2,1:2|0:2,0:0:0:0:
314,357,19200,2,0,L|372:362,1,50,2|2,1:2|0:2,0:0:0:0:
437,318,19600,6,0,P|466:271|438:179,1,150,2|6,1:2|0:3,0:0:0:0:
369,140,20400,2,0,L|377:71,1,50,2|2,1:2|1:2,0:0:0:0:
441,36,20800,1,6,1:2:0:0:
273,65,21200,6,0,L|182:52,1,75,6|0,1:2|0:0,0:0:0:0:
158,41,21600,2,0,L|143:94,1,50,2|0,1:2|1:0,0:0:0:0:
75,138,22000,2,0,L|90:191,1,50,2|0,1:2|1:0,0:0:0:0:
156,236,22400,1,2,1:2:0:0:
232,199,22600,1,0,1:0:0:0:
280,269,22800,6,0,L|291:335,1,50,2|0,1:2|1:0,0:0:0:0:
358,366,23200,2,0,L|424:355,1,50,2|0,1:2|1:0,0:0:0:0:
467,297,23600,2,0,L|456:231,1,50,6|0,1:2|0:0,0:0:0:0:
425,221,23900,1,6,1:2:0:0:
509,125,24200,1,6,1:2:0:0:
454,59,24400,6,0,P|415:44|359:74,1,100,4|0,1:2|1:0,0:0:0:0:
299,122,25000,1,10,0:2:0:0:
299,122,25200,2,0,L|209:115,1,75,0|0,1:0|1:0,0:0:0:0:
128,32,25800,1,10,0:2:0:0:
61,84,26000,6,0,L|82:185,1,100,0|0,1:0|1:0,0:0:0:0:
150,230,26600,1,10,0:2:0:0:
80,278,26800,2,0,L|68:358,1,75,0|0,1:0|1:0,0:0:0:0:
192,381,27400,1,10,0:2:0:0:
254,323,27600,6,0,L|358:333,1,100,0|0,1:0|1:0,0:0:0:0:
427,290,28200,1,10,0:2:0:0:
427,290,28400,2,0,P|433:252|428:232,1,50,0|10,1:0|0:2,0:0:0:0:
383,170,28800,2,0,P|377:132|382:112,1,50,0|10,0:0|0:2,0:0:0:0:
433,54,29200,6,0,P|418:27|340:3,1,100,0|0,1:0|1:0,0:0:0:0:
280,38,29800,1,10,0:2:0:0:
280,38,30000,2,0,L|219:49,1,50,0|10,1:0|0:2,0:0:0:0:
151,16,30400,2,0,L|90:5,1,50,0|10,0:0|0:2,0:0:0:0:
25,44,30800,6,0,L|55:207,1,150,6|0,1:2|0:0,0:0:0:0:
110,253,31600,2,1,P|146:264|256:211,1,150,6|0,1:2|0:0,0:0:0:0:
274,144,32400,1,6,1:2:0:0:
412,45,32800,6,0,P|411:67|408:102,1,50,8|8,0:2|0:2,0:0:0:0:
359,163,33200,2,0,P|362:184|368:219,1,50,4|0,1:2|0:0,0:0:0:0:
331,289,33600,2,0,L|281:299,1,50,8|8,0:2|0:2,0:0:0:0:
217,355,34000,6,0,P|188:346|159:341,1,50,0|12,1:2|0:2,0:0:0:0:
84,330,34400,2,0,P|67:295|84:250,1,75,12|0,0:2|1:0,0:0:0:0:
106,232,34800,2,0,L|123:143,1,75,12|12,1:2|1:2,0:0:0:0:
10,92,35400,2,0,L|18:33,1,50,12|0,1:2|0:0,0:0:0:0:
92,4,35800,5,2,0:2:0:0:
92,4,36000,2,0,P|117:1|147:14,1,50,2|2,0:2|0:2,0:0:0:0:
209,59,36400,2,0,P|231:58|303:52,2,75,2|2|2,0:2|0:2|0:2,0:0:0:0:
148,118,37200,6,0,P|145:154|152:170,1,50,0|12,0:0|0:2,0:0:0:0:
212,224,37600,2,0,L|198:305,1,75,12|0,0:2|1:0,0:0:0:0:
211,338,38000,2,0,P|240:364|292:355,1,75,12|12,1:2|1:2,0:0:0:0:
401,379,38600,2,0,P|415:356|420:326,1,50,12|0,1:2|0:0,0:0:0:0:
367,266,39000,5,2,0:2:0:0:
367,266,39200,2,0,L|358:199,1,50,2|2,0:2|0:2,0:0:0:0:
414,151,39600,2,0,L|402:63,1,75,10|10,1:3|1:3,0:0:0:0:
299,4,40200,6,1,B|172:17|266:78|127:92,1,200,4|0,1:2|1:0,0:0:0:0:
47,74,41200,2,0,P|19:66|-15:61,2,50,8|2|2,0:2|0:2|0:2,0:0:0:0:
81,157,41800,1,2,1:2:0:0:
81,157,42000,2,0,P|88:185|100:217,1,50,2|0,1:2|1:0,0:0:0:0:
34,263,42400,2,0,P|26:291|14:323,1,50,2|0,1:2|0:0,0:0:0:0:
73,377,42800,2,0,L|133:371,1,50,10|0,1:2|0:0,0:0:0:0:
188,317,43200,1,2,1:2:0:0:
347,375,43600,6,1,P|356:320|374:216,1,150,2|2,1:2|1:2,0:0:0:0:
443,180,44400,2,0,L|432:124,1,50,8|0,0:2|0:0,0:0:0:0:
372,71,44800,2,0,B|342:66|342:66|320:75,1,50,2|0,0:2|0:0,3:0:0:0:
256,125,45200,6,0,P|228:136|159:94,1,100,2|0,1:2|1:0,0:0:0:0:
94,65,45800,1,0,0:0:0:0:
56,141,46000,2,0,L|67:196,1,50,10|8,1:2|1:2,0:0:0:0:
42,272,46400,1,10,1:2:0:0:
106,327,46600,1,8,1:2:0:0:
187,304,46800,6,0,L|265:315,1,67.4999979400635,6|2,1:2|0:2,0:0:0:0:
357,363,47400,1,2,0:2:0:0:
357,363,47600,2,0,L|459:340,1,89.9999972534181,2|4,0:2|1:3,0:0:0:0:
505,282,48200,1,2,0:2:0:0:
449,216,48400,6,0,L|461:142,1,67.4999979400635,6|2,1:2|0:2,0:0:0:0:
397,37,49000,1,2,0:2:0:0:
397,37,49200,2,1,P|369:32|336:36,1,44.999998626709,14|0,1:3|0:0,0:0:0:0:
319,53,49500,2,1,P|285:65|243:67,1,67.4999979400635,14|6,1:3|1:3,3:0:0:0:
172,42,50000,6,0,P|159:91|173:129,1,75,6|0,1:2|0:0,0:0:0:0:
187,149,50400,1,10,0:2:0:0:
61,264,50800,2,0,P|74:313|60:351,1,75,10|0,0:2|3:0,0:0:0:0:
46,371,51200,1,10,0:2:0:0:
211,331,51600,6,0,L|317:338,1,100,10|10,0:2|0:2,0:0:0:0:
386,297,52200,1,2,1:2:0:0:
386,297,52400,2,0,P|410:251|396:148,1,150,10|2,0:2|1:2,0:0:0:0:
326,112,53200,1,8,1:3:0:0:
201,86,53500,1,8,1:3:0:0:
76,60,53800,1,8,1:3:0:0:
74,67,54000,1,6,1:2:0:0:
408,4,54800,6,0,L|400:113,1,100,6|4,1:2|1:3,0:0:0:0:
324,135,55400,1,10,0:2:0:0:
324,135,55600,2,0,B|331:164|352:181,1,50,6|10,1:3|0:2,0:0:0:0:
404,242,56000,2,0,B|429:226|456:229,1,50,6|10,0:3|0:2,0:0:0:0:
508,291,56400,6,8,L|494:359,1,50,6|8,1:3|0:2,0:0:0:0:
421,378,56800,1,6,1:3:0:0:
295,262,57200,2,0,L|228:274,1,50,6|8,1:3|0:2,0:0:0:0:
188,333,57600,1,6,0:3:0:0:
42,245,58000,6,0,P|28:203|49:143,1,100,6|4,1:3|1:3,0:0:0:0:
98,86,58600,1,10,0:2:0:0:
157,147,58800,2,0,L|222:155,1,50,6|10,1:3|0:2,0:0:0:0:
276,104,59200,2,0,L|341:96,1,50,6|10,0:3|0:2,0:0:0:0:
360,20,59600,6,0,P|355:50|365:79,1,50,6|8,1:3|0:2,0:0:0:0:
419,129,60000,1,6,1:3:0:0:
299,249,60400,2,0,L|230:239,1,50,4|8,1:3|0:2,0:0:0:0:
171,275,60800,2,0,L|102:265,1,50,6|10,1:3|0:2,0:0:0:0:
57,211,61200,6,0,B|52:184|52:184|57:170|57:170|48:135,1,75,6|0,1:2|0:0,0:0:0:0:
58,96,61600,2,0,P|85:73|147:77,1,100,6|6,1:3|1:3,0:0:0:0:
208,135,62200,1,10,0:2:0:0:
208,135,62400,2,0,L|272:127,1,50,6|10,0:3|0:2,0:0:0:0:
322,73,62800,1,6,1:3:0:0:
469,158,63200,6,0,L|457:232,1,75,6|0,1:3|0:0,0:0:0:0:
425,260,63600,2,0,P|395:264|366:246,1,50,6|10,1:3|0:2,0:0:0:0:
309,204,64000,2,0,P|279:200|250:218,1,50,6|10,0:3|0:2,0:0:0:0:
198,265,64400,2,0,L|220:351,2,75,6|2|10,1:3|0:2|0:2,3:0:0:0:
128,216,65200,2,0,L|146:143,2,75,6|2|10,1:3|1:2|0:2,0:0:0:0:
59,265,66000,5,6,1:2:0:0:
199,169,66400,2,0,L|261:162,1,50,10|8,1:2|1:2,0:0:0:0:
312,107,66800,2,0,L|374:114,1,50,10|0,1:2|1:0,0:0:0:0:
433,157,67200,1,6,1:2:0:0:
328,23,67600,6,0,P|307:40|253:42,1,75,2|2,1:2|0:2,0:0:0:0:
218,45,68000,2,0,P|203:32|163:30,1,50,0|2,1:0|0:2,0:0:0:0:
106,80,68400,2,0,L|127:173,1,75,2|2,1:2|0:2,0:0:0:0:
150,185,68800,2,0,L|135:250,1,50,0|2,1:0|0:2,0:0:0:0:
81,297,69200,1,2,1:2:0:0:
233,373,69600,6,0,L|291:364,1,50,2|0,1:2|0:0,0:0:0:0:
354,320,70000,2,0,L|403:327,1,50,2|0,1:2|0:2,0:0:0:0:
477,285,70400,2,0,P|485:253|474:220,1,50,2|2,1:2|0:2,0:0:0:0:
410,190,70800,6,0,L|425:105,1,75,2|2,1:2|0:2,0:0:0:0:
404,78,71200,2,0,L|346:63,1,50,0|2,1:0|0:2,0:0:0:0:
277,100,71600,2,0,P|251:82|193:80,1,75,2|2,1:2|0:2,0:0:0:0:
172,98,72000,2,0,P|156:104|109:98,1,50,0|2,1:0|0:2,0:0:0:0:
54,54,72400,1,2,1:2:0:0:
5,217,72800,6,0,L|58:224,1,50,0|2,1:0|0:2,0:0:0:0:
131,187,73200,2,0,P|139:222|132:245,1,50,2|0,1:2|0:0,0:0:0:0:
88,305,73600,2,0,P|79:340|86:363,1,50,0|0,1:0|0:0,0:0:0:0:
163,376,74000,6,0,P|188:351|234:340,1,75,6|2,1:2|0:2,0:0:0:0:
265,355,74400,2,0,P|292:368|322:371,1,50,0|2,0:0|1:2,0:0:0:0:
383,326,74800,2,0,P|396:299|399:269,1,50,6|0,1:2|0:0,0:0:0:0:
347,211,75200,1,0,1:0:0:0:
397,142,75400,1,2,0:2:0:0:
353,69,75600,6,0,L|257:58,1,75,6|2,1:2|0:2,0:0:0:0:
244,35,76000,2,0,L|175:42,1,50,0|2,0:0|0:2,0:0:0:0:
109,31,76400,2,0,P|115:70|120:122,1,75,2|8,1:2|0:0,0:0:0:0:
99,143,76800,2,0,P|95:168|91:202,1,50,8|8,0:0|0:0,0:0:0:0:
35,255,77200,6,0,P|49:281|59:311,1,50,6|0,1:2|1:0,0:0:0:0:
122,353,77600,2,0,P|130:329|143:307,1,50,10|0,0:2|1:0,0:0:0:0:
221,272,78000,2,0,P|244:280|266:293,1,50,10|0,0:2|1:0,0:0:0:0:
319,360,78400,1,10,0:2:0:0:
399,331,78600,1,0,1:0:0:0:
346,264,78800,6,0,L|359:185,1,75,10|0,0:2|0:0,0:0:0:0:
389,160,79200,2,0,L|381:106,1,50,10|0,0:2|1:0,0:0:0:0:
320,51,79600,2,0,L|223:66,1,75,14|10,1:2|1:3,0:0:0:0:
206,78,80000,2,0,L|139:69,1,50,8|2,1:3|1:2,0:0:0:0:
80,32,80400,6,1,P|52:67|86:166,1,150,6|0,1:2|0:0,0:0:0:0:
145,212,81200,6,1,B|173:197|186:164|186:164|229:132|282:163,1,150,6|0,1:2|0:0,0:0:0:0:
332,209,82000,6,0,B|346:243|346:243|312:353,1,150,6|0,1:2|0:0,0:0:0:0:
236,384,82800,6,0,L|177:372,1,50,6|2,1:2|0:2,0:0:0:0:
133,307,83200,2,0,L|145:248,1,50,10|10,0:3|0:3,0:0:0:0:
79,201,83600,6,0,P|81:176|94:154,1,50,6|2,1:2|1:2,0:0:0:0:
148,89,84000,2,0,P|169:101|196:104,1,50,2|2,1:2|1:2,0:0:0:0:
267,61,84400,2,0,L|368:89,1,100,10|10,1:2|1:2,0:0:0:0:
510,2,85200,1,6,1:2:0:0:
256,192,88400,1,6,1:2:0:0:
256,192,88500,12,2,90600,1:2:0:0:
