osu file format v14

[General]
AudioFilename: audio.mp3
AudioLeadIn: 0
PreviewTime: 591
Countdown: 0
SampleSet: Normal
StackLeniency: 0.2
Mode: 0
LetterboxInBreaks: 0
WidescreenStoryboard: 0

[Editor]
DistanceSpacing: 2.2
BeatDivisor: 4
GridSize: 32
TimelineZoom: 3.099999

[Metadata]
Title:No Tatsuki No Tanoshii
TitleUnicode:No Tatsuki No Tanoshii
Artist:Fucked
ArtistUnicode:Fucked
Creator:Maakkeli
Version:JAPARI
Source:
Tags:grindcore japarigate
BeatmapID:1613401
BeatmapSetID:767495

[Difficulty]
HPDrainRate:6
CircleSize:4
OverallDifficulty:10
ApproachRate:10
SliderMultiplier:1.8
SliderTickRate:1

[Events]
//Background and Video events
0,0,"japarigate.jpg",0,0
//Break Periods
//Storyboard Layer 0 (Background)
//Storyboard Layer 1 (Fail)
//Storyboard Layer 2 (Pass)
//Storyboard Layer 3 (Foreground)
//Storyboard Sound Samples

[TimingPoints]
660,272.727272727273,4,1,1,60,1,0
1750,-100,4,1,2,60,0,0
4205,-100,4,2,0,60,0,0
5841,-100,4,1,2,60,0,0
6387,-100,4,2,0,60,0,0
7750,-20,4,2,0,60,0,0
8296,-100,4,1,2,60,0,1
10478,-100,4,1,1,60,0,1
10750,-100,4,1,3,60,0,1
11023,-100,4,1,1,60,0,1
11296,-100,4,1,4,60,0,1
11569,-100,4,1,1,60,0,1
12660,-100,4,1,1,60,0,0
13682,-100,4,2,0,60,0,0

[Colours]
Combo1 : 232,0,5
Combo2 : 136,136,136

[HitObjects]
129,261,660,5,8,0:0:0:0:
235,248,932,1,8,0:0:0:0:
342,235,1205,1,8,0:0:0:0:
449,222,1478,1,8,0:0:0:0:
94,115,1750,5,6,0:0:0:0:
141,88,1819,1,8,0:0:0:0:
194,84,1887,1,2,0:0:0:0:
242,107,1955,1,8,0:0:0:0:
273,150,2023,1,2,0:0:0:0:
307,191,2091,1,8,0:0:0:0:
359,207,2160,1,2,0:0:0:0:
410,192,2228,1,8,0:0:0:0:
450,156,2296,5,2,0:0:0:0:
401,133,2364,1,8,0:0:0:0:
348,143,2432,1,2,0:0:0:0:
307,178,2500,1,8,0:0:0:0:
295,231,2569,1,2,0:0:0:0:
312,281,2637,1,8,0:0:0:0:
355,312,2705,1,2,0:0:0:0:
408,316,2773,1,8,0:0:0:0:
485,254,2841,5,6,0:0:0:0:
430,249,2910,1,8,0:0:0:0:
376,244,2978,1,2,0:0:0:0:
322,239,3046,1,8,0:0:0:0:
268,234,3114,1,2,0:0:0:0:
214,230,3182,1,8,0:0:0:0:
160,226,3250,1,2,0:0:0:0:
105,222,3319,1,8,0:0:0:0:
51,218,3387,5,2,0:0:0:0:
76,265,3455,1,8,0:0:0:0:
129,271,3523,1,2,0:0:0:0:
160,226,3591,1,8,0:0:0:0:
139,175,3660,1,2,0:0:0:0:
85,175,3728,1,8,0:0:0:0:
51,218,3796,1,2,0:0:0:0:
76,265,3864,1,8,0:0:0:0:
160,226,3932,5,6,0:0:0:0:
160,226,4205,1,0,0:0:0:0:
160,226,4478,1,0,0:0:0:0:
160,226,4750,1,0,0:0:0:0:
172,118,5023,5,0,0:0:0:0:
172,118,5296,1,0,0:0:0:0:
172,118,5569,1,0,0:0:0:0:
172,118,5841,1,2,0:0:0:0:
175,114,5910,1,2,0:0:0:0:
177,110,5978,1,2,0:0:0:0:
180,106,6046,1,2,0:0:0:0:
183,102,6114,5,6,0:0:0:0:
183,102,6387,1,0,0:0:0:0:
183,102,6660,1,0,0:0:0:0:
183,102,6932,1,0,0:0:0:0:
163,208,7205,5,0,0:0:0:0:
163,208,7478,1,0,0:0:0:0:
159,82,7750,6,0,B|104:51|37:68|37:68|52:114|22:163|22:163|86:145|106:150|120:166|140:202|198:189|228:166|241:138|294:84|217:8|217:8|332:17|343:162|343:162|401:203|451:180|456:131|441:95|418:81|381:73|349:103|341:122|341:122|326:164|316:187|296:208|271:228|271:228|328:256|360:272|391:273|430:268|454:255|454:255|461:309|508:345|508:345|460:309|406:299,1,1575
307,368,8296,5,6,0:0:0:0:
345,330,8364,1,8,0:0:0:0:
355,277,8432,1,2,0:0:0:0:
335,226,8500,1,8,0:0:0:0:
288,197,8569,1,2,0:0:0:0:
250,158,8637,1,8,0:0:0:0:
245,104,8705,1,2,0:0:0:0:
265,54,8773,1,8,0:0:0:0:
312,29,8841,1,2,0:0:0:0:
366,33,8910,1,8,0:0:0:0:
410,63,8978,1,2,0:0:0:0:
427,113,9046,1,8,0:0:0:0:
418,166,9114,1,2,0:0:0:0:
379,203,9182,1,8,0:0:0:0:
325,212,9250,1,2,0:0:0:0:
274,190,9319,1,8,0:0:0:0:
335,118,9387,5,6,0:0:0:0:
365,162,9455,1,8,0:0:0:0:
369,214,9523,1,2,0:0:0:0:
339,259,9591,1,8,0:0:0:0:
290,284,9660,1,2,0:0:0:0:
236,276,9728,1,8,0:0:0:0:
194,241,9796,1,2,0:0:0:0:
181,188,9864,1,8,0:0:0:0:
180,134,9932,1,2,0:0:0:0:
149,89,10000,1,8,0:0:0:0:
96,73,10069,1,2,0:0:0:0:
43,85,10137,1,8,0:0:0:0:
7,125,10205,1,2,0:0:0:0:
0,178,10273,1,8,0:0:0:0:
22,227,10341,1,2,0:0:0:0:
69,254,10410,1,8,0:0:0:0:
91,165,10478,5,12,0:0:0:0:
94,263,10546,1,8,0:0:0:0:
167,328,10614,1,8,0:0:0:0:
265,321,10682,1,8,0:0:0:0:
324,242,10750,5,2,0:0:0:0:
341,246,10819,1,2,0:0:0:0:
358,250,10887,1,2,0:0:0:0:
375,254,10955,1,2,0:0:0:0:
471,276,11023,5,12,0:0:0:0:
372,287,11091,1,8,0:0:0:0:
272,299,11160,1,8,0:0:0:0:
173,310,11228,1,8,0:0:0:0:
75,322,11296,5,2,0:0:0:0:
92,326,11365,1,2,0:0:0:0:
109,330,11433,1,2,0:0:0:0:
126,334,11501,1,2,0:0:0:0:
221,359,11569,5,12,0:0:0:0:
207,261,11637,1,8,0:0:0:0:
193,163,11705,1,2,0:0:0:0:
196,166,11773,1,2,0:0:0:0:
115,223,11841,5,12,0:0:0:0:
214,212,11910,1,8,0:0:0:0:
312,200,11978,1,2,0:0:0:0:
315,203,12046,1,2,0:0:0:0:
276,293,12114,5,12,0:0:0:0:
261,195,12182,1,8,0:0:0:0:
246,97,12250,1,2,0:0:0:0:
249,100,12319,1,2,0:0:0:0:
169,159,12387,5,12,0:0:0:0:
261,195,12455,1,8,0:0:0:0:
340,135,12523,1,8,0:0:0:0:
328,36,12591,1,8,0:0:0:0:
233,2,12660,5,12,0:0:0:0:
256,192,12728,12,0,13682,0:0:0:0:
