osu file format v14

[General]
AudioFilename: audio.mp3
AudioLeadIn: 0
PreviewTime:70193
Countdown: 0
SampleSet: Soft
StackLeniency: 0.7
Mode: 0
LetterboxInBreaks: 0
WidescreenStoryboard: 1

[Editor]
Bookmarks: 15755,32193,48193,56193,64193,80193,87693
DistanceSpacing: 0.72
BeatDivisor: 4
GridSize: 32
TimelineZoom: 1.6

[Metadata]
Title:Hitoshibai (TV Size)
TitleUnicode:人芝居 (TV Size)
Artist:Fuchigami Mai
ArtistUnicode:渕上 舞
Creator:Selithrarion
Version:mint_'s Insane
Source:ようこそ実力至上主義の教室へ 2nd Season
Tags:pop japanese jpop anime welcome to the classroom of elite Youkoso Jitsuryoku Shijou Shugi no Kyoushitsu 佐高陵平 Sataka Ryouhei ed ending s2 hito shibai mint_ mintIceCream_ amb1d3x hishiro chizuru lasse nevertary fisky
BeatmapID:3842277
BeatmapSetID:1867828

[Difficulty]
HPDrainRate:5
CircleSize:4
OverallDifficulty:8
ApproachRate:8.8
SliderMultiplier:2
SliderTickRate:1

[Events]
//Background and Video events
0,0,"gMPKs9i4_2x_.jpg",0,0
Video,-325,"video.mp4"
//Break Periods
//Storyboard Layer 0 (Background)
//Storyboard Layer 1 (Fail)
//Storyboard Layer 2 (Pass)
//Storyboard Layer 3 (Foreground)
//Storyboard Layer 4 (Overlay)
//Storyboard Sound Samples

[TimingPoints]
193,500,4,2,1,40,1,0
8193,-66.6666666666667,4,2,1,50,0,0
15693,-100,4,2,1,50,0,0
16193,-100,4,2,1,60,0,0
17193,-66.6666666666667,4,2,1,60,0,0
19943,-100,4,2,1,60,0,0
21693,-66.6666666666667,4,2,1,60,0,0
24693,-50,4,2,1,60,0,0
27693,-66.6666666666667,4,2,1,60,0,0
28443,-100,4,2,1,60,0,0
31443,-66.6666666666667,4,2,1,60,0,0
32193,-66.6666666666667,4,2,1,70,0,0
32693,-100,4,2,1,70,0,0
33380,-100,4,2,1,70,0,0
33443,-100,4,2,1,70,0,0
35693,-66.6666666666667,4,2,1,70,0,0
40693,-50,4,2,1,70,0,0
41193,-100,4,2,1,70,0,0
42193,-50,4,2,1,70,0,0
42693,-66.6666666666667,4,2,1,70,0,0
43693,-50,4,2,1,70,0,0
44193,-66.6666666666667,4,2,1,70,0,0
45943,-100,4,2,1,70,0,0
46193,-66.6666666666667,4,2,1,70,0,0
46693,-100,4,2,1,70,0,0
46943,-66.6666666666667,4,2,1,70,0,0
48193,-100,4,2,1,50,0,0
52193,-100,4,2,1,30,0,0
52943,-100,4,2,1,50,0,0
56130,-100,4,2,1,5,0,0
56193,-50,4,2,1,70,0,1
56380,-50,4,2,1,5,0,1
56443,-50,4,2,1,70,0,1
57693,-40,4,2,1,70,0,1
58443,-66.6666666666667,4,2,1,70,0,1
58693,-40,4,2,1,70,0,1
59443,-50,4,2,1,70,0,1
59693,-40,4,2,1,70,0,1
60005,-40,4,2,1,5,0,1
60068,-40,4,2,1,70,0,1
60193,-66.6666666666667,4,2,1,70,0,1
60943,-50,4,2,1,70,0,1
62693,-100,4,2,1,70,0,1
63693,-40,4,2,1,70,0,1
64380,-40,4,2,1,5,0,1
64443,-40,4,2,1,70,0,1
65193,-66.6666666666667,4,2,1,70,0,1
65693,-40,4,2,1,70,0,1
66443,-66.6666666666667,4,2,1,70,0,1
66693,-40,4,2,1,70,0,1
67443,-66.6666666666667,4,2,1,70,0,1
67693,-40,4,2,1,70,0,1
68005,-40,4,2,1,5,0,1
68068,-40,4,2,1,70,0,1
68693,-66.6666666666667,4,2,1,70,0,1
69130,-66.6666666666667,4,2,1,5,0,1
69193,-66.6666666666667,4,2,1,70,0,1
69380,-66.6666666666667,4,2,1,70,0,1
69443,-66.6666666666667,4,2,1,70,0,1
70193,-40,4,2,1,70,0,1
70505,-40,4,2,1,5,0,1
70568,-66.6666666666667,4,2,1,70,0,1
70755,-66.6666666666667,4,2,1,5,0,1
70818,-66.6666666666667,4,2,1,70,0,1
70943,-50,4,2,1,70,0,1
71443,-66.6666666666667,4,2,1,70,0,1
71693,-66.6666666666667,4,2,1,70,0,0
72193,-50,4,2,1,80,0,1
72693,-66.6666666666667,4,2,1,80,0,1
75193,-50,4,2,1,80,0,1
76693,-66.6666666666667,4,2,1,80,0,1
78943,-50,4,2,1,80,0,1
79443,-66.6666666666667,4,2,1,80,0,1
79693,-100,4,2,1,80,0,1
80193,-50,4,2,1,80,0,1
80693,-66.6666666666667,4,2,1,80,0,1
84193,-50,4,2,1,80,0,1
84693,-66.6666666666667,4,2,1,80,0,1
87693,-66.6666666666667,4,2,1,60,0,0
88193,-66.6666666666667,4,2,1,5,0,0

[Colours]
Combo1 : 249,62,122
Combo2 : 111,198,255
Combo3 : 164,153,153

[HitObjects]
0,383,193,6,0,P|37:274|260:161,1,350,2|0,0:0|0:0,0:0:0:0:
231,160,1193,2,0,P|305:95|176:83,1,300,2|0,0:0|0:0,0:0:0:0:
172,252,2193,5,2,0:0:0:0:
232,328,2568,1,2,0:0:0:0:
262,242,2943,1,2,0:0:0:0:
171,262,3193,5,2,0:0:0:0:
263,236,3568,1,2,0:0:0:0:
239,324,3943,1,2,0:0:0:0:
424,104,4193,6,0,B|406:75|353:67|353:67|457:39|543:135|462:249,1,350,2|0,0:0|0:0,0:0:0:0:
361,230,5193,2,0,P|330:178|360:139,1,100,2|0,0:0|0:0,0:0:0:0:
378,228,5693,2,0,B|377:196|401:171|401:171|365:162|332:203|359:246,1,150,2|0,0:0|0:0,0:0:0:0:
307,291,6193,6,0,P|259:307|154:357,2,150,2|0|2,0:0|0:0|0:0,0:0:0:0:
408,299,7193,5,2,0:0:0:0:
432,311,7318,1,2,0:0:0:0:
448,330,7443,1,2,0:0:0:0:
456,358,7568,1,2,0:0:0:0:
237,202,7818,5,2,0:0:0:0:
258,227,7943,1,2,0:0:0:0:
276,255,8068,1,2,0:0:0:0:
291,285,8193,2,0,B|258:253|225:235|225:235|225:125|316:70,1,225.000008583069,6|0,1:2|0:0,0:0:0:0:
409,36,8693,2,0,B|412:76|445:137|445:137|407:185|380:259,1,225.000008583069,10|0,0:0|0:0,0:0:0:0:
380,224,9193,6,0,P|333:152|334:117,1,75.0000028610231,0|0,1:2|0:0,0:0:0:0:
381,43,9443,1,2,0:0:0:0:
420,57,9568,2,0,L|304:92,1,75.0000028610231,2|8,0:0|0:0,0:0:0:0:
198,129,9943,1,2,0:0:0:0:
30,192,10193,6,0,L|125:161,1,75.0000028610231,6|0,1:2|0:0,0:0:0:0:
185,45,10443,1,2,0:0:0:0:
138,32,10568,2,0,P|105:65|115:117,1,75.0000028610231,2|8,0:0|0:0,0:0:0:0:
151,283,10943,1,2,0:0:0:0:
142,300,11193,6,0,P|107:259|132:160,1,150.000005722046,0|0,1:2|0:0,0:0:0:0:
233,302,11568,2,0,P|214:352|116:380,1,150.000005722046,2|0,1:2|0:0,0:0:0:0:
200,221,11943,2,0,P|253:215|290:238,1,75.0000028610231,2|0,0:0|0:0,0:0:0:0:
481,334,12193,6,0,B|479:304|497:268|497:268|418:300|338:258,1,225.000008583069,6|0,1:2|0:0,0:0:0:0:
464,161,12693,2,0,P|410:300|395:387,1,225.000008583069,10|0,0:0|0:0,0:0:0:0:
481,334,13193,6,0,P|475:285|452:246,1,75.0000028610231,0|0,1:2|0:0,0:0:0:0:
254,261,13443,1,2,0:0:0:0:
283,304,13568,2,0,L|369:245,1,75.0000028610231,2|8,0:0|0:0,0:0:0:0:
471,167,13943,1,0,0:0:0:0:
371,32,14193,2,0,L|426:124,1,75.0000028610231,6|0,1:2|0:0,0:0:0:0:
396,197,14443,1,2,0:0:0:0:
368,178,14568,2,0,P|382:131|402:92,1,75.0000028610231,2|8,0:0|0:0,0:0:0:0:
483,77,14818,1,2,0:0:0:0:
498,82,14943,2,0,L|414:103,1,75.0000028610231,2|0,0:0|0:0,0:0:0:0:
214,184,15193,5,0,1:2:0:0:
163,161,15318,1,2,0:0:0:0:
151,113,15443,1,2,0:0:0:0:
171,66,15568,1,2,0:0:0:0:
214,79,15693,2,0,P|224:84|209:81,1,50,10|0,0:0|0:0,0:0:0:0:
195,93,15943,2,0,P|203:101|190:93,1,50,2|0,3:3|0:0,0:0:0:0:
125,0,16193,5,6,1:2:0:0:
110,365,16693,5,10,0:0:0:0:
205,200,16943,1,2,0:0:0:0:
72,212,17193,2,0,P|103:256|126:269,1,75.0000028610231,2|0,1:2|0:0,0:0:0:0:
220,289,17443,1,2,0:0:0:0:
253,292,17568,1,2,0:0:0:0:
290,306,17693,2,0,P|320:338|329:372,1,75.0000028610231,10|0,0:0|0:0,0:0:0:0:
238,379,17943,1,2,0:0:0:0:
188,212,18193,1,2,1:2:0:0:
498,110,18693,5,10,0:0:0:0:
298,178,18943,1,2,0:0:0:0:
430,239,19193,1,2,1:2:0:0:
419,200,19318,1,2,0:0:0:0:
400,170,19443,1,2,0:0:0:0:
372,147,19568,1,2,0:0:0:0:
417,84,19693,2,0,P|431:50|442:34,2,50.0000019073487,10|0|0,0:0|0:0|0:0,0:0:0:0:
412,23,19943,2,0,P|427:5|445:-4,2,33.3333333333333,2|0|0,0:0|0:0|0:0,0:0:0:0:
499,104,20193,1,2,1:2:0:0:
35,62,20693,5,10,0:0:0:0:
219,139,20943,1,2,0:0:0:0:
153,65,21193,2,0,L|90:85,3,50,2|0|0|0,1:2|0:0|0:0|0:0,0:0:0:0:
59,158,21693,2,0,L|150:180,3,75.0000028610231,10|0|0|0,0:0|0:0|0:0|0:0,0:0:0:0:
130,197,22193,1,2,1:2:0:0:
159,243,22318,1,2,0:0:0:0:
173,294,22443,1,2,0:0:0:0:
176,340,22568,1,2,0:0:0:0:
90,369,22693,1,10,0:0:0:0:
481,259,22943,5,2,0:0:0:0:
484,240,23068,1,2,0:0:0:0:
398,248,23193,2,0,L|313:278,1,75.0000028610231,2|0,1:2|0:0,0:0:0:0:
348,352,23443,2,0,L|426:324,1,75.0000028610231,2|0,0:0|0:0,0:0:0:0:
436,165,23693,1,10,0:0:0:0:
441,117,23818,1,2,0:0:0:0:
447,66,23943,1,2,0:0:0:0:
441,55,24193,6,0,B|437:22|476:17|509:42|509:42|464:52|451:85,1,150.000005722046,6|0,1:2|0:0,0:0:0:0:
348,116,24568,5,2,0:0:0:0:
334,139,24693,2,0,P|246:118|228:68,1,100,10|0,0:0|0:0,0:0:0:0:
146,92,24943,2,0,P|170:48|229:31,1,100,2|0,0:0|0:0,0:0:0:0:
300,44,25193,1,2,1:2:0:0:
54,140,25443,5,2,0:0:0:0:
68,175,25568,1,2,0:0:0:0:
108,178,25693,1,10,0:0:0:0:
195,194,25943,2,0,P|237:158|231:108,2,100,2|0|0,0:0|0:0|1:2,0:0:0:0:
19,57,26693,6,0,P|65:107|64:145,1,100,10|0,0:0|0:0,0:0:0:0:
178,202,26943,2,0,P|158:260|108:283,1,100,2|0,0:0|0:0,0:0:0:0:
0,233,27193,1,2,1:2:0:0:
28,216,27318,1,2,0:0:0:0:
46,239,27443,1,2,0:0:0:0:
20,260,27568,1,2,0:0:0:0:
0,335,27693,6,0,P|5:356|29:391,2,37.5000014305115,10|0|0,0:0|0:0|0:0,0:0:0:0:
97,297,27943,1,2,0:0:0:0:
170,325,28068,1,2,0:0:0:0:
219,384,28193,1,2,1:2:0:0:
398,292,28443,6,0,L|350:306,2,50,0|0|8,0:0|0:0|0:0,0:0:0:0:
327,195,28943,5,2,0:0:0:0:
432,384,29193,1,2,1:2:0:0:
459,159,29443,1,2,0:0:0:0:
426,174,29568,1,2,0:0:0:0:
414,203,29693,2,0,L|451:218,2,33.3333333333333,10|0|0,0:0|0:0|0:0,0:0:0:0:
348,101,29943,2,0,L|310:89,2,33.3333333333333,2|0|0,0:0|0:0|0:0,0:0:0:0:
318,187,30193,5,2,1:2:0:0:
293,200,30318,1,2,0:0:0:0:
235,199,30443,1,2,0:0:0:0:
197,159,30568,1,2,0:0:0:0:
187,84,30693,2,0,L|208:32,1,50,10|0,0:0|0:0,0:0:0:0:
300,35,30943,2,0,L|273:106,1,50,2|0,0:0|0:0,0:0:0:0:
171,165,31193,6,0,L|146:209,2,33.3333333333333,2|0|0,1:2|0:0|0:0,0:0:0:0:
69,180,31443,2,0,L|70:249,2,50.0000019073487,2|0|0,0:0|0:0|0:0,0:0:0:0:
8,113,31692,1,10,1:3:0:0:
346,335,32193,6,0,P|269:271|144:214,1,225.000008583069,6|0,1:2|0:0,0:0:0:0:
162,229,32693,2,0,P|178:274|195:349,1,100,10|0,0:0|0:0,0:0:0:0:
263,366,33068,5,2,0:0:0:0:
285,266,33193,2,0,P|290:217|296:150,2,100,2|0|10,1:2|0:0|0:0,0:0:0:0:
178,55,33943,5,2,0:0:0:0:
212,137,34068,1,2,0:0:0:0:
294,166,34193,2,0,L|365:182,1,50,2|0,1:2|0:0,0:0:0:0:
313,85,34443,2,0,L|247:71,1,50,2|0,0:0|0:0,0:0:0:0:
202,140,34693,1,10,0:0:0:0:
398,107,34943,5,2,0:0:0:0:
442,83,35068,1,2,0:0:0:0:
472,48,35193,2,0,L|481:-6,1,50,2|0,1:2|0:0,0:0:0:0:
307,268,35568,5,2,0:0:0:0:
358,249,35693,2,0,P|372:167|387:93,1,150.000005722046,10|0,0:0|0:0,0:0:0:0:
391,180,36068,5,0,0:0:0:0:
458,221,36193,2,0,B|456:292|456:292|368:341,1,150.000005722046,2|0,1:2|0:0,0:0:0:0:
214,298,36568,1,2,0:0:0:0:
223,281,36693,2,0,P|275:294|372:334,1,150.000005722046,10|0,0:0|0:0,0:0:0:0:
446,234,37068,5,2,0:0:0:0:
462,228,37193,2,0,P|483:265|489:301,1,75.0000028610231,2|0,1:2|0:0,0:0:0:0:
361,241,37443,2,0,P|346:200|348:165,1,75.0000028610231,2|0,0:0|0:0,0:0:0:0:
438,134,37693,1,10,0:0:0:0:
135,224,38068,5,2,0:0:0:0:
150,247,38193,1,2,1:2:0:0:
98,24,38443,1,2,0:0:0:0:
54,291,38693,1,10,0:0:0:0:
214,168,38943,5,2,0:0:0:0:
221,152,39068,1,2,0:0:0:0:
220,137,39193,2,0,P|152:123|52:112,1,150.000005722046,2|0,1:2|0:0,0:0:0:0:
0,188,39568,1,2,0:0:0:0:
18,205,39693,2,0,L|97:189,1,75.0000028610231,10|0,0:0|0:0,0:0:0:0:
153,92,39943,1,2,0:0:0:0:
189,238,40193,6,0,L|350:281,1,150.000005722046,2|0,1:2|0:0,0:0:0:0:
194,242,40693,2,0,P|337:238|430:377,1,300,14|0,0:0|0:0,0:0:0:0:
323,340,41193,6,0,L|336:281,1,50,2|0,1:2|0:0,0:0:0:0:
439,304,41443,2,0,L|424:362,1,50,2|0,0:0|0:0,0:0:0:0:
240,379,41693,1,10,0:0:0:0:
398,145,41943,5,2,3:0:0:0:
377,182,42068,1,2,0:0:0:0:
345,200,42193,2,0,L|293:219,7,50,2|0|0|0|0|0|0|0,1:2|0:0|0:0|0:0|0:0|0:0|0:0|0:0,0:0:0:0:
378,129,42693,2,0,L|326:117,7,37.5000014305115,10|0|0|0|0|0|0|0,0:0|0:0|0:0|0:0|0:0|0:0|0:0|0:0,0:0:0:0:
415,59,43193,5,2,1:2:0:0:
465,87,43318,1,2,0:0:0:0:
485,131,43443,1,2,0:0:0:0:
485,182,43568,1,2,0:0:0:0:
460,225,43693,2,0,L|243:179,1,200,10|2,0:0|3:0,0:0:0:0:
194,120,44068,5,2,0:0:0:0:
175,107,44193,2,0,P|119:148|129:241,1,150.000005722046,2|0,1:2|0:0,0:0:0:0:
198,227,44568,1,2,0:0:0:0:
192,206,44693,1,10,0:0:0:0:
307,59,45068,5,2,0:0:0:0:
302,80,45193,1,2,1:2:0:0:
44,101,45443,1,2,0:0:0:0:
187,26,45693,1,10,0:0:0:0:
133,128,45943,2,0,L|125:79,1,50,2|0,3:0|0:0,0:0:0:0:
8,200,46193,6,0,B|55:139|55:139|138:141,1,150.000005722046,2|0,1:2|0:0,0:0:0:0:
141,242,46568,1,2,0:0:0:0:
110,246,46693,2,0,L|86:195,2,33.3333333333333,10|0|0,0:0|0:0|0:0,0:0:0:0:
205,300,46943,2,0,L|220:244,2,50.0000019073487,2|0|0,0:0|0:0|0:0,0:0:0:0:
279,368,47193,5,2,1:2:0:0:
355,349,47318,1,2,0:0:0:0:
413,299,47443,1,2,0:0:0:0:
447,232,47568,1,2,0:0:0:0:
454,156,47693,1,10,0:0:0:0:
399,295,47943,5,2,0:0:0:0:
381,287,48068,1,2,0:0:0:0:
363,276,48193,2,0,P|359:202|393:103,2,150,2|0|0,0:0|0:0|0:0,0:0:0:0:
466,163,49193,1,10,0:0:0:0:
72,28,49693,5,2,0:0:0:0:
197,65,50193,2,0,B|131:133|131:133|21:141,2,200,2|2|10,0:0|1:2|0:0,0:0:0:0:
61,16,51693,6,0,P|75:59|84:131,1,100,2|0,0:0|0:0,0:0:0:0:
127,220,52193,2,0,L|113:257,8,25,2|0|0|0|0|0|0|0|2,0:0|0:0|0:0|0:0|0:0|0:0|0:0|0:0|0:0,0:0:0:0:
221,158,52943,5,2,0:0:0:0:
242,166,53068,1,2,0:0:0:0:
253,194,53193,1,10,0:0:0:0:
196,255,53443,1,2,0:0:0:0:
312,319,53693,1,2,0:0:0:0:
232,354,53943,1,2,0:0:0:0:
240,367,54068,1,2,0:0:0:0:
233,379,54193,1,2,0:0:0:0:
256,192,54255,12,0,55630,0:0:0:0:
137,229,55693,6,0,P|75:295|116:370,1,175,2|0,1:2|0:0,0:0:0:0:
121,372,56193,6,0,L|276:305,1,150,6|0,1:2|0:0,0:0:0:0:
324,233,56443,1,2,0:0:0:0:
339,205,56568,1,2,0:0:0:0:
375,195,56693,2,0,P|445:238|393:366,1,200,10|0,0:0|0:0,0:0:0:0:
241,228,57068,5,2,0:0:0:0:
231,225,57193,2,0,P|225:185|203:126,1,100,2|0,1:2|0:0,0:0:0:0:
58,56,57443,2,0,P|48:111|111:138,1,100,2|0,0:0|0:0,0:0:0:0:
209,121,57693,2,0,P|241:44|139:83,1,250,8|0,0:0|0:0,0:0:0:0:
195,257,58068,5,2,0:0:0:0:
227,243,58193,2,0,P|221:203|194:119,1,125,2|0,1:2|0:0,0:0:0:0:
277,72,58443,2,0,P|294:19|326:4,1,75.0000028610231,2|0,0:0|0:0,0:0:0:0:
462,108,58693,2,0,P|444:170|276:130,1,250,10|0,0:0|0:0,0:0:0:0:
262,265,59068,5,2,0:0:0:0:
217,234,59193,2,0,P|189:135|164:68,1,125,2|0,1:2|0:0,0:0:0:0:
91,227,59443,2,0,P|73:292|105:321,1,100,2|0,0:0|0:0,0:0:0:0:
229,342,59693,2,0,P|187:204|127:34,1,312.5,10|0,1:2|0:0,0:0:0:0:
103,42,60068,5,2,0:0:0:0:
84,38,60193,2,0,B|18:24|18:24|65:68,1,112.500004291535,6|0,1:2|0:0,0:0:0:0:
122,123,60443,1,2,0:0:0:0:
145,126,60568,1,2,0:0:0:0:
165,131,60693,2,0,B|245:147|245:147|267:179,1,112.500004291535,10|0,0:0|0:0,0:0:0:0:
325,249,60943,6,0,P|349:188|403:173,1,100,2|0,0:0|0:0,0:0:0:0:
472,161,61193,1,2,1:2:0:0:
339,59,61443,5,2,0:0:0:0:
317,76,61568,1,2,0:0:0:0:
319,101,61693,1,8,0:0:0:0:
434,260,61943,5,2,0:0:0:0:
432,34,62193,2,0,P|410:12|364:-10,7,50,2|0|0|0|0|0|0|0,1:2|0:0|0:0|0:0|0:0|0:0|0:0|0:0,0:0:0:0:
479,104,62693,2,0,P|492:89|501:71,5,33.3333333333333,10|0|0|0|0|0,0:0|0:0|0:0|0:0|0:0|0:0,0:0:0:0:
392,149,63193,5,2,1:2:0:0:
360,228,63318,1,2,0:0:0:0:
433,283,63443,1,2,0:0:0:0:
436,275,63693,6,0,P|393:205|88:93,1,375,10|0,1:2|0:0,0:0:0:0:
135,168,64193,6,0,P|225:171|197:125,1,187.5,6|0,1:2|0:0,0:0:0:0:
123,85,64443,1,2,0:0:0:0:
75,96,64568,1,2,0:0:0:0:
37,113,64693,2,0,P|111:205|170:360,1,250,10|0,0:0|0:0,0:0:0:0:
56,339,65068,5,2,0:0:0:0:
84,326,65193,2,0,L|97:234,1,75.0000028610231,2|0,1:2|0:0,0:0:0:0:
223,202,65443,2,0,P|197:240|153:252,1,75.0000028610231,2|0,0:0|0:0,0:0:0:0:
17,274,65693,2,0,P|10:175|83:248,1,250,8|0,0:0|0:0,0:0:0:0:
117,384,66068,5,2,0:0:0:0:
81,364,66193,2,0,L|99:217,1,125,2|0,1:2|0:0,0:0:0:0:
0,201,66443,2,0,P|-5:246|18:282,1,75.0000028610231,2|0,0:0|0:0,0:0:0:0:
182,259,66693,2,0,P|301:276|355:384,1,250,10|0,0:0|0:0,0:0:0:0:
39,378,67068,5,2,0:0:0:0:
86,359,67193,2,0,L|106:214,1,125,2|0,1:2|0:0,0:0:0:0:
191,271,67443,2,0,L|179:349,1,75.0000028610231,2|0,0:0|0:0,0:0:0:0:
93,362,67693,2,0,P|117:195|144:36,1,312.5,10|0,1:2|0:0,0:0:0:0:
152,51,68068,5,2,0:0:0:0:
105,61,68193,2,0,P|105:98|120:138,7,62.5,6|0|0|0|0|0|0|0,1:2|0:0|0:0|0:0|0:0|0:0|0:0|0:0,0:0:0:0:
189,117,68693,2,0,P|209:133|237:145,7,37.5000014305115,10|0|0|0|0|0|0|0,0:0|0:0|0:0|0:0|0:0|0:0|0:0|0:0,0:0:0:0:
260,73,69193,6,0,P|319:69|376:23,1,112.500004291535,2|0,1:2|0:0,0:0:0:0:
368,31,69443,1,2,0:0:0:0:
407,59,69568,1,2,0:0:0:0:
419,105,69693,1,8,0:0:0:0:
291,176,69943,1,2,0:0:0:0:
260,72,70193,6,0,B|242:32|242:32|322:25|428:127|372:272,1,312.5,2|0,1:2|0:0,0:0:0:0:
416,241,70568,2,0,P|410:301|473:341,1,112.500004291535,2|0,1:2|0:0,0:0:0:0:
486,187,70818,5,2,0:0:0:0:
412,130,70943,2,0,P|310:189|282:368,1,300,2|0,1:2|0:0,0:0:0:0:
376,381,71443,2,0,L|351:276,1,75.0000028610231,2|0,0:0|0:0,0:0:0:0:
252,240,71693,1,10,1:2:0:0:
216,375,71943,5,2,0:0:0:0:
239,362,72068,1,2,0:0:0:0:
269,353,72193,2,0,P|287:225|327:52,1,300,6|0,1:2|0:0,0:0:0:0:
206,64,72693,2,0,P|224:68|256:170,1,112.500004291535,10|0,0:0|0:0,0:0:0:0:
196,180,72943,5,2,0:0:0:0:
175,188,73068,1,2,0:0:0:0:
155,194,73193,2,0,P|105:264|142:336,2,150.000005722046,2|0|10,1:2|0:0|0:0,0:0:0:0:
133,39,73943,6,0,L|215:56,1,75.0000028610231,2|0,0:0|0:0,0:0:0:0:
356,101,74193,2,0,P|414:147|403:228,1,150.000005722046,6|0,1:2|0:0,0:0:0:0:
276,122,74568,2,0,P|286:48|362:17,1,150.000005722046,2|0,0:0|0:0,0:0:0:0:
323,198,74943,2,0,P|288:214|245:214,1,75.0000028610231,2|0,0:0|0:0,0:0:0:0:
51,189,75193,6,0,L|185:208,1,100,6|0,1:2|0:0,0:0:0:0:
187,304,75443,1,2,0:0:0:0:
153,347,75568,1,2,0:2:0:0:
139,343,75693,2,0,B|130:270|130:270|164:156,1,150,10|0,0:0|0:0,0:0:0:0:
205,128,75943,1,2,0:0:0:0:
3,384,76193,6,0,P|116:350|144:167,1,300,6|0,1:2|0:0,0:0:0:0:
0,251,76693,2,0,B|69:232|69:232|147:280,1,150.000005722046,10|0,0:0|0:0,0:0:0:0:
73,339,77068,5,2,0:0:0:0:
42,330,77193,2,0,L|27:243,1,75.0000028610231,2|0,1:2|0:0,0:0:0:0:
172,72,77443,5,2,0:0:0:0:
133,90,77568,1,2,0:0:0:0:
114,119,77693,2,0,P|117:159|155:195,1,75.0000028610231,10|0,0:0|0:0,0:0:0:0:
301,260,77943,1,2,0:0:0:0:
292,118,78193,6,0,P|233:137|207:166,1,75.0000028610231,6|0,1:2|0:0,0:0:0:0:
392,49,78443,5,2,0:0:0:0:
381,55,78568,2,0,P|338:48|299:33,1,75.0000028610231,2|8,0:0|0:0,0:0:0:0:
447,144,78818,5,2,0:0:0:0:
454,125,78943,2,0,P|288:73|138:49,1,300,2|0,0:0|0:0,0:0:0:0:
142,57,79443,6,0,P|101:26|103:-5,1,75.0000028610231,2|0,0:0|0:0,0:0:0:0:
231,93,79693,2,0,L|227:148,1,50,10|0,0:0|0:0,0:0:0:0:
217,219,79943,1,2,0:0:0:0:
219,364,80193,6,0,P|205:272|40:150,1,300,6|0,1:2|0:0,0:0:0:0:
135,199,80693,2,0,P|108:251|191:207,1,225.000008583069,10|0,0:0|0:0,0:0:0:0:
311,258,81193,6,0,B|385:279|385:279|410:352,1,150.000005722046,2|0,1:2|0:0,0:0:0:0:
240,358,81568,1,2,0:0:0:0:
274,339,81693,2,0,B|296:310|296:310|292:249,1,75.0000028610231,10|0,0:0|0:0,0:0:0:0:
410,199,81943,2,0,B|421:160|421:160|455:146,1,75.0000028610231,2|0,0:0|0:0,0:0:0:0:
496,231,82193,5,6,1:2:0:0:
288,141,82443,1,2,0:0:0:0:
268,116,82568,1,2,0:0:0:0:
283,86,82693,1,10,0:0:0:0:
505,93,82943,6,0,B|494:135|494:135|461:146,1,75.0000028610231,2|0,0:0|0:0,0:0:0:0:
253,213,83193,2,0,P|198:191|134:172,1,112.500004291535,6|0,1:2|0:0,0:0:0:0:
137,165,83443,5,2,0:0:0:0:
112,192,83568,1,2,0:0:0:0:
128,223,83693,1,10,0:0:0:0:
369,117,83943,1,2,0:0:0:0:
202,32,84193,6,0,P|186:108|162:351,1,300,6|0,1:2|0:0,0:0:0:0:
156,339,84693,2,0,B|225:301|225:301|245:224|245:224|332:191,1,225.000008583069,10|0,0:0|0:0,0:0:0:0:
393,310,85193,6,0,P|348:297|303:288,1,75.0000028610231,2|0,1:2|0:0,0:0:0:0:
147,241,85443,1,2,0:0:0:0:
111,252,85568,1,2,0:0:0:0:
85,273,85693,2,0,L|73:359,1,75.0000028610231,10|0,0:0|0:0,0:0:0:0:
312,206,85943,5,2,0:0:0:0:
123,92,86193,2,0,B|152:201|152:201|272:277,2,225.000008583069,6|0|2,1:2|0:0|0:0,0:0:0:0:
274,10,87193,5,6,1:2:0:0:
288,34,87318,1,2,0:0:0:0:
288,65,87443,1,2,0:0:0:0:
276,82,87568,1,2,0:0:0:0:
253,99,87693,2,0,L|206:119,1,37.5000014305115,14|0,0:0|0:0,0:0:0:0:
