osu file format v14

[General]
AudioFilename: audio.mp3
AudioLeadIn: 0
PreviewTime: 82778
Countdown: 0
SampleSet: Normal
StackLeniency: 0.7
Mode: 1
LetterboxInBreaks: 0
WidescreenStoryboard: 0

[Editor]
Bookmarks: 3979,6409
DistanceSpacing: 1.1
BeatDivisor: 2
GridSize: 32
TimelineZoom: 2.1

[Metadata]
Title:Sacrifice and Faith
TitleUnicode:Sacrifice and Faith
Artist:Fsinfonia (Yu_Asahina Yuuma Mizonokuchi Kanata.N, Ai Ohsera)
ArtistUnicode:ℱsinfonia (Yu_Asahina 溝口ゆうま かなたん 大瀬良 あい)
Creator:L y s
Version:Ura Oni
Source:SOUND VOLTEX IV HEAVENLY HAVEN
Tags:SDVX 4 The 7th KAC KONAMI Arcade Championship オリジナル楽曲コンテスト 入賞品 KING Ωdimension phase 3 Fukujuu
BeatmapID:1651723
BeatmapSetID:786891

[Difficulty]
HPDrainRate:5
CircleSize:5
OverallDifficulty:6
ApproachRate:6
SliderMultiplier:1.4
SliderTickRate:1

[Events]
//Background and Video events
0,0,"BG.png",0,0
//Break Periods
//Storyboard Layer 0 (Background)
//Storyboard Layer 1 (Fail)
//Storyboard Layer 2 (Pass)
//Storyboard Layer 3 (Foreground)
//Storyboard Sound Samples

[TimingPoints]
738,324.324324324324,5,1,0,100,1,0
1548,324.324324324324,5,1,0,100,1,0
2358,324.324324324324,5,1,0,100,1,0
3168,324.324324324324,5,1,0,100,1,0
3978,324.324324324324,5,1,0,100,1,0
4788,324.324324324324,5,1,0,100,1,0
5598,324.324324324324,5,1,0,100,1,0
6408,324.324324324324,5,1,0,100,1,0
7218,324.324324324324,5,1,0,100,1,0
8028,324.324324324324,3,1,0,100,1,0
9000,324.324324324324,4,1,0,100,1,0
11594,324.324324324324,5,1,0,100,1,0
13053,324.324324324324,4,1,0,100,1,0
15647,324.482180520253,4,1,0,100,1,0
39009,322.58064516129,4,1,0,100,1,0
41589,324.324324324324,4,1,0,100,1,0
44183,-100,4,1,0,100,0,1
54561,-100,4,1,0,100,0,0
64291,-99.009900990099,4,1,0,100,0,0
64453,-98.0392156862745,4,1,0,100,0,0
64616,-97.0873786407767,4,1,0,100,0,0
64778,-96.1538461538461,4,1,0,100,0,0
64940,-95.2380952380952,4,1,0,100,0,0
65102,-90.9090909090909,4,1,0,100,0,0
65426,-86.9565217391304,4,1,0,100,0,0
65588,-83.3333333333333,4,1,0,100,0,0
65913,-80,4,1,0,100,0,0
66075,-76.9230769230769,4,1,0,100,0,0
66399,-74.0740740740741,4,1,0,100,0,0
66561,-71.4285714285714,4,1,0,100,0,0
66886,-68.9655172413793,4,1,0,100,0,0
67048,-66.6666666666667,4,1,0,100,0,0
67534,-133.333333333333,4,1,0,75,0,0
72400,-100,4,1,0,100,0,0
83102,-100,4,1,0,100,0,1
93480,-90.9090909090909,4,1,0,100,0,1
98507,-95.2380952380952,4,1,0,100,0,1
98670,324.324324324324,6,1,0,100,1,0
100615,324.324324324324,4,1,0,100,1,0
101912,324.324324324324,6,1,0,100,1,0
103857,324.324324324324,5,1,0,100,1,0
104667,324.324324324324,5,1,0,100,1,0
105477,324.324324324324,5,1,0,100,1,0
106287,324.324324324324,3,1,0,100,1,0

[HitObjects]
256,192,738,5,0,0:0:0:0:
256,192,900,1,0,0:0:0:0:
256,192,981,1,0,0:0:0:0:
256,192,1062,1,0,0:0:0:0:
256,192,1224,1,8,0:0:0:0:
256,192,1386,1,8,0:0:0:0:
256,192,1548,1,0,0:0:0:0:
256,192,1629,1,0,0:0:0:0:
256,192,1710,1,0,0:0:0:0:
256,192,1872,1,0,0:0:0:0:
256,192,2034,1,8,0:0:0:0:
256,192,2196,1,8,0:0:0:0:
256,192,2358,1,0,0:0:0:0:
256,192,2520,1,0,0:0:0:0:
256,192,2601,1,0,0:0:0:0:
256,192,2682,1,0,0:0:0:0:
256,192,2844,1,8,0:0:0:0:
256,192,3006,1,8,0:0:0:0:
256,192,3168,1,0,0:0:0:0:
256,192,3249,1,0,0:0:0:0:
256,192,3330,1,0,0:0:0:0:
256,192,3492,1,0,0:0:0:0:
256,192,3654,1,0,0:0:0:0:
256,192,3816,1,8,0:0:0:0:
256,192,3978,1,0,0:0:0:0:
256,192,4140,1,8,0:0:0:0:
256,192,4302,1,0,0:0:0:0:
256,192,4464,1,0,0:0:0:0:
256,192,4545,1,0,0:0:0:0:
256,192,4626,1,0,0:0:0:0:
256,192,4788,1,0,0:0:0:0:
256,192,4869,1,0,0:0:0:0:
256,192,4950,1,0,0:0:0:0:
256,192,5112,1,0,0:0:0:0:
256,192,5274,1,8,0:0:0:0:
256,192,5436,1,0,0:0:0:0:
256,192,5598,1,0,0:0:0:0:
256,192,5679,1,0,0:0:0:0:
256,192,5760,1,0,0:0:0:0:
256,192,5922,1,0,0:0:0:0:
256,192,6084,1,8,0:0:0:0:
256,192,6246,1,0,0:0:0:0:
256,192,6408,1,0,0:0:0:0:
256,192,6489,1,0,0:0:0:0:
256,192,6570,1,8,0:0:0:0:
256,192,6651,1,8,0:0:0:0:
256,192,6732,1,0,0:0:0:0:
256,192,6813,1,0,0:0:0:0:
256,192,6894,1,8,0:0:0:0:
256,192,6975,1,8,0:0:0:0:
256,192,7056,1,0,0:0:0:0:
256,192,7137,1,8,0:0:0:0:
256,192,7218,1,0,0:0:0:0:
256,192,7299,1,0,0:0:0:0:
256,192,7380,1,8,0:0:0:0:
256,192,7461,1,8,0:0:0:0:
256,192,7542,1,0,0:0:0:0:
256,192,7623,1,0,0:0:0:0:
256,192,7704,1,8,0:0:0:0:
256,192,7785,1,8,0:0:0:0:
256,192,7866,1,0,0:0:0:0:
256,192,7947,1,8,0:0:0:0:
256,192,8028,1,0,0:0:0:0:
256,192,8352,1,0,0:0:0:0:
256,192,8676,1,0,0:0:0:0:
256,192,8892,1,8,0:0:0:0:
256,192,9000,1,0,0:0:0:0:
256,192,9324,1,0,0:0:0:0:
256,192,9648,1,8,0:0:0:0:
256,192,9972,1,0,0:0:0:0:
256,192,10297,1,12,0:0:0:0:
256,192,10621,1,8,0:0:0:0:
256,192,10675,1,8,0:0:0:0:
256,192,10729,1,8,0:0:0:0:
256,192,10837,1,8,0:0:0:0:
256,192,10945,1,0,0:0:0:0:
256,192,10999,1,0,0:0:0:0:
256,192,11054,1,0,0:0:0:0:
256,192,11162,1,0,0:0:0:0:
256,192,11270,1,8,0:0:0:0:
256,192,11324,1,8,0:0:0:0:
256,192,11378,1,8,0:0:0:0:
256,192,11432,1,8,0:0:0:0:
256,192,11486,1,8,0:0:0:0:
256,192,11540,1,8,0:0:0:0:
256,192,11594,1,0,0:0:0:0:
256,192,13053,1,4,0:0:0:0:
256,192,13377,1,0,0:0:0:0:
256,192,13701,1,12,0:0:0:0:
256,192,14025,1,8,0:0:0:0:
256,192,14350,1,4,0:0:0:0:
256,192,14512,1,8,0:0:0:0:
256,192,14593,1,8,0:0:0:0:
256,192,14674,1,0,0:0:0:0:
256,192,14836,1,0,0:0:0:0:
256,192,14998,1,12,0:0:0:0:
256,192,15323,1,0,0:0:0:0:
256,192,15485,1,0,0:0:0:0:
256,192,15647,1,8,0:0:0:0:
256,192,15971,1,0,0:0:0:0:
256,192,16133,1,8,0:0:0:0:
256,192,16295,1,0,0:0:0:0:
256,192,16620,1,0,0:0:0:0:
256,192,16944,1,0,0:0:0:0:
256,192,17107,1,8,0:0:0:0:
256,192,17188,1,8,0:0:0:0:
256,192,17269,1,0,0:0:0:0:
256,192,17431,1,0,0:0:0:0:
256,192,17593,1,8,0:0:0:0:
256,192,17918,1,0,0:0:0:0:
256,192,17999,1,0,0:0:0:0:
256,192,18080,1,8,0:0:0:0:
256,192,18161,1,8,0:0:0:0:
256,192,18242,1,0,0:0:0:0:
256,192,18405,1,8,0:0:0:0:
256,192,18567,1,0,0:0:0:0:
256,192,18648,1,0,0:0:0:0:
256,192,18729,1,8,0:0:0:0:
256,192,18891,1,0,0:0:0:0:
256,192,19054,1,8,0:0:0:0:
256,192,19216,1,0,0:0:0:0:
256,192,19297,1,0,0:0:0:0:
256,192,19378,1,8,0:0:0:0:
256,192,19540,1,0,0:0:0:0:
256,192,19703,1,8,0:0:0:0:
256,192,19784,1,8,0:0:0:0:
256,192,19865,1,0,0:0:0:0:
256,192,20027,1,0,0:0:0:0:
256,192,20189,1,8,0:0:0:0:
256,192,20433,1,8,0:0:0:0:
256,192,20514,1,0,0:0:0:0:
256,192,20676,1,8,0:0:0:0:
256,192,20838,1,4,0:0:0:0:
256,192,21163,1,0,0:0:0:0:
256,192,21325,1,8,0:0:0:0:
256,192,21487,1,4,0:0:0:0:
256,192,21812,1,12,0:0:0:0:
256,192,22136,1,4,0:0:0:0:
256,192,22461,1,8,0:0:0:0:
256,192,22515,1,8,0:0:0:0:
256,192,22569,1,8,0:0:0:0:
256,192,22677,1,8,0:0:0:0:
256,192,22785,1,8,0:0:0:0:
256,192,22839,1,8,0:0:0:0:
256,192,22893,1,8,0:0:0:0:
256,192,23001,1,8,0:0:0:0:
256,192,23110,1,8,0:0:0:0:
256,192,23434,1,0,0:0:0:0:
256,192,23515,1,0,0:0:0:0:
256,192,23596,1,0,0:0:0:0:
256,192,23677,1,0,0:0:0:0:
256,192,23921,1,8,0:0:0:0:
256,192,24002,1,8,0:0:0:0:
256,192,24083,1,8,0:0:0:0:
256,192,24164,1,8,0:0:0:0:
256,192,24408,1,0,0:0:0:0:
256,192,24489,1,0,0:0:0:0:
256,192,24570,1,8,0:0:0:0:
256,192,24651,1,8,0:0:0:0:
256,192,24894,1,0,0:0:0:0:
256,192,24975,1,0,0:0:0:0:
256,192,25056,1,8,0:0:0:0:
256,192,25138,1,0,0:0:0:0:
256,192,25381,1,0,0:0:0:0:
256,192,25489,1,0,0:0:0:0:
256,192,25597,1,0,0:0:0:0:
256,192,25705,1,8,0:0:0:0:
256,192,25814,1,0,0:0:0:0:
256,192,25922,1,0,0:0:0:0:
256,192,26030,1,0,0:0:0:0:
256,192,26111,1,0,0:0:0:0:
256,192,26273,1,0,0:0:0:0:
256,192,26354,1,0,0:0:0:0:
256,192,26517,1,4,0:0:0:0:
256,192,26679,1,4,0:0:0:0:
256,192,26841,1,4,0:0:0:0:
256,192,27003,1,8,0:0:0:0:
256,192,27166,1,0,0:0:0:0:
256,192,27328,1,0,0:0:0:0:
256,192,27382,1,0,0:0:0:0:
256,192,27436,1,0,0:0:0:0:
256,192,27490,1,0,0:0:0:0:
256,192,27652,1,0,0:0:0:0:
256,192,27706,1,0,0:0:0:0:
256,192,27761,1,0,0:0:0:0:
256,192,27815,1,0,0:0:0:0:
256,192,27977,1,0,0:0:0:0:
256,192,28031,1,0,0:0:0:0:
256,192,28085,1,0,0:0:0:0:
256,192,28139,1,0,0:0:0:0:
256,192,28301,1,8,0:0:0:0:
256,192,28626,1,4,0:0:0:0:
256,192,28950,1,8,0:0:0:0:
256,192,29275,1,0,0:0:0:0:
256,192,29437,1,0,0:0:0:0:
256,192,29599,1,0,0:0:0:0:
256,192,29761,1,8,0:0:0:0:
256,192,29924,1,0,0:0:0:0:
256,192,30248,1,8,0:0:0:0:
256,192,30573,1,0,0:0:0:0:
256,192,30735,1,0,0:0:0:0:
256,192,30897,1,8,0:0:0:0:
256,192,31059,1,0,0:0:0:0:
256,192,31222,1,0,0:0:0:0:
256,192,31303,1,0,0:0:0:0:
256,192,31384,1,0,0:0:0:0:
256,192,31546,1,0,0:0:0:0:
256,192,31708,1,8,0:0:0:0:
256,192,32033,1,0,0:0:0:0:
256,192,32195,1,8,0:0:0:0:
256,192,32520,1,0,0:0:0:0:
256,192,32844,1,0,0:0:0:0:
256,192,33006,1,8,0:0:0:0:
256,192,33087,1,8,0:0:0:0:
256,192,33169,1,8,0:0:0:0:
256,192,33331,1,0,0:0:0:0:
256,192,33493,1,8,0:0:0:0:
256,192,33574,1,8,0:0:0:0:
256,192,33655,1,8,0:0:0:0:
256,192,33736,1,0,0:0:0:0:
256,192,33818,1,8,0:0:0:0:
256,192,34142,1,8,0:0:0:0:
256,192,34466,1,0,0:0:0:0:
256,192,34629,1,0,0:0:0:0:
256,192,34791,1,8,0:0:0:0:
256,192,34953,1,0,0:0:0:0:
256,192,35115,1,4,0:0:0:0:
256,192,35278,1,0,0:0:0:0:
256,192,35440,1,12,0:0:0:0:
256,192,35602,1,0,0:0:0:0:
256,192,35683,1,0,0:0:0:0:
256,192,35764,1,0,0:0:0:0:
256,192,35927,1,0,0:0:0:0:
256,192,36089,1,8,0:0:0:0:
256,192,36170,1,8,0:0:0:0:
256,192,36251,1,8,0:0:0:0:
256,192,36332,1,0,0:0:0:0:
256,192,36413,1,8,0:0:0:0:
256,192,36738,1,8,0:0:0:0:
256,192,37062,1,0,0:0:0:0:
256,192,37225,1,0,0:0:0:0:
256,192,37387,1,8,0:0:0:0:
256,192,37549,1,0,0:0:0:0:
256,192,37711,1,12,0:0:0:0:
256,192,38036,1,0,0:0:0:0:
256,192,38360,1,12,0:0:0:0:
256,192,38685,1,0,0:0:0:0:
256,192,39009,1,4,0:0:0:0:
256,192,39170,1,4,0:0:0:0:
256,192,39492,1,12,0:0:0:0:
256,192,39654,1,4,0:0:0:0:
256,192,39976,1,4,0:0:0:0:
256,192,40138,1,4,0:0:0:0:
256,192,40460,1,12,0:0:0:0:
256,192,40621,1,4,0:0:0:0:
256,192,40944,1,4,0:0:0:0:
256,192,41105,1,0,0:0:0:0:
256,192,41186,1,0,0:0:0:0:
256,192,41267,1,8,0:0:0:0:
256,192,41751,1,4,0:0:0:0:
256,192,41913,1,4,0:0:0:0:
256,192,42237,1,12,0:0:0:0:
256,192,42561,1,4,0:0:0:0:
256,192,42724,1,12,0:0:0:0:
256,192,43210,1,8,0:0:0:0:
256,192,43291,1,8,0:0:0:0:
256,192,43372,1,8,0:0:0:0:
256,192,43453,1,8,0:0:0:0:
256,192,43534,1,0,0:0:0:0:
256,192,43616,1,0,0:0:0:0:
256,192,43697,1,8,0:0:0:0:
256,192,43778,1,0,0:0:0:0:
256,192,43859,1,8,0:0:0:0:
256,192,43940,1,8,0:0:0:0:
256,192,44021,1,0,0:0:0:0:
256,192,44102,1,0,0:0:0:0:
256,192,44183,1,0,0:0:0:0:
256,192,44507,1,0,0:0:0:0:
256,192,44616,1,0,0:0:0:0:
256,192,44724,1,8,0:0:0:0:
256,192,44832,1,0,0:0:0:0:
256,192,45156,1,0,0:0:0:0:
256,192,45480,1,0,0:0:0:0:
256,192,45697,1,0,0:0:0:0:
256,192,45805,1,0,0:0:0:0:
256,192,45913,1,0,0:0:0:0:
256,192,46021,1,8,0:0:0:0:
256,192,46129,1,0,0:0:0:0:
256,192,46453,1,0,0:0:0:0:
256,192,46670,1,8,0:0:0:0:
256,192,46778,1,0,0:0:0:0:
256,192,47102,1,0,0:0:0:0:
256,192,47210,1,0,0:0:0:0:
256,192,47318,1,8,0:0:0:0:
256,192,47426,1,0,0:0:0:0:
256,192,47751,1,8,0:0:0:0:
256,192,47859,1,0,0:0:0:0:
256,192,47967,1,0,0:0:0:0:
256,192,48075,1,8,0:0:0:0:
256,192,48399,1,0,0:0:0:0:
256,192,48507,1,0,0:0:0:0:
256,192,48616,1,8,0:0:0:0:
256,192,48724,1,0,0:0:0:0:
256,192,48832,1,8,0:0:0:0:
256,192,48940,1,8,0:0:0:0:
256,192,49048,1,0,0:0:0:0:
256,192,49264,1,0,0:0:0:0:
256,192,49372,1,0,0:0:0:0:
256,192,49697,1,0,0:0:0:0:
256,192,49805,1,0,0:0:0:0:
256,192,49913,1,8,0:0:0:0:
256,192,50021,1,0,0:0:0:0:
256,192,50345,1,0,0:0:0:0:
256,192,50561,1,8,0:0:0:0:
256,192,50670,1,0,0:0:0:0:
256,192,50994,1,0,0:0:0:0:
256,192,51210,1,8,0:0:0:0:
256,192,51318,1,0,0:0:0:0:
256,192,51643,1,0,0:0:0:0:
256,192,51751,1,0,0:0:0:0:
256,192,51859,1,8,0:0:0:0:
256,192,51967,1,0,0:0:0:0:
256,192,52291,1,0,0:0:0:0:
256,192,52399,1,0,0:0:0:0:
256,192,52507,1,8,0:0:0:0:
256,192,52616,1,0,0:0:0:0:
256,192,52940,1,8,0:0:0:0:
256,192,53264,1,0,0:0:0:0:
256,192,53345,1,0,0:0:0:0:
256,192,53426,1,8,0:0:0:0:
256,192,53588,1,8,0:0:0:0:
256,192,53751,1,8,0:0:0:0:
256,192,53913,1,0,0:0:0:0:
256,192,53994,1,0,0:0:0:0:
256,192,54075,1,8,0:0:0:0:
256,192,54237,1,8,0:0:0:0:
256,192,54399,1,8,0:0:0:0:
256,192,54561,1,0,0:0:0:0:
256,192,54643,1,0,0:0:0:0:
256,192,54724,1,0,0:0:0:0:
256,192,54886,1,8,0:0:0:0:
256,192,55048,1,0,0:0:0:0:
256,192,55129,1,0,0:0:0:0:
256,192,55210,1,8,0:0:0:0:
256,192,55372,1,0,0:0:0:0:
256,192,55534,1,8,0:0:0:0:
256,192,55616,1,8,0:0:0:0:
256,192,55697,1,8,0:0:0:0:
256,192,55859,1,0,0:0:0:0:
256,192,55940,1,0,0:0:0:0:
256,192,56021,1,0,0:0:0:0:
256,192,56102,1,0,0:0:0:0:
256,192,56183,1,8,0:0:0:0:
256,192,56264,1,0,0:0:0:0:
256,192,56345,1,0,0:0:0:0:
256,192,56426,1,0,0:0:0:0:
256,192,56507,1,8,0:0:0:0:
256,192,56588,1,0,0:0:0:0:
256,192,56670,1,0,0:0:0:0:
256,192,56751,1,0,0:0:0:0:
256,192,56832,1,8,0:0:0:0:
256,192,56994,1,0,0:0:0:0:
256,192,57156,1,0,0:0:0:0:
256,192,57237,1,0,0:0:0:0:
256,192,57318,1,0,0:0:0:0:
256,192,57480,1,8,0:0:0:0:
256,192,57643,1,0,0:0:0:0:
256,192,57724,1,0,0:0:0:0:
256,192,57805,1,8,0:0:0:0:
256,192,57967,1,0,0:0:0:0:
256,192,58129,1,8,0:0:0:0:
256,192,58210,1,8,0:0:0:0:
256,192,58291,1,8,0:0:0:0:
256,192,58453,1,0,0:0:0:0:
256,192,58616,1,8,0:0:0:0:
256,192,58697,1,8,0:0:0:0:
256,192,58778,1,0,0:0:0:0:
256,192,58940,1,8,0:0:0:0:
256,192,59102,1,0,0:0:0:0:
256,192,59183,1,0,0:0:0:0:
256,192,59264,1,0,0:0:0:0:
256,192,59345,1,0,0:0:0:0:
256,192,59426,1,8,0:0:0:0:
256,192,59751,1,0,0:0:0:0:
256,192,59832,1,0,0:0:0:0:
256,192,59913,1,0,0:0:0:0:
256,192,59994,1,0,0:0:0:0:
256,192,60075,1,8,0:0:0:0:
256,192,60237,1,0,0:0:0:0:
256,192,60318,1,0,0:0:0:0:
256,192,60399,1,0,0:0:0:0:
256,192,60480,1,0,0:0:0:0:
256,192,60561,1,8,0:0:0:0:
256,192,60724,1,8,0:0:0:0:
256,192,60805,1,8,0:0:0:0:
256,192,60886,1,8,0:0:0:0:
256,192,61048,1,0,0:0:0:0:
256,192,61129,1,0,0:0:0:0:
256,192,61210,1,0,0:0:0:0:
256,192,61291,1,0,0:0:0:0:
256,192,61372,1,8,0:0:0:0:
256,192,61453,1,0,0:0:0:0:
256,192,61534,1,0,0:0:0:0:
256,192,61616,1,0,0:0:0:0:
256,192,61697,1,8,0:0:0:0:
256,192,61778,1,0,0:0:0:0:
256,192,61859,1,0,0:0:0:0:
256,192,61940,1,0,0:0:0:0:
256,192,62021,1,8,0:0:0:0:
256,192,62102,1,8,0:0:0:0:
256,192,62183,1,0,0:0:0:0:
256,192,62345,1,4,0:0:0:0:
256,192,62507,1,4,0:0:0:0:
256,192,62832,1,12,0:0:0:0:
256,192,62994,1,4,0:0:0:0:
256,192,63318,1,4,0:0:0:0:
256,192,63480,1,4,0:0:0:0:
256,192,63805,1,12,0:0:0:0:
256,192,63967,1,4,0:0:0:0:
256,192,64291,1,0,0:0:0:0:
256,192,64453,1,0,0:0:0:0:
256,192,64616,1,8,0:0:0:0:
256,192,64778,1,8,0:0:0:0:
256,192,64940,1,4,0:0:0:0:
256,192,65102,1,4,0:0:0:0:
256,192,65426,1,12,0:0:0:0:
256,192,65588,1,4,0:0:0:0:
256,192,65913,1,4,0:0:0:0:
256,192,66075,1,4,0:0:0:0:
256,192,66399,1,12,0:0:0:0:
256,192,66561,1,4,0:0:0:0:
256,192,66886,1,12,0:0:0:0:
256,192,67048,1,4,0:0:0:0:
256,192,67534,1,0,0:0:0:0:
256,192,67859,1,8,0:0:0:0:
256,192,68345,1,0,0:0:0:0:
256,192,68507,1,0,0:0:0:0:
256,192,68670,1,8,0:0:0:0:
256,192,68832,1,0,0:0:0:0:
256,192,69156,1,0,0:0:0:0:
256,192,69480,1,8,0:0:0:0:
256,192,69805,1,8,0:0:0:0:
256,192,70129,1,0,0:0:0:0:
256,192,70453,1,8,0:0:0:0:
256,192,70940,1,0,0:0:0:0:
256,192,71102,1,0,0:0:0:0:
256,192,71264,1,8,0:0:0:0:
256,192,71426,1,0,0:0:0:0:
256,192,71588,1,8,0:0:0:0:
256,192,71751,1,0,0:0:0:0:
256,192,72075,1,8,0:0:0:0:
256,192,72399,1,8,0:0:0:0:
256,192,72561,1,8,0:0:0:0:
256,192,72724,1,0,0:0:0:0:
256,192,72886,1,0,0:0:0:0:
256,192,73048,1,8,0:0:0:0:
256,192,73210,1,0,0:0:0:0:
256,192,73291,1,0,0:0:0:0:
256,192,73372,1,8,0:0:0:0:
256,192,73534,1,0,0:0:0:0:
256,192,73697,1,8,0:0:0:0:
256,192,73859,1,8,0:0:0:0:
256,192,73940,1,8,0:0:0:0:
256,192,74021,1,0,0:0:0:0:
256,192,74345,1,0,0:0:0:0:
256,192,74507,1,0,0:0:0:0:
256,192,74588,1,0,0:0:0:0:
256,192,74670,1,8,0:0:0:0:
256,192,74832,1,0,0:0:0:0:
256,192,74886,1,0,0:0:0:0:
256,192,74940,1,0,0:0:0:0:
256,192,74994,1,8,0:0:0:0:
256,192,75156,1,0,0:0:0:0:
256,192,75318,1,4,0:0:0:0:
256,192,75480,1,4,0:0:0:0:
256,192,75805,1,12,0:0:0:0:
256,192,75967,1,4,0:0:0:0:
256,192,76291,1,4,0:0:0:0:
256,192,76453,1,4,0:0:0:0:
256,192,76778,1,12,0:0:0:0:
256,192,76940,1,4,0:0:0:0:
256,192,77264,1,4,0:0:0:0:
256,192,77588,1,12,0:0:0:0:
256,192,78075,1,4,0:0:0:0:
256,192,78237,1,4,0:0:0:0:
256,192,78561,1,12,0:0:0:0:
256,192,78886,1,4,0:0:0:0:
256,192,79048,1,12,0:0:0:0:
256,192,79210,1,8,0:0:0:0:
256,192,79264,1,8,0:0:0:0:
256,192,79318,1,8,0:0:0:0:
256,192,79426,1,8,0:0:0:0:
256,192,79534,1,0,0:0:0:0:
256,192,79588,1,0,0:0:0:0:
256,192,79643,1,0,0:0:0:0:
256,192,79751,1,0,0:0:0:0:
256,192,79859,1,8,0:0:0:0:
256,192,79913,1,8,0:0:0:0:
256,192,79967,1,8,0:0:0:0:
256,192,80075,1,8,0:0:0:0:
256,192,80183,1,0,0:0:0:0:
256,192,80237,1,0,0:0:0:0:
256,192,80291,1,0,0:0:0:0:
256,192,80345,1,8,0:0:0:0:
256,192,80399,1,8,0:0:0:0:
256,192,80453,1,8,0:0:0:0:
256,192,80507,12,0,81480,0:0:0:0:
256,192,81805,5,4,0:0:0:0:
256,192,81967,1,4,0:0:0:0:
256,192,82291,1,12,0:0:0:0:
256,192,82453,1,4,0:0:0:0:
256,192,82616,1,0,0:0:0:0:
256,192,82670,1,0,0:0:0:0:
256,192,82724,1,0,0:0:0:0:
256,192,82778,1,8,0:0:0:0:
256,192,82940,1,8,0:0:0:0:
256,192,83102,1,0,0:0:0:0:
256,192,83264,1,8,0:0:0:0:
256,192,83426,1,0,0:0:0:0:
256,192,83507,1,0,0:0:0:0:
256,192,83588,1,8,0:0:0:0:
256,192,83751,1,0,0:0:0:0:
256,192,83913,1,8,0:0:0:0:
256,192,84075,1,0,0:0:0:0:
256,192,84156,1,0,0:0:0:0:
256,192,84237,1,8,0:0:0:0:
256,192,84399,1,0,0:0:0:0:
256,192,84561,1,8,0:0:0:0:
256,192,84724,1,0,0:0:0:0:
256,192,84832,1,0,0:0:0:0:
256,192,84940,1,8,0:0:0:0:
256,192,85048,1,0,0:0:0:0:
256,192,85210,1,0,0:0:0:0:
256,192,85372,1,0,0:0:0:0:
256,192,85534,1,8,0:0:0:0:
256,192,85697,1,4,0:0:0:0:
256,192,85859,1,8,0:0:0:0:
256,192,86021,1,8,0:0:0:0:
256,192,86183,1,0,0:0:0:0:
256,192,86345,1,4,0:0:0:0:
256,192,86507,1,8,0:0:0:0:
256,192,86670,1,8,0:0:0:0:
256,192,86832,1,0,0:0:0:0:
256,192,86994,1,4,0:0:0:0:
256,192,87156,1,8,0:0:0:0:
256,192,87318,1,4,0:0:0:0:
256,192,87480,1,8,0:0:0:0:
256,192,87643,1,4,0:0:0:0:
256,192,87967,1,8,0:0:0:0:
256,192,88129,1,8,0:0:0:0:
256,192,88291,1,0,0:0:0:0:
256,192,88453,1,8,0:0:0:0:
256,192,88616,1,0,0:0:0:0:
256,192,88697,1,0,0:0:0:0:
256,192,88778,1,8,0:0:0:0:
256,192,88940,1,0,0:0:0:0:
256,192,89102,1,8,0:0:0:0:
256,192,89264,1,0,0:0:0:0:
256,192,89345,1,0,0:0:0:0:
256,192,89426,1,8,0:0:0:0:
256,192,89588,1,4,0:0:0:0:
256,192,89913,1,4,0:0:0:0:
256,192,90237,1,12,0:0:0:0:
256,192,90561,1,4,0:0:0:0:
256,192,90886,1,0,0:0:0:0:
256,192,91048,1,0,0:0:0:0:
256,192,91129,1,8,0:0:0:0:
256,192,91210,1,0,0:0:0:0:
256,192,91372,1,0,0:0:0:0:
256,192,91453,1,0,0:0:0:0:
256,192,91534,1,8,0:0:0:0:
256,192,91616,1,8,0:0:0:0:
256,192,91697,1,0,0:0:0:0:
256,192,91778,1,0,0:0:0:0:
256,192,91859,1,8,0:0:0:0:
256,192,91940,1,8,0:0:0:0:
256,192,92021,1,0,0:0:0:0:
256,192,92102,1,8,0:0:0:0:
256,192,92183,1,0,0:0:0:0:
256,192,92345,1,8,0:0:0:0:
256,192,92426,1,8,0:0:0:0:
256,192,92507,1,0,0:0:0:0:
256,192,92670,1,8,0:0:0:0:
256,192,92751,1,8,0:0:0:0:
256,192,92832,1,8,0:0:0:0:
256,192,92994,1,0,0:0:0:0:
256,192,93156,1,12,0:0:0:0:
256,192,93480,1,0,0:0:0:0:
256,192,93561,1,0,0:0:0:0:
256,192,93643,1,8,0:0:0:0:
256,192,93724,1,8,0:0:0:0:
256,192,93805,1,8,0:0:0:0:
256,192,93886,1,8,0:0:0:0:
256,192,93967,1,0,0:0:0:0:
256,192,94048,1,0,0:0:0:0:
256,192,94129,1,8,0:0:0:0:
256,192,94210,1,8,0:0:0:0:
256,192,94291,1,0,0:0:0:0:
256,192,94372,1,0,0:0:0:0:
256,192,94453,1,8,0:0:0:0:
256,192,94534,1,8,0:0:0:0:
256,192,94616,1,0,0:0:0:0:
256,192,94697,1,8,0:0:0:0:
256,192,94778,1,0,0:0:0:0:
256,192,94859,1,0,0:0:0:0:
256,192,94940,1,8,0:0:0:0:
256,192,95021,1,8,0:0:0:0:
256,192,95102,1,0,0:0:0:0:
256,192,95183,1,8,0:0:0:0:
256,192,95264,1,0,0:0:0:0:
256,192,95345,1,0,0:0:0:0:
256,192,95426,1,8,0:0:0:0:
256,192,95507,1,8,0:0:0:0:
256,192,95588,1,8,0:0:0:0:
256,192,95670,1,8,0:0:0:0:
256,192,95751,1,0,0:0:0:0:
256,192,95832,1,0,0:0:0:0:
256,192,95913,1,8,0:0:0:0:
256,192,95994,1,8,0:0:0:0:
256,192,96075,1,0,0:0:0:0:
256,192,96156,1,0,0:0:0:0:
256,192,96237,1,8,0:0:0:0:
256,192,96318,1,0,0:0:0:0:
256,192,96399,1,8,0:0:0:0:
256,192,96480,1,8,0:0:0:0:
256,192,96561,1,0,0:0:0:0:
256,192,96643,1,8,0:0:0:0:
256,192,96724,1,0,0:0:0:0:
256,192,96805,1,8,0:0:0:0:
256,192,96886,1,8,0:0:0:0:
256,192,96967,1,0,0:0:0:0:
256,192,97048,1,8,0:0:0:0:
256,192,97129,1,8,0:0:0:0:
256,192,97210,1,0,0:0:0:0:
256,192,97291,1,8,0:0:0:0:
256,192,97372,1,0,0:0:0:0:
256,192,97616,1,8,0:0:0:0:
256,192,97859,1,8,0:0:0:0:
256,192,98021,1,4,0:0:0:0:
256,192,98345,1,0,0:0:0:0:
256,192,98507,1,8,0:0:0:0:
256,192,98670,1,0,0:0:0:0:
256,192,98751,1,0,0:0:0:0:
256,192,98832,1,0,0:0:0:0:
256,192,98913,1,0,0:0:0:0:
256,192,98994,1,0,0:0:0:0:
256,192,99156,1,8,0:0:0:0:
256,192,99237,1,8,0:0:0:0:
256,192,99318,1,8,0:0:0:0:
256,192,99399,1,8,0:0:0:0:
256,192,99480,1,8,0:0:0:0:
256,192,99642,1,0,0:0:0:0:
256,192,99724,1,0,0:0:0:0:
256,192,99805,1,0,0:0:0:0:
256,192,99886,1,0,0:0:0:0:
256,192,99967,1,0,0:0:0:0:
256,192,100129,1,8,0:0:0:0:
256,192,100210,1,8,0:0:0:0:
256,192,100291,1,8,0:0:0:0:
256,192,100372,1,8,0:0:0:0:
256,192,100453,1,8,0:0:0:0:
256,192,100615,1,4,0:0:0:0:
256,192,100939,1,8,0:0:0:0:
256,192,100993,1,8,0:0:0:0:
256,192,101047,1,8,0:0:0:0:
256,192,101155,1,8,0:0:0:0:
256,192,101263,1,8,0:0:0:0:
256,192,101317,1,8,0:0:0:0:
256,192,101371,1,8,0:0:0:0:
256,192,101479,1,8,0:0:0:0:
256,192,101587,1,0,0:0:0:0:
256,192,101642,1,0,0:0:0:0:
256,192,101696,1,0,0:0:0:0:
256,192,101804,1,0,0:0:0:0:
256,192,101912,12,0,103533,0:0:0:0:
256,192,103857,5,0,0:0:0:0:
256,192,103938,1,0,0:0:0:0:
256,192,104019,1,0,0:0:0:0:
256,192,104100,1,0,0:0:0:0:
256,192,104181,1,0,0:0:0:0:
256,192,104343,1,8,0:0:0:0:
256,192,104505,1,8,0:0:0:0:
256,192,104667,1,0,0:0:0:0:
256,192,104748,1,0,0:0:0:0:
256,192,104910,1,0,0:0:0:0:
256,192,104991,1,0,0:0:0:0:
256,192,105153,1,8,0:0:0:0:
256,192,105315,1,8,0:0:0:0:
256,192,105477,1,0,0:0:0:0:
256,192,105558,1,0,0:0:0:0:
256,192,105639,1,0,0:0:0:0:
256,192,105720,1,0,0:0:0:0:
256,192,105801,1,0,0:0:0:0:
256,192,105963,1,8,0:0:0:0:
256,192,106125,1,8,0:0:0:0:
256,192,106287,1,0,0:0:0:0:
256,192,106368,1,0,0:0:0:0:
256,192,106530,1,0,0:0:0:0:
256,192,106611,1,0,0:0:0:0:
256,192,106773,1,8,0:0:0:0:
256,192,106935,1,8,0:0:0:0:
256,192,107259,1,0,0:0:0:0:
256,192,107341,1,0,0:0:0:0:
256,192,107422,1,8,0:0:0:0:
256,192,107503,1,0,0:0:0:0:
256,192,107584,1,8,0:0:0:0:
256,192,107665,1,8,0:0:0:0:
256,192,107746,1,0,0:0:0:0:
256,192,107827,1,0,0:0:0:0:
256,192,107908,1,8,0:0:0:0:
256,192,108232,1,0,0:0:0:0:
256,192,108314,1,0,0:0:0:0:
256,192,108395,1,8,0:0:0:0:
256,192,108476,1,8,0:0:0:0:
256,192,108557,1,0,0:0:0:0:
256,192,108638,1,0,0:0:0:0:
256,192,108719,1,8,0:0:0:0:
256,192,108800,1,0,0:0:0:0:
256,192,108881,1,8,0:0:0:0:
256,192,109205,1,0,0:0:0:0:
256,192,109314,1,0,0:0:0:0:
256,192,109422,1,8,0:0:0:0:
256,192,109530,1,0,0:0:0:0:
256,192,109638,1,0,0:0:0:0:
256,192,109746,1,8,0:0:0:0:
256,192,109854,1,0,0:0:0:0:
256,192,109962,1,8,0:0:0:0:
256,192,110070,1,8,0:0:0:0:
256,192,110178,1,0,0:0:0:0:
256,192,110259,1,0,0:0:0:0:
256,192,110341,1,8,0:0:0:0:
256,192,110422,1,8,0:0:0:0:
256,192,110503,1,0,0:0:0:0:
256,192,110584,1,0,0:0:0:0:
256,192,110665,1,8,0:0:0:0:
256,192,110746,1,8,0:0:0:0:
256,192,110827,1,0,0:0:0:0:
256,192,110908,1,0,0:0:0:0:
256,192,110989,1,8,0:0:0:0:
256,192,111070,1,0,0:0:0:0:
256,192,111151,1,8,0:0:0:0:
256,192,111232,1,8,0:0:0:0:
256,192,111314,1,8,0:0:0:0:
