osu file format v14

[General]
AudioFilename: audio.mp3
AudioLeadIn: 0
PreviewTime: 82778
Countdown: 0
SampleSet: Normal
StackLeniency: 0.7
Mode: 1
LetterboxInBreaks: 0
WidescreenStoryboard: 1

[Editor]
Bookmarks: 3979,6409
DistanceSpacing: 1.1
BeatDivisor: 4
GridSize: 32
TimelineZoom: 2.1

[Metadata]
Title:Sacrifice and Faith
TitleUnicode:Sacrifice and Faith
Artist:Fsinfonia (Yu_Asahina Yuuma Mizonokuchi Kanata.N, Ai Ohsera)
ArtistUnicode:ℱsinfonia (Yu_Asahina 溝口ゆうま かなたん 大瀬良 あい)
Creator:L y s
Version:Muzukashii
Source:SOUND VOLTEX IV HEAVENLY HAVEN
Tags:SDVX 4 The 7th KAC KONAMI Arcade Championship オリジナル楽曲コンテスト 入賞品 KING Ωdimension phase 3 Fukujuu
BeatmapID:1654304
BeatmapSetID:786891

[Difficulty]
HPDrainRate:6
CircleSize:5
OverallDifficulty:5
ApproachRate:5
SliderMultiplier:1.4
SliderTickRate:1

[Events]
//Background and Video events
0,0,"BG.png",0,0
//Break Periods
//Storyboard Layer 0 (Background)
//Storyboard Layer 1 (Fail)
//Storyboard Layer 2 (Pass)
//Storyboard Layer 3 (Foreground)
//Storyboard Sound Samples

[TimingPoints]
738,324.324324324324,5,1,0,100,1,0
1548,324.324324324324,5,1,0,100,1,0
2358,324.324324324324,5,1,0,100,1,0
3168,324.324324324324,5,1,0,100,1,0
3978,324.324324324324,5,1,0,100,1,0
4788,324.324324324324,5,1,0,100,1,0
5598,324.324324324324,5,1,0,100,1,0
6408,324.324324324324,5,1,0,100,1,0
7218,324.324324324324,5,1,0,100,1,0
8028,324.324324324324,3,1,0,100,1,0
9000,324.324324324324,4,1,0,100,1,0
11594,324.324324324324,5,1,0,100,1,0
13053,324.324324324324,4,1,0,100,1,0
15647,324.482180520253,4,1,0,100,1,0
39009,322.58064516129,4,1,0,100,1,0
41589,324.324324324324,4,1,0,100,1,0
44183,-100,4,1,0,100,0,1
54561,-100,4,1,0,100,0,0
67534,-133.333333333333,4,1,0,75,0,0
72399,-100,4,1,0,100,0,0
83102,-100,4,1,0,100,0,1
93480,-90.9090909090909,4,1,0,100,0,1
98670,324.324324324324,6,1,0,100,1,0
100615,324.324324324324,4,1,0,100,1,0
101912,324.324324324324,6,1,0,100,1,0
103857,324.324324324324,5,1,0,100,1,0
104667,324.324324324324,5,1,0,100,1,0
105477,324.324324324324,5,1,0,100,1,0
106287,324.324324324324,3,1,0,100,1,0

[HitObjects]
256,192,738,5,0,0:0:0:0:
256,192,1062,1,0,0:0:0:0:
256,192,1224,1,8,0:0:0:0:
256,192,1548,1,0,0:0:0:0:
256,192,1872,1,0,0:0:0:0:
256,192,2034,1,8,0:0:0:0:
256,192,2358,1,0,0:0:0:0:
256,192,2682,1,0,0:0:0:0:
256,192,2844,1,8,0:0:0:0:
256,192,3168,1,0,0:0:0:0:
256,192,3492,1,0,0:0:0:0:
256,192,3654,1,8,0:0:0:0:
256,192,3978,1,0,0:0:0:0:
256,192,4302,1,0,0:0:0:0:
256,192,4464,1,0,0:0:0:0:
256,192,4626,1,0,0:0:0:0:
256,192,4788,1,0,0:0:0:0:
256,192,5112,1,0,0:0:0:0:
256,192,5274,1,8,0:0:0:0:
256,192,5436,1,8,0:0:0:0:
256,192,5598,1,0,0:0:0:0:
256,192,5922,1,0,0:0:0:0:
256,192,6084,1,0,0:0:0:0:
256,192,6246,1,8,0:0:0:0:
256,192,6408,1,0,0:0:0:0:
256,192,6732,1,0,0:0:0:0:
256,192,6894,1,8,0:0:0:0:
256,192,7056,1,0,0:0:0:0:
256,192,7218,1,0,0:0:0:0:
256,192,7542,1,0,0:0:0:0:
256,192,7704,1,8,0:0:0:0:
256,192,7866,1,0,0:0:0:0:
256,192,8028,1,0,0:0:0:0:
256,192,8352,1,0,0:0:0:0:
256,192,8676,1,0,0:0:0:0:
256,192,9000,1,0,0:0:0:0:
256,192,9324,1,0,0:0:0:0:
256,192,9648,1,8,0:0:0:0:
256,192,9972,1,0,0:0:0:0:
256,192,10297,1,12,0:0:0:0:
256,192,10621,1,8,0:0:0:0:
256,192,10837,1,8,0:0:0:0:
256,192,10945,1,8,0:0:0:0:
256,192,11162,1,8,0:0:0:0:
256,192,11270,1,8,0:0:0:0:
256,192,11486,1,0,0:0:0:0:
256,192,11594,1,0,0:0:0:0:
256,192,13053,1,4,0:0:0:0:
256,192,13377,1,0,0:0:0:0:
256,192,13701,1,12,0:0:0:0:
256,192,14025,1,8,0:0:0:0:
256,192,14350,1,0,0:0:0:0:
256,192,14512,1,8,0:0:0:0:
256,192,14674,1,0,0:0:0:0:
256,192,14836,1,0,0:0:0:0:
256,192,14998,1,8,0:0:0:0:
256,192,15323,1,0,0:0:0:0:
256,192,15485,1,0,0:0:0:0:
256,192,15647,1,8,0:0:0:0:
256,192,15971,1,0,0:0:0:0:
256,192,16133,1,8,0:0:0:0:
256,192,16295,1,0,0:0:0:0:
256,192,16620,1,0,0:0:0:0:
256,192,16944,1,0,0:0:0:0:
256,192,17107,1,8,0:0:0:0:
256,192,17269,1,0,0:0:0:0:
256,192,17431,1,0,0:0:0:0:
256,192,17593,1,8,0:0:0:0:
256,192,17918,1,0,0:0:0:0:
256,192,18080,1,8,0:0:0:0:
256,192,18242,1,0,0:0:0:0:
256,192,18567,1,0,0:0:0:0:
256,192,18729,1,0,0:0:0:0:
256,192,18891,1,8,0:0:0:0:
256,192,19216,1,0,0:0:0:0:
256,192,19378,1,8,0:0:0:0:
256,192,19540,1,0,0:0:0:0:
256,192,19703,1,8,0:0:0:0:
256,192,19865,1,0,0:0:0:0:
256,192,20027,1,0,0:0:0:0:
256,192,20189,1,8,0:0:0:0:
256,192,20433,1,8,0:0:0:0:
256,192,20676,1,8,0:0:0:0:
256,192,20838,1,4,0:0:0:0:
256,192,21163,1,0,0:0:0:0:
256,192,21325,1,8,0:0:0:0:
256,192,21487,1,4,0:0:0:0:
256,192,21812,1,12,0:0:0:0:
256,192,22136,1,4,0:0:0:0:
256,192,22461,1,8,0:0:0:0:
256,192,22677,1,8,0:0:0:0:
256,192,22785,1,8,0:0:0:0:
256,192,23002,1,8,0:0:0:0:
256,192,23110,1,8,0:0:0:0:
256,192,23434,1,4,0:0:0:0:
256,192,23597,1,4,0:0:0:0:
256,192,23921,1,12,0:0:0:0:
256,192,24083,1,12,0:0:0:0:
256,192,24408,1,4,0:0:0:0:
256,192,24570,1,4,0:0:0:0:
256,192,24895,1,12,0:0:0:0:
256,192,25057,1,12,0:0:0:0:
256,192,25381,1,0,0:0:0:0:
256,192,25706,1,8,0:0:0:0:
256,192,26030,1,0,0:0:0:0:
256,192,26274,1,0,0:0:0:0:
256,192,26517,1,0,0:0:0:0:
256,192,26679,1,0,0:0:0:0:
256,192,26842,1,0,0:0:0:0:
256,192,27004,1,8,0:0:0:0:
256,192,27166,1,0,0:0:0:0:
256,192,27328,12,0,28302,0:0:0:0:
256,192,28626,5,4,0:0:0:0:
256,192,28951,1,8,0:0:0:0:
256,192,29438,1,0,0:0:0:0:
256,192,29600,1,8,0:0:0:0:
256,192,29924,1,0,0:0:0:0:
256,192,30249,1,8,0:0:0:0:
256,192,30898,1,8,0:0:0:0:
256,192,31060,1,0,0:0:0:0:
256,192,31222,1,0,0:0:0:0:
256,192,31547,1,0,0:0:0:0:
256,192,31709,1,8,0:0:0:0:
256,192,32196,1,8,0:0:0:0:
256,192,32520,1,0,0:0:0:0:
256,192,33007,1,8,0:0:0:0:
256,192,33088,1,8,0:0:0:0:
256,192,33169,1,8,0:0:0:0:
256,192,33332,1,0,0:0:0:0:
256,192,33494,1,8,0:0:0:0:
256,192,33818,1,8,0:0:0:0:
256,192,34143,1,8,0:0:0:0:
256,192,34630,1,0,0:0:0:0:
256,192,34792,1,8,0:0:0:0:
256,192,34954,1,0,0:0:0:0:
256,192,35116,1,4,0:0:0:0:
256,192,35441,1,12,0:0:0:0:
256,192,36090,1,8,0:0:0:0:
256,192,36252,1,8,0:0:0:0:
256,192,36333,1,8,0:0:0:0:
256,192,36414,1,8,0:0:0:0:
256,192,36739,1,8,0:0:0:0:
256,192,37063,1,0,0:0:0:0:
256,192,37388,1,8,0:0:0:0:
256,192,37712,1,12,0:0:0:0:
256,192,38361,1,12,0:0:0:0:
256,192,39010,1,4,0:0:0:0:
256,192,39171,1,4,0:0:0:0:
256,192,39493,1,12,0:0:0:0:
256,192,39655,1,12,0:0:0:0:
256,192,39977,1,4,0:0:0:0:
256,192,40139,1,4,0:0:0:0:
256,192,40461,1,12,0:0:0:0:
256,192,40622,1,12,0:0:0:0:
256,192,40945,1,4,0:0:0:0:
256,192,41268,1,12,0:0:0:0:
256,192,41429,1,12,0:0:0:0:
256,192,41752,1,4,0:0:0:0:
256,192,41914,1,4,0:0:0:0:
256,192,42238,1,12,0:0:0:0:
256,192,42562,1,12,0:0:0:0:
256,192,42725,1,12,0:0:0:0:
256,192,43211,1,8,0:0:0:0:
256,192,43373,1,8,0:0:0:0:
256,192,43535,1,0,0:0:0:0:
256,192,43698,1,0,0:0:0:0:
256,192,43860,1,8,0:0:0:0:
256,192,44022,1,0,0:0:0:0:
256,192,44184,1,0,0:0:0:0:
256,192,44508,1,0,0:0:0:0:
256,192,44725,1,0,0:0:0:0:
256,192,44833,1,0,0:0:0:0:
256,192,45157,1,0,0:0:0:0:
256,192,45481,1,0,0:0:0:0:
256,192,45698,1,0,0:0:0:0:
256,192,45806,1,0,0:0:0:0:
256,192,45914,1,0,0:0:0:0:
256,192,46022,1,0,0:0:0:0:
256,192,46130,1,0,0:0:0:0:
256,192,46454,1,0,0:0:0:0:
256,192,46671,1,0,0:0:0:0:
256,192,46779,1,0,0:0:0:0:
256,192,47103,1,0,0:0:0:0:
256,192,47211,1,0,0:0:0:0:
256,192,47319,1,0,0:0:0:0:
256,192,47427,1,0,0:0:0:0:
256,192,47752,1,8,0:0:0:0:
256,192,48076,1,8,0:0:0:0:
256,192,48400,1,0,0:0:0:0:
256,192,48617,1,0,0:0:0:0:
256,192,48725,1,0,0:0:0:0:
256,192,48941,1,8,0:0:0:0:
256,192,49049,1,8,0:0:0:0:
256,192,49373,1,0,0:0:0:0:
256,192,49698,1,0,0:0:0:0:
256,192,49914,1,8,0:0:0:0:
256,192,50022,1,8,0:0:0:0:
256,192,50346,1,0,0:0:0:0:
256,192,50671,1,4,0:0:0:0:
256,192,50995,1,4,0:0:0:0:
256,192,51319,1,4,0:0:0:0:
256,192,51644,1,0,0:0:0:0:
256,192,51860,1,0,0:0:0:0:
256,192,51968,1,0,0:0:0:0:
256,192,52292,1,0,0:0:0:0:
256,192,52508,1,0,0:0:0:0:
256,192,52617,1,0,0:0:0:0:
256,192,52941,1,8,0:0:0:0:
256,192,53265,1,0,0:0:0:0:
256,192,53427,1,8,0:0:0:0:
256,192,53589,1,8,0:0:0:0:
256,192,53752,1,8,0:0:0:0:
256,192,53914,1,0,0:0:0:0:
256,192,54076,1,8,0:0:0:0:
256,192,54238,1,8,0:0:0:0:
256,192,54562,1,0,0:0:0:0:
256,192,54725,1,0,0:0:0:0:
256,192,55049,1,0,0:0:0:0:
256,192,55211,1,8,0:0:0:0:
256,192,55535,1,8,0:0:0:0:
256,192,55698,1,8,0:0:0:0:
256,192,55860,1,0,0:0:0:0:
256,192,56184,1,8,0:0:0:0:
256,192,56346,1,0,0:0:0:0:
256,192,56508,1,8,0:0:0:0:
256,192,56671,1,0,0:0:0:0:
256,192,56833,1,8,0:0:0:0:
256,192,57157,1,0,0:0:0:0:
256,192,57319,1,0,0:0:0:0:
256,192,57644,1,0,0:0:0:0:
256,192,57806,1,8,0:0:0:0:
256,192,58130,1,8,0:0:0:0:
256,192,58292,1,8,0:0:0:0:
256,192,58617,1,8,0:0:0:0:
256,192,58779,1,0,0:0:0:0:
256,192,58941,1,8,0:0:0:0:
256,192,59103,1,0,0:0:0:0:
256,192,59265,1,0,0:0:0:0:
256,192,59427,1,8,0:0:0:0:
256,192,59752,1,0,0:0:0:0:
256,192,59914,1,0,0:0:0:0:
256,192,60238,1,0,0:0:0:0:
256,192,60400,1,8,0:0:0:0:
256,192,60725,1,8,0:0:0:0:
256,192,60887,1,8,0:0:0:0:
256,192,61049,1,0,0:0:0:0:
256,192,61373,1,8,0:0:0:0:
256,192,61535,1,0,0:0:0:0:
256,192,61698,1,8,0:0:0:0:
256,192,61860,1,0,0:0:0:0:
256,192,62022,1,8,0:0:0:0:
256,192,62346,1,4,0:0:0:0:
256,192,62508,1,4,0:0:0:0:
256,192,62833,1,12,0:0:0:0:
256,192,62995,1,12,0:0:0:0:
256,192,63319,1,4,0:0:0:0:
256,192,63481,1,4,0:0:0:0:
256,192,63806,1,12,0:0:0:0:
256,192,63968,1,12,0:0:0:0:
256,192,64292,1,0,0:0:0:0:
256,192,64454,1,0,0:0:0:0:
256,192,64617,1,8,0:0:0:0:
256,192,64779,1,8,0:0:0:0:
256,192,64941,1,4,0:0:0:0:
256,192,65103,1,4,0:0:0:0:
256,192,65427,1,12,0:0:0:0:
256,192,65589,1,12,0:0:0:0:
256,192,65914,1,4,0:0:0:0:
256,192,66076,1,4,0:0:0:0:
256,192,66400,1,12,0:0:0:0:
256,192,66562,1,12,0:0:0:0:
256,192,66887,1,12,0:0:0:0:
256,192,67049,1,4,0:0:0:0:
256,192,67535,1,0,0:0:0:0:
256,192,67860,1,8,0:0:0:0:
256,192,68346,1,0,0:0:0:0:
256,192,68508,1,0,0:0:0:0:
256,192,68671,1,8,0:0:0:0:
256,192,68833,1,0,0:0:0:0:
256,192,69157,1,0,0:0:0:0:
256,192,69481,1,8,0:0:0:0:
256,192,69806,1,8,0:0:0:0:
256,192,70130,1,0,0:0:0:0:
256,192,70454,1,8,0:0:0:0:
256,192,70941,1,0,0:0:0:0:
256,192,71103,1,0,0:0:0:0:
256,192,71265,1,8,0:0:0:0:
256,192,71427,1,0,0:0:0:0:
256,192,71752,1,0,0:0:0:0:
256,192,72076,1,8,0:0:0:0:
256,192,72400,1,8,0:0:0:0:
256,192,72725,1,0,0:0:0:0:
256,192,73049,1,8,0:0:0:0:
256,192,73211,1,0,0:0:0:0:
256,192,73373,1,8,0:0:0:0:
256,192,73535,1,0,0:0:0:0:
256,192,73698,1,8,0:0:0:0:
256,192,74022,1,0,0:0:0:0:
256,192,74346,1,0,0:0:0:0:
256,192,74508,1,0,0:0:0:0:
256,192,74671,1,8,0:0:0:0:
256,192,74833,1,0,0:0:0:0:
256,192,74914,1,0,0:0:0:0:
256,192,74995,1,0,0:0:0:0:
256,192,75319,1,4,0:0:0:0:
256,192,75481,1,4,0:0:0:0:
256,192,75806,1,12,0:0:0:0:
256,192,75968,1,12,0:0:0:0:
256,192,76292,1,4,0:0:0:0:
256,192,76454,1,4,0:0:0:0:
256,192,76779,1,12,0:0:0:0:
256,192,76941,1,12,0:0:0:0:
256,192,77265,1,4,0:0:0:0:
256,192,77589,1,12,0:0:0:0:
256,192,78076,1,4,0:0:0:0:
256,192,78238,1,4,0:0:0:0:
256,192,78562,1,12,0:0:0:0:
256,192,78887,1,4,0:0:0:0:
256,192,79049,1,12,0:0:0:0:
256,192,79211,1,8,0:0:0:0:
256,192,79427,1,8,0:0:0:0:
256,192,79535,1,8,0:0:0:0:
256,192,79752,1,8,0:0:0:0:
256,192,79860,1,8,0:0:0:0:
256,192,80076,1,8,0:0:0:0:
256,192,80184,1,8,0:0:0:0:
256,192,80400,1,8,0:0:0:0:
256,192,80508,12,0,81481,0:0:0:0:
256,192,81806,5,4,0:0:0:0:
256,192,81968,1,4,0:0:0:0:
256,192,82292,1,12,0:0:0:0:
256,192,82454,1,12,0:0:0:0:
256,192,82779,1,4,0:0:0:0:
256,192,83103,1,0,0:0:0:0:
256,192,83427,1,8,0:0:0:0:
256,192,83752,1,0,0:0:0:0:
256,192,83914,1,0,0:0:0:0:
256,192,84076,1,8,0:0:0:0:
256,192,84400,1,0,0:0:0:0:
256,192,84725,1,0,0:0:0:0:
256,192,84833,1,0,0:0:0:0:
256,192,84941,1,0,0:0:0:0:
256,192,85049,1,0,0:0:0:0:
256,192,85373,1,0,0:0:0:0:
256,192,85535,1,8,0:0:0:0:
256,192,85698,1,4,0:0:0:0:
256,192,86022,1,8,0:0:0:0:
256,192,86346,1,4,0:0:0:0:
256,192,86671,1,8,0:0:0:0:
256,192,86995,1,4,0:0:0:0:
256,192,87319,1,4,0:0:0:0:
256,192,87644,1,4,0:0:0:0:
256,192,87968,1,8,0:0:0:0:
256,192,88130,1,8,0:0:0:0:
256,192,88292,1,0,0:0:0:0:
256,192,88617,1,0,0:0:0:0:
256,192,88779,1,8,0:0:0:0:
256,192,89103,1,0,0:0:0:0:
256,192,89265,1,0,0:0:0:0:
256,192,89427,1,8,0:0:0:0:
256,192,89589,1,4,0:0:0:0:
256,192,89914,1,4,0:0:0:0:
256,192,90238,1,12,0:0:0:0:
256,192,90562,1,4,0:0:0:0:
256,192,90887,1,0,0:0:0:0:
256,192,91049,1,0,0:0:0:0:
256,192,91373,1,0,0:0:0:0:
256,192,91535,1,8,0:0:0:0:
256,192,91698,1,0,0:0:0:0:
256,192,91860,1,8,0:0:0:0:
256,192,92022,1,0,0:0:0:0:
256,192,92184,1,0,0:0:0:0:
256,192,92346,1,8,0:0:0:0:
256,192,92671,1,8,0:0:0:0:
256,192,92995,1,8,0:0:0:0:
256,192,93157,1,12,0:0:0:0:
256,192,93481,1,0,0:0:0:0:
256,192,93644,1,0,0:0:0:0:
256,192,93806,1,8,0:0:0:0:
256,192,93968,1,0,0:0:0:0:
256,192,94130,1,8,0:0:0:0:
256,192,94292,1,0,0:0:0:0:
256,192,94454,1,8,0:0:0:0:
256,192,94617,1,8,0:0:0:0:
256,192,94779,1,0,0:0:0:0:
256,192,94941,1,8,0:0:0:0:
256,192,95103,1,0,0:0:0:0:
256,192,95265,1,0,0:0:0:0:
256,192,95427,1,8,0:0:0:0:
256,192,95752,1,0,0:0:0:0:
256,192,95914,1,8,0:0:0:0:
256,192,96076,1,0,0:0:0:0:
256,192,96238,1,8,0:0:0:0:
256,192,96400,1,8,0:0:0:0:
256,192,96562,1,0,0:0:0:0:
256,192,96725,1,0,0:0:0:0:
256,192,96887,1,8,0:0:0:0:
256,192,97049,1,0,0:0:0:0:
256,192,97211,1,8,0:0:0:0:
256,192,97373,1,0,0:0:0:0:
256,192,97617,1,8,0:0:0:0:
256,192,97860,1,8,0:0:0:0:
256,192,98022,1,4,0:0:0:0:
256,192,98346,1,0,0:0:0:0:
256,192,98508,1,8,0:0:0:0:
256,192,98671,1,4,0:0:0:0:
256,192,98995,1,0,0:0:0:0:
256,192,99157,1,12,0:0:0:0:
256,192,99481,1,8,0:0:0:0:
256,192,99643,1,4,0:0:0:0:
256,192,99968,1,0,0:0:0:0:
256,192,100130,1,12,0:0:0:0:
256,192,100454,1,8,0:0:0:0:
256,192,100616,1,4,0:0:0:0:
256,192,100940,1,8,0:0:0:0:
256,192,101156,1,8,0:0:0:0:
256,192,101264,1,8,0:0:0:0:
256,192,101480,1,8,0:0:0:0:
256,192,101588,1,8,0:0:0:0:
256,192,101805,1,8,0:0:0:0:
256,192,101913,12,0,103534,0:0:0:0:
256,192,103858,5,0,0:0:0:0:
256,192,104020,1,0,0:0:0:0:
256,192,104182,1,0,0:0:0:0:
256,192,104344,1,8,0:0:0:0:
256,192,104506,1,8,0:0:0:0:
256,192,104668,1,0,0:0:0:0:
256,192,104911,1,0,0:0:0:0:
256,192,105154,1,8,0:0:0:0:
256,192,105316,1,8,0:0:0:0:
256,192,105478,1,0,0:0:0:0:
256,192,105640,1,0,0:0:0:0:
256,192,105802,1,0,0:0:0:0:
256,192,105964,1,8,0:0:0:0:
256,192,106126,1,8,0:0:0:0:
256,192,106288,1,0,0:0:0:0:
256,192,106531,1,0,0:0:0:0:
256,192,106774,1,8,0:0:0:0:
256,192,106936,1,8,0:0:0:0:
256,192,107260,1,0,0:0:0:0:
256,192,107423,1,0,0:0:0:0:
256,192,107585,1,8,0:0:0:0:
256,192,107747,1,0,0:0:0:0:
256,192,107909,1,8,0:0:0:0:
256,192,108233,1,0,0:0:0:0:
256,192,108396,1,8,0:0:0:0:
256,192,108558,1,0,0:0:0:0:
256,192,108720,1,8,0:0:0:0:
256,192,108882,1,0,0:0:0:0:
256,192,109206,1,0,0:0:0:0:
256,192,109315,1,0,0:0:0:0:
256,192,109423,1,0,0:0:0:0:
256,192,109531,1,0,0:0:0:0:
256,192,109639,1,0,0:0:0:0:
256,192,109747,1,0,0:0:0:0:
256,192,109855,1,0,0:0:0:0:
256,192,110179,1,0,0:0:0:0:
256,192,110260,1,0,0:0:0:0:
256,192,110342,1,0,0:0:0:0:
256,192,110504,1,0,0:0:0:0:
256,192,110585,1,0,0:0:0:0:
256,192,110666,1,0,0:0:0:0:
256,192,110828,1,0,0:0:0:0:
256,192,110909,1,0,0:0:0:0:
256,192,110990,1,0,0:0:0:0:
256,192,111152,1,8,0:0:0:0:
256,192,111233,1,8,0:0:0:0:
256,192,111315,1,8,0:0:0:0:
