osu file format v14

[General]
AudioFilename: audio.mp3
AudioLeadIn: 0
PreviewTime: 108640
Countdown: 0
SampleSet: Normal
StackLeniency: 1
Mode: 1
LetterboxInBreaks: 0
WidescreenStoryboard: 1

[Editor]
Bookmarks: 14705,55268,62029,68789,75550,82310,109416,153554,175623,197677,207386,212742,217028,221314,225599,229349,233099,236849,240599,244349,248099,251849,255599
DistanceSpacing: 0.9
BeatDivisor: 4
GridSize: 32
TimelineZoom: 4.100004

[Metadata]
Title:ultra-blazures
TitleUnicode:ultra-blazures
Artist:Frums
ArtistUnicode:Frums
Creator:Vulkin
Version:meltdown
Source:UNDERTALE
Tags:UNSP-1002 UNDERVEIL THE SEQUEL CHAPTER VI Unisphere Another Medium Core Hotland Toby "Radiation" Fox Electronic Instrumental Video Game Remix frumsdotxyz frums.xyz Zetera
BeatmapID:1891643
BeatmapSetID:906494

[Difficulty]
HPDrainRate:6.6
CircleSize:7
OverallDifficulty:7.7
ApproachRate:10
SliderMultiplier:1.4
SliderTickRate:1

[Events]
//Background and Video events
0,0,"bg_undertale__hotland_3d_by_latyprod-dbitw0t.jpg",0,-110
//Break Periods
//Storyboard Layer 0 (Background)
//Storyboard Layer 1 (Fail)
//Storyboard Layer 2 (Pass)
//Storyboard Layer 3 (Foreground)
//Storyboard Layer 4 (Overlay)
//Storyboard Sound Samples

[TimingPoints]
1184,422.535211267606,4,1,0,5,1,0
1184,-333.333333333333,4,1,0,5,0,0
4458,-285.714285714286,4,1,0,10,0,0
7838,-250,4,1,0,15,0,0
11219,-222.222222222222,4,1,0,20,0,0
14599,-200,4,1,0,25,0,0
21360,-200,4,1,0,15,0,0
24317,-200,4,1,0,25,0,0
24951,-200,4,1,0,15,0,0
28120,-200,4,1,0,25,0,0
34881,-200,4,1,0,15,0,0
37838,-200,4,1,0,25,0,0
38472,-200,4,1,0,15,0,0
41219,-200,4,1,0,25,0,0
41641,-200,4,1,0,10,0,0
43331,-208.333333333333,4,1,0,10,0,0
45022,-217.391304347826,4,1,0,10,0,0
46712,-227.272727272727,4,1,0,10,0,0
48402,-238.095238095238,4,1,0,10,0,0
50092,-250,4,1,0,10,0,0
51782,-263.157894736842,4,1,0,10,0,0
53472,-277.777777777778,4,1,0,10,0,0
54423,-66.6666666666667,4,1,0,50,0,0
54529,-69.5652173913043,4,1,0,50,0,0
54634,-72.7272727272727,4,1,0,50,0,0
54740,-76.1904761904762,4,1,0,50,0,0
54845,-80,4,1,0,50,0,0
54951,-84.2105263157895,4,1,0,50,0,0
55057,-88.8888888888889,4,1,0,50,0,0
55162,-94.1176470588235,4,1,0,50,0,0
55268,-100,4,1,0,50,0,0
60338,-100,4,1,0,50,0,0
60444,-98.974426987555,4,1,0,50,0,0
60550,-97.9695804452717,4,1,0,50,0,0
60708,-96.5001331701838,4,1,0,50,0,0
60761,-96.0200643526471,4,1,0,50,0,0
60831,-95.3873537354165,4,1,0,50,0,0
60902,-94.7629268477586,4,1,0,50,0,0
60972,-94.1465334304926,4,1,0,50,0,0
61078,-93.2369636077484,4,1,0,50,0,0
61184,-92.3448007106856,4,1,0,50,0,0
61289,-91.4694661201671,4,1,0,50,0,0
61395,-90.6106523695139,4,1,0,50,0,0
61500,-89.7678155450926,4,1,0,50,0,0
61606,-88.9405139160775,4,1,0,50,0,0
61712,-88.1282442209904,4,1,0,50,0,0
61817,-87.3307530006847,4,1,0,50,0,0
61888,-86.807062622615,4,1,0,50,0,0
61958,-86.2896155625048,4,1,0,50,0,0
62029,-85.7783008347944,4,1,0,50,0,0
67099,-85.7147755130029,4,1,0,50,0,0
67205,-84.956209321905,4,1,0,50,0,0
67310,-84.2109518027038,4,1,0,50,0,0
67522,-82.7589859706967,4,1,0,50,0,0
67627,-82.0516859980439,4,1,0,50,0,0
67733,-81.3563072697555,4,1,0,50,0,0
67838,-80.6726160031882,4,1,0,50,0,0
67891,-80.3350292057999,4,1,0,50,0,0
68050,-79.3391367267211,4,1,0,50,0,0
68155,-78.6887929060479,4,1,0,50,0,0
68261,-78.049024153051,4,1,0,50,0,0
68367,-77.4196345483571,4,1,0,50,0,0
68472,-76.8002555912506,4,1,0,50,0,0
68578,-76.1907083907303,4,1,0,50,0,0
68648,-75.7896715351425,4,1,0,50,0,0
68719,-75.3928912042883,4,1,0,50,0,0
68789,-75.0001875004688,4,1,0,50,0,0
73860,-75.0001875004688,4,1,0,50,0,0
73965,-74.4187707953953,4,1,0,50,0,0
74071,-73.8462992665586,4,1,0,50,0,0
74229,-73.0039444031161,4,1,0,50,0,0
74282,-72.7274314053049,4,1,0,50,0,0
74353,-72.3619370422203,4,1,0,50,0,0
74423,-72.0000979201332,4,1,0,50,0,0
74493,-71.6419108043882,4,1,0,50,0,0
74599,-71.1112122470574,4,1,0,50,0,0
74705,-70.588318339198,4,1,0,50,0,0
74757,-70.3297692550601,4,1,0,50,0,0
74810,-70.0730581704485,4,1,0,50,0,0
74916,-69.5652657845327,4,1,0,50,0,0
74969,-69.3141434816633,4,1,0,50,0,0
75022,-69.0647800010498,4,1,0,50,0,0
75127,-68.5714912653634,4,1,0,50,0,0
75180,-68.3274332594714,4,1,0,50,0,0
75233,-68.0851527388274,4,1,0,50,0,0
75338,-67.6056642729754,4,1,0,50,0,0
75391,-67.3684210526316,4,1,0,50,0,0
75444,-67.13288215561,4,1,0,50,0,0
75550,-66.6666666666667,4,1,0,50,0,0
75550,-66.6666666666667,4,1,0,50,0,0
80620,-66.6666666666667,4,1,0,50,0,0
80673,-65.979381443299,4,1,0,50,0,0
80726,-65.3061224489796,4,1,0,50,0,0
80831,-64,4,1,0,50,0,0
80937,-62.7450980392157,4,1,0,50,0,0
81043,-61.5384615384615,4,1,0,50,0,0
81148,-60.377358490566,4,1,0,50,0,0
81254,-59.2592592592593,4,1,0,50,0,0
81360,-58.1818181818182,4,1,0,50,0,0
81412,-57.6576576576577,4,1,0,50,0,0
81465,-57.1428571428571,4,1,0,50,0,0
81465,-57.1428571428571,4,1,0,50,0,0
81571,-54.2372881355932,4,1,0,50,0,0
81624,-52.8925619834711,4,1,0,50,0,0
81676,-51.6129032258064,4,1,0,50,0,0
81729,-50.3937007874016,4,1,0,50,0,0
81782,-49.2307692307692,4,1,0,50,0,0
81888,-47.0588235294118,4,1,0,50,0,0
81941,-46.0431654676259,4,1,0,50,0,0
81993,-45.0704225352113,4,1,0,50,0,0
82046,-44.1379310344828,4,1,0,50,0,0
82099,-43.2432432432432,4,1,0,50,0,0
82205,-41.5584415584416,4,1,0,50,0,0
82310,-40,4,1,0,50,0,0
82416,-100,4,1,0,50,0,0
94986,-71.4285714285714,4,1,0,70,0,0
96253,419.58041958042,4,1,0,70,1,8
96253,-71.4285714285714,4,1,0,70,0,0
96672,416.666666666667,4,1,0,70,1,8
96672,-71.4285714285714,4,1,0,70,0,0
97088,413.793103448276,4,1,0,70,1,8
97088,-71.4285714285714,4,1,0,70,0,0
97501,410.958904109589,4,1,0,70,1,0
97501,-71.4285714285714,4,1,0,70,0,0
97911,408.163265306122,4,1,0,70,1,8
97911,-71.4285714285714,4,1,0,70,0,0
98319,405.405405405405,4,1,0,70,1,8
98319,-71.4285714285714,4,1,0,70,0,0
98724,402.684563758389,4,1,0,70,1,8
98724,-71.4285714285714,4,1,0,70,0,0
99126,400,4,1,0,70,1,0
99126,-71.4285714285714,4,1,0,70,0,0
99526,397.350993377483,4,1,0,70,1,8
99526,-71.4285714285714,4,1,0,70,0,0
99923,394.736842105263,4,1,0,70,1,8
99923,-71.4285714285714,4,1,0,70,0,0
100317,392.156862745098,4,1,0,70,1,8
100317,-71.4285714285714,4,1,0,70,0,0
100709,389.61038961039,4,1,0,70,1,0
100709,-71.4285714285714,4,1,0,70,0,0
101098,387.096774193548,4,1,0,70,1,8
101098,-71.4285714285714,4,1,0,70,0,0
101485,384.615384615385,4,1,0,70,1,8
101485,-71.4285714285714,4,1,0,70,0,0
101869,382.165605095541,4,1,0,70,1,8
101869,-71.4285714285714,4,1,0,70,0,0
102251,379.746835443038,4,1,0,70,1,0
102251,-71.4285714285714,4,1,0,70,0,0
102630,377.358490566038,4,1,0,70,1,8
102630,-71.4285714285714,4,1,0,70,0,0
103007,375,4,1,0,70,1,8
103007,-71.4285714285714,4,1,0,70,0,0
103382,372.670807453416,4,1,0,70,1,8
103382,-71.4285714285714,4,1,0,70,0,0
103754,370.37037037037,4,1,0,70,1,0
103754,-71.4285714285714,4,1,0,70,0,0
104124,368.098159509202,4,1,0,70,1,8
104124,-71.4285714285714,4,1,0,70,0,0
104492,365.853658536585,4,1,0,70,1,8
104492,-71.4285714285714,4,1,0,70,0,0
104857,363.636363636364,4,1,0,70,1,8
104857,-71.4285714285714,4,1,0,70,0,0
105220,361.44578313253,4,1,0,70,1,0
105220,-71.4285714285714,4,1,0,70,0,0
105581,359.281437125748,4,1,0,70,1,8
105581,-71.4285714285714,4,1,0,70,0,0
105940,357.142857142857,4,1,0,70,1,8
105940,-71.4285714285714,4,1,0,70,0,0
106297,355.029585798817,4,1,0,70,1,8
106297,-71.4285714285714,4,1,0,70,0,0
106652,352.941176470588,4,1,0,70,1,0
106652,-71.4285714285714,4,1,0,70,0,0
107004,350.877192982456,4,1,0,70,1,8
107004,-71.4285714285714,4,1,0,70,0,0
107354,348.837209302326,4,1,0,70,1,8
107354,-71.4285714285714,4,1,0,70,0,0
107702,346.820809248555,4,1,0,70,1,8
107702,-71.4285714285714,4,1,0,70,0,0
108037,344.827586206897,4,1,0,70,1,0
108037,-71.4285714285714,4,1,0,70,0,0
109243,-70.4225352112676,4,1,0,70,0,0
109287,-69.4444444444444,4,1,0,70,0,0
109330,-68.4931506849315,4,1,0,70,0,0
109373,-67.5675675675676,4,1,0,70,0,0
109416,-66.6666666666667,4,1,0,90,0,1
114588,-67.5675675675676,4,1,0,90,0,1
114674,-68.4931506849315,4,1,0,90,0,1
114761,-69.4444444444444,4,1,0,90,0,1
114847,-70.4225352112676,4,1,0,90,0,1
114933,-71.4285714285714,4,1,0,90,0,0
119674,-70.9219858156028,4,1,0,90,0,0
119761,-70.4225352112676,4,1,0,90,0,0
119847,-69.9300699300699,4,1,0,90,0,0
119933,-69.4444444444444,4,1,0,90,0,0
120019,-68.9655172413793,4,1,0,90,0,0
120105,-68.4931506849315,4,1,0,90,0,0
120192,-68.0272108843537,4,1,0,90,0,0
120278,-67.5675675675676,4,1,0,90,0,0
120364,-67.1140939597315,4,1,0,90,0,0
120450,-66.6666666666667,4,1,0,90,0,1
125580,-67.5675675675676,4,1,0,90,0,1
125666,-68.4931506849315,4,1,0,90,0,1
125752,-69.4444444444444,4,1,0,90,0,1
125838,-70.4225352112676,4,1,0,90,0,1
125968,-71.4285714285714,4,1,0,90,0,0
130709,-70.9219858156028,4,1,0,90,0,0
130795,-70.4225352112676,4,1,0,90,0,0
130881,-69.9300699300699,4,1,0,90,0,0
130968,-69.4444444444444,4,1,0,90,0,0
131054,-68.9655172413793,4,1,0,90,0,0
131140,-68.4931506849315,4,1,0,90,0,0
131226,-68.0272108843537,4,1,0,90,0,0
131312,-67.5675675675676,4,1,0,90,0,0
131399,-67.1140939597315,4,1,0,90,0,0
131485,-66.6666666666667,4,1,0,90,0,1
136657,-67.5675675675676,4,1,0,90,0,1
136743,-68.4931506849315,4,1,0,90,0,1
136830,-69.4444444444444,4,1,0,90,0,1
136916,-70.4225352112676,4,1,0,90,0,1
137002,-71.4285714285714,4,1,0,90,0,0
141743,-70.9219858156028,4,1,0,90,0,0
141830,-70.4225352112676,4,1,0,90,0,0
141916,-69.9300699300699,4,1,0,90,0,0
142002,-69.4444444444444,4,1,0,90,0,0
142088,-68.9655172413793,4,1,0,90,0,0
142174,-68.4931506849315,4,1,0,90,0,0
142261,-68.0272108843537,4,1,0,90,0,0
142347,-67.5675675675676,4,1,0,90,0,0
142433,-67.1140939597315,4,1,0,90,0,0
142519,-66.6666666666667,4,1,0,90,0,1
147692,-67.5675675675676,4,1,0,90,0,1
147778,-68.4931506849315,4,1,0,90,0,1
147864,-69.4444444444444,4,1,0,90,0,1
147950,-70.4225352112676,4,1,0,90,0,1
148037,-71.4285714285714,4,1,0,90,0,0
150795,-71.4285714285714,4,1,0,90,0,0
150853,-70.6941101202153,4,1,0,90,0,0
150910,-69.9745502560719,4,1,0,90,0,0
150968,-69.2695388588259,4,1,0,90,0,0
151025,-68.5785450650193,4,1,0,90,0,0
151082,-67.9012471422063,4,1,0,90,0,0
151140,-67.2371514846299,4,1,0,90,0,0
151226,-66.265056249093,4,1,0,90,0,0
151312,-65.320668962035,4,1,0,90,0,0
151399,-64.4028216164207,4,1,0,90,0,0
151485,-63.510410944114,4,1,0,90,0,0
151571,-62.642354751172,4,1,0,90,0,0
151657,-61.7977458654218,4,1,0,90,0,0
151830,-60.1750612882999,4,1,0,90,0,0
152002,-58.6353788285238,4,1,0,90,0,0
152045,-58.2626995206145,4,1,0,90,0,0
152088,-57.8947277008325,4,1,0,90,0,0
152131,-57.5313747352118,4,1,0,90,0,0
152174,-57.1725542010107,4,1,0,90,0,0
152261,-56.4681753833766,4,1,0,90,0,0
152347,-55.7809415488248,4,1,0,90,0,0
152433,-55.1102342460507,4,1,0,90,0,0
152476,-54.7808628533708,4,1,0,90,0,0
152519,-54.4554347613,4,1,0,90,0,0
152562,-54.1357382311372,4,1,0,90,0,0
152605,-53.8160417009744,4,1,0,90,0,0
152692,-53.1914893617021,4,1,0,90,0,0
152778,-52.5812669771766,4,1,0,90,0,0
152864,-51.9848869536648,4,1,0,90,0,0
152907,-51.6917414689242,4,1,0,90,0,0
152950,-51.4018571490988,4,1,0,90,0,0
152993,-51.1152321347152,4,1,0,90,0,0
153037,-50.83178592905,4,1,0,90,0,0
153123,-50.27422073701,4,1,0,90,0,0
153209,-49.7287545085332,4,1,0,90,0,0
153252,-49.4604361025572,4,1,0,90,0,0
153295,-49.1949976558584,4,1,0,90,0,0
153338,-48.9323930484685,4,1,0,90,0,0
153381,-48.6725771399507,4,1,0,90,0,0
153468,-48.1611124061099,4,1,0,90,0,0
153554,344.827586206897,7,1,0,90,1,1
153554,-47.6190476190476,4,1,0,90,0,1
155967,344.827586206897,4,1,0,90,1,9
155967,-47.6190476190476,4,1,0,90,0,1
155968,344.827586206897,9,1,0,90,1,1
155968,-47.6190476190476,4,1,0,90,0,1
159071,344.827586206897,7,1,0,90,1,1
159071,-47.6190476190476,4,1,0,90,0,1
161484,344.827586206897,4,1,0,90,1,9
161484,-47.6190476190476,4,1,0,90,0,1
161485,344.827586206897,9,1,0,90,1,1
161485,-47.6190476190476,4,1,0,90,0,1
164588,344.827586206897,7,1,0,90,1,1
164588,-47.6190476190476,4,1,0,90,0,1
167002,344.827586206897,9,1,0,90,1,1
167002,-47.6190476190476,4,1,0,90,0,1
170105,344.827586206897,7,1,0,90,1,1
170105,-47.6190476190476,4,1,0,90,0,1
172519,344.827586206897,9,1,0,90,1,1
172519,-47.6190476190476,4,1,0,90,0,1
175622,344.827586206897,4,1,0,90,1,9
175622,-47.6190476190476,4,1,0,90,0,1
175623,348.837209302326,4,1,0,90,1,0
175623,-47.071702244116,4,1,0,90,0,0
175971,-196.078431372549,4,1,0,30,0,0
178064,368.098159509203,4,1,0,30,1,8
178064,-188.679245283019,4,1,0,30,0,8
178432,344.827586206897,4,1,0,30,1,0
178432,-200,4,1,0,30,0,0
180845,379.746835443039,4,1,0,30,1,8
180845,-181.818181818182,4,1,0,30,0,8
181224,342.857142857143,4,1,0,30,1,0
181224,-200,4,1,0,30,0,0
183624,402.68456375839,4,1,0,30,1,8
183624,-172.413793103448,4,1,0,30,0,8
184026,333.333333333334,4,1,0,30,1,0
184026,-208.333333333333,4,1,0,30,0,0
186692,344.827586206897,4,1,0,30,1,0
186692,-200,4,1,0,30,0,0
189105,368.098159509203,4,1,0,30,1,8
189105,-188.679245283019,4,1,0,30,0,8
189473,342.857142857143,4,1,0,30,1,0
189473,-200,4,1,0,30,0,0
191873,324.324324324325,4,1,0,30,1,8
191873,-212.765957446809,4,1,0,30,0,8
192197,344.827586206897,4,1,0,30,1,0
192197,-200,4,1,0,30,0,0
194610,348.837209302326,4,1,0,30,1,8
194610,-196.078431372549,4,1,0,30,0,8
194958,339.943342776204,4,1,0,30,1,0
194958,-204.081632653061,4,1,0,30,0,0
197592,-204.081632653061,4,1,0,70,0,0
197677,652.173913043478,4,1,0,70,1,0
197677,-133.333333333333,4,1,0,70,0,0
198003,638.297872340426,4,1,0,70,1,8
198003,-133.333333333333,4,1,0,70,0,0
198322,618.556701030928,4,1,0,70,1,8
198322,-133.333333333333,4,1,0,70,0,0
198631,600,4,1,0,70,1,8
198631,-133.333333333333,4,1,0,70,0,0
198931,594.059405940594,4,1,0,70,1,8
198931,-133.333333333333,4,1,0,70,0,0
199228,588.235294117647,4,1,0,70,1,8
199228,-133.333333333333,4,1,0,70,0,0
199522,550.45871559633,4,1,0,70,1,8
199522,-133.333333333333,4,1,0,70,0,0
199797,540.540540540541,4,1,0,70,1,8
199797,-133.333333333333,4,1,0,70,0,0
200067,512.820512820513,4,1,0,70,1,0
200067,-133.333333333333,4,1,0,70,0,0
200323,491.803278688525,4,1,0,70,1,8
200323,-133.333333333333,4,1,0,70,0,0
200568,480,4,1,0,70,1,8
200568,-133.333333333333,4,1,0,70,0,0
200808,468.75,4,1,0,70,1,8
200808,-133.333333333333,4,1,0,70,0,0
201042,451.127819548872,4,1,0,70,1,8
201042,-133.333333333333,4,1,0,70,0,0
201267,437.956204379562,4,1,0,70,1,8
201267,-133.333333333333,4,1,0,70,0,0
201485,428.571428571429,4,1,0,70,1,8
201485,-133.333333333333,4,1,0,70,0,0
201699,410.958904109589,4,1,0,70,1,8
201699,-133.333333333333,4,1,0,70,0,0
201904,397.350993377483,4,1,0,70,1,0
201904,-133.333333333333,4,1,0,70,0,0
202102,377.358490566038,4,1,0,70,1,8
202102,-133.333333333333,4,1,0,70,0,0
202290,368.098159509202,4,1,0,70,1,8
202290,-133.333333333333,4,1,0,70,0,0
202474,359.281437125748,4,1,0,70,1,8
202474,-133.333333333333,4,1,0,70,0,0
202653,340.909090909091,4,1,0,70,1,8
202653,-133.333333333333,4,1,0,70,0,0
202823,333.333333333333,4,1,0,70,1,8
202823,-133.333333333333,4,1,0,70,0,0
202989,320.855614973262,4,1,0,70,1,8
202989,-133.333333333333,4,1,0,70,0,0
203149,307.692307692308,4,1,0,70,1,8
203149,-133.333333333333,4,1,0,70,0,0
203302,300,4,1,0,70,1,0
203302,-133.333333333333,4,1,0,70,0,0
203452,291.26213592233,4,1,0,70,1,8
203452,-133.333333333333,4,1,0,70,0,0
203597,279.06976744186,4,1,0,70,1,8
203597,-133.333333333333,4,1,0,70,0,0
203736,270.27027027027,4,1,0,70,1,8
203736,-133.333333333333,4,1,0,70,0,0
203871,260.869565217391,4,1,0,70,1,8
203871,-133.333333333333,4,1,0,70,0,0
204001,251.046025104603,4,1,0,70,1,8
204001,-133.333333333333,4,1,0,70,0,0
204126,241.935483870968,4,1,0,70,1,8
204126,-133.333333333333,4,1,0,70,0,0
204246,232.558139534884,4,1,0,70,1,8
204246,-133.333333333333,4,1,0,70,0,0
204362,222.222222222222,4,1,0,70,1,0
204362,-133.333333333333,4,1,0,70,0,0
204473,212.014134275618,4,1,0,70,1,8
204473,-133.333333333333,4,1,0,70,0,0
204579,202.702702702703,4,1,0,70,1,8
204579,-133.333333333333,4,1,0,70,0,0
204680,202.020202020202,4,1,0,70,1,8
204680,-133.333333333333,4,1,0,70,0,0
204781,198.019801980198,4,1,0,70,1,8
204781,-133.333333333333,4,1,0,70,0,0
204880,191.693290734824,4,1,0,70,1,8
204880,-133.333333333333,4,1,0,70,0,0
204975,187.5,4,1,0,70,1,8
204975,-133.333333333333,4,1,0,70,0,0
205068,177.514792899408,4,1,0,70,1,8
205068,-133.333333333333,4,1,0,70,0,0
205156,169.971671388102,4,1,0,70,1,0
205156,-133.333333333333,4,1,0,70,0,0
205240,160.857908847185,4,1,0,70,1,8
205240,-133.333333333333,4,1,0,70,0,0
205320,153.846153846154,4,1,0,70,1,8
205320,-133.333333333333,4,1,0,70,0,0
205396,148.148148148148,4,1,0,70,1,8
205396,-133.333333333333,4,1,0,70,0,0
205470,144.578313253012,4,1,0,70,1,8
205470,-133.333333333333,4,1,0,70,0,0
205542,141.843971631206,4,1,0,70,1,8
205542,-133.333333333333,4,1,0,70,0,0
205612,139.53488372093,4,1,0,70,1,8
205612,-133.333333333333,4,1,0,70,0,0
205681,136.363636363636,4,1,0,70,1,8
205681,-133.333333333333,4,1,0,70,0,0
205749,132.743362831858,4,1,0,70,1,0
205749,-133.333333333333,4,1,0,70,0,0
205815,129.032258064516,4,1,0,70,1,8
205815,-133.333333333333,4,1,0,70,0,0
205879,125,4,1,0,70,1,8
205879,-133.333333333333,4,1,0,70,0,0
205941,118.811881188119,4,1,0,70,1,8
205941,-133.333333333333,4,1,0,70,0,0
206000,114.285714285714,4,1,0,70,1,8
206000,-133.333333333333,4,1,0,70,0,0
206057,108.108108108108,4,1,0,70,1,8
206057,-133.333333333333,4,1,0,70,0,0
206111,98.3606557377049,4,1,0,70,1,8
206111,-133.333333333333,4,1,0,70,0,0
206160,92.3076923076923,4,1,0,70,1,8
206160,-133.333333333333,4,1,0,70,0,0
206206,85.7142857142857,4,1,0,70,1,0
206206,-133.333333333333,4,1,0,70,0,0
206248,77.9220779220779,4,1,0,70,1,8
206248,-133.333333333333,4,1,0,70,0,0
206286,74.074074074074,4,1,0,70,1,8
206286,-133.333333333333,4,1,0,70,0,0
206323,68.1818181818181,4,1,0,70,1,8
206323,-133.333333333333,4,1,0,70,0,0
206357,65.2173913043479,4,1,0,70,1,8
206357,-133.333333333333,4,1,0,70,0,0
206389,60,4,1,0,70,1,8
206389,-133.333333333333,4,1,0,70,0,0
206419,54.5454545454545,4,1,0,70,1,8
206419,-133.333333333333,4,1,0,70,0,0
206446,50,4,1,0,70,1,8
206446,-133.333333333333,4,1,0,70,0,0
206471,46.1538461538462,4,1,0,70,1,0
206471,-133.333333333333,4,1,0,70,0,0
206494,44.6428571428571,4,1,0,70,1,8
206494,-133.333333333333,4,1,0,70,0,0
207386,267.857142857143,4,1,0,100,1,0
207386,-66.6666666666667,4,1,0,100,0,0
208457,267.857142857143,4,1,0,100,1,1
208457,-90.9090909090909,4,1,0,100,0,1
224528,-90.9090909090909,4,1,0,100,0,0
224573,-90.5660103951667,4,1,0,100,0,0
224617,-90.2255910452905,4,1,0,100,0,0
224662,-89.8876404494382,4,1,0,100,0,0
224707,-89.5522120739665,4,1,0,100,0,0
224751,-89.2193573886565,4,1,0,100,0,0
224796,-88.8888888888889,4,1,0,100,0,0
224829,-88.6426592797784,4,1,0,100,0,0
224863,-88.3977900552486,4,1,0,100,0,0
224997,-87.431693989071,4,1,0,100,0,0
225064,-86.9565217391304,4,1,0,100,0,0
225097,-86.7208672086721,4,1,0,100,0,0
225198,-86.0215053763441,4,1,0,100,0,0
225231,-85.7908847184987,4,1,0,100,0,0
225332,-85.1063829787234,4,1,0,100,0,0
225376,-84.8056297369244,4,1,0,100,0,0
225421,-84.5070660583285,4,1,0,100,0,0
225465,-84.2105263157895,4,1,0,100,0,0
225510,-83.91606044306,4,1,0,100,0,0
225555,-83.6237166895378,4,1,0,100,0,0
225599,267.857142857143,7,1,0,100,1,1
225599,-83.3333333333333,7,1,0,100,0,1
240197,-83.3333333333333,7,1,0,100,0,0
240599,-83.3333333333333,7,1,0,100,0,1
255599,-83.3333333333333,7,1,0,100,0,1
255665,-82.5958896981451,7,1,0,100,0,1
255732,-81.8713163024621,7,1,0,100,0,1
255799,-81.1594108800683,7,1,0,100,0,1
255866,-80.459779363193,7,1,0,100,0,1
255933,-79.772107044595,7,1,0,100,0,1
256000,-79.0960273229317,7,1,0,100,0,1
256067,-78.4313725490196,7,1,0,100,0,1
256134,-77.7777950617322,7,1,0,100,0,1
256201,-77.1349607267347,7,1,0,100,0,1
256268,-76.5027238794837,7,1,0,100,0,1
256335,-75.8807670331455,7,1,0,100,0,1
256402,-75.2688414845725,7,1,0,100,0,1
256469,-74.6666507377812,7,1,0,100,0,1
256536,-74.0740740740741,7,1,0,100,0,1
256603,-73.4908290794392,7,1,0,100,0,1
256670,-72.9166438802155,7,1,0,100,0,1
256737,-72.3514137104482,7,1,0,100,0,1
256804,-71.7948791584491,7,1,0,100,0,1
256871,-71.246841093183,7,1,0,100,0,1
256938,-70.7070564228169,7,1,0,100,0,1
257005,-70.1754385964912,7,1,0,100,0,1
257072,-69.6517551545781,7,1,0,100,0,1
257139,-69.1357819844597,7,1,0,100,0,1
257206,-68.6274442522113,7,1,0,100,0,1
257273,-68.1265273115842,7,1,0,100,0,1
257340,-67.6328698452763,7,1,0,100,0,1
257407,-67.1462700918427,7,1,0,100,0,1
257474,-66.6666666666667,7,1,0,100,0,1
257540,-66.1938659468304,7,1,0,100,0,1
257607,-65.7276810156767,7,1,0,100,0,1
257674,-65.2680591824653,7,1,0,100,0,1
257741,-64.8148208161871,7,1,0,100,0,1
257808,-64.3678338485978,7,1,0,100,0,1
257875,-63.926928963118,7,1,0,100,0,1
257942,-63.4920634920635,7,1,0,100,0,1
258009,-63.0630744257792,7,1,0,100,0,1
258076,-62.639804213028,7,1,0,100,0,1
258143,-62.2222166913585,7,1,0,100,0,1
258210,-61.8101599832371,7,1,0,100,0,1
258277,-61.4035249307522,7,1,0,100,0,1
258344,-61.0021680170513,7,1,0,100,0,1
258411,-60.6060606060606,7,1,0,100,0,1
258478,-60.2150641230218,7,1,0,100,0,1
258545,-59.8290444882792,7,1,0,100,0,1
258612,-59.4479779662014,7,1,0,100,0,1
258679,-59.0717349427624,7,1,0,100,0,1
258746,-58.7002244109579,7,1,0,100,0,1
258813,-58.3333236111127,7,1,0,100,0,1
258880,-57.9710144927536,7,1,0,100,0,1
258947,-57.6131782079306,7,1,0,100,0,1
259014,-57.2596996499715,7,1,0,100,0,1
259081,-56.9105644788159,7,1,0,100,0,1
259148,-56.5656611366191,7,1,0,100,0,1
259215,-56.2249131465654,7,1,0,100,0,1
259282,-55.8882146286284,7,1,0,100,0,1
259349,-55.5555555555556,7,1,0,100,0,0
259750,-33.3333333333333,7,1,0,100,0,0

[HitObjects]
256,192,1184,12,0,4353,0:0:0:0:
256,192,4564,12,0,7733,0:0:0:0:
32,32,7944,6,0,L|424:32,1,392
32,32,11324,6,0,L|473:32,1,440.999986541748
256,192,14705,5,8,0:0:0:0:
256,192,14916,1,0,0:0:0:0:
256,192,15127,1,0,0:0:0:0:
256,192,15338,1,8,0:0:0:0:
256,192,15972,1,8,0:0:0:0:
256,192,16184,1,0,0:0:0:0:
256,192,16395,1,0,0:0:0:0:
256,192,16606,1,8,0:0:0:0:
256,192,17240,1,8,0:0:0:0:
256,192,17451,1,0,0:0:0:0:
256,192,17662,1,0,0:0:0:0:
256,192,18085,1,8,0:0:0:0:
256,192,18296,1,0,0:0:0:0:
256,192,18507,1,0,0:0:0:0:
256,192,18719,1,8,0:0:0:0:
256,192,19353,1,8,0:0:0:0:
256,192,19564,1,0,0:0:0:0:
256,192,19775,1,8,0:0:0:0:
256,192,19986,1,8,0:0:0:0:
256,192,20620,1,0,0:0:0:0:
256,192,21043,1,8,0:0:0:0:
256,192,21465,2,0,L|256:224,24,17.5
256,192,24423,1,8,0:0:0:0:
256,192,24845,1,8,0:0:0:0:
256,192,25057,2,0,L|256:224,26,17.5
256,192,28226,5,8,0:0:0:0:
256,192,28437,1,0,0:0:0:0:
256,192,28648,1,8,0:0:0:0:
256,192,28860,1,0,0:0:0:0:
256,192,29493,1,8,0:0:0:0:
256,192,29705,1,0,0:0:0:0:
256,192,29916,1,8,0:0:0:0:
256,192,30127,1,0,0:0:0:0:
256,192,30761,1,8,0:0:0:0:
256,192,30972,1,0,0:0:0:0:
256,192,31184,1,8,0:0:0:0:
256,192,31606,1,8,0:0:0:0:
256,192,31817,1,0,0:0:0:0:
256,192,32029,1,0,0:0:0:0:
256,192,32240,1,8,0:0:0:0:
256,192,32874,1,0,0:0:0:0:
256,192,33085,1,0,0:0:0:0:
256,192,33296,1,8,0:0:0:0:
256,192,33507,1,8,0:0:0:0:
256,192,34141,1,0,0:0:0:0:
256,192,34564,1,8,0:0:0:0:
256,192,34986,2,0,L|256:224,24,17.5
256,192,37944,5,8,0:0:0:0:
256,192,38367,1,8,0:0:0:0:
256,192,38578,2,0,L|256:224,22,17.5
256,192,41324,5,8,0:0:0:0:
256,192,41747,12,0,51043,0:0:0:0:
256,192,54529,5,8,0:0:0:0:
256,192,54634,1,0,0:0:0:0:
256,192,54740,1,0,0:0:0:0:
256,192,54845,1,8,0:0:0:0:
256,192,54951,1,0,0:0:0:0:
256,192,55057,1,8,0:0:0:0:
256,192,55162,1,8,0:0:0:0:
256,192,55268,1,4,0:0:0:0:
256,192,55479,1,0,0:0:0:0:
256,192,55585,1,0,0:0:0:0:
256,192,55691,1,8,0:0:0:0:
256,192,55902,1,0,0:0:0:0:
256,192,56113,1,8,0:0:0:0:
256,192,56219,1,0,0:0:0:0:
256,192,56324,1,8,0:0:0:0:
256,192,56430,1,8,0:0:0:0:
256,192,56536,1,0,0:0:0:0:
256,192,56747,1,0,0:0:0:0:
256,192,56958,1,0,0:0:0:0:
256,192,57064,1,0,0:0:0:0:
256,192,57169,1,8,0:0:0:0:
256,192,57381,1,0,0:0:0:0:
256,192,57592,1,0,0:0:0:0:
256,192,57698,1,8,0:0:0:0:
256,192,57909,1,8,0:0:0:0:
256,192,58014,1,0,0:0:0:0:
256,192,58120,1,8,0:0:0:0:
256,192,58226,1,8,0:0:0:0:
256,192,58437,1,8,0:0:0:0:
256,192,58507,1,8,0:0:0:0:
256,192,58578,1,8,0:0:0:0:
256,192,58648,1,0,0:0:0:0:
256,192,58860,1,8,0:0:0:0:
256,192,58965,1,0,0:0:0:0:
256,192,59071,1,8,0:0:0:0:
256,192,59176,1,8,0:0:0:0:
256,192,59282,1,8,0:0:0:0:
256,192,59388,1,0,0:0:0:0:
256,192,59493,1,0,0:0:0:0:
256,192,59599,1,0,0:0:0:0:
256,192,59705,1,8,0:0:0:0:
256,192,59810,1,8,0:0:0:0:
256,192,59916,1,0,0:0:0:0:
256,192,60127,1,0,0:0:0:0:
256,192,60338,1,8,0:0:0:0:
256,192,60444,1,0,0:0:0:0:
256,192,60550,1,8,0:0:0:0:
256,192,60708,1,8,0:0:0:0:
256,192,60761,1,0,0:0:0:0:
256,192,60831,1,0,0:0:0:0:
256,192,60902,1,0,0:0:0:0:
256,192,60972,1,0,0:0:0:0:
256,192,61078,1,8,0:0:0:0:
256,192,61184,1,8,0:0:0:0:
256,192,61289,1,8,0:0:0:0:
256,192,61395,1,0,0:0:0:0:
256,192,61500,1,8,0:0:0:0:
256,192,61606,1,0,0:0:0:0:
256,192,61712,1,0,0:0:0:0:
256,192,61817,1,8,0:0:0:0:
256,192,61888,1,0,0:0:0:0:
256,192,61958,1,0,0:0:0:0:
256,192,62029,1,8,0:0:0:0:
256,192,62099,1,8,0:0:0:0:
256,192,62169,1,8,0:0:0:0:
256,192,62240,1,0,0:0:0:0:
256,192,62345,1,0,0:0:0:0:
256,192,62451,1,8,0:0:0:0:
256,192,62662,1,0,0:0:0:0:
256,192,62768,1,8,0:0:0:0:
256,192,62979,1,8,0:0:0:0:
256,192,63085,1,0,0:0:0:0:
256,192,63191,1,8,0:0:0:0:
256,192,63296,1,8,0:0:0:0:
256,192,63402,1,0,0:0:0:0:
256,192,63507,1,0,0:0:0:0:
256,192,63719,1,8,0:0:0:0:
256,192,63824,1,8,0:0:0:0:
256,192,63930,1,0,0:0:0:0:
256,192,64141,1,8,0:0:0:0:
256,192,64247,1,0,0:0:0:0:
256,192,64353,1,0,0:0:0:0:
256,192,64458,1,8,0:0:0:0:
256,192,64669,1,8,0:0:0:0:
256,192,64775,1,8,0:0:0:0:
256,192,64881,1,0,0:0:0:0:
256,192,64986,1,8,0:0:0:0:
256,192,65092,1,0,0:0:0:0:
256,192,65198,1,0,0:0:0:0:
256,192,65268,1,0,0:0:0:0:
256,192,65338,1,0,0:0:0:0:
256,192,65409,1,8,0:0:0:0:
256,192,65620,1,0,0:0:0:0:
256,192,65726,1,0,0:0:0:0:
256,192,65831,1,8,0:0:0:0:
256,192,65937,1,8,0:0:0:0:
256,192,66043,1,0,0:0:0:0:
256,192,66148,1,8,0:0:0:0:
256,192,66360,1,8,0:0:0:0:
256,192,66465,1,0,0:0:0:0:
256,192,66571,1,0,0:0:0:0:
256,192,66676,1,8,0:0:0:0:
256,192,66782,1,8,0:0:0:0:
256,192,66888,1,0,0:0:0:0:
256,192,67099,1,8,0:0:0:0:
256,192,67205,1,8,0:0:0:0:
256,192,67310,1,0,0:0:0:0:
256,192,67522,1,8,0:0:0:0:
256,192,67627,1,0,0:0:0:0:
256,192,67733,1,8,0:0:0:0:
256,192,67838,1,8,0:0:0:0:
256,192,67891,1,8,0:0:0:0:
256,192,68050,1,8,0:0:0:0:
256,192,68155,1,0,0:0:0:0:
256,192,68261,1,8,0:0:0:0:
256,192,68367,1,0,0:0:0:0:
256,192,68472,1,8,0:0:0:0:
256,192,68578,1,0,0:0:0:0:
256,192,68648,1,0,0:0:0:0:
256,192,68719,1,0,0:0:0:0:
256,192,68789,1,8,0:0:0:0:
256,192,69000,1,0,0:0:0:0:
256,192,69106,1,0,0:0:0:0:
256,192,69212,1,8,0:0:0:0:
256,192,69317,1,8,0:0:0:0:
256,192,69423,1,0,0:0:0:0:
256,192,69529,1,8,0:0:0:0:
256,192,69740,1,8,0:0:0:0:
256,192,69845,1,8,0:0:0:0:
256,192,69951,1,0,0:0:0:0:
256,192,70057,1,8,0:0:0:0:
256,192,70162,1,0,0:0:0:0:
256,192,70268,1,8,0:0:0:0:
256,192,70338,1,0,0:0:0:0:
256,192,70409,1,0,0:0:0:0:
256,192,70479,1,8,0:0:0:0:
256,192,70585,1,8,0:0:0:0:
256,192,70691,1,0,0:0:0:0:
256,192,70902,1,8,0:0:0:0:
256,192,71007,1,0,0:0:0:0:
256,192,71113,1,0,0:0:0:0:
256,192,71219,1,8,0:0:0:0:
256,192,71430,1,0,0:0:0:0:
256,192,71536,1,8,0:0:0:0:
256,192,71641,1,0,0:0:0:0:
256,192,71747,1,8,0:0:0:0:
256,192,71958,1,8,0:0:0:0:
256,192,72029,1,8,0:0:0:0:
256,192,72099,1,8,0:0:0:0:
256,192,72169,1,0,0:0:0:0:
256,192,72381,1,8,0:0:0:0:
256,192,72486,1,0,0:0:0:0:
256,192,72592,1,8,0:0:0:0:
256,192,72698,1,8,0:0:0:0:
256,192,72803,1,8,0:0:0:0:
256,192,72909,1,0,0:0:0:0:
256,192,73014,1,0,0:0:0:0:
256,192,73120,1,0,0:0:0:0:
256,192,73226,1,8,0:0:0:0:
256,192,73331,1,8,0:0:0:0:
256,192,73437,1,0,0:0:0:0:
256,192,73543,1,0,0:0:0:0:
256,192,73648,1,0,0:0:0:0:
256,192,73860,1,8,0:0:0:0:
256,192,73965,1,0,0:0:0:0:
256,192,74071,1,8,0:0:0:0:
256,192,74229,1,8,0:0:0:0:
256,192,74282,1,0,0:0:0:0:
256,192,74353,1,0,0:0:0:0:
256,192,74423,1,0,0:0:0:0:
256,192,74493,1,0,0:0:0:0:
256,192,74599,1,8,0:0:0:0:
256,192,74705,1,0,0:0:0:0:
256,192,74757,1,8,0:0:0:0:
256,192,74810,1,8,0:0:0:0:
256,192,74916,1,0,0:0:0:0:
256,192,74969,1,8,0:0:0:0:
256,192,75022,1,8,0:0:0:0:
256,192,75127,1,0,0:0:0:0:
256,192,75180,1,8,0:0:0:0:
256,192,75233,1,8,0:0:0:0:
256,192,75338,1,0,0:0:0:0:
256,192,75391,1,8,0:0:0:0:
256,192,75444,1,8,0:0:0:0:
256,192,75550,1,8,0:0:0:0:
256,192,75603,1,8,0:0:0:0:
256,192,75655,1,0,0:0:0:0:
256,192,75708,1,8,0:0:0:0:
256,192,75761,1,0,0:0:0:0:
256,192,75867,1,8,0:0:0:0:
256,192,75972,1,0,0:0:0:0:
256,192,76078,1,8,0:0:0:0:
256,192,76131,1,8,0:0:0:0:
256,192,76184,1,0,0:0:0:0:
256,192,76289,1,0,0:0:0:0:
256,192,76395,1,8,0:0:0:0:
256,192,76448,1,8,0:0:0:0:
256,192,76500,1,0,0:0:0:0:
256,192,76553,1,0,0:0:0:0:
256,192,76606,1,8,0:0:0:0:
256,192,76712,1,8,0:0:0:0:
256,192,76817,1,0,0:0:0:0:
256,192,76923,1,8,0:0:0:0:
256,192,77029,1,0,0:0:0:0:
256,192,77134,1,0,0:0:0:0:
256,192,77240,1,8,0:0:0:0:
256,192,77310,1,0,0:0:0:0:
256,192,77381,1,0,0:0:0:0:
256,192,77451,1,8,0:0:0:0:
256,192,77557,1,0,0:0:0:0:
256,192,77662,1,8,0:0:0:0:
256,192,77733,1,8,0:0:0:0:
256,192,77803,1,0,0:0:0:0:
256,192,77874,1,8,0:0:0:0:
256,192,77979,1,8,0:0:0:0:
256,192,78085,1,0,0:0:0:0:
256,192,78155,1,8,0:0:0:0:
256,192,78226,1,8,0:0:0:0:
256,192,78296,1,0,0:0:0:0:
256,192,78402,1,8,0:0:0:0:
256,192,78507,1,0,0:0:0:0:
256,192,78613,1,0,0:0:0:0:
256,192,78719,1,8,0:0:0:0:
256,192,78824,1,8,0:0:0:0:
256,192,78930,1,0,0:0:0:0:
256,192,79036,1,8,0:0:0:0:
256,192,79141,1,0,0:0:0:0:
256,192,79247,1,8,0:0:0:0:
256,192,79300,1,8,0:0:0:0:
256,192,79353,1,8,0:0:0:0:
256,192,79458,1,8,0:0:0:0:
256,192,79564,1,0,0:0:0:0:
256,192,79669,1,8,0:0:0:0:
256,192,79881,1,8,0:0:0:0:
256,192,79986,1,0,0:0:0:0:
256,192,80092,1,0,0:0:0:0:
256,192,80198,1,8,0:0:0:0:
256,192,80250,1,8,0:0:0:0:
256,192,80303,1,0,0:0:0:0:
256,192,80409,1,0,0:0:0:0:
256,192,80514,1,8,0:0:0:0:
256,192,80620,1,0,0:0:0:0:
256,192,80673,1,0,0:0:0:0:
256,192,80726,1,8,0:0:0:0:
256,192,80831,1,0,0:0:0:0:
256,192,80937,1,8,0:0:0:0:
256,192,81043,1,8,0:0:0:0:
256,192,81148,1,8,0:0:0:0:
256,192,81254,1,0,0:0:0:0:
256,192,81360,1,8,0:0:0:0:
256,192,81412,1,8,0:0:0:0:
256,192,81465,1,0,0:0:0:0:
256,192,81571,1,8,0:0:0:0:
256,192,81624,1,8,0:0:0:0:
256,192,81676,1,0,0:0:0:0:
256,192,81729,1,0,0:0:0:0:
256,192,81782,1,8,0:0:0:0:
256,192,81888,1,8,0:0:0:0:
256,192,81941,1,8,0:0:0:0:
256,192,81993,1,0,0:0:0:0:
256,192,82046,1,0,0:0:0:0:
256,192,82099,1,0,0:0:0:0:
256,192,82205,1,8,0:0:0:0:
256,192,82310,1,4,0:0:0:0:
256,192,85691,1,0,0:0:0:0:
256,192,86007,1,0,0:0:0:0:
256,192,86324,1,8,0:0:0:0:
256,192,86641,1,0,0:0:0:0:
256,192,89071,1,4,0:0:0:0:
256,192,89282,1,8,0:0:0:0:
256,192,89705,1,8,0:0:0:0:
256,192,90127,1,8,0:0:0:0:
256,192,90550,1,8,0:0:0:0:
256,192,90972,1,8,0:0:0:0:
256,192,91395,1,8,0:0:0:0:
256,192,91817,1,8,0:0:0:0:
256,192,91923,1,8,0:0:0:0:
256,192,92240,1,8,0:0:0:0:
256,192,92451,1,0,0:0:0:0:
256,192,92662,1,8,0:0:0:0:
256,192,92768,1,0,0:0:0:0:
256,192,93085,1,8,0:0:0:0:
256,192,93296,1,0,0:0:0:0:
256,192,93402,1,0,0:0:0:0:
256,192,93507,1,8,0:0:0:0:
256,192,93930,1,8,0:0:0:0:
256,192,94353,1,8,0:0:0:0:
256,192,94775,1,8,0:0:0:0:
256,192,95127,1,8,0:0:0:0:
256,192,95268,1,0,0:0:0:0:
256,192,95409,1,8,0:0:0:0:
256,192,95550,1,0,0:0:0:0:
256,192,95620,1,0,0:0:0:0:
256,192,95691,1,8,0:0:0:0:
256,192,95831,1,4,0:0:0:0:
256,192,95971,1,0,0:0:0:0:
256,192,96112,1,0,0:0:0:0:
256,192,96184,1,0,0:0:0:0:
256,192,96253,1,8,0:0:0:0:
256,192,96393,1,0,0:0:0:0:
256,192,96533,1,8,0:0:0:0:
256,192,96672,1,0,0:0:0:0:
256,192,96811,1,0,0:0:0:0:
256,192,96880,1,8,0:0:0:0:
256,192,96950,1,0,0:0:0:0:
256,192,97088,1,8,0:0:0:0:
256,192,97226,1,0,0:0:0:0:
256,192,97364,1,8,0:0:0:0:
256,192,97432,1,8,0:0:0:0:
256,192,97501,1,0,0:0:0:0:
256,192,97638,1,0,0:0:0:0:
256,192,97707,1,0,0:0:0:0:
256,192,97775,1,0,0:0:0:0:
256,192,97843,1,0,0:0:0:0:
256,192,97911,1,8,0:0:0:0:
256,192,98047,1,0,0:0:0:0:
256,192,98183,1,8,0:0:0:0:
256,192,98319,1,0,0:0:0:0:
256,192,98454,1,0,0:0:0:0:
256,192,98522,1,8,0:0:0:0:
256,192,98589,1,0,0:0:0:0:
256,192,98656,1,0,0:0:0:0:
256,192,98724,1,8,0:0:0:0:
256,192,98858,1,0,0:0:0:0:
256,192,98993,1,8,0:0:0:0:
256,192,99059,1,8,0:0:0:0:
256,192,99126,1,4,0:0:0:0:
256,192,99259,1,8,0:0:0:0:
256,192,99326,1,8,0:0:0:0:
256,192,99393,1,8,0:0:0:0:
256,192,99459,1,8,0:0:0:0:
256,192,99526,1,0,0:0:0:0:
256,192,99592,1,0,0:0:0:0:
256,192,99658,1,0,0:0:0:0:
256,192,99791,1,8,0:0:0:0:
256,192,99923,1,0,0:0:0:0:
256,192,99988,1,0,0:0:0:0:
256,192,100055,1,8,0:0:0:0:
256,192,100120,1,8,0:0:0:0:
256,192,100186,1,0,0:0:0:0:
256,192,100317,1,8,0:0:0:0:
256,192,100448,1,8,0:0:0:0:
256,192,100579,1,8,0:0:0:0:
256,192,100709,1,0,0:0:0:0:
256,192,100774,1,8,0:0:0:0:
256,192,100839,1,8,0:0:0:0:
256,192,100903,1,0,0:0:0:0:
256,192,100969,1,8,0:0:0:0:
256,192,101098,1,0,0:0:0:0:
256,192,101162,1,0,0:0:0:0:
256,192,101227,1,8,0:0:0:0:
256,192,101291,1,8,0:0:0:0:
256,192,101356,1,0,0:0:0:0:
256,192,101420,1,0,0:0:0:0:
256,192,101485,1,8,0:0:0:0:
256,192,101549,1,0,0:0:0:0:
256,192,101613,1,0,0:0:0:0:
256,192,101677,1,0,0:0:0:0:
256,192,101742,1,8,0:0:0:0:
256,192,101870,1,0,0:0:0:0:
256,192,101997,1,8,0:0:0:0:
256,192,102124,1,8,0:0:0:0:
256,192,102251,1,4,0:0:0:0:
256,192,102378,1,8,0:0:0:0:
256,192,102504,1,0,0:0:0:0:
256,192,102567,1,0,0:0:0:0:
256,192,102630,1,8,0:0:0:0:
256,192,102756,1,0,0:0:0:0:
256,192,102882,1,8,0:0:0:0:
256,192,103007,1,0,0:0:0:0:
256,192,103132,1,0,0:0:0:0:
256,192,103257,1,0,0:0:0:0:
256,192,103382,1,8,0:0:0:0:
256,192,103506,1,0,0:0:0:0:
256,192,103631,1,8,0:0:0:0:
256,192,103692,1,8,0:0:0:0:
256,192,103755,1,4,0:0:0:0:
256,192,103878,1,8,0:0:0:0:
256,192,103939,1,0,0:0:0:0:
256,192,104001,1,8,0:0:0:0:
256,192,104062,1,8,0:0:0:0:
256,192,104124,1,8,0:0:0:0:
256,192,104247,1,0,0:0:0:0:
256,192,104370,1,8,0:0:0:0:
256,192,104492,1,0,0:0:0:0:
256,192,104613,1,8,0:0:0:0:
256,192,104675,1,8,0:0:0:0:
256,192,104736,1,0,0:0:0:0:
256,192,104796,1,0,0:0:0:0:
256,192,104858,1,8,0:0:0:0:
256,192,104978,1,0,0:0:0:0:
256,192,105100,1,8,0:0:0:0:
256,192,105160,1,8,0:0:0:0:
256,192,105221,1,4,0:0:0:0:
256,192,105341,1,8,0:0:0:0:
256,192,105461,1,8,0:0:0:0:
256,192,105581,1,4,0:0:0:0:
256,192,105701,1,8,0:0:0:0:
256,192,105760,1,8,0:0:0:0:
256,192,105821,1,8,0:0:0:0:
256,192,105940,1,4,0:0:0:0:
256,192,106059,1,8,0:0:0:0:
256,192,106178,1,0,0:0:0:0:
256,192,106297,1,8,0:0:0:0:
256,192,106415,1,8,0:0:0:0:
256,192,106534,1,8,0:0:0:0:
256,192,106652,1,4,0:0:0:0:
256,192,106770,1,8,0:0:0:0:
256,192,106828,1,8,0:0:0:0:
256,192,106887,1,0,0:0:0:0:
256,192,107005,1,4,0:0:0:0:
256,192,107121,1,8,0:0:0:0:
256,192,107237,1,0,0:0:0:0:
256,192,107355,1,4,0:0:0:0:
256,192,107470,1,8,0:0:0:0:
256,192,107528,1,0,0:0:0:0:
256,192,107587,1,8,0:0:0:0:
256,192,107703,1,4,0:0:0:0:
256,192,107818,1,0,0:0:0:0:
256,192,107933,1,8,0:0:0:0:
256,192,108037,1,4,0:0:0:0:
256,192,108726,1,8,0:0:0:0:
256,192,108812,1,0,0:0:0:0:
256,192,108899,1,8,0:0:0:0:
256,192,108985,1,8,0:0:0:0:
256,192,109071,1,8,0:0:0:0:
256,192,109243,1,0,0:0:0:0:
256,192,109287,1,0,0:0:0:0:
256,192,109330,1,0,0:0:0:0:
256,192,109373,1,0,0:0:0:0:
256,192,109416,1,12,0:0:0:0:
256,192,109588,1,0,0:0:0:0:
256,192,109674,1,0,0:0:0:0:
256,192,109761,1,8,0:0:0:0:
256,192,109933,1,0,0:0:0:0:
256,192,110019,1,0,0:0:0:0:
256,192,110105,1,0,0:0:0:0:
256,192,110192,1,8,0:0:0:0:
256,192,110278,1,0,0:0:0:0:
256,192,110364,1,0,0:0:0:0:
256,192,110450,1,8,0:0:0:0:
256,192,110623,1,0,0:0:0:0:
256,192,110709,1,8,0:0:0:0:
256,192,110795,1,0,0:0:0:0:
256,192,110881,1,0,0:0:0:0:
256,192,110968,1,8,0:0:0:0:
256,192,111054,1,0,0:0:0:0:
256,192,111140,1,8,0:0:0:0:
256,192,111312,1,0,0:0:0:0:
256,192,111399,1,8,0:0:0:0:
256,192,111485,1,8,0:0:0:0:
256,192,111571,1,8,0:0:0:0:
256,192,111657,1,0,0:0:0:0:
256,192,111743,1,0,0:0:0:0:
256,192,111830,1,8,0:0:0:0:
256,192,111916,1,8,0:0:0:0:
256,192,112088,1,8,0:0:0:0:
256,192,112174,1,0,0:0:0:0:
256,192,112347,1,0,0:0:0:0:
256,192,112433,1,0,0:0:0:0:
256,192,112519,1,8,0:0:0:0:
256,192,112692,1,0,0:0:0:0:
256,192,112778,1,0,0:0:0:0:
256,192,112864,1,0,0:0:0:0:
256,192,112950,1,8,0:0:0:0:
256,192,113037,1,0,0:0:0:0:
256,192,113123,1,0,0:0:0:0:
256,192,113209,1,8,0:0:0:0:
256,192,113381,1,0,0:0:0:0:
256,192,113468,1,8,0:0:0:0:
256,192,113554,1,0,0:0:0:0:
256,192,113640,1,0,0:0:0:0:
256,192,113726,1,8,0:0:0:0:
256,192,113812,1,0,0:0:0:0:
256,192,113899,1,8,0:0:0:0:
256,192,114071,1,8,0:0:0:0:
256,192,114157,1,0,0:0:0:0:
256,192,114243,1,8,0:0:0:0:
256,192,114330,1,8,0:0:0:0:
256,192,114416,1,0,0:0:0:0:
256,192,114502,1,8,0:0:0:0:
256,192,114588,1,0,0:0:0:0:
256,192,114674,1,8,0:0:0:0:
256,192,114761,1,8,0:0:0:0:
256,192,114847,1,8,0:0:0:0:
256,192,114933,1,0,0:0:0:0:
256,192,115105,1,0,0:0:0:0:
256,192,115278,1,8,0:0:0:0:
256,192,115364,1,8,0:0:0:0:
256,192,115450,1,0,0:0:0:0:
256,192,115537,1,8,0:0:0:0:
256,192,115623,1,0,0:0:0:0:
256,192,115795,1,0,0:0:0:0:
256,192,115968,1,8,0:0:0:0:
256,192,116054,1,8,0:0:0:0:
256,192,116140,1,8,0:0:0:0:
256,192,116226,1,8,0:0:0:0:
256,192,116312,1,0,0:0:0:0:
256,192,116485,1,0,0:0:0:0:
256,192,116571,1,0,0:0:0:0:
256,192,116657,1,8,0:0:0:0:
256,192,116830,1,0,0:0:0:0:
256,192,117002,1,8,0:0:0:0:
256,192,117088,1,8,0:0:0:0:
256,192,117174,1,0,0:0:0:0:
256,192,117261,1,0,0:0:0:0:
256,192,117347,1,8,0:0:0:0:
256,192,117519,1,8,0:0:0:0:
256,192,117605,1,8,0:0:0:0:
256,192,117692,1,0,0:0:0:0:
256,192,117864,1,0,0:0:0:0:
256,192,118037,1,8,0:0:0:0:
256,192,118123,1,0,0:0:0:0:
256,192,118209,1,8,0:0:0:0:
256,192,118295,1,8,0:0:0:0:
256,192,118381,1,0,0:0:0:0:
256,192,118554,1,8,0:0:0:0:
256,192,118640,1,0,0:0:0:0:
256,192,118812,1,0,0:0:0:0:
256,192,118899,1,8,0:0:0:0:
256,192,118985,1,8,0:0:0:0:
256,192,119071,1,0,0:0:0:0:
256,192,119243,1,8,0:0:0:0:
256,192,119330,1,0,0:0:0:0:
256,192,119502,1,8,0:0:0:0:
256,192,119588,1,0,0:0:0:0:
256,192,119674,1,0,0:0:0:0:
256,192,119761,1,8,0:0:0:0:
256,192,119847,1,8,0:0:0:0:
256,192,119933,1,8,0:0:0:0:
256,192,120019,1,0,0:0:0:0:
256,192,120105,1,8,0:0:0:0:
256,192,120192,1,8,0:0:0:0:
256,192,120278,1,0,0:0:0:0:
256,192,120364,1,8,0:0:0:0:
256,192,120450,1,0,0:0:0:0:
256,192,120508,1,0,0:0:0:0:
256,192,120565,1,0,0:0:0:0:
256,192,120623,1,8,0:0:0:0:
256,192,120680,1,8,0:0:0:0:
256,192,120738,1,8,0:0:0:0:
256,192,120795,1,0,0:0:0:0:
256,192,120968,1,8,0:0:0:0:
256,192,121054,1,0,0:0:0:0:
256,192,121140,1,8,0:0:0:0:
256,192,121226,1,8,0:0:0:0:
256,192,121312,1,0,0:0:0:0:
256,192,121399,1,0,0:0:0:0:
256,192,121485,1,8,0:0:0:0:
256,192,121657,1,0,0:0:0:0:
256,192,121743,1,0,0:0:0:0:
256,192,121830,1,8,0:0:0:0:
256,192,121916,1,8,0:0:0:0:
256,192,122002,1,8,0:0:0:0:
256,192,122088,1,0,0:0:0:0:
256,192,122174,1,8,0:0:0:0:
256,192,122347,1,8,0:0:0:0:
256,192,122433,1,0,0:0:0:0:
256,192,122519,1,8,0:0:0:0:
256,192,122605,1,8,0:0:0:0:
256,192,122692,1,0,0:0:0:0:
256,192,122778,1,0,0:0:0:0:
256,192,122864,1,8,0:0:0:0:
256,192,122950,1,8,0:0:0:0:
256,192,123123,1,8,0:0:0:0:
256,192,123209,1,0,0:0:0:0:
256,192,123381,1,8,0:0:0:0:
256,192,123468,1,0,0:0:0:0:
256,192,123554,1,8,0:0:0:0:
256,192,123726,1,8,0:0:0:0:
256,192,123812,1,0,0:0:0:0:
256,192,123899,1,8,0:0:0:0:
256,192,123985,1,8,0:0:0:0:
256,192,124071,1,0,0:0:0:0:
256,192,124157,1,0,0:0:0:0:
256,192,124243,1,8,0:0:0:0:
256,192,124416,1,0,0:0:0:0:
256,192,124502,1,0,0:0:0:0:
256,192,124588,1,8,0:0:0:0:
256,192,124674,1,8,0:0:0:0:
256,192,124761,1,8,0:0:0:0:
256,192,124847,1,0,0:0:0:0:
256,192,124933,1,8,0:0:0:0:
256,192,125105,1,8,0:0:0:0:
256,192,125192,1,0,0:0:0:0:
256,192,125278,1,8,0:0:0:0:
256,192,125364,1,8,0:0:0:0:
256,192,125450,1,0,0:0:0:0:
256,192,125537,1,8,0:0:0:0:
256,192,125623,1,0,0:0:0:0:
256,192,125709,1,0,0:0:0:0:
256,192,125795,1,8,0:0:0:0:
256,192,125881,1,8,0:0:0:0:
256,192,125968,1,0,0:0:0:0:
256,192,126011,1,0,0:0:0:0:
256,192,126054,1,8,0:0:0:0:
256,192,126140,1,0,0:0:0:0:
256,192,126226,1,0,0:0:0:0:
256,192,126312,1,8,0:0:0:0:
256,192,126355,1,8,0:0:0:0:
256,192,126399,1,0,0:0:0:0:
256,192,126485,1,8,0:0:0:0:
256,192,126571,1,0,0:0:0:0:
256,192,126657,1,8,0:0:0:0:
256,192,126700,1,8,0:0:0:0:
256,192,126743,1,8,0:0:0:0:
256,192,126830,1,8,0:0:0:0:
256,192,126916,1,0,0:0:0:0:
256,192,127002,1,8,0:0:0:0:
256,192,127088,1,8,0:0:0:0:
256,192,127174,1,0,0:0:0:0:
256,192,127261,1,8,0:0:0:0:
256,192,127304,1,8,0:0:0:0:
256,192,127347,1,0,0:0:0:0:
256,192,127433,1,0,0:0:0:0:
256,192,127519,1,8,0:0:0:0:
256,192,127605,1,0,0:0:0:0:
256,192,127692,1,8,0:0:0:0:
256,192,127778,1,8,0:0:0:0:
256,192,127864,1,0,0:0:0:0:
256,192,127950,1,0,0:0:0:0:
256,192,128037,1,8,0:0:0:0:
256,192,128080,1,8,0:0:0:0:
256,192,128123,1,0,0:0:0:0:
256,192,128166,1,0,0:0:0:0:
256,192,128209,1,8,0:0:0:0:
256,192,128295,1,0,0:0:0:0:
256,192,128381,1,8,0:0:0:0:
256,192,128468,1,0,0:0:0:0:
256,192,128554,1,8,0:0:0:0:
256,192,128640,1,8,0:0:0:0:
256,192,128726,1,0,0:0:0:0:
256,192,128769,1,0,0:0:0:0:
256,192,128812,1,8,0:0:0:0:
256,192,128899,1,0,0:0:0:0:
256,192,128942,1,0,0:0:0:0:
256,192,128985,1,8,0:0:0:0:
256,192,129071,1,0,0:0:0:0:
256,192,129157,1,0,0:0:0:0:
256,192,129243,1,8,0:0:0:0:
256,192,129330,1,0,0:0:0:0:
256,192,129416,1,8,0:0:0:0:
256,192,129459,1,8,0:0:0:0:
256,192,129502,1,0,0:0:0:0:
256,192,129588,1,8,0:0:0:0:
256,192,129674,1,8,0:0:0:0:
256,192,129761,1,0,0:0:0:0:
256,192,129847,1,0,0:0:0:0:
256,192,129933,1,8,0:0:0:0:
256,192,129976,1,8,0:0:0:0:
256,192,130019,1,0,0:0:0:0:
256,192,130062,1,0,0:0:0:0:
256,192,130105,1,8,0:0:0:0:
256,192,130192,1,8,0:0:0:0:
256,192,130278,1,0,0:0:0:0:
256,192,130364,1,8,0:0:0:0:
256,192,130450,1,8,0:0:0:0:
256,192,130537,1,0,0:0:0:0:
256,192,130580,1,0,0:0:0:0:
256,192,130623,1,8,0:0:0:0:
256,192,130709,1,8,0:0:0:0:
256,192,130795,1,0,0:0:0:0:
256,192,130881,1,0,0:0:0:0:
256,192,130968,1,8,0:0:0:0:
256,192,131054,1,0,0:0:0:0:
256,192,131140,1,8,0:0:0:0:
256,192,131226,1,8,0:0:0:0:
256,192,131312,1,0,0:0:0:0:
256,192,131399,1,0,0:0:0:0:
256,192,131485,1,8,0:0:0:0:
256,192,131542,1,8,0:0:0:0:
256,192,131600,1,8,0:0:0:0:
256,192,131657,1,0,0:0:0:0:
256,192,131743,1,0,0:0:0:0:
256,192,131830,1,8,0:0:0:0:
256,192,132002,1,0,0:0:0:0:
256,192,132088,1,0,0:0:0:0:
256,192,132174,1,8,0:0:0:0:
256,192,132261,1,8,0:0:0:0:
256,192,132347,1,0,0:0:0:0:
256,192,132433,1,0,0:0:0:0:
256,192,132519,1,8,0:0:0:0:
256,192,132692,1,8,0:0:0:0:
256,192,132778,1,0,0:0:0:0:
256,192,132864,1,8,0:0:0:0:
256,192,132950,1,8,0:0:0:0:
256,192,133037,1,0,0:0:0:0:
256,192,133123,1,0,0:0:0:0:
256,192,133209,1,8,0:0:0:0:
256,192,133381,1,0,0:0:0:0:
256,192,133468,1,0,0:0:0:0:
256,192,133554,1,8,0:0:0:0:
256,192,133640,1,8,0:0:0:0:
256,192,133726,1,0,0:0:0:0:
256,192,133812,1,0,0:0:0:0:
256,192,133899,1,8,0:0:0:0:
256,192,134071,1,8,0:0:0:0:
256,192,134157,1,0,0:0:0:0:
256,192,134243,1,8,0:0:0:0:
256,192,134330,1,8,0:0:0:0:
256,192,134416,1,8,0:0:0:0:
256,192,134502,1,0,0:0:0:0:
256,192,134588,1,8,0:0:0:0:
256,192,134761,1,0,0:0:0:0:
256,192,134847,1,0,0:0:0:0:
256,192,134933,1,8,0:0:0:0:
256,192,135019,1,8,0:0:0:0:
256,192,135105,1,0,0:0:0:0:
256,192,135192,1,0,0:0:0:0:
256,192,135278,1,8,0:0:0:0:
256,192,135450,1,8,0:0:0:0:
256,192,135537,1,0,0:0:0:0:
256,192,135623,1,8,0:0:0:0:
256,192,135709,1,8,0:0:0:0:
256,192,135795,1,0,0:0:0:0:
256,192,135881,1,0,0:0:0:0:
256,192,135968,1,8,0:0:0:0:
256,192,136140,1,0,0:0:0:0:
256,192,136226,1,0,0:0:0:0:
256,192,136312,1,8,0:0:0:0:
256,192,136399,1,8,0:0:0:0:
256,192,136485,1,0,0:0:0:0:
256,192,136571,1,0,0:0:0:0:
256,192,136657,1,8,0:0:0:0:
256,192,136743,1,8,0:0:0:0:
256,192,136830,1,0,0:0:0:0:
256,192,136916,1,8,0:0:0:0:
256,192,137002,1,0,0:0:0:0:
256,192,137174,1,8,0:0:0:0:
256,192,137261,1,0,0:0:0:0:
256,192,137347,1,8,0:0:0:0:
256,192,137433,1,8,0:0:0:0:
256,192,137519,1,0,0:0:0:0:
256,192,137605,1,8,0:0:0:0:
256,192,137778,1,8,0:0:0:0:
256,192,137821,1,8,0:0:0:0:
256,192,137864,1,0,0:0:0:0:
256,192,137950,1,0,0:0:0:0:
256,192,138037,1,8,0:0:0:0:
256,192,138123,1,0,0:0:0:0:
256,192,138209,1,8,0:0:0:0:
256,192,138295,1,8,0:0:0:0:
256,192,138468,1,8,0:0:0:0:
256,192,138511,1,0,0:0:0:0:
256,192,138554,1,0,0:0:0:0:
256,192,138640,1,0,0:0:0:0:
256,192,138726,1,8,0:0:0:0:
256,192,138812,1,8,0:0:0:0:
256,192,138899,1,8,0:0:0:0:
256,192,138985,1,0,0:0:0:0:
256,192,139157,1,8,0:0:0:0:
256,192,139200,1,8,0:0:0:0:
256,192,139243,1,0,0:0:0:0:
256,192,139330,1,0,0:0:0:0:
256,192,139416,1,8,0:0:0:0:
256,192,139502,1,0,0:0:0:0:
256,192,139588,1,8,0:0:0:0:
256,192,139674,1,8,0:0:0:0:
256,192,139761,1,0,0:0:0:0:
256,192,139847,1,8,0:0:0:0:
256,192,139933,1,0,0:0:0:0:
256,192,140019,1,8,0:0:0:0:
256,192,140105,1,8,0:0:0:0:
256,192,140192,1,0,0:0:0:0:
256,192,140278,1,0,0:0:0:0:
256,192,140364,1,8,0:0:0:0:
256,192,140450,1,0,0:0:0:0:
256,192,140537,1,0,0:0:0:0:
256,192,140623,1,8,0:0:0:0:
256,192,140709,1,0,0:0:0:0:
256,192,140795,1,0,0:0:0:0:
256,192,140881,1,8,0:0:0:0:
256,192,140968,1,8,0:0:0:0:
256,192,141054,1,0,0:0:0:0:
256,192,141140,1,8,0:0:0:0:
256,192,141226,1,0,0:0:0:0:
256,192,141312,1,8,0:0:0:0:
256,192,141399,1,0,0:0:0:0:
256,192,141485,1,8,0:0:0:0:
256,192,141571,1,0,0:0:0:0:
256,192,141657,1,8,0:0:0:0:
256,192,141743,1,0,0:0:0:0:
256,192,141830,1,8,0:0:0:0:
256,192,141916,1,8,0:0:0:0:
256,192,142002,1,8,0:0:0:0:
256,192,142088,1,0,0:0:0:0:
256,192,142174,1,8,0:0:0:0:
256,192,142261,1,8,0:0:0:0:
256,192,142347,1,0,0:0:0:0:
256,192,142433,1,8,0:0:0:0:
256,192,142519,1,0,0:0:0:0:
256,192,142577,1,0,0:0:0:0:
256,192,142634,1,0,0:0:0:0:
256,192,142692,1,0,0:0:0:0:
256,192,142749,1,0,0:0:0:0:
256,192,142807,1,0,0:0:0:0:
256,192,142864,1,8,0:0:0:0:
256,192,142950,1,0,0:0:0:0:
256,192,143037,1,8,0:0:0:0:
256,192,143123,1,8,0:0:0:0:
256,192,143209,1,0,0:0:0:0:
256,192,143381,1,8,0:0:0:0:
256,192,143468,1,0,0:0:0:0:
256,192,143554,1,8,0:0:0:0:
256,192,143726,1,8,0:0:0:0:
256,192,143899,1,0,0:0:0:0:
256,192,144071,1,0,0:0:0:0:
256,192,144157,1,0,0:0:0:0:
256,192,144243,1,8,0:0:0:0:
256,192,144330,1,8,0:0:0:0:
256,192,144416,1,0,0:0:0:0:
256,192,144502,1,8,0:0:0:0:
256,192,144588,1,0,0:0:0:0:
256,192,144761,1,8,0:0:0:0:
256,192,144847,1,8,0:0:0:0:
256,192,144933,1,8,0:0:0:0:
256,192,145019,1,0,0:0:0:0:
256,192,145105,1,8,0:0:0:0:
256,192,145278,1,0,0:0:0:0:
256,192,145450,1,0,0:0:0:0:
256,192,145537,1,0,0:0:0:0:
256,192,145623,1,8,0:0:0:0:
256,192,145709,1,0,0:0:0:0:
256,192,145795,1,8,0:0:0:0:
256,192,145881,1,8,0:0:0:0:
256,192,145968,1,0,0:0:0:0:
256,192,146140,1,8,0:0:0:0:
256,192,146226,1,0,0:0:0:0:
256,192,146312,1,8,0:0:0:0:
256,192,146485,1,8,0:0:0:0:
256,192,146657,1,0,0:0:0:0:
256,192,146830,1,0,0:0:0:0:
256,192,146916,1,0,0:0:0:0:
256,192,147002,1,8,0:0:0:0:
256,192,147088,1,8,0:0:0:0:
256,192,147174,1,0,0:0:0:0:
256,192,147261,1,8,0:0:0:0:
256,192,147347,1,0,0:0:0:0:
256,192,147519,1,8,0:0:0:0:
256,192,147605,1,8,0:0:0:0:
256,192,147692,1,8,0:0:0:0:
256,192,147778,1,0,0:0:0:0:
256,192,147864,1,0,0:0:0:0:
256,192,147950,1,8,0:0:0:0:
256,192,148037,1,0,0:0:0:0:
256,192,148080,1,0,0:0:0:0:
256,192,148123,1,8,0:0:0:0:
256,192,148166,1,0,0:0:0:0:
256,192,148209,1,8,0:0:0:0:
256,192,148295,1,0,0:0:0:0:
256,192,148381,1,8,0:0:0:0:
256,192,148424,1,0,0:0:0:0:
256,192,148468,1,8,0:0:0:0:
256,192,148511,1,8,0:0:0:0:
256,192,148554,1,0,0:0:0:0:
256,192,148640,1,8,0:0:0:0:
256,192,148726,1,0,0:0:0:0:
256,192,148812,1,8,0:0:0:0:
256,192,148899,1,0,0:0:0:0:
256,192,149071,1,8,0:0:0:0:
256,192,149114,1,8,0:0:0:0:
256,192,149157,1,8,0:0:0:0:
256,192,149243,1,8,0:0:0:0:
256,192,149330,1,0,0:0:0:0:
256,192,149416,1,8,0:0:0:0:
256,192,149459,1,8,0:0:0:0:
256,192,149502,1,0,0:0:0:0:
256,192,149588,1,8,0:0:0:0:
256,192,149631,1,8,0:0:0:0:
256,192,149674,1,0,0:0:0:0:
256,192,149761,1,8,0:0:0:0:
256,192,149847,1,8,0:0:0:0:
256,192,149933,1,0,0:0:0:0:
256,192,150019,1,8,0:0:0:0:
256,192,150105,1,0,0:0:0:0:
256,192,150149,1,0,0:0:0:0:
256,192,150192,1,0,0:0:0:0:
256,192,150278,1,8,0:0:0:0:
256,192,150364,1,0,0:0:0:0:
256,192,150407,1,0,0:0:0:0:
256,192,150450,1,8,0:0:0:0:
256,192,150493,1,8,0:0:0:0:
256,192,150537,1,8,0:0:0:0:
256,192,150623,1,0,0:0:0:0:
256,192,150666,1,0,0:0:0:0:
256,192,150709,1,8,0:0:0:0:
256,192,150795,1,0,0:0:0:0:
256,192,150853,1,0,0:0:0:0:
256,192,150910,1,0,0:0:0:0:
256,192,150968,1,8,0:0:0:0:
256,192,151025,1,0,0:0:0:0:
256,192,151082,1,0,0:0:0:0:
256,192,151140,1,8,0:0:0:0:
256,192,151226,1,8,0:0:0:0:
256,192,151312,1,0,0:0:0:0:
256,192,151399,1,8,0:0:0:0:
256,192,151485,1,0,0:0:0:0:
256,192,151571,1,0,0:0:0:0:
256,192,151657,1,12,0:0:0:0:
256,192,151830,1,12,0:0:0:0:
256,192,152002,1,8,0:0:0:0:
256,192,152045,1,0,0:0:0:0:
256,192,152088,1,8,0:0:0:0:
256,192,152131,1,8,0:0:0:0:
256,192,152174,1,0,0:0:0:0:
256,192,152261,1,0,0:0:0:0:
256,192,152347,1,8,0:0:0:0:
256,192,152433,1,0,0:0:0:0:
256,192,152476,1,0,0:0:0:0:
256,192,152519,1,8,0:0:0:0:
256,192,152562,1,8,0:0:0:0:
256,192,152605,1,0,0:0:0:0:
256,192,152692,1,8,0:0:0:0:
256,192,152778,1,8,0:0:0:0:
256,192,152864,1,0,0:0:0:0:
256,192,152907,1,0,0:0:0:0:
256,192,152950,1,0,0:0:0:0:
256,192,152993,1,0,0:0:0:0:
256,192,153037,1,8,0:0:0:0:
256,192,153123,1,0,0:0:0:0:
256,192,153209,1,8,0:0:0:0:
256,192,153252,1,8,0:0:0:0:
256,192,153295,1,8,0:0:0:0:
256,192,153338,1,8,0:0:0:0:
256,192,153381,1,0,0:0:0:0:
256,192,153468,1,0,0:0:0:0:
256,192,153554,1,12,0:0:0:0:
256,192,153898,1,8,0:0:0:0:
256,192,153985,1,0,0:0:0:0:
256,192,154071,1,8,0:0:0:0:
256,192,154157,1,8,0:0:0:0:
256,192,154243,1,4,0:0:0:0:
256,192,154588,1,8,0:0:0:0:
256,192,154645,1,0,0:0:0:0:
256,192,154703,1,0,0:0:0:0:
256,192,154760,1,8,0:0:0:0:
256,192,154818,1,8,0:0:0:0:
256,192,154875,1,8,0:0:0:0:
256,192,154933,1,4,0:0:0:0:
256,192,155278,1,12,0:0:0:0:
256,192,155622,1,8,0:0:0:0:
256,192,155737,1,0,0:0:0:0:
256,192,155852,1,8,0:0:0:0:
256,192,155968,1,12,0:0:0:0:
256,192,156312,1,0,0:0:0:0:
256,192,156399,1,0,0:0:0:0:
256,192,156485,1,8,0:0:0:0:
256,192,156657,1,4,0:0:0:0:
256,192,157002,1,8,0:0:0:0:
256,192,157117,1,0,0:0:0:0:
256,192,157174,1,0,0:0:0:0:
256,192,157232,1,0,0:0:0:0:
256,192,157289,1,0,0:0:0:0:
256,192,157347,1,12,0:0:0:0:
256,192,157692,1,12,0:0:0:0:
256,192,158036,1,8,0:0:0:0:
256,192,158094,1,8,0:0:0:0:
256,192,158151,1,8,0:0:0:0:
256,192,158209,1,8,0:0:0:0:
256,192,158266,1,8,0:0:0:0:
256,192,158324,1,8,0:0:0:0:
256,192,158381,1,4,0:0:0:0:
256,192,158726,1,0,0:0:0:0:
256,192,158784,1,0,0:0:0:0:
256,192,158841,1,0,0:0:0:0:
256,192,158899,1,0,0:0:0:0:
256,192,158956,1,0,0:0:0:0:
256,192,159013,1,0,0:0:0:0:
256,192,159071,1,12,0:0:0:0:
256,192,159415,1,0,0:0:0:0:
256,192,159502,1,0,0:0:0:0:
256,192,159588,1,8,0:0:0:0:
256,192,159674,1,8,0:0:0:0:
256,192,159760,1,4,0:0:0:0:
256,192,160105,1,8,0:0:0:0:
256,192,160162,1,0,0:0:0:0:
256,192,160220,1,0,0:0:0:0:
256,192,160277,1,8,0:0:0:0:
256,192,160335,1,0,0:0:0:0:
256,192,160392,1,8,0:0:0:0:
256,192,160450,1,4,0:0:0:0:
256,192,160795,1,12,0:0:0:0:
256,192,161139,1,0,0:0:0:0:
256,192,161254,1,8,0:0:0:0:
256,192,161369,1,0,0:0:0:0:
256,192,161485,1,12,0:0:0:0:
256,192,161829,1,0,0:0:0:0:
256,192,161916,1,0,0:0:0:0:
256,192,162002,1,8,0:0:0:0:
256,192,162174,1,4,0:0:0:0:
256,192,162519,1,8,0:0:0:0:
256,192,162634,1,0,0:0:0:0:
256,192,162691,1,8,0:0:0:0:
256,192,162749,1,0,0:0:0:0:
256,192,162806,1,0,0:0:0:0:
256,192,162864,1,12,0:0:0:0:
256,192,163209,1,4,0:0:0:0:
256,192,163553,1,8,0:0:0:0:
256,192,163611,1,8,0:0:0:0:
256,192,163668,1,0,0:0:0:0:
256,192,163726,1,8,0:0:0:0:
256,192,163783,1,8,0:0:0:0:
256,192,163841,1,8,0:0:0:0:
256,192,163898,1,4,0:0:0:0:
256,192,164243,1,0,0:0:0:0:
256,192,164301,1,0,0:0:0:0:
256,192,164358,1,0,0:0:0:0:
256,192,164416,1,8,0:0:0:0:
256,192,164473,1,0,0:0:0:0:
256,192,164530,1,0,0:0:0:0:
256,192,164588,1,12,0:0:0:0:
256,192,164932,1,8,0:0:0:0:
256,192,165019,1,0,0:0:0:0:
256,192,165105,1,8,0:0:0:0:
256,192,165191,1,8,0:0:0:0:
256,192,165277,1,4,0:0:0:0:
256,192,165622,1,8,0:0:0:0:
256,192,165679,1,0,0:0:0:0:
256,192,165737,1,0,0:0:0:0:
256,192,165794,1,8,0:0:0:0:
256,192,165852,1,8,0:0:0:0:
256,192,165909,1,8,0:0:0:0:
256,192,165967,1,4,0:0:0:0:
256,192,166312,1,12,0:0:0:0:
256,192,166656,1,8,0:0:0:0:
256,192,166771,1,0,0:0:0:0:
256,192,166886,1,8,0:0:0:0:
256,192,167002,1,12,0:0:0:0:
256,192,167346,1,0,0:0:0:0:
256,192,167433,1,0,0:0:0:0:
256,192,167519,1,8,0:0:0:0:
256,192,167691,1,4,0:0:0:0:
256,192,168036,1,8,0:0:0:0:
256,192,168151,1,0,0:0:0:0:
256,192,168208,1,0,0:0:0:0:
256,192,168266,1,0,0:0:0:0:
256,192,168323,1,0,0:0:0:0:
256,192,168381,1,12,0:0:0:0:
256,192,168726,1,12,0:0:0:0:
256,192,169070,1,8,0:0:0:0:
256,192,169128,1,8,0:0:0:0:
256,192,169185,1,8,0:0:0:0:
256,192,169243,1,8,0:0:0:0:
256,192,169300,1,8,0:0:0:0:
256,192,169358,1,8,0:0:0:0:
256,192,169415,1,4,0:0:0:0:
256,192,169760,1,0,0:0:0:0:
256,192,169818,1,0,0:0:0:0:
256,192,169875,1,0,0:0:0:0:
256,192,169933,1,0,0:0:0:0:
256,192,169990,1,0,0:0:0:0:
256,192,170047,1,0,0:0:0:0:
256,192,170105,1,12,0:0:0:0:
256,192,170449,1,0,0:0:0:0:
256,192,170536,1,0,0:0:0:0:
256,192,170622,1,8,0:0:0:0:
256,192,170708,1,8,0:0:0:0:
256,192,170794,1,4,0:0:0:0:
256,192,171139,1,8,0:0:0:0:
256,192,171196,1,0,0:0:0:0:
256,192,171254,1,0,0:0:0:0:
256,192,171311,1,8,0:0:0:0:
256,192,171369,1,0,0:0:0:0:
256,192,171426,1,8,0:0:0:0:
256,192,171484,1,4,0:0:0:0:
256,192,171829,1,12,0:0:0:0:
256,192,172173,1,0,0:0:0:0:
256,192,172288,1,8,0:0:0:0:
256,192,172403,1,0,0:0:0:0:
256,192,172519,1,12,0:0:0:0:
256,192,172863,1,0,0:0:0:0:
256,192,172950,1,0,0:0:0:0:
256,192,173036,1,8,0:0:0:0:
256,192,173208,1,4,0:0:0:0:
256,192,173553,1,8,0:0:0:0:
256,192,173668,1,0,0:0:0:0:
256,192,173725,1,8,0:0:0:0:
256,192,173783,1,0,0:0:0:0:
256,192,173840,1,0,0:0:0:0:
256,192,173898,1,12,0:0:0:0:
256,192,174243,1,4,0:0:0:0:
256,192,174587,1,8,0:0:0:0:
256,192,174645,1,8,0:0:0:0:
256,192,174702,1,0,0:0:0:0:
256,192,174760,1,8,0:0:0:0:
256,192,174817,1,8,0:0:0:0:
256,192,174875,1,8,0:0:0:0:
256,192,174932,1,4,0:0:0:0:
256,192,175277,1,0,0:0:0:0:
256,192,175335,1,0,0:0:0:0:
256,192,175392,5,0,0:0:0:0:
256,192,175450,1,8,0:0:0:0:
256,192,175507,1,0,0:0:0:0:
256,192,175564,1,0,0:0:0:0:
256,192,175623,1,12,0:0:0:0:
256,192,175797,1,12,0:0:0:0:
256,192,178064,1,8,0:0:0:0:
256,192,178432,1,8,0:0:0:0:
256,192,180845,1,8,0:0:0:0:
256,192,181224,1,0,0:0:0:0:
256,192,183624,1,0,0:0:0:0:
256,192,184026,1,0,0:0:0:0:
256,192,186692,1,8,0:0:0:0:
256,192,189105,1,8,0:0:0:0:
256,192,189473,1,8,0:0:0:0:
256,192,191873,1,0,0:0:0:0:
256,192,192197,1,8,0:0:0:0:
256,192,194610,1,8,0:0:0:0:
256,192,194958,1,0,0:0:0:0:
256,192,197677,5,0,0:0:0:0:
256,192,198003,1,0,0:0:0:0:
256,192,198322,1,0,0:0:0:0:
256,192,198631,1,0,0:0:0:0:
256,192,198931,1,0,0:0:0:0:
256,192,199228,1,0,0:0:0:0:
256,192,199522,1,0,0:0:0:0:
256,192,199797,1,0,0:0:0:0:
256,192,200067,1,0,0:0:0:0:
256,192,200323,1,0,0:0:0:0:
256,192,200568,1,0,0:0:0:0:
256,192,200808,1,0,0:0:0:0:
256,192,201042,1,0,0:0:0:0:
256,192,201267,1,0,0:0:0:0:
256,192,201485,1,0,0:0:0:0:
256,192,201699,1,0,0:0:0:0:
256,192,201904,1,0,0:0:0:0:
256,192,202102,1,0,0:0:0:0:
256,192,202290,1,0,0:0:0:0:
256,192,202474,1,0,0:0:0:0:
256,192,202653,1,0,0:0:0:0:
256,192,202823,1,0,0:0:0:0:
256,192,202989,1,0,0:0:0:0:
256,192,203149,1,0,0:0:0:0:
256,192,203302,1,0,0:0:0:0:
256,192,203452,1,0,0:0:0:0:
256,192,203597,1,0,0:0:0:0:
256,192,203736,1,0,0:0:0:0:
256,192,203871,1,0,0:0:0:0:
256,192,204001,1,0,0:0:0:0:
256,192,204126,1,0,0:0:0:0:
256,192,204246,1,0,0:0:0:0:
256,192,204362,1,0,0:0:0:0:
256,192,204473,1,0,0:0:0:0:
256,192,204579,1,0,0:0:0:0:
256,192,204680,1,0,0:0:0:0:
256,192,204781,1,0,0:0:0:0:
256,192,204880,1,0,0:0:0:0:
256,192,204975,1,0,0:0:0:0:
256,192,205068,1,0,0:0:0:0:
256,192,205156,1,0,0:0:0:0:
256,192,205240,1,0,0:0:0:0:
256,192,205320,1,0,0:0:0:0:
256,192,205396,1,0,0:0:0:0:
256,192,205470,1,0,0:0:0:0:
256,192,205542,1,0,0:0:0:0:
256,192,205612,1,0,0:0:0:0:
256,192,205681,1,0,0:0:0:0:
256,192,205749,1,0,0:0:0:0:
256,192,205815,1,0,0:0:0:0:
256,192,205879,1,0,0:0:0:0:
256,192,205941,1,0,0:0:0:0:
256,192,206000,1,0,0:0:0:0:
256,192,206057,1,0,0:0:0:0:
256,192,206111,1,0,0:0:0:0:
256,192,206160,1,0,0:0:0:0:
256,192,206206,1,0,0:0:0:0:
256,192,206248,1,0,0:0:0:0:
256,192,206286,1,0,0:0:0:0:
256,192,206323,1,0,0:0:0:0:
256,192,206357,1,0,0:0:0:0:
256,192,206389,1,0,0:0:0:0:
256,192,206419,1,0,0:0:0:0:
256,192,206446,1,0,0:0:0:0:
256,192,206471,1,0,0:0:0:0:
256,192,206494,1,0,0:0:0:0:
256,192,206516,12,0,207297,0:0:0:0:
256,192,207386,5,4,0:0:0:0:
256,192,208457,1,0,0:0:0:0:
256,192,208590,1,0,0:0:0:0:
256,192,208657,1,0,0:0:0:0:
256,192,208724,1,8,0:0:0:0:
256,192,208858,1,0,0:0:0:0:
256,192,208925,1,0,0:0:0:0:
256,192,209059,1,8,0:0:0:0:
256,192,209126,1,0,0:0:0:0:
256,192,209193,1,0,0:0:0:0:
256,192,209260,1,8,0:0:0:0:
256,192,209327,1,8,0:0:0:0:
256,192,209394,1,8,0:0:0:0:
256,192,209461,1,8,0:0:0:0:
256,192,209528,1,0,0:0:0:0:
256,192,209662,1,8,0:0:0:0:
256,192,209729,1,0,0:0:0:0:
256,192,209796,1,8,0:0:0:0:
256,192,209930,1,8,0:0:0:0:
256,192,209997,1,0,0:0:0:0:
256,192,210131,1,8,0:0:0:0:
256,192,210198,1,8,0:0:0:0:
256,192,210265,1,0,0:0:0:0:
256,192,210332,1,8,0:0:0:0:
256,192,210376,1,8,0:0:0:0:
256,192,210421,1,8,0:0:0:0:
256,192,210465,1,8,0:0:0:0:
256,192,210510,1,8,0:0:0:0:
256,192,210555,1,8,0:0:0:0:
256,192,210599,1,0,0:0:0:0:
256,192,210733,1,0,0:0:0:0:
256,192,210800,1,8,0:0:0:0:
256,192,210867,1,8,0:0:0:0:
256,192,211001,1,0,0:0:0:0:
256,192,211068,1,0,0:0:0:0:
256,192,211202,1,8,0:0:0:0:
256,192,211269,1,0,0:0:0:0:
256,192,211403,1,12,0:0:0:0:
256,192,211671,1,0,0:0:0:0:
256,192,211805,1,8,0:0:0:0:
256,192,211872,1,8,0:0:0:0:
256,192,211939,1,0,0:0:0:0:
256,192,212073,1,8,0:0:0:0:
256,192,212117,1,8,0:0:0:0:
256,192,212162,1,8,0:0:0:0:
256,192,212207,1,0,0:0:0:0:
256,192,212340,1,8,0:0:0:0:
256,192,212374,1,8,0:0:0:0:
256,192,212407,1,8,0:0:0:0:
256,192,212474,1,0,0:0:0:0:
256,192,212608,1,0,0:0:0:0:
256,192,212642,1,0,0:0:0:0:
256,192,212675,1,0,0:0:0:0:
256,192,212709,1,0,0:0:0:0:
256,192,212742,1,8,0:0:0:0:
256,192,212876,1,0,0:0:0:0:
256,192,212943,1,0,0:0:0:0:
256,192,213010,1,8,0:0:0:0:
256,192,213144,1,0,0:0:0:0:
256,192,213211,1,0,0:0:0:0:
256,192,213345,1,0,0:0:0:0:
256,192,213412,1,8,0:0:0:0:
256,192,213546,1,8,0:0:0:0:
256,192,213613,1,8,0:0:0:0:
256,192,213680,1,8,0:0:0:0:
256,192,213747,1,8,0:0:0:0:
256,192,213814,1,0,0:0:0:0:
256,192,213881,1,0,0:0:0:0:
256,192,214015,1,0,0:0:0:0:
256,192,214082,1,8,0:0:0:0:
256,192,214215,1,0,0:0:0:0:
256,192,214282,1,0,0:0:0:0:
256,192,214416,1,0,0:0:0:0:
256,192,214483,1,8,0:0:0:0:
256,192,214617,1,8,0:0:0:0:
256,192,214662,1,0,0:0:0:0:
256,192,214707,1,0,0:0:0:0:
256,192,214751,1,8,0:0:0:0:
256,192,214796,1,8,0:0:0:0:
256,192,214840,1,8,0:0:0:0:
256,192,214885,1,0,0:0:0:0:
256,192,215019,1,0,0:0:0:0:
256,192,215086,1,0,0:0:0:0:
256,192,215153,1,8,0:0:0:0:
256,192,215287,1,0,0:0:0:0:
256,192,215354,1,0,0:0:0:0:
256,192,215488,1,0,0:0:0:0:
256,192,215555,1,8,0:0:0:0:
256,192,215689,1,12,0:0:0:0:
256,192,215957,1,4,0:0:0:0:
256,192,216090,1,8,0:0:0:0:
256,192,216157,1,8,0:0:0:0:
256,192,216224,1,4,0:0:0:0:
256,192,216358,1,8,0:0:0:0:
256,192,216403,1,8,0:0:0:0:
256,192,216448,1,8,0:0:0:0:
256,192,216492,1,4,0:0:0:0:
256,192,216626,1,8,0:0:0:0:
256,192,216660,1,8,0:0:0:0:
256,192,216693,1,8,0:0:0:0:
256,192,216760,1,4,0:0:0:0:
256,192,216894,1,8,0:0:0:0:
256,192,216927,1,8,0:0:0:0:
256,192,216961,1,0,0:0:0:0:
256,192,216994,1,0,0:0:0:0:
256,192,217028,1,8,0:0:0:0:
256,192,217095,1,8,0:0:0:0:
256,192,217229,1,8,0:0:0:0:
256,192,217296,1,0,0:0:0:0:
256,192,217430,1,8,0:0:0:0:
256,192,217497,1,8,0:0:0:0:
256,192,217631,1,8,0:0:0:0:
256,192,217698,1,0,0:0:0:0:
256,192,217832,1,8,0:0:0:0:
256,192,217898,1,0,0:0:0:0:
256,192,217965,1,0,0:0:0:0:
256,192,218032,1,0,0:0:0:0:
256,192,218099,1,8,0:0:0:0:
256,192,218166,1,8,0:0:0:0:
256,192,218300,1,0,0:0:0:0:
256,192,218367,1,8,0:0:0:0:
256,192,218501,1,8,0:0:0:0:
256,192,218568,1,8,0:0:0:0:
256,192,218702,1,0,0:0:0:0:
256,192,218769,1,8,0:0:0:0:
256,192,218903,1,8,0:0:0:0:
256,192,218970,1,8,0:0:0:0:
256,192,219037,1,0,0:0:0:0:
256,192,219104,1,8,0:0:0:0:
256,192,219171,1,0,0:0:0:0:
256,192,219238,1,0,0:0:0:0:
256,192,219372,1,8,0:0:0:0:
256,192,219439,1,8,0:0:0:0:
256,192,219573,1,0,0:0:0:0:
256,192,219640,1,0,0:0:0:0:
256,192,219773,1,8,0:0:0:0:
256,192,219840,1,8,0:0:0:0:
256,192,219974,1,0,0:0:0:0:
256,192,220041,1,0,0:0:0:0:
256,192,220108,1,0,0:0:0:0:
256,192,220175,1,0,0:0:0:0:
256,192,220242,1,8,0:0:0:0:
256,192,220309,1,8,0:0:0:0:
256,192,220376,1,0,0:0:0:0:
256,192,220443,1,8,0:0:0:0:
256,192,220510,1,0,0:0:0:0:
256,192,220577,1,0,0:0:0:0:
256,192,220644,1,8,0:0:0:0:
256,192,220711,1,8,0:0:0:0:
256,192,220778,1,0,0:0:0:0:
256,192,220912,1,0,0:0:0:0:
256,192,221046,1,8,0:0:0:0:
256,192,221113,1,8,0:0:0:0:
256,192,221180,1,0,0:0:0:0:
256,192,221247,1,0,0:0:0:0:
256,192,221314,1,8,0:0:0:0:
256,192,221381,1,8,0:0:0:0:
256,192,221515,1,8,0:0:0:0:
256,192,221582,1,0,0:0:0:0:
256,192,221648,1,0,0:0:0:0:
256,192,221716,1,8,0:0:0:0:
256,192,221783,1,8,0:0:0:0:
256,192,221917,1,8,0:0:0:0:
256,192,221984,1,0,0:0:0:0:
256,192,222050,1,0,0:0:0:0:
256,192,222118,1,8,0:0:0:0:
256,192,222184,1,0,0:0:0:0:
256,192,222251,1,0,0:0:0:0:
256,192,222318,1,0,0:0:0:0:
256,192,222385,1,8,0:0:0:0:
256,192,222452,1,8,0:0:0:0:
256,192,222586,1,0,0:0:0:0:
256,192,222653,1,8,0:0:0:0:
256,192,222720,1,0,0:0:0:0:
256,192,222787,1,8,0:0:0:0:
256,192,222854,1,8,0:0:0:0:
256,192,222988,1,0,0:0:0:0:
256,192,223055,1,8,0:0:0:0:
256,192,223122,1,0,0:0:0:0:
256,192,223189,1,8,0:0:0:0:
256,192,223256,1,8,0:0:0:0:
256,192,223323,1,0,0:0:0:0:
256,192,223390,1,8,0:0:0:0:
256,192,223457,1,0,0:0:0:0:
256,192,223524,1,0,0:0:0:0:
256,192,223658,1,8,0:0:0:0:
256,192,223725,1,8,0:0:0:0:
256,192,223859,1,0,0:0:0:0:
256,192,223926,1,0,0:0:0:0:
256,192,224059,1,8,0:0:0:0:
256,192,224126,1,8,0:0:0:0:
256,192,224193,1,0,0:0:0:0:
256,192,224260,1,8,0:0:0:0:
256,192,224327,1,8,0:0:0:0:
256,192,224394,1,8,0:0:0:0:
256,192,224461,1,8,0:0:0:0:
256,192,224528,5,0,0:0:0:0:
256,192,224573,1,0,0:0:0:0:
256,192,224617,1,0,0:0:0:0:
256,192,224662,1,0,0:0:0:0:
256,192,224707,1,0,0:0:0:0:
256,192,224751,1,0,0:0:0:0:
256,192,224796,1,8,0:0:0:0:
256,192,224829,1,8,0:0:0:0:
256,192,224863,1,0,0:0:0:0:
256,192,224997,1,0,0:0:0:0:
256,192,225064,1,8,0:0:0:0:
256,192,225097,1,8,0:0:0:0:
256,192,225198,1,8,0:0:0:0:
256,192,225231,1,8,0:0:0:0:
256,192,225332,1,0,0:0:0:0:
256,192,225376,1,0,0:0:0:0:
256,192,225421,1,0,0:0:0:0:
256,192,225465,1,8,0:0:0:0:
256,192,225510,1,0,0:0:0:0:
256,192,225555,1,0,0:0:0:0:
256,192,225599,1,8,0:0:0:0:
256,192,225732,1,0,0:0:0:0:
256,192,225799,1,0,0:0:0:0:
256,192,225866,1,8,0:0:0:0:
256,192,226000,1,0,0:0:0:0:
256,192,226067,1,8,0:0:0:0:
256,192,226134,1,8,0:0:0:0:
256,192,226201,1,0,0:0:0:0:
256,192,226268,1,8,0:0:0:0:
256,192,226402,1,0,0:0:0:0:
256,192,226536,1,0,0:0:0:0:
256,192,226603,1,0,0:0:0:0:
256,192,226670,1,8,0:0:0:0:
256,192,226737,1,8,0:0:0:0:
256,192,226804,1,0,0:0:0:0:
256,192,226938,1,8,0:0:0:0:
256,192,227072,1,0,0:0:0:0:
256,192,227206,1,8,0:0:0:0:
256,192,227273,1,8,0:0:0:0:
256,192,227340,1,0,0:0:0:0:
256,192,227474,1,8,0:0:0:0:
256,192,227607,1,0,0:0:0:0:
256,192,227674,1,0,0:0:0:0:
256,192,227741,1,8,0:0:0:0:
256,192,227875,1,0,0:0:0:0:
256,192,227942,1,8,0:0:0:0:
256,192,228009,1,8,0:0:0:0:
256,192,228076,1,0,0:0:0:0:
256,192,228143,1,8,0:0:0:0:
256,192,228277,1,0,0:0:0:0:
256,192,228411,1,0,0:0:0:0:
256,192,228478,1,0,0:0:0:0:
256,192,228545,1,8,0:0:0:0:
256,192,228612,1,8,0:0:0:0:
256,192,228679,1,0,0:0:0:0:
256,192,228813,1,8,0:0:0:0:
256,192,228947,1,0,0:0:0:0:
256,192,229014,1,0,0:0:0:0:
256,192,229081,1,8,0:0:0:0:
256,192,229148,1,8,0:0:0:0:
256,192,229215,1,8,0:0:0:0:
256,192,229282,1,8,0:0:0:0:
256,192,229349,1,0,0:0:0:0:
256,192,229482,1,0,0:0:0:0:
256,192,229549,1,0,0:0:0:0:
256,192,229616,1,8,0:0:0:0:
256,192,229750,1,0,0:0:0:0:
256,192,229884,1,8,0:0:0:0:
256,192,230018,1,8,0:0:0:0:
256,192,230085,1,0,0:0:0:0:
256,192,230219,1,0,0:0:0:0:
256,192,230286,1,8,0:0:0:0:
256,192,230420,1,0,0:0:0:0:
256,192,230487,1,8,0:0:0:0:
256,192,230621,1,8,0:0:0:0:
256,192,230688,1,0,0:0:0:0:
256,192,230755,1,0,0:0:0:0:
256,192,230822,1,8,0:0:0:0:
256,192,230956,1,0,0:0:0:0:
256,192,231090,1,0,0:0:0:0:
256,192,231157,1,0,0:0:0:0:
256,192,231224,1,8,0:0:0:0:
256,192,231290,1,8,0:0:0:0:
256,192,231357,1,0,0:0:0:0:
256,192,231491,1,8,0:0:0:0:
256,192,231625,1,0,0:0:0:0:
256,192,231759,1,8,0:0:0:0:
256,192,231826,1,0,0:0:0:0:
256,192,231893,1,8,0:0:0:0:
256,192,231960,1,8,0:0:0:0:
256,192,232094,1,0,0:0:0:0:
256,192,232161,1,8,0:0:0:0:
256,192,232228,1,8,0:0:0:0:
256,192,232295,1,0,0:0:0:0:
256,192,232429,1,8,0:0:0:0:
256,192,232496,1,8,0:0:0:0:
256,192,232563,1,0,0:0:0:0:
256,192,232697,1,8,0:0:0:0:
256,192,232831,1,0,0:0:0:0:
256,192,232898,1,0,0:0:0:0:
256,192,232965,1,8,0:0:0:0:
256,192,233032,1,8,0:0:0:0:
256,192,233099,1,4,0:0:0:0:
256,192,233232,1,8,0:0:0:0:
256,192,233366,1,0,0:0:0:0:
256,192,233433,1,0,0:0:0:0:
256,192,233500,1,8,0:0:0:0:
256,192,233634,1,0,0:0:0:0:
256,192,233768,1,8,0:0:0:0:
256,192,233835,1,8,0:0:0:0:
256,192,233902,1,0,0:0:0:0:
256,192,234036,1,0,0:0:0:0:
256,192,234170,1,8,0:0:0:0:
256,192,234237,1,0,0:0:0:0:
256,192,234304,1,0,0:0:0:0:
256,192,234371,1,0,0:0:0:0:
256,192,234438,1,8,0:0:0:0:
256,192,234572,1,0,0:0:0:0:
256,192,234706,1,8,0:0:0:0:
256,192,234773,1,8,0:0:0:0:
256,192,234840,1,8,0:0:0:0:
256,192,234974,1,0,0:0:0:0:
256,192,235107,1,8,0:0:0:0:
256,192,235241,1,0,0:0:0:0:
256,192,235308,1,0,0:0:0:0:
256,192,235375,1,8,0:0:0:0:
256,192,235509,1,0,0:0:0:0:
256,192,235643,1,8,0:0:0:0:
256,192,235710,1,8,0:0:0:0:
256,192,235777,1,0,0:0:0:0:
256,192,235911,1,0,0:0:0:0:
256,192,236045,1,8,0:0:0:0:
256,192,236112,1,8,0:0:0:0:
256,192,236179,1,0,0:0:0:0:
256,192,236246,1,0,0:0:0:0:
256,192,236313,1,8,0:0:0:0:
256,192,236447,1,8,0:0:0:0:
256,192,236514,1,0,0:0:0:0:
256,192,236581,1,8,0:0:0:0:
256,192,236648,1,8,0:0:0:0:
256,192,236715,1,8,0:0:0:0:
256,192,236782,1,8,0:0:0:0:
256,192,236849,1,0,0:0:0:0:
256,192,236982,1,8,0:0:0:0:
256,192,237116,1,0,0:0:0:0:
256,192,237183,1,0,0:0:0:0:
256,192,237250,1,8,0:0:0:0:
256,192,237317,1,8,0:0:0:0:
256,192,237384,1,0,0:0:0:0:
256,192,237518,1,8,0:0:0:0:
256,192,237585,1,0,0:0:0:0:
256,192,237652,1,8,0:0:0:0:
256,192,237786,1,0,0:0:0:0:
256,192,237920,1,8,0:0:0:0:
256,192,237987,1,0,0:0:0:0:
256,192,238054,1,0,0:0:0:0:
256,192,238121,1,0,0:0:0:0:
256,192,238188,1,8,0:0:0:0:
256,192,238322,1,0,0:0:0:0:
256,192,238389,1,0,0:0:0:0:
256,192,238456,1,8,0:0:0:0:
256,192,238590,1,8,0:0:0:0:
256,192,238724,1,0,0:0:0:0:
256,192,238857,1,8,0:0:0:0:
256,192,238991,1,0,0:0:0:0:
256,192,239058,1,0,0:0:0:0:
256,192,239125,1,8,0:0:0:0:
256,192,239259,1,0,0:0:0:0:
256,192,239393,1,8,0:0:0:0:
256,192,239460,1,8,0:0:0:0:
256,192,239527,1,0,0:0:0:0:
256,192,239661,1,8,0:0:0:0:
256,192,239728,1,0,0:0:0:0:
256,192,239795,1,8,0:0:0:0:
256,192,239929,1,8,0:0:0:0:
256,192,240063,1,0,0:0:0:0:
256,192,240197,1,8,0:0:0:0:
256,192,240264,1,0,0:0:0:0:
256,192,240331,1,8,0:0:0:0:
256,192,240398,1,0,0:0:0:0:
256,192,240465,1,8,0:0:0:0:
256,192,240532,1,8,0:0:0:0:
256,192,240599,1,0,0:0:0:0:
256,192,240732,1,0,0:0:0:0:
256,192,240799,1,0,0:0:0:0:
256,192,240866,1,8,0:0:0:0:
256,192,241000,1,0,0:0:0:0:
256,192,241134,1,0,0:0:0:0:
256,192,241201,1,8,0:0:0:0:
256,192,241268,1,8,0:0:0:0:
256,192,241402,1,0,0:0:0:0:
256,192,241536,1,0,0:0:0:0:
256,192,241603,1,0,0:0:0:0:
256,192,241670,1,8,0:0:0:0:
256,192,241804,1,8,0:0:0:0:
256,192,241871,1,0,0:0:0:0:
256,192,241938,1,0,0:0:0:0:
256,192,242005,1,0,0:0:0:0:
256,192,242072,1,8,0:0:0:0:
256,192,242206,1,0,0:0:0:0:
256,192,242340,1,8,0:0:0:0:
256,192,242407,1,8,0:0:0:0:
256,192,242474,1,0,0:0:0:0:
256,192,242607,1,0,0:0:0:0:
256,192,242674,1,0,0:0:0:0:
256,192,242741,1,8,0:0:0:0:
256,192,242875,1,0,0:0:0:0:
256,192,243009,1,0,0:0:0:0:
256,192,243076,1,8,0:0:0:0:
256,192,243143,1,8,0:0:0:0:
256,192,243277,1,8,0:0:0:0:
256,192,243344,1,0,0:0:0:0:
256,192,243411,1,8,0:0:0:0:
256,192,243478,1,0,0:0:0:0:
256,192,243545,1,8,0:0:0:0:
256,192,243612,1,0,0:0:0:0:
256,192,243679,1,8,0:0:0:0:
256,192,243768,1,8,0:0:0:0:
256,192,243857,1,8,0:0:0:0:
256,192,243947,1,0,0:0:0:0:
256,192,244014,1,0,0:0:0:0:
256,192,244081,1,0,0:0:0:0:
256,192,244148,1,0,0:0:0:0:
256,192,244215,1,8,0:0:0:0:
256,192,244282,1,8,0:0:0:0:
256,192,244349,1,0,0:0:0:0:
256,192,244482,1,0,0:0:0:0:
256,192,244549,1,0,0:0:0:0:
256,192,244616,1,8,0:0:0:0:
256,192,244750,1,0,0:0:0:0:
256,192,244884,1,8,0:0:0:0:
256,192,244951,1,0,0:0:0:0:
256,192,245018,1,8,0:0:0:0:
256,192,245152,1,0,0:0:0:0:
256,192,245286,1,8,0:0:0:0:
256,192,245353,1,8,0:0:0:0:
256,192,245420,1,0,0:0:0:0:
256,192,245487,1,0,0:0:0:0:
256,192,245554,1,8,0:0:0:0:
256,192,245621,1,8,0:0:0:0:
256,192,245688,1,0,0:0:0:0:
256,192,245822,1,8,0:0:0:0:
256,192,245889,1,8,0:0:0:0:
256,192,245956,1,8,0:0:0:0:
256,192,246023,1,0,0:0:0:0:
256,192,246090,1,8,0:0:0:0:
256,192,246224,1,0,0:0:0:0:
256,192,246357,1,0,0:0:0:0:
256,192,246424,1,0,0:0:0:0:
256,192,246491,1,8,0:0:0:0:
256,192,246625,1,0,0:0:0:0:
256,192,246759,1,8,0:0:0:0:
256,192,246826,1,0,0:0:0:0:
256,192,246893,1,8,0:0:0:0:
256,192,247027,1,0,0:0:0:0:
256,192,247094,1,8,0:0:0:0:
256,192,247161,1,0,0:0:0:0:
256,192,247250,1,0,0:0:0:0:
256,192,247340,1,8,0:0:0:0:
256,192,247429,1,8,0:0:0:0:
256,192,247496,1,8,0:0:0:0:
256,192,247563,1,0,0:0:0:0:
256,192,247630,1,0,0:0:0:0:
256,192,247697,1,8,0:0:0:0:
256,192,247764,1,0,0:0:0:0:
256,192,247831,1,0,0:0:0:0:
256,192,247898,1,0,0:0:0:0:
256,192,247965,1,8,0:0:0:0:
256,192,248032,1,8,0:0:0:0:
256,192,248099,1,0,0:0:0:0:
256,192,248165,1,0,0:0:0:0:
256,192,248232,1,8,0:0:0:0:
256,192,248299,1,0,0:0:0:0:
256,192,248366,1,8,0:0:0:0:
256,192,248500,1,0,0:0:0:0:
256,192,248567,1,0,0:0:0:0:
256,192,248634,1,8,0:0:0:0:
256,192,248701,1,0,0:0:0:0:
256,192,248768,1,8,0:0:0:0:
256,192,248902,1,0,0:0:0:0:
256,192,248969,1,8,0:0:0:0:
256,192,249036,1,8,0:0:0:0:
256,192,249103,1,0,0:0:0:0:
256,192,249170,1,8,0:0:0:0:
256,192,249304,1,8,0:0:0:0:
256,192,249371,1,0,0:0:0:0:
256,192,249438,1,0,0:0:0:0:
256,192,249505,1,0,0:0:0:0:
256,192,249572,1,8,0:0:0:0:
256,192,249706,1,0,0:0:0:0:
256,192,249840,1,8,0:0:0:0:
256,192,249907,1,8,0:0:0:0:
256,192,249974,1,0,0:0:0:0:
256,192,250040,1,0,0:0:0:0:
256,192,250107,1,8,0:0:0:0:
256,192,250174,1,0,0:0:0:0:
256,192,250241,1,8,0:0:0:0:
256,192,250375,1,0,0:0:0:0:
256,192,250442,1,0,0:0:0:0:
256,192,250509,1,8,0:0:0:0:
256,192,250576,1,0,0:0:0:0:
256,192,250643,1,8,0:0:0:0:
256,192,250710,1,8,0:0:0:0:
256,192,250777,1,0,0:0:0:0:
256,192,250844,1,8,0:0:0:0:
256,192,250911,1,0,0:0:0:0:
256,192,250978,1,8,0:0:0:0:
256,192,251045,1,0,0:0:0:0:
256,192,251112,1,8,0:0:0:0:
256,192,251179,1,0,0:0:0:0:
256,192,251268,1,0,0:0:0:0:
256,192,251357,1,0,0:0:0:0:
256,192,251447,1,8,0:0:0:0:
256,192,251514,1,0,0:0:0:0:
256,192,251581,1,8,0:0:0:0:
256,192,251648,1,8,0:0:0:0:
256,192,251715,1,8,0:0:0:0:
256,192,251782,1,8,0:0:0:0:
256,192,251849,1,0,0:0:0:0:
256,192,251915,1,8,0:0:0:0:
256,192,251982,1,0,0:0:0:0:
256,192,252049,1,0,0:0:0:0:
256,192,252116,1,8,0:0:0:0:
256,192,252250,1,0,0:0:0:0:
256,192,252317,1,8,0:0:0:0:
256,192,252384,1,0,0:0:0:0:
256,192,252451,1,0,0:0:0:0:
256,192,252518,1,8,0:0:0:0:
256,192,252652,1,0,0:0:0:0:
256,192,252719,1,8,0:0:0:0:
256,192,252786,1,8,0:0:0:0:
256,192,252853,1,8,0:0:0:0:
256,192,252920,1,0,0:0:0:0:
256,192,252987,1,8,0:0:0:0:
256,192,253054,1,0,0:0:0:0:
256,192,253121,1,0,0:0:0:0:
256,192,253188,1,0,0:0:0:0:
256,192,253255,1,0,0:0:0:0:
256,192,253322,1,8,0:0:0:0:
256,192,253456,1,0,0:0:0:0:
256,192,253523,1,0,0:0:0:0:
256,192,253590,1,8,0:0:0:0:
256,192,253657,1,8,0:0:0:0:
256,192,253724,1,0,0:0:0:0:
256,192,253790,1,8,0:0:0:0:
256,192,253857,1,0,0:0:0:0:
256,192,253924,1,0,0:0:0:0:
256,192,253991,1,8,0:0:0:0:
256,192,254125,1,0,0:0:0:0:
256,192,254192,1,8,0:0:0:0:
256,192,254259,1,0,0:0:0:0:
256,192,254326,1,0,0:0:0:0:
256,192,254393,1,8,0:0:0:0:
256,192,254527,1,8,0:0:0:0:
256,192,254594,1,0,0:0:0:0:
256,192,254661,1,0,0:0:0:0:
256,192,254728,1,8,0:0:0:0:
256,192,254795,1,8,0:0:0:0:
256,192,254862,1,0,0:0:0:0:
256,192,254929,1,8,0:0:0:0:
256,192,255063,1,0,0:0:0:0:
256,192,255130,1,0,0:0:0:0:
256,192,255197,1,8,0:0:0:0:
256,192,255264,1,0,0:0:0:0:
256,192,255331,1,8,0:0:0:0:
256,192,255398,1,8,0:0:0:0:
256,192,255465,1,0,0:0:0:0:
256,192,255532,1,8,0:0:0:0:
256,192,255599,1,0,0:0:0:0:
256,192,255665,1,0,0:0:0:0:
256,192,255732,1,0,0:0:0:0:
256,192,255799,1,0,0:0:0:0:
256,192,255866,1,0,0:0:0:0:
256,192,255933,1,0,0:0:0:0:
256,192,256000,1,0,0:0:0:0:
256,192,256067,1,0,0:0:0:0:
256,192,256134,1,0,0:0:0:0:
256,192,256201,1,0,0:0:0:0:
256,192,256268,1,0,0:0:0:0:
256,192,256335,1,0,0:0:0:0:
256,192,256402,1,0,0:0:0:0:
256,192,256469,1,0,0:0:0:0:
256,192,256536,1,0,0:0:0:0:
256,192,256603,1,0,0:0:0:0:
256,192,256670,1,8,0:0:0:0:
256,192,256737,1,0,0:0:0:0:
256,192,256804,1,8,0:0:0:0:
256,192,256871,1,0,0:0:0:0:
256,192,256938,1,8,0:0:0:0:
256,192,257005,1,0,0:0:0:0:
256,192,257072,1,8,0:0:0:0:
256,192,257139,1,0,0:0:0:0:
256,192,257206,1,8,0:0:0:0:
256,192,257273,1,0,0:0:0:0:
256,192,257340,1,8,0:0:0:0:
256,192,257407,1,0,0:0:0:0:
256,192,257474,1,8,0:0:0:0:
256,192,257540,1,8,0:0:0:0:
256,192,257607,1,0,0:0:0:0:
256,192,257674,1,0,0:0:0:0:
256,192,257741,1,8,0:0:0:0:
256,192,257808,1,8,0:0:0:0:
256,192,257875,1,0,0:0:0:0:
256,192,257942,1,0,0:0:0:0:
256,192,258009,1,8,0:0:0:0:
256,192,258076,1,8,0:0:0:0:
256,192,258143,1,0,0:0:0:0:
256,192,258210,1,0,0:0:0:0:
256,192,258277,1,8,0:0:0:0:
256,192,258344,1,8,0:0:0:0:
256,192,258411,1,8,0:0:0:0:
256,192,258478,1,8,0:0:0:0:
256,192,258545,1,0,0:0:0:0:
256,192,258612,1,0,0:0:0:0:
256,192,258679,1,0,0:0:0:0:
256,192,258746,1,0,0:0:0:0:
256,192,258813,1,8,0:0:0:0:
256,192,258880,1,8,0:0:0:0:
256,192,258947,1,8,0:0:0:0:
256,192,259014,1,8,0:0:0:0:
256,192,259081,1,8,0:0:0:0:
256,192,259148,1,8,0:0:0:0:
256,192,259215,1,8,0:0:0:0:
256,192,259282,1,8,0:0:0:0:
256,192,259349,1,0,0:0:0:0:
256,192,259415,1,8,0:0:0:0:
256,192,259482,1,0,0:0:0:0:
256,192,259549,1,0,0:0:0:0:
256,192,259616,1,8,0:0:0:0:
256,192,259750,1,12,0:0:0:0:
