osu file format v14

[General]
AudioFilename: theyaremanycolors.mp3
AudioLeadIn: 0
PreviewTime: 39422
Countdown: 0
SampleSet: None
StackLeniency: 0.2
Mode: 3
LetterboxInBreaks: 0
SpecialStyle: 0
WidescreenStoryboard: 0

[Editor]
Bookmarks: 27510
DistanceSpacing: 0.8
BeatDivisor: 8
GridSize: 8
TimelineZoom: 2.827999

[Metadata]
Title:theyaremanycolors
TitleUnicode:theyaremanycolors
Artist:Frums
ArtistUnicode:Frums
Creator:dionzz99
Version:Loneliness-Anger-Imagination-Awareness-Lost
Source:
Tags:
BeatmapID:1762784
BeatmapSetID:842431

[Difficulty]
HPDrainRate:6
CircleSize:4
OverallDifficulty:6
ApproachRate:5
SliderMultiplier:1.4
SliderTickRate:1

[Events]
//Background and Video events
Video,-920,"[BOFU2017] theyaremanycolors [BGA].mp4"
0,0,"theyaremanycolors.jpg",0,0
//Break Periods
2,27876,38980
2,112379,126313
//Storyboard Layer 0 (Background)
//Storyboard Layer 1 (Fail)
//Storyboard Layer 2 (Pass)
//Storyboard Layer 3 (Foreground)
//Storyboard Sound Samples

[TimingPoints]
10,1000,4,2,0,25,1,0
12510,1000,4,2,0,25,1,0
12511.1,1000,4,2,0,25,1,0
12512.2,1000,4,2,0,25,1,0
12513.3,1000,4,2,0,25,1,0
12514.4,1000,4,2,0,25,1,0
12515.6,1000,4,2,0,25,1,0
12516.7,1000,4,2,0,25,1,0
12517.8,1000,4,2,0,25,1,0
12518.9,1000,4,2,0,25,1,0
12520,1000,4,2,0,25,1,0
12521.1,1000,4,2,0,25,1,0
12522.2,1000,4,2,0,25,1,0
12523.3,1000,4,2,0,25,1,0
12524.4,1000,4,2,0,25,1,0
12525.6,1000,4,2,0,25,1,0
12526.7,1000,4,2,0,25,1,0
12527.8,1000,4,2,0,25,1,0
12528.9,1000,4,2,0,25,1,0
12530,1000,4,2,0,25,1,0
12531.1,1000,4,2,0,25,1,0
12532.2,1000,4,2,0,25,1,0
12533.3,1000,4,2,0,25,1,0
12534.4,1000,4,2,0,25,1,0
12535.6,1000,4,2,0,25,1,0
12536.7,1000,4,2,0,25,1,0
12537.8,1000,4,2,0,25,1,0
12538.9,1000,4,2,0,25,1,0
12540,1000,4,2,0,25,1,0
12541.1,1000,4,2,0,25,1,0
12542.2,1000,4,2,0,25,1,0
12543.3,1000,4,2,0,25,1,0
12544.4,1000,4,2,0,25,1,0
12545.6,1000,4,2,0,25,1,0
12546.7,1000,4,2,0,25,1,0
12547.8,1000,4,2,0,25,1,0
12548.9,1000,4,2,0,25,1,0
12550,1000,4,2,0,25,1,0
12551.1,1000,4,2,0,25,1,0
12552.2,1000,4,2,0,25,1,0
12553.3,1000,4,2,0,25,1,0
12554.4,1000,4,2,0,25,1,0
12555.6,1000,4,2,0,25,1,0
12556.7,1000,4,2,0,25,1,0
12557.8,1000,4,2,0,25,1,0
12558.9,1000,4,2,0,25,1,0
12560,1000,4,2,0,25,1,0
12561.1,1000,4,2,0,25,1,0
12562.2,1000,4,2,0,25,1,0
12563.3,1000,4,2,0,25,1,0
12564.4,1000,4,2,0,25,1,0
12565.6,1000,4,2,0,25,1,0
12566.7,1000,4,2,0,25,1,0
12567.8,1000,4,2,0,25,1,0
12568.9,1000,4,2,0,25,1,0
12570,1000,4,2,0,25,1,0
12571.1,1000,4,2,0,25,1,0
12572.2,1000,4,2,0,25,1,0
12573.3,1000,4,2,0,25,1,0
12574.4,1000,4,2,0,25,1,0
12575.6,1000,4,2,0,25,1,0
12576.7,1000,4,2,0,25,1,0
12577.8,1000,4,2,0,25,1,0
12578.9,1000,4,2,0,25,1,0
12580,1000,4,2,0,25,1,0
12581.1,1000,4,2,0,25,1,0
12582.2,1000,4,2,0,25,1,0
12583.3,1000,4,2,0,25,1,0
12584.4,1000,4,2,0,25,1,0
12585.6,1000,4,2,0,25,1,0
12586.7,1000,4,2,0,25,1,0
12587.8,1000,4,2,0,25,1,0
12588.9,1000,4,2,0,25,1,0
12590,1000,4,2,0,25,1,0
12591.1,1000,4,2,0,25,1,0
12592.2,1000,4,2,0,25,1,0
12593.3,1000,4,2,0,25,1,0
12594.4,1000,4,2,0,25,1,0
12595.6,1000,4,2,0,25,1,0
12596.7,1000,4,2,0,25,1,0
12597.8,1000,4,2,0,25,1,0
12598.9,1000,4,2,0,25,1,0
12600,1000,4,2,0,25,1,0
12601.1,1000,4,2,0,25,1,0
12602.2,1000,4,2,0,25,1,0
12603.3,1000,4,2,0,25,1,0
12604.4,1000,4,2,0,25,1,0
12605.6,1000,4,2,0,25,1,0
12606.7,1000,4,2,0,25,1,0
12607.8,1000,4,2,0,25,1,0
12608.9,1000,4,2,0,25,1,0
12610,1000,4,2,0,25,1,0
12611.1,1000,4,2,0,25,1,0
12612.2,1000,4,2,0,25,1,0
12613.3,1000,4,2,0,25,1,0
12614.4,1000,4,2,0,25,1,0
12615.6,1000,4,2,0,25,1,0
12616.7,1000,4,2,0,25,1,0
12617.8,1000,4,2,0,25,1,0
12618.9,1000,4,2,0,25,1,0
12620,1000,4,2,0,25,1,0
12621.1,1000,4,2,0,25,1,0
12622.2,1000,4,2,0,25,1,0
12623.3,1000,4,2,0,25,1,0
12624.4,1000,4,2,0,25,1,0
12625.6,1000,4,2,0,25,1,0
12626.7,1000,4,2,0,25,1,0
12627.8,1000,4,2,0,25,1,0
12628.9,1000,4,2,0,25,1,0
12630,1000,4,2,0,25,1,0
12631.1,1000,4,2,0,25,1,0
12632.2,1000,4,2,0,25,1,0
12633.3,1000,4,2,0,25,1,0
12634.4,1000,4,2,0,25,1,0
12635.6,1000,4,2,0,25,1,0
12636.7,1000,4,2,0,25,1,0
12637.8,1000,4,2,0,25,1,0
12638.9,1000,4,2,0,25,1,0
12640,1000,4,2,0,25,1,0
12641.1,1000,4,2,0,25,1,0
12642.2,1000,4,2,0,25,1,0
12643.3,1000,4,2,0,25,1,0
12644.4,1000,4,2,0,25,1,0
12645.6,1000,4,2,0,25,1,0
12646.7,1000,4,2,0,25,1,0
12647.8,1000,4,2,0,25,1,0
12648.9,1000,4,2,0,25,1,0
12650,1000,4,2,0,25,1,0
12651.1,1000,4,2,0,25,1,0
12652.2,1000,4,2,0,25,1,0
12653.3,1000,4,2,0,25,1,0
12654.4,1000,4,2,0,25,1,0
12655.6,1000,4,2,0,25,1,0
12656.7,1000,4,2,0,25,1,0
12657.8,1000,4,2,0,25,1,0
12658.9,1000,4,2,0,25,1,0
12660,1000,4,2,0,25,1,0
12661.1,1000,4,2,0,25,1,0
12662.2,1000,4,2,0,25,1,0
12663.3,1000,4,2,0,25,1,0
12664.4,1000,4,2,0,25,1,0
12665.6,1000,4,2,0,25,1,0
12666.7,1000,4,2,0,25,1,0
12667.8,1000,4,2,0,25,1,0
12668.9,1000,4,2,0,25,1,0
12670,1000,4,2,0,25,1,0
12671.1,1000,4,2,0,25,1,0
12672.2,1000,4,2,0,25,1,0
12673.3,1000,4,2,0,25,1,0
12674.4,1000,4,2,0,25,1,0
12675.6,1000,4,2,0,25,1,0
12676.7,1000,4,2,0,25,1,0
12677.8,1000,4,2,0,25,1,0
12678.9,1000,4,2,0,25,1,0
12680,1000,4,2,0,25,1,0
12681.1,1000,4,2,0,25,1,0
12682.2,1000,4,2,0,25,1,0
12683.3,1000,4,2,0,25,1,0
12684.4,1000,4,2,0,25,1,0
12685.6,1000,4,2,0,25,1,0
12686.7,1000,4,2,0,25,1,0
12687.8,1000,4,2,0,25,1,0
12688.9,1000,4,2,0,25,1,0
12690,1000,4,2,0,25,1,0
12691.1,1000,4,2,0,25,1,0
12692.2,1000,4,2,0,25,1,0
12693.3,1000,4,2,0,25,1,0
12694.4,1000,4,2,0,25,1,0
12695.6,1000,4,2,0,25,1,0
12696.7,1000,4,2,0,25,1,0
12697.8,1000,4,2,0,25,1,0
12698.9,1000,4,2,0,25,1,0
12700,1000,4,2,0,25,1,0
12701.1,1000,4,2,0,25,1,0
12702.2,1000,4,2,0,25,1,0
12703.3,1000,4,2,0,25,1,0
12704.4,1000,4,2,0,25,1,0
12705.6,1000,4,2,0,25,1,0
12706.7,1000,4,2,0,25,1,0
12707.8,1000,4,2,0,25,1,0
12708.9,1000,4,2,0,25,1,0
12710,1000,4,2,0,25,1,0
12711.1,1000,4,2,0,25,1,0
12712.2,1000,4,2,0,25,1,0
12713.3,1000,4,2,0,25,1,0
12714.4,1000,4,2,0,25,1,0
12715.6,1000,4,2,0,25,1,0
12716.7,1000,4,2,0,25,1,0
12717.8,1000,4,2,0,25,1,0
12718.9,1000,4,2,0,25,1,0
12720,1000,4,2,0,25,1,0
12721.1,1000,4,2,0,25,1,0
12722.2,1000,4,2,0,25,1,0
12723.3,1000,4,2,0,25,1,0
12724.4,1000,4,2,0,25,1,0
12725.6,1000,4,2,0,25,1,0
12726.7,1000,4,2,0,25,1,0
12727.8,1000,4,2,0,25,1,0
12728.9,1000,4,2,0,25,1,0
12730,1000,4,2,0,25,1,0
12731.1,1000,4,2,0,25,1,0
12732.2,1000,4,2,0,25,1,0
12733.3,1000,4,2,0,25,1,0
12734.4,1000,4,2,0,25,1,0
12735.6,1000,4,2,0,25,1,0
12736.7,1000,4,2,0,25,1,0
12737.8,1000,4,2,0,25,1,0
12738.9,1000,4,2,0,25,1,0
12740,1000,4,2,0,25,1,0
12741.1,1000,4,2,0,25,1,0
12742.2,1000,4,2,0,25,1,0
12743.3,1000,4,2,0,25,1,0
12744.4,1000,4,2,0,25,1,0
12745.6,1000,4,2,0,25,1,0
12746.7,1000,4,2,0,25,1,0
12747.8,1000,4,2,0,25,1,0
12748.9,1000,4,2,0,25,1,0
12750,1000,4,2,0,25,1,0
12751.1,1000,4,2,0,25,1,0
12752.2,1000,4,2,0,25,1,0
12753.3,1000,4,2,0,25,1,0
12754.4,1000,4,2,0,25,1,0
12755.6,1000,4,2,0,25,1,0
12756.7,1000,4,2,0,25,1,0
12757.8,1000,4,2,0,25,1,0
12758.9,1000,4,2,0,25,1,0
12760,1000,4,2,0,25,1,0
12761.1,1000,4,2,0,25,1,0
12762.2,1000,4,2,0,25,1,0
12763.3,1000,4,2,0,25,1,0
12764.4,1000,4,2,0,25,1,0
12765.6,1000,4,2,0,25,1,0
12766.7,1000,4,2,0,25,1,0
12767.8,1000,4,2,0,25,1,0
12768.9,1000,4,2,0,25,1,0
12770,1000,4,2,0,25,1,0
12771.1,1000,4,2,0,25,1,0
12772.2,1000,4,2,0,25,1,0
12773.3,1000,4,2,0,25,1,0
12774.4,1000,4,2,0,25,1,0
12775.6,1000,4,2,0,25,1,0
12776.7,1000,4,2,0,25,1,0
12777.8,1000,4,2,0,25,1,0
12778.9,1000,4,2,0,25,1,0
12780,1000,4,2,0,25,1,0
12781.1,1000,4,2,0,25,1,0
12782.2,1000,4,2,0,25,1,0
12783.3,1000,4,2,0,25,1,0
12784.4,1000,4,2,0,25,1,0
12785.6,1000,4,2,0,25,1,0
12786.7,1000,4,2,0,25,1,0
12787.8,1000,4,2,0,25,1,0
12788.9,1000,4,2,0,25,1,0
12790,1000,4,2,0,25,1,0
12791.1,1000,4,2,0,25,1,0
12792.2,1000,4,2,0,25,1,0
12793.3,1000,4,2,0,25,1,0
12794.4,1000,4,2,0,25,1,0
12795.6,1000,4,2,0,25,1,0
12796.7,1000,4,2,0,25,1,0
12797.8,1000,4,2,0,25,1,0
12798.9,1000,4,2,0,25,1,0
12800,1000,4,2,0,25,1,0
12801.1,1000,4,2,0,25,1,0
12802.2,1000,4,2,0,25,1,0
12803.3,1000,4,2,0,25,1,0
12804.4,1000,4,2,0,25,1,0
12805.6,1000,4,2,0,25,1,0
12806.7,1000,4,2,0,25,1,0
12807.8,1000,4,2,0,25,1,0
12808.9,1000,4,2,0,25,1,0
12810,1000,4,2,0,25,1,0
12811.1,1000,4,2,0,25,1,0
12812.2,1000,4,2,0,25,1,0
12813.3,1000,4,2,0,25,1,0
12814.4,1000,4,2,0,25,1,0
12815.6,1000,4,2,0,25,1,0
12816.7,1000,4,2,0,25,1,0
12817.8,1000,4,2,0,25,1,0
12818.9,1000,4,2,0,25,1,0
12820,1000,4,2,0,25,1,0
12821.1,1000,4,2,0,25,1,0
12822.2,1000,4,2,0,25,1,0
12823.3,1000,4,2,0,25,1,0
12824.4,1000,4,2,0,25,1,0
12825.6,1000,4,2,0,25,1,0
12826.7,1000,4,2,0,25,1,0
12827.8,1000,4,2,0,25,1,0
12828.9,1000,4,2,0,25,1,0
12830,1000,4,2,0,25,1,0
12831.1,1000,4,2,0,25,1,0
12832.2,1000,4,2,0,25,1,0
12833.3,1000,4,2,0,25,1,0
12834.4,1000,4,2,0,25,1,0
12835.6,1000,4,2,0,25,1,0
12836.7,1000,4,2,0,25,1,0
12837.8,1000,4,2,0,25,1,0
12838.9,1000,4,2,0,25,1,0
12840,1000,4,2,0,25,1,0
12841.1,1000,4,2,0,25,1,0
12842.2,1000,4,2,0,25,1,0
12843.3,1000,4,2,0,25,1,0
12844.4,1000,4,2,0,25,1,0
12845.6,1000,4,2,0,25,1,0
12846.7,1000,4,2,0,25,1,0
12847.8,1000,4,2,0,25,1,0
12848.9,1000,4,2,0,25,1,0
12850,1000,4,2,0,25,1,0
12851.1,1000,4,2,0,25,1,0
12852.2,1000,4,2,0,25,1,0
12853.3,1000,4,2,0,25,1,0
12854.4,1000,4,2,0,25,1,0
12855.6,1000,4,2,0,25,1,0
12856.7,1000,4,2,0,25,1,0
12857.8,1000,4,2,0,25,1,0
12858.9,1000,4,2,0,25,1,0
12860,1000,4,2,0,25,1,0
12861.1,1000,4,2,0,25,1,0
12862.2,1000,4,2,0,25,1,0
12863.3,1000,4,2,0,25,1,0
12864.4,1000,4,2,0,25,1,0
12865.6,1000,4,2,0,25,1,0
12866.7,1000,4,2,0,25,1,0
12867.8,1000,4,2,0,25,1,0
12868.9,1000,4,2,0,25,1,0
12870,1000,4,2,0,25,1,0
12871.1,1000,4,2,0,25,1,0
12872.2,1000,4,2,0,25,1,0
12873.3,1000,4,2,0,25,1,0
12874.4,1000,4,2,0,25,1,0
12875.6,1000,4,2,0,25,1,0
12876.7,1000,4,2,0,25,1,0
12877.8,1000,4,2,0,25,1,0
12878.9,1000,4,2,0,25,1,0
12880,1000,4,2,0,25,1,0
12881.1,1000,4,2,0,25,1,0
12882.2,1000,4,2,0,25,1,0
12883.3,1000,4,2,0,25,1,0
12884.4,1000,4,2,0,25,1,0
12885.6,1000,4,2,0,25,1,0
12886.7,1000,4,2,0,25,1,0
12887.8,1000,4,2,0,25,1,0
12888.9,1000,4,2,0,25,1,0
12890,1000,4,2,0,25,1,0
12891.1,1000,4,2,0,25,1,0
12892.2,1000,4,2,0,25,1,0
12893.3,1000,4,2,0,25,1,0
12894.4,1000,4,2,0,25,1,0
12895.6,1000,4,2,0,25,1,0
12896.7,1000,4,2,0,25,1,0
12897.8,1000,4,2,0,25,1,0
12898.9,1000,4,2,0,25,1,0
12900,1000,4,2,0,25,1,0
12901.1,1000,4,2,0,25,1,0
12902.2,1000,4,2,0,25,1,0
12903.3,1000,4,2,0,25,1,0
12904.4,1000,4,2,0,25,1,0
12905.6,1000,4,2,0,25,1,0
12906.7,1000,4,2,0,25,1,0
12907.8,1000,4,2,0,25,1,0
12908.9,1000,4,2,0,25,1,0
12910,1000,4,2,0,25,1,0
12911.1,1000,4,2,0,25,1,0
12912.2,1000,4,2,0,25,1,0
12913.3,1000,4,2,0,25,1,0
12914.4,1000,4,2,0,25,1,0
12915.6,1000,4,2,0,25,1,0
12916.7,1000,4,2,0,25,1,0
12917.8,1000,4,2,0,25,1,0
12918.9,1000,4,2,0,25,1,0
12920,1000,4,2,0,25,1,0
12921.1,1000,4,2,0,25,1,0
12922.2,1000,4,2,0,25,1,0
12923.3,1000,4,2,0,25,1,0
12924.4,1000,4,2,0,25,1,0
12925.6,1000,4,2,0,25,1,0
12926.7,1000,4,2,0,25,1,0
12927.8,1000,4,2,0,25,1,0
12928.9,1000,4,2,0,25,1,0
12930,1000,4,2,0,25,1,0
12931.1,1000,4,2,0,25,1,0
12932.2,1000,4,2,0,25,1,0
12933.3,1000,4,2,0,25,1,0
12934.4,1000,4,2,0,25,1,0
12935.6,1000,4,2,0,25,1,0
12936.7,1000,4,2,0,25,1,0
12937.8,1000,4,2,0,25,1,0
12938.9,1000,4,2,0,25,1,0
12940,1000,4,2,0,25,1,0
12941.1,1000,4,2,0,25,1,0
12942.2,1000,4,2,0,25,1,0
12943.3,1000,4,2,0,25,1,0
12944.4,1000,4,2,0,25,1,0
12945.6,1000,4,2,0,25,1,0
12946.7,1000,4,2,0,25,1,0
12947.8,1000,4,2,0,25,1,0
12948.9,1000,4,2,0,25,1,0
12950,1000,4,2,0,25,1,0
12951.1,1000,4,2,0,25,1,0
12952.2,1000,4,2,0,25,1,0
12953.3,1000,4,2,0,25,1,0
12954.4,1000,4,2,0,25,1,0
12955.6,1000,4,2,0,25,1,0
12956.7,1000,4,2,0,25,1,0
12957.8,1000,4,2,0,25,1,0
12958.9,1000,4,2,0,25,1,0
12960,1000,4,2,0,25,1,0
12961.1,1000,4,2,0,25,1,0
12962.2,1000,4,2,0,25,1,0
12963.3,1000,4,2,0,25,1,0
12964.4,1000,4,2,0,25,1,0
12965.6,1000,4,2,0,25,1,0
12966.7,1000,4,2,0,25,1,0
12967.8,1000,4,2,0,25,1,0
12968.9,1000,4,2,0,25,1,0
12970,1000,4,2,0,25,1,0
12971.1,1000,4,2,0,25,1,0
12972.2,1000,4,2,0,25,1,0
12973.3,1000,4,2,0,25,1,0
12974.4,1000,4,2,0,25,1,0
12975.6,1000,4,2,0,25,1,0
12976.7,1000,4,2,0,25,1,0
12977.8,1000,4,2,0,25,1,0
12978.9,1000,4,2,0,25,1,0
12980,1000,4,2,0,25,1,0
12981.1,1000,4,2,0,25,1,0
12982.2,1000,4,2,0,25,1,0
12983.3,1000,4,2,0,25,1,0
12984.4,1000,4,2,0,25,1,0
12985.6,1000,4,2,0,25,1,0
12986.7,1000,4,2,0,25,1,0
12987.8,1000,4,2,0,25,1,0
12988.9,1000,4,2,0,25,1,0
12990,1000,4,2,0,25,1,0
12991.1,1000,4,2,0,25,1,0
12992.2,1000,4,2,0,25,1,0
12993.3,1000,4,2,0,25,1,0
12994.4,1000,4,2,0,25,1,0
12995.6,1000,4,2,0,25,1,0
12996.7,1000,4,2,0,25,1,0
12997.8,1000,4,2,0,25,1,0
12998.9,1000,4,2,0,25,1,0
13000,1000,4,2,0,25,1,0
13001.1,1000,4,2,0,25,1,0
13002.2,1000,4,2,0,25,1,0
13003.3,1000,4,2,0,25,1,0
13004.4,1000,4,2,0,25,1,0
13005.6,1000,4,2,0,25,1,0
13006.7,1000,4,2,0,25,1,0
13007.8,1000,4,2,0,25,1,0
13008.9,1000,4,2,0,25,1,0
13010,1000,4,2,0,25,1,0
13510,1000,4,2,0,25,1,0
13511.1,1000,4,2,0,25,1,0
13512.2,1000,4,2,0,25,1,0
13513.3,1000,4,2,0,25,1,0
13514.4,1000,4,2,0,25,1,0
13515.6,1000,4,2,0,25,1,0
13516.7,1000,4,2,0,25,1,0
13517.8,1000,4,2,0,25,1,0
13518.9,1000,4,2,0,25,1,0
13520,1000,4,2,0,25,1,0
13521.1,1000,4,2,0,25,1,0
13522.2,1000,4,2,0,25,1,0
13523.3,1000,4,2,0,25,1,0
13524.4,1000,4,2,0,25,1,0
13525.6,1000,4,2,0,25,1,0
13526.7,1000,4,2,0,25,1,0
13527.8,1000,4,2,0,25,1,0
13528.9,1000,4,2,0,25,1,0
13530,1000,4,2,0,25,1,0
13531.1,1000,4,2,0,25,1,0
13532.2,1000,4,2,0,25,1,0
13533.3,1000,4,2,0,25,1,0
13534.4,1000,4,2,0,25,1,0
13535.6,1000,4,2,0,25,1,0
13536.7,1000,4,2,0,25,1,0
13537.8,1000,4,2,0,25,1,0
13538.9,1000,4,2,0,25,1,0
13540,1000,4,2,0,25,1,0
13541.1,1000,4,2,0,25,1,0
13542.2,1000,4,2,0,25,1,0
13543.3,1000,4,2,0,25,1,0
13544.4,1000,4,2,0,25,1,0
13545.6,1000,4,2,0,25,1,0
13546.7,1000,4,2,0,25,1,0
13547.8,1000,4,2,0,25,1,0
13548.9,1000,4,2,0,25,1,0
13550,1000,4,2,0,25,1,0
13551.1,1000,4,2,0,25,1,0
13552.2,1000,4,2,0,25,1,0
13553.3,1000,4,2,0,25,1,0
13554.4,1000,4,2,0,25,1,0
13555.6,1000,4,2,0,25,1,0
13556.7,1000,4,2,0,25,1,0
13557.8,1000,4,2,0,25,1,0
13558.9,1000,4,2,0,25,1,0
13560,1000,4,2,0,25,1,0
13561.1,1000,4,2,0,25,1,0
13562.2,1000,4,2,0,25,1,0
13563.3,1000,4,2,0,25,1,0
13564.4,1000,4,2,0,25,1,0
13565.6,1000,4,2,0,25,1,0
13566.7,1000,4,2,0,25,1,0
13567.8,1000,4,2,0,25,1,0
13568.9,1000,4,2,0,25,1,0
13570,1000,4,2,0,25,1,0
13571.1,1000,4,2,0,25,1,0
13572.2,1000,4,2,0,25,1,0
13573.3,1000,4,2,0,25,1,0
13574.4,1000,4,2,0,25,1,0
13575.6,1000,4,2,0,25,1,0
13576.7,1000,4,2,0,25,1,0
13577.8,1000,4,2,0,25,1,0
13578.9,1000,4,2,0,25,1,0
13580,1000,4,2,0,25,1,0
13581.1,1000,4,2,0,25,1,0
13582.2,1000,4,2,0,25,1,0
13583.3,1000,4,2,0,25,1,0
13584.4,1000,4,2,0,25,1,0
13585.6,1000,4,2,0,25,1,0
13586.7,1000,4,2,0,25,1,0
13587.8,1000,4,2,0,25,1,0
13588.9,1000,4,2,0,25,1,0
13590,1000,4,2,0,25,1,0
13591.1,1000,4,2,0,25,1,0
13592.2,1000,4,2,0,25,1,0
13593.3,1000,4,2,0,25,1,0
13594.4,1000,4,2,0,25,1,0
13595.6,1000,4,2,0,25,1,0
13596.7,1000,4,2,0,25,1,0
13597.8,1000,4,2,0,25,1,0
13598.9,1000,4,2,0,25,1,0
13600,1000,4,2,0,25,1,0
13601.1,1000,4,2,0,25,1,0
13602.2,1000,4,2,0,25,1,0
13603.3,1000,4,2,0,25,1,0
13604.4,1000,4,2,0,25,1,0
13605.6,1000,4,2,0,25,1,0
13606.7,1000,4,2,0,25,1,0
13607.8,1000,4,2,0,25,1,0
13608.9,1000,4,2,0,25,1,0
13610,1000,4,2,0,25,1,0
13611.1,1000,4,2,0,25,1,0
13612.2,1000,4,2,0,25,1,0
13613.3,1000,4,2,0,25,1,0
13614.4,1000,4,2,0,25,1,0
13615.6,1000,4,2,0,25,1,0
13616.7,1000,4,2,0,25,1,0
13617.8,1000,4,2,0,25,1,0
13618.9,1000,4,2,0,25,1,0
13620,1000,4,2,0,25,1,0
13621.1,1000,4,2,0,25,1,0
13622.2,1000,4,2,0,25,1,0
13623.3,1000,4,2,0,25,1,0
13624.4,1000,4,2,0,25,1,0
13625.6,1000,4,2,0,25,1,0
13626.7,1000,4,2,0,25,1,0
13627.8,1000,4,2,0,25,1,0
13628.9,1000,4,2,0,25,1,0
13630,1000,4,2,0,25,1,0
13631.1,1000,4,2,0,25,1,0
13632.2,1000,4,2,0,25,1,0
13633.3,1000,4,2,0,25,1,0
13634.4,1000,4,2,0,25,1,0
13635.6,1000,4,2,0,25,1,0
13636.7,1000,4,2,0,25,1,0
13637.8,1000,4,2,0,25,1,0
13638.9,1000,4,2,0,25,1,0
13640,1000,4,2,0,25,1,0
13641.1,1000,4,2,0,25,1,0
13642.2,1000,4,2,0,25,1,0
13643.3,1000,4,2,0,25,1,0
13644.4,1000,4,2,0,25,1,0
13645.6,1000,4,2,0,25,1,0
13646.7,1000,4,2,0,25,1,0
13647.8,1000,4,2,0,25,1,0
13648.9,1000,4,2,0,25,1,0
13650,1000,4,2,0,25,1,0
13651.1,1000,4,2,0,25,1,0
13652.2,1000,4,2,0,25,1,0
13653.3,1000,4,2,0,25,1,0
13654.4,1000,4,2,0,25,1,0
13655.6,1000,4,2,0,25,1,0
13656.7,1000,4,2,0,25,1,0
13657.8,1000,4,2,0,25,1,0
13658.9,1000,4,2,0,25,1,0
13660,1000,4,2,0,25,1,0
13661.1,1000,4,2,0,25,1,0
13662.2,1000,4,2,0,25,1,0
13663.3,1000,4,2,0,25,1,0
13664.4,1000,4,2,0,25,1,0
13665.6,1000,4,2,0,25,1,0
13666.7,1000,4,2,0,25,1,0
13667.8,1000,4,2,0,25,1,0
13668.9,1000,4,2,0,25,1,0
13670,1000,4,2,0,25,1,0
13671.1,1000,4,2,0,25,1,0
13672.2,1000,4,2,0,25,1,0
13673.3,1000,4,2,0,25,1,0
13674.4,1000,4,2,0,25,1,0
13675.6,1000,4,2,0,25,1,0
13676.7,1000,4,2,0,25,1,0
13677.8,1000,4,2,0,25,1,0
13678.9,1000,4,2,0,25,1,0
13680,1000,4,2,0,25,1,0
13681.1,1000,4,2,0,25,1,0
13682.2,1000,4,2,0,25,1,0
13683.3,1000,4,2,0,25,1,0
13684.4,1000,4,2,0,25,1,0
13685.6,1000,4,2,0,25,1,0
13686.7,1000,4,2,0,25,1,0
13687.8,1000,4,2,0,25,1,0
13688.9,1000,4,2,0,25,1,0
13690,1000,4,2,0,25,1,0
13691.1,1000,4,2,0,25,1,0
13692.2,1000,4,2,0,25,1,0
13693.3,1000,4,2,0,25,1,0
13694.4,1000,4,2,0,25,1,0
13695.6,1000,4,2,0,25,1,0
13696.7,1000,4,2,0,25,1,0
13697.8,1000,4,2,0,25,1,0
13698.9,1000,4,2,0,25,1,0
13700,1000,4,2,0,25,1,0
13701.1,1000,4,2,0,25,1,0
13702.2,1000,4,2,0,25,1,0
13703.3,1000,4,2,0,25,1,0
13704.4,1000,4,2,0,25,1,0
13705.6,1000,4,2,0,25,1,0
13706.7,1000,4,2,0,25,1,0
13707.8,1000,4,2,0,25,1,0
13708.9,1000,4,2,0,25,1,0
13710,1000,4,2,0,25,1,0
13711.1,1000,4,2,0,25,1,0
13712.2,1000,4,2,0,25,1,0
13713.3,1000,4,2,0,25,1,0
13714.4,1000,4,2,0,25,1,0
13715.6,1000,4,2,0,25,1,0
13716.7,1000,4,2,0,25,1,0
13717.8,1000,4,2,0,25,1,0
13718.9,1000,4,2,0,25,1,0
13720,1000,4,2,0,25,1,0
13721.1,1000,4,2,0,25,1,0
13722.2,1000,4,2,0,25,1,0
13723.3,1000,4,2,0,25,1,0
13724.4,1000,4,2,0,25,1,0
13725.6,1000,4,2,0,25,1,0
13726.7,1000,4,2,0,25,1,0
13727.8,1000,4,2,0,25,1,0
13728.9,1000,4,2,0,25,1,0
13730,1000,4,2,0,25,1,0
13731.1,1000,4,2,0,25,1,0
13732.2,1000,4,2,0,25,1,0
13733.3,1000,4,2,0,25,1,0
13734.4,1000,4,2,0,25,1,0
13735.6,1000,4,2,0,25,1,0
13736.7,1000,4,2,0,25,1,0
13737.8,1000,4,2,0,25,1,0
13738.9,1000,4,2,0,25,1,0
13740,1000,4,2,0,25,1,0
13741.1,1000,4,2,0,25,1,0
13742.2,1000,4,2,0,25,1,0
13743.3,1000,4,2,0,25,1,0
13744.4,1000,4,2,0,25,1,0
13745.6,1000,4,2,0,25,1,0
13746.7,1000,4,2,0,25,1,0
13747.8,1000,4,2,0,25,1,0
13748.9,1000,4,2,0,25,1,0
13750,1000,4,2,0,25,1,0
13751.1,1000,4,2,0,25,1,0
13752.2,1000,4,2,0,25,1,0
13753.3,1000,4,2,0,25,1,0
13754.4,1000,4,2,0,25,1,0
13755.6,1000,4,2,0,25,1,0
13756.7,1000,4,2,0,25,1,0
13757.8,1000,4,2,0,25,1,0
13758.9,1000,4,2,0,25,1,0
13760,1000,4,2,0,25,1,0
13761.1,1000,4,2,0,25,1,0
13762.2,1000,4,2,0,25,1,0
13763.3,1000,4,2,0,25,1,0
13764.4,1000,4,2,0,25,1,0
13765.6,1000,4,2,0,25,1,0
13766.7,1000,4,2,0,25,1,0
13767.8,1000,4,2,0,25,1,0
13768.9,1000,4,2,0,25,1,0
13770,1000,4,2,0,25,1,0
13771.1,1000,4,2,0,25,1,0
13772.2,1000,4,2,0,25,1,0
13773.3,1000,4,2,0,25,1,0
13774.4,1000,4,2,0,25,1,0
13775.6,1000,4,2,0,25,1,0
13776.7,1000,4,2,0,25,1,0
13777.8,1000,4,2,0,25,1,0
13778.9,1000,4,2,0,25,1,0
13780,1000,4,2,0,25,1,0
13781.1,1000,4,2,0,25,1,0
13782.2,1000,4,2,0,25,1,0
13783.3,1000,4,2,0,25,1,0
13784.4,1000,4,2,0,25,1,0
13785.6,1000,4,2,0,25,1,0
13786.7,1000,4,2,0,25,1,0
13787.8,1000,4,2,0,25,1,0
13788.9,1000,4,2,0,25,1,0
13790,1000,4,2,0,25,1,0
13791.1,1000,4,2,0,25,1,0
13792.2,1000,4,2,0,25,1,0
13793.3,1000,4,2,0,25,1,0
13794.4,1000,4,2,0,25,1,0
13795.6,1000,4,2,0,25,1,0
13796.7,1000,4,2,0,25,1,0
13797.8,1000,4,2,0,25,1,0
13798.9,1000,4,2,0,25,1,0
13800,1000,4,2,0,25,1,0
13801.1,1000,4,2,0,25,1,0
13802.2,1000,4,2,0,25,1,0
13803.3,1000,4,2,0,25,1,0
13804.4,1000,4,2,0,25,1,0
13805.6,1000,4,2,0,25,1,0
13806.7,1000,4,2,0,25,1,0
13807.8,1000,4,2,0,25,1,0
13808.9,1000,4,2,0,25,1,0
13810,1000,4,2,0,25,1,0
13811.1,1000,4,2,0,25,1,0
13812.2,1000,4,2,0,25,1,0
13813.3,1000,4,2,0,25,1,0
13814.4,1000,4,2,0,25,1,0
13815.6,1000,4,2,0,25,1,0
13816.7,1000,4,2,0,25,1,0
13817.8,1000,4,2,0,25,1,0
13818.9,1000,4,2,0,25,1,0
13820,1000,4,2,0,25,1,0
13821.1,1000,4,2,0,25,1,0
13822.2,1000,4,2,0,25,1,0
13823.3,1000,4,2,0,25,1,0
13824.4,1000,4,2,0,25,1,0
13825.6,1000,4,2,0,25,1,0
13826.7,1000,4,2,0,25,1,0
13827.8,1000,4,2,0,25,1,0
13828.9,1000,4,2,0,25,1,0
13830,1000,4,2,0,25,1,0
13831.1,1000,4,2,0,25,1,0
13832.2,1000,4,2,0,25,1,0
13833.3,1000,4,2,0,25,1,0
13834.4,1000,4,2,0,25,1,0
13835.6,1000,4,2,0,25,1,0
13836.7,1000,4,2,0,25,1,0
13837.8,1000,4,2,0,25,1,0
13838.9,1000,4,2,0,25,1,0
13840,1000,4,2,0,25,1,0
13841.1,1000,4,2,0,25,1,0
13842.2,1000,4,2,0,25,1,0
13843.3,1000,4,2,0,25,1,0
13844.4,1000,4,2,0,25,1,0
13845.6,1000,4,2,0,25,1,0
13846.7,1000,4,2,0,25,1,0
13847.8,1000,4,2,0,25,1,0
13848.9,1000,4,2,0,25,1,0
13850,1000,4,2,0,25,1,0
13851.1,1000,4,2,0,25,1,0
13852.2,1000,4,2,0,25,1,0
13853.3,1000,4,2,0,25,1,0
13854.4,1000,4,2,0,25,1,0
13855.6,1000,4,2,0,25,1,0
13856.7,1000,4,2,0,25,1,0
13857.8,1000,4,2,0,25,1,0
13858.9,1000,4,2,0,25,1,0
13860,1000,4,2,0,25,1,0
13861.1,1000,4,2,0,25,1,0
13862.2,1000,4,2,0,25,1,0
13863.3,1000,4,2,0,25,1,0
13864.4,1000,4,2,0,25,1,0
13865.6,1000,4,2,0,25,1,0
13866.7,1000,4,2,0,25,1,0
13867.8,1000,4,2,0,25,1,0
13868.9,1000,4,2,0,25,1,0
13870,1000,4,2,0,25,1,0
13871.1,1000,4,2,0,25,1,0
13872.2,1000,4,2,0,25,1,0
13873.3,1000,4,2,0,25,1,0
13874.4,1000,4,2,0,25,1,0
13875.6,1000,4,2,0,25,1,0
13876.7,1000,4,2,0,25,1,0
13877.8,1000,4,2,0,25,1,0
13878.9,1000,4,2,0,25,1,0
13880,1000,4,2,0,25,1,0
13881.1,1000,4,2,0,25,1,0
13882.2,1000,4,2,0,25,1,0
13883.3,1000,4,2,0,25,1,0
13884.4,1000,4,2,0,25,1,0
13885.6,1000,4,2,0,25,1,0
13886.7,1000,4,2,0,25,1,0
13887.8,1000,4,2,0,25,1,0
13888.9,1000,4,2,0,25,1,0
13890,1000,4,2,0,25,1,0
13891.1,1000,4,2,0,25,1,0
13892.2,1000,4,2,0,25,1,0
13893.3,1000,4,2,0,25,1,0
13894.4,1000,4,2,0,25,1,0
13895.6,1000,4,2,0,25,1,0
13896.7,1000,4,2,0,25,1,0
13897.8,1000,4,2,0,25,1,0
13898.9,1000,4,2,0,25,1,0
13900,1000,4,2,0,25,1,0
13901.1,1000,4,2,0,25,1,0
13902.2,1000,4,2,0,25,1,0
13903.3,1000,4,2,0,25,1,0
13904.4,1000,4,2,0,25,1,0
13905.6,1000,4,2,0,25,1,0
13906.7,1000,4,2,0,25,1,0
13907.8,1000,4,2,0,25,1,0
13908.9,1000,4,2,0,25,1,0
13910,1000,4,2,0,25,1,0
13911.1,1000,4,2,0,25,1,0
13912.2,1000,4,2,0,25,1,0
13913.3,1000,4,2,0,25,1,0
13914.4,1000,4,2,0,25,1,0
13915.6,1000,4,2,0,25,1,0
13916.7,1000,4,2,0,25,1,0
13917.8,1000,4,2,0,25,1,0
13918.9,1000,4,2,0,25,1,0
13920,1000,4,2,0,25,1,0
13921.1,1000,4,2,0,25,1,0
13922.2,1000,4,2,0,25,1,0
13923.3,1000,4,2,0,25,1,0
13924.4,1000,4,2,0,25,1,0
13925.6,1000,4,2,0,25,1,0
13926.7,1000,4,2,0,25,1,0
13927.8,1000,4,2,0,25,1,0
13928.9,1000,4,2,0,25,1,0
13930,1000,4,2,0,25,1,0
13931.1,1000,4,2,0,25,1,0
13932.2,1000,4,2,0,25,1,0
13933.3,1000,4,2,0,25,1,0
13934.4,1000,4,2,0,25,1,0
13935.6,1000,4,2,0,25,1,0
13936.7,1000,4,2,0,25,1,0
13937.8,1000,4,2,0,25,1,0
13938.9,1000,4,2,0,25,1,0
13940,1000,4,2,0,25,1,0
13941.1,1000,4,2,0,25,1,0
13942.2,1000,4,2,0,25,1,0
13943.3,1000,4,2,0,25,1,0
13944.4,1000,4,2,0,25,1,0
13945.6,1000,4,2,0,25,1,0
13946.7,1000,4,2,0,25,1,0
13947.8,1000,4,2,0,25,1,0
13948.9,1000,4,2,0,25,1,0
13950,1000,4,2,0,25,1,0
13951.1,1000,4,2,0,25,1,0
13952.2,1000,4,2,0,25,1,0
13953.3,1000,4,2,0,25,1,0
13954.4,1000,4,2,0,25,1,0
13955.6,1000,4,2,0,25,1,0
13956.7,1000,4,2,0,25,1,0
13957.8,1000,4,2,0,25,1,0
13958.9,1000,4,2,0,25,1,0
13960,1000,4,2,0,25,1,0
13961.1,1000,4,2,0,25,1,0
13962.2,1000,4,2,0,25,1,0
13963.3,1000,4,2,0,25,1,0
13964.4,1000,4,2,0,25,1,0
13965.6,1000,4,2,0,25,1,0
13966.7,1000,4,2,0,25,1,0
13967.8,1000,4,2,0,25,1,0
13968.9,1000,4,2,0,25,1,0
13970,1000,4,2,0,25,1,0
13971.1,1000,4,2,0,25,1,0
13972.2,1000,4,2,0,25,1,0
13973.3,1000,4,2,0,25,1,0
13974.4,1000,4,2,0,25,1,0
13975.6,1000,4,2,0,25,1,0
13976.7,1000,4,2,0,25,1,0
13977.8,1000,4,2,0,25,1,0
13978.9,1000,4,2,0,25,1,0
13980,1000,4,2,0,25,1,0
13981.1,1000,4,2,0,25,1,0
13982.2,1000,4,2,0,25,1,0
13983.3,1000,4,2,0,25,1,0
13984.4,1000,4,2,0,25,1,0
13985.6,1000,4,2,0,25,1,0
13986.7,1000,4,2,0,25,1,0
13987.8,1000,4,2,0,25,1,0
13988.9,1000,4,2,0,25,1,0
13990,1000,4,2,0,25,1,0
13991.1,1000,4,2,0,25,1,0
13992.2,1000,4,2,0,25,1,0
13993.3,1000,4,2,0,25,1,0
13994.4,1000,4,2,0,25,1,0
13995.6,1000,4,2,0,25,1,0
13996.7,1000,4,2,0,25,1,0
13997.8,1000,4,2,0,25,1,0
13998.9,1000,4,2,0,25,1,0
14000,1000,4,2,0,25,1,0
14001.1,1000,4,2,0,25,1,0
14002.2,1000,4,2,0,25,1,0
14003.3,1000,4,2,0,25,1,0
14004.4,1000,4,2,0,25,1,0
14005.6,1000,4,2,0,25,1,0
14006.7,1000,4,2,0,25,1,0
14007.8,1000,4,2,0,25,1,0
14008.9,1000,4,2,0,25,1,0
14010,1000,4,2,0,25,1,0
14510,1000,4,2,0,25,1,0
14511.1,1000,4,2,0,25,1,0
14512.2,1000,4,2,0,25,1,0
14513.3,1000,4,2,0,25,1,0
14514.4,1000,4,2,0,25,1,0
14515.6,1000,4,2,0,25,1,0
14516.7,1000,4,2,0,25,1,0
14517.8,1000,4,2,0,25,1,0
14518.9,1000,4,2,0,25,1,0
14520,1000,4,2,0,25,1,0
14521.1,1000,4,2,0,25,1,0
14522.2,1000,4,2,0,25,1,0
14523.3,1000,4,2,0,25,1,0
14524.4,1000,4,2,0,25,1,0
14525.6,1000,4,2,0,25,1,0
14526.7,1000,4,2,0,25,1,0
14527.8,1000,4,2,0,25,1,0
14528.9,1000,4,2,0,25,1,0
14530,1000,4,2,0,25,1,0
14531.1,1000,4,2,0,25,1,0
14532.2,1000,4,2,0,25,1,0
14533.3,1000,4,2,0,25,1,0
14534.4,1000,4,2,0,25,1,0
14535.6,1000,4,2,0,25,1,0
14536.7,1000,4,2,0,25,1,0
14537.8,1000,4,2,0,25,1,0
14538.9,1000,4,2,0,25,1,0
14540,1000,4,2,0,25,1,0
14541.1,1000,4,2,0,25,1,0
14542.2,1000,4,2,0,25,1,0
14543.3,1000,4,2,0,25,1,0
14544.4,1000,4,2,0,25,1,0
14545.6,1000,4,2,0,25,1,0
14546.7,1000,4,2,0,25,1,0
14547.8,1000,4,2,0,25,1,0
14548.9,1000,4,2,0,25,1,0
14550,1000,4,2,0,25,1,0
14551.1,1000,4,2,0,25,1,0
14552.2,1000,4,2,0,25,1,0
14553.3,1000,4,2,0,25,1,0
14554.4,1000,4,2,0,25,1,0
14555.6,1000,4,2,0,25,1,0
14556.7,1000,4,2,0,25,1,0
14557.8,1000,4,2,0,25,1,0
14558.9,1000,4,2,0,25,1,0
14560,1000,4,2,0,25,1,0
14561.1,1000,4,2,0,25,1,0
14562.2,1000,4,2,0,25,1,0
14563.3,1000,4,2,0,25,1,0
14564.4,1000,4,2,0,25,1,0
14565.6,1000,4,2,0,25,1,0
14566.7,1000,4,2,0,25,1,0
14567.8,1000,4,2,0,25,1,0
14568.9,1000,4,2,0,25,1,0
14570,1000,4,2,0,25,1,0
14571.1,1000,4,2,0,25,1,0
14572.2,1000,4,2,0,25,1,0
14573.3,1000,4,2,0,25,1,0
14574.4,1000,4,2,0,25,1,0
14575.6,1000,4,2,0,25,1,0
14576.7,1000,4,2,0,25,1,0
14577.8,1000,4,2,0,25,1,0
14578.9,1000,4,2,0,25,1,0
14580,1000,4,2,0,25,1,0
14581.1,1000,4,2,0,25,1,0
14582.2,1000,4,2,0,25,1,0
14583.3,1000,4,2,0,25,1,0
14584.4,1000,4,2,0,25,1,0
14585.6,1000,4,2,0,25,1,0
14586.7,1000,4,2,0,25,1,0
14587.8,1000,4,2,0,25,1,0
14588.9,1000,4,2,0,25,1,0
14590,1000,4,2,0,25,1,0
14591.1,1000,4,2,0,25,1,0
14592.2,1000,4,2,0,25,1,0
14593.3,1000,4,2,0,25,1,0
14594.4,1000,4,2,0,25,1,0
14595.6,1000,4,2,0,25,1,0
14596.7,1000,4,2,0,25,1,0
14597.8,1000,4,2,0,25,1,0
14598.9,1000,4,2,0,25,1,0
14600,1000,4,2,0,25,1,0
14601.1,1000,4,2,0,25,1,0
14602.2,1000,4,2,0,25,1,0
14603.3,1000,4,2,0,25,1,0
14604.4,1000,4,2,0,25,1,0
14605.6,1000,4,2,0,25,1,0
14606.7,1000,4,2,0,25,1,0
14607.8,1000,4,2,0,25,1,0
14608.9,1000,4,2,0,25,1,0
14610,1000,4,2,0,25,1,0
14611.1,1000,4,2,0,25,1,0
14612.2,1000,4,2,0,25,1,0
14613.3,1000,4,2,0,25,1,0
14614.4,1000,4,2,0,25,1,0
14615.6,1000,4,2,0,25,1,0
14616.7,1000,4,2,0,25,1,0
14617.8,1000,4,2,0,25,1,0
14618.9,1000,4,2,0,25,1,0
14620,1000,4,2,0,25,1,0
14621.1,1000,4,2,0,25,1,0
14622.2,1000,4,2,0,25,1,0
14623.3,1000,4,2,0,25,1,0
14624.4,1000,4,2,0,25,1,0
14625.6,1000,4,2,0,25,1,0
14626.7,1000,4,2,0,25,1,0
14627.8,1000,4,2,0,25,1,0
14628.9,1000,4,2,0,25,1,0
14630,1000,4,2,0,25,1,0
14631.1,1000,4,2,0,25,1,0
14632.2,1000,4,2,0,25,1,0
14633.3,1000,4,2,0,25,1,0
14634.4,1000,4,2,0,25,1,0
14635.6,1000,4,2,0,25,1,0
14636.7,1000,4,2,0,25,1,0
14637.8,1000,4,2,0,25,1,0
14638.9,1000,4,2,0,25,1,0
14640,1000,4,2,0,25,1,0
14641.1,1000,4,2,0,25,1,0
14642.2,1000,4,2,0,25,1,0
14643.3,1000,4,2,0,25,1,0
14644.4,1000,4,2,0,25,1,0
14645.6,1000,4,2,0,25,1,0
14646.7,1000,4,2,0,25,1,0
14647.8,1000,4,2,0,25,1,0
14648.9,1000,4,2,0,25,1,0
14650,1000,4,2,0,25,1,0
14651.1,1000,4,2,0,25,1,0
14652.2,1000,4,2,0,25,1,0
14653.3,1000,4,2,0,25,1,0
14654.4,1000,4,2,0,25,1,0
14655.6,1000,4,2,0,25,1,0
14656.7,1000,4,2,0,25,1,0
14657.8,1000,4,2,0,25,1,0
14658.9,1000,4,2,0,25,1,0
14660,1000,4,2,0,25,1,0
14661.1,1000,4,2,0,25,1,0
14662.2,1000,4,2,0,25,1,0
14663.3,1000,4,2,0,25,1,0
14664.4,1000,4,2,0,25,1,0
14665.6,1000,4,2,0,25,1,0
14666.7,1000,4,2,0,25,1,0
14667.8,1000,4,2,0,25,1,0
14668.9,1000,4,2,0,25,1,0
14670,1000,4,2,0,25,1,0
14671.1,1000,4,2,0,25,1,0
14672.2,1000,4,2,0,25,1,0
14673.3,1000,4,2,0,25,1,0
14674.4,1000,4,2,0,25,1,0
14675.6,1000,4,2,0,25,1,0
14676.7,1000,4,2,0,25,1,0
14677.8,1000,4,2,0,25,1,0
14678.9,1000,4,2,0,25,1,0
14680,1000,4,2,0,25,1,0
14681.1,1000,4,2,0,25,1,0
14682.2,1000,4,2,0,25,1,0
14683.3,1000,4,2,0,25,1,0
14684.4,1000,4,2,0,25,1,0
14685.6,1000,4,2,0,25,1,0
14686.7,1000,4,2,0,25,1,0
14687.8,1000,4,2,0,25,1,0
14688.9,1000,4,2,0,25,1,0
14690,1000,4,2,0,25,1,0
14691.1,1000,4,2,0,25,1,0
14692.2,1000,4,2,0,25,1,0
14693.3,1000,4,2,0,25,1,0
14694.4,1000,4,2,0,25,1,0
14695.6,1000,4,2,0,25,1,0
14696.7,1000,4,2,0,25,1,0
14697.8,1000,4,2,0,25,1,0
14698.9,1000,4,2,0,25,1,0
14700,1000,4,2,0,25,1,0
14701.1,1000,4,2,0,25,1,0
14702.2,1000,4,2,0,25,1,0
14703.3,1000,4,2,0,25,1,0
14704.4,1000,4,2,0,25,1,0
14705.6,1000,4,2,0,25,1,0
14706.7,1000,4,2,0,25,1,0
14707.8,1000,4,2,0,25,1,0
14708.9,1000,4,2,0,25,1,0
14710,1000,4,2,0,25,1,0
14711.1,1000,4,2,0,25,1,0
14712.2,1000,4,2,0,25,1,0
14713.3,1000,4,2,0,25,1,0
14714.4,1000,4,2,0,25,1,0
14715.6,1000,4,2,0,25,1,0
14716.7,1000,4,2,0,25,1,0
14717.8,1000,4,2,0,25,1,0
14718.9,1000,4,2,0,25,1,0
14720,1000,4,2,0,25,1,0
14721.1,1000,4,2,0,25,1,0
14722.2,1000,4,2,0,25,1,0
14723.3,1000,4,2,0,25,1,0
14724.4,1000,4,2,0,25,1,0
14725.6,1000,4,2,0,25,1,0
14726.7,1000,4,2,0,25,1,0
14727.8,1000,4,2,0,25,1,0
14728.9,1000,4,2,0,25,1,0
14730,1000,4,2,0,25,1,0
14731.1,1000,4,2,0,25,1,0
14732.2,1000,4,2,0,25,1,0
14733.3,1000,4,2,0,25,1,0
14734.4,1000,4,2,0,25,1,0
14735.6,1000,4,2,0,25,1,0
14736.7,1000,4,2,0,25,1,0
14737.8,1000,4,2,0,25,1,0
14738.9,1000,4,2,0,25,1,0
14740,1000,4,2,0,25,1,0
14741.1,1000,4,2,0,25,1,0
14742.2,1000,4,2,0,25,1,0
14743.3,1000,4,2,0,25,1,0
14744.4,1000,4,2,0,25,1,0
14745.6,1000,4,2,0,25,1,0
14746.7,1000,4,2,0,25,1,0
14747.8,1000,4,2,0,25,1,0
14748.9,1000,4,2,0,25,1,0
14750,1000,4,2,0,25,1,0
14751.1,1000,4,2,0,25,1,0
14752.2,1000,4,2,0,25,1,0
14753.3,1000,4,2,0,25,1,0
14754.4,1000,4,2,0,25,1,0
14755.6,1000,4,2,0,25,1,0
14756.7,1000,4,2,0,25,1,0
14757.8,1000,4,2,0,25,1,0
14758.9,1000,4,2,0,25,1,0
14760,1000,4,2,0,25,1,0
14761.1,1000,4,2,0,25,1,0
14762.2,1000,4,2,0,25,1,0
14763.3,1000,4,2,0,25,1,0
14764.4,1000,4,2,0,25,1,0
14765.6,1000,4,2,0,25,1,0
14766.7,1000,4,2,0,25,1,0
14767.8,1000,4,2,0,25,1,0
14768.9,1000,4,2,0,25,1,0
14770,1000,4,2,0,25,1,0
14771.1,1000,4,2,0,25,1,0
14772.2,1000,4,2,0,25,1,0
14773.3,1000,4,2,0,25,1,0
14774.4,1000,4,2,0,25,1,0
14775.6,1000,4,2,0,25,1,0
14776.7,1000,4,2,0,25,1,0
14777.8,1000,4,2,0,25,1,0
14778.9,1000,4,2,0,25,1,0
14780,1000,4,2,0,25,1,0
14781.1,1000,4,2,0,25,1,0
14782.2,1000,4,2,0,25,1,0
14783.3,1000,4,2,0,25,1,0
14784.4,1000,4,2,0,25,1,0
14785.6,1000,4,2,0,25,1,0
14786.7,1000,4,2,0,25,1,0
14787.8,1000,4,2,0,25,1,0
14788.9,1000,4,2,0,25,1,0
14790,1000,4,2,0,25,1,0
14791.1,1000,4,2,0,25,1,0
14792.2,1000,4,2,0,25,1,0
14793.3,1000,4,2,0,25,1,0
14794.4,1000,4,2,0,25,1,0
14795.6,1000,4,2,0,25,1,0
14796.7,1000,4,2,0,25,1,0
14797.8,1000,4,2,0,25,1,0
14798.9,1000,4,2,0,25,1,0
14800,1000,4,2,0,25,1,0
14801.1,1000,4,2,0,25,1,0
14802.2,1000,4,2,0,25,1,0
14803.3,1000,4,2,0,25,1,0
14804.4,1000,4,2,0,25,1,0
14805.6,1000,4,2,0,25,1,0
14806.7,1000,4,2,0,25,1,0
14807.8,1000,4,2,0,25,1,0
14808.9,1000,4,2,0,25,1,0
14810,1000,4,2,0,25,1,0
14811.1,1000,4,2,0,25,1,0
14812.2,1000,4,2,0,25,1,0
14813.3,1000,4,2,0,25,1,0
14814.4,1000,4,2,0,25,1,0
14815.6,1000,4,2,0,25,1,0
14816.7,1000,4,2,0,25,1,0
14817.8,1000,4,2,0,25,1,0
14818.9,1000,4,2,0,25,1,0
14820,1000,4,2,0,25,1,0
14821.1,1000,4,2,0,25,1,0
14822.2,1000,4,2,0,25,1,0
14823.3,1000,4,2,0,25,1,0
14824.4,1000,4,2,0,25,1,0
14825.6,1000,4,2,0,25,1,0
14826.7,1000,4,2,0,25,1,0
14827.8,1000,4,2,0,25,1,0
14828.9,1000,4,2,0,25,1,0
14830,1000,4,2,0,25,1,0
14831.1,1000,4,2,0,25,1,0
14832.2,1000,4,2,0,25,1,0
14833.3,1000,4,2,0,25,1,0
14834.4,1000,4,2,0,25,1,0
14835.6,1000,4,2,0,25,1,0
14836.7,1000,4,2,0,25,1,0
14837.8,1000,4,2,0,25,1,0
14838.9,1000,4,2,0,25,1,0
14840,1000,4,2,0,25,1,0
14841.1,1000,4,2,0,25,1,0
14842.2,1000,4,2,0,25,1,0
14843.3,1000,4,2,0,25,1,0
14844.4,1000,4,2,0,25,1,0
14845.6,1000,4,2,0,25,1,0
14846.7,1000,4,2,0,25,1,0
14847.8,1000,4,2,0,25,1,0
14848.9,1000,4,2,0,25,1,0
14850,1000,4,2,0,25,1,0
14851.1,1000,4,2,0,25,1,0
14852.2,1000,4,2,0,25,1,0
14853.3,1000,4,2,0,25,1,0
14854.4,1000,4,2,0,25,1,0
14855.6,1000,4,2,0,25,1,0
14856.7,1000,4,2,0,25,1,0
14857.8,1000,4,2,0,25,1,0
14858.9,1000,4,2,0,25,1,0
14860,1000,4,2,0,25,1,0
14861.1,1000,4,2,0,25,1,0
14862.2,1000,4,2,0,25,1,0
14863.3,1000,4,2,0,25,1,0
14864.4,1000,4,2,0,25,1,0
14865.6,1000,4,2,0,25,1,0
14866.7,1000,4,2,0,25,1,0
14867.8,1000,4,2,0,25,1,0
14868.9,1000,4,2,0,25,1,0
14870,1000,4,2,0,25,1,0
14871.1,1000,4,2,0,25,1,0
14872.2,1000,4,2,0,25,1,0
14873.3,1000,4,2,0,25,1,0
14874.4,1000,4,2,0,25,1,0
14875.6,1000,4,2,0,25,1,0
14876.7,1000,4,2,0,25,1,0
14877.8,1000,4,2,0,25,1,0
14878.9,1000,4,2,0,25,1,0
14880,1000,4,2,0,25,1,0
14881.1,1000,4,2,0,25,1,0
14882.2,1000,4,2,0,25,1,0
14883.3,1000,4,2,0,25,1,0
14884.4,1000,4,2,0,25,1,0
14885.6,1000,4,2,0,25,1,0
14886.7,1000,4,2,0,25,1,0
14887.8,1000,4,2,0,25,1,0
14888.9,1000,4,2,0,25,1,0
14890,1000,4,2,0,25,1,0
14891.1,1000,4,2,0,25,1,0
14892.2,1000,4,2,0,25,1,0
14893.3,1000,4,2,0,25,1,0
14894.4,1000,4,2,0,25,1,0
14895.6,1000,4,2,0,25,1,0
14896.7,1000,4,2,0,25,1,0
14897.8,1000,4,2,0,25,1,0
14898.9,1000,4,2,0,25,1,0
14900,1000,4,2,0,25,1,0
14901.1,1000,4,2,0,25,1,0
14902.2,1000,4,2,0,25,1,0
14903.3,1000,4,2,0,25,1,0
14904.4,1000,4,2,0,25,1,0
14905.6,1000,4,2,0,25,1,0
14906.7,1000,4,2,0,25,1,0
14907.8,1000,4,2,0,25,1,0
14908.9,1000,4,2,0,25,1,0
14910,1000,4,2,0,25,1,0
14911.1,1000,4,2,0,25,1,0
14912.2,1000,4,2,0,25,1,0
14913.3,1000,4,2,0,25,1,0
14914.4,1000,4,2,0,25,1,0
14915.6,1000,4,2,0,25,1,0
14916.7,1000,4,2,0,25,1,0
14917.8,1000,4,2,0,25,1,0
14918.9,1000,4,2,0,25,1,0
14920,1000,4,2,0,25,1,0
14921.1,1000,4,2,0,25,1,0
14922.2,1000,4,2,0,25,1,0
14923.3,1000,4,2,0,25,1,0
14924.4,1000,4,2,0,25,1,0
14925.6,1000,4,2,0,25,1,0
14926.7,1000,4,2,0,25,1,0
14927.8,1000,4,2,0,25,1,0
14928.9,1000,4,2,0,25,1,0
14930,1000,4,2,0,25,1,0
14931.1,1000,4,2,0,25,1,0
14932.2,1000,4,2,0,25,1,0
14933.3,1000,4,2,0,25,1,0
14934.4,1000,4,2,0,25,1,0
14935.6,1000,4,2,0,25,1,0
14936.7,1000,4,2,0,25,1,0
14937.8,1000,4,2,0,25,1,0
14938.9,1000,4,2,0,25,1,0
14940,1000,4,2,0,25,1,0
14941.1,1000,4,2,0,25,1,0
14942.2,1000,4,2,0,25,1,0
14943.3,1000,4,2,0,25,1,0
14944.4,1000,4,2,0,25,1,0
14945.6,1000,4,2,0,25,1,0
14946.7,1000,4,2,0,25,1,0
14947.8,1000,4,2,0,25,1,0
14948.9,1000,4,2,0,25,1,0
14950,1000,4,2,0,25,1,0
14951.1,1000,4,2,0,25,1,0
14952.2,1000,4,2,0,25,1,0
14953.3,1000,4,2,0,25,1,0
14954.4,1000,4,2,0,25,1,0
14955.6,1000,4,2,0,25,1,0
14956.7,1000,4,2,0,25,1,0
14957.8,1000,4,2,0,25,1,0
14958.9,1000,4,2,0,25,1,0
14960,1000,4,2,0,25,1,0
14961.1,1000,4,2,0,25,1,0
14962.2,1000,4,2,0,25,1,0
14963.3,1000,4,2,0,25,1,0
14964.4,1000,4,2,0,25,1,0
14965.6,1000,4,2,0,25,1,0
14966.7,1000,4,2,0,25,1,0
14967.8,1000,4,2,0,25,1,0
14968.9,1000,4,2,0,25,1,0
14970,1000,4,2,0,25,1,0
14971.1,1000,4,2,0,25,1,0
14972.2,1000,4,2,0,25,1,0
14973.3,1000,4,2,0,25,1,0
14974.4,1000,4,2,0,25,1,0
14975.6,1000,4,2,0,25,1,0
14976.7,1000,4,2,0,25,1,0
14977.8,1000,4,2,0,25,1,0
14978.9,1000,4,2,0,25,1,0
14980,1000,4,2,0,25,1,0
14981.1,1000,4,2,0,25,1,0
14982.2,1000,4,2,0,25,1,0
14983.3,1000,4,2,0,25,1,0
14984.4,1000,4,2,0,25,1,0
14985.6,1000,4,2,0,25,1,0
14986.7,1000,4,2,0,25,1,0
14987.8,1000,4,2,0,25,1,0
14988.9,1000,4,2,0,25,1,0
14990,1000,4,2,0,25,1,0
14991.1,1000,4,2,0,25,1,0
14992.2,1000,4,2,0,25,1,0
14993.3,1000,4,2,0,25,1,0
14994.4,1000,4,2,0,25,1,0
14995.6,1000,4,2,0,25,1,0
14996.7,1000,4,2,0,25,1,0
14997.8,1000,4,2,0,25,1,0
14998.9,1000,4,2,0,25,1,0
15000,1000,4,2,0,25,1,0
15001.1,1000,4,2,0,25,1,0
15002.2,1000,4,2,0,25,1,0
15003.3,1000,4,2,0,25,1,0
15004.4,1000,4,2,0,25,1,0
15005.6,1000,4,2,0,25,1,0
15006.7,1000,4,2,0,25,1,0
15007.8,1000,4,2,0,25,1,0
15008.9,1000,4,2,0,25,1,0
15010,1000,4,2,0,25,1,0
15510,1000,4,2,0,25,1,0
15511.1,1000,4,2,0,25,1,0
15512.2,1000,4,2,0,25,1,0
15513.3,1000,4,2,0,25,1,0
15514.4,1000,4,2,0,25,1,0
15515.6,1000,4,2,0,25,1,0
15516.7,1000,4,2,0,25,1,0
15517.8,1000,4,2,0,25,1,0
15518.9,1000,4,2,0,25,1,0
15520,1000,4,2,0,25,1,0
15521.1,1000,4,2,0,25,1,0
15522.2,1000,4,2,0,25,1,0
15523.3,1000,4,2,0,25,1,0
15524.4,1000,4,2,0,25,1,0
15525.6,1000,4,2,0,25,1,0
15526.7,1000,4,2,0,25,1,0
15527.8,1000,4,2,0,25,1,0
15528.9,1000,4,2,0,25,1,0
15530,1000,4,2,0,25,1,0
15531.1,1000,4,2,0,25,1,0
15532.2,1000,4,2,0,25,1,0
15533.3,1000,4,2,0,25,1,0
15534.4,1000,4,2,0,25,1,0
15535.6,1000,4,2,0,25,1,0
15536.7,1000,4,2,0,25,1,0
15537.8,1000,4,2,0,25,1,0
15538.9,1000,4,2,0,25,1,0
15540,1000,4,2,0,25,1,0
15541.1,1000,4,2,0,25,1,0
15542.2,1000,4,2,0,25,1,0
15543.3,1000,4,2,0,25,1,0
15544.4,1000,4,2,0,25,1,0
15545.6,1000,4,2,0,25,1,0
15546.7,1000,4,2,0,25,1,0
15547.8,1000,4,2,0,25,1,0
15548.9,1000,4,2,0,25,1,0
15550,1000,4,2,0,25,1,0
15551.1,1000,4,2,0,25,1,0
15552.2,1000,4,2,0,25,1,0
15553.3,1000,4,2,0,25,1,0
15554.4,1000,4,2,0,25,1,0
15555.6,1000,4,2,0,25,1,0
15556.7,1000,4,2,0,25,1,0
15557.8,1000,4,2,0,25,1,0
15558.9,1000,4,2,0,25,1,0
15560,1000,4,2,0,25,1,0
15561.1,1000,4,2,0,25,1,0
15562.2,1000,4,2,0,25,1,0
15563.3,1000,4,2,0,25,1,0
15564.4,1000,4,2,0,25,1,0
15565.6,1000,4,2,0,25,1,0
15566.7,1000,4,2,0,25,1,0
15567.8,1000,4,2,0,25,1,0
15568.9,1000,4,2,0,25,1,0
15570,1000,4,2,0,25,1,0
15571.1,1000,4,2,0,25,1,0
15572.2,1000,4,2,0,25,1,0
15573.3,1000,4,2,0,25,1,0
15574.4,1000,4,2,0,25,1,0
15575.6,1000,4,2,0,25,1,0
15576.7,1000,4,2,0,25,1,0
15577.8,1000,4,2,0,25,1,0
15578.9,1000,4,2,0,25,1,0
15580,1000,4,2,0,25,1,0
15581.1,1000,4,2,0,25,1,0
15582.2,1000,4,2,0,25,1,0
15583.3,1000,4,2,0,25,1,0
15584.4,1000,4,2,0,25,1,0
15585.6,1000,4,2,0,25,1,0
15586.7,1000,4,2,0,25,1,0
15587.8,1000,4,2,0,25,1,0
15588.9,1000,4,2,0,25,1,0
15590,1000,4,2,0,25,1,0
15591.1,1000,4,2,0,25,1,0
15592.2,1000,4,2,0,25,1,0
15593.3,1000,4,2,0,25,1,0
15594.4,1000,4,2,0,25,1,0
15595.6,1000,4,2,0,25,1,0
15596.7,1000,4,2,0,25,1,0
15597.8,1000,4,2,0,25,1,0
15598.9,1000,4,2,0,25,1,0
15600,1000,4,2,0,25,1,0
15601.1,1000,4,2,0,25,1,0
15602.2,1000,4,2,0,25,1,0
15603.3,1000,4,2,0,25,1,0
15604.4,1000,4,2,0,25,1,0
15605.6,1000,4,2,0,25,1,0
15606.7,1000,4,2,0,25,1,0
15607.8,1000,4,2,0,25,1,0
15608.9,1000,4,2,0,25,1,0
15610,1000,4,2,0,25,1,0
15611.1,1000,4,2,0,25,1,0
15612.2,1000,4,2,0,25,1,0
15613.3,1000,4,2,0,25,1,0
15614.4,1000,4,2,0,25,1,0
15615.6,1000,4,2,0,25,1,0
15616.7,1000,4,2,0,25,1,0
15617.8,1000,4,2,0,25,1,0
15618.9,1000,4,2,0,25,1,0
15620,1000,4,2,0,25,1,0
15621.1,1000,4,2,0,25,1,0
15622.2,1000,4,2,0,25,1,0
15623.3,1000,4,2,0,25,1,0
15624.4,1000,4,2,0,25,1,0
15625.6,1000,4,2,0,25,1,0
15626.7,1000,4,2,0,25,1,0
15627.8,1000,4,2,0,25,1,0
15628.9,1000,4,2,0,25,1,0
15630,1000,4,2,0,25,1,0
15631.1,1000,4,2,0,25,1,0
15632.2,1000,4,2,0,25,1,0
15633.3,1000,4,2,0,25,1,0
15634.4,1000,4,2,0,25,1,0
15635.6,1000,4,2,0,25,1,0
15636.7,1000,4,2,0,25,1,0
15637.8,1000,4,2,0,25,1,0
15638.9,1000,4,2,0,25,1,0
15640,1000,4,2,0,25,1,0
15641.1,1000,4,2,0,25,1,0
15642.2,1000,4,2,0,25,1,0
15643.3,1000,4,2,0,25,1,0
15644.4,1000,4,2,0,25,1,0
15645.6,1000,4,2,0,25,1,0
15646.7,1000,4,2,0,25,1,0
15647.8,1000,4,2,0,25,1,0
15648.9,1000,4,2,0,25,1,0
15650,1000,4,2,0,25,1,0
15651.1,1000,4,2,0,25,1,0
15652.2,1000,4,2,0,25,1,0
15653.3,1000,4,2,0,25,1,0
15654.4,1000,4,2,0,25,1,0
15655.6,1000,4,2,0,25,1,0
15656.7,1000,4,2,0,25,1,0
15657.8,1000,4,2,0,25,1,0
15658.9,1000,4,2,0,25,1,0
15660,1000,4,2,0,25,1,0
15661.1,1000,4,2,0,25,1,0
15662.2,1000,4,2,0,25,1,0
15663.3,1000,4,2,0,25,1,0
15664.4,1000,4,2,0,25,1,0
15665.6,1000,4,2,0,25,1,0
15666.7,1000,4,2,0,25,1,0
15667.8,1000,4,2,0,25,1,0
15668.9,1000,4,2,0,25,1,0
15670,1000,4,2,0,25,1,0
15671.1,1000,4,2,0,25,1,0
15672.2,1000,4,2,0,25,1,0
15673.3,1000,4,2,0,25,1,0
15674.4,1000,4,2,0,25,1,0
15675.6,1000,4,2,0,25,1,0
15676.7,1000,4,2,0,25,1,0
15677.8,1000,4,2,0,25,1,0
15678.9,1000,4,2,0,25,1,0
15680,1000,4,2,0,25,1,0
15681.1,1000,4,2,0,25,1,0
15682.2,1000,4,2,0,25,1,0
15683.3,1000,4,2,0,25,1,0
15684.4,1000,4,2,0,25,1,0
15685.6,1000,4,2,0,25,1,0
15686.7,1000,4,2,0,25,1,0
15687.8,1000,4,2,0,25,1,0
15688.9,1000,4,2,0,25,1,0
15690,1000,4,2,0,25,1,0
15691.1,1000,4,2,0,25,1,0
15692.2,1000,4,2,0,25,1,0
15693.3,1000,4,2,0,25,1,0
15694.4,1000,4,2,0,25,1,0
15695.6,1000,4,2,0,25,1,0
15696.7,1000,4,2,0,25,1,0
15697.8,1000,4,2,0,25,1,0
15698.9,1000,4,2,0,25,1,0
15700,1000,4,2,0,25,1,0
15701.1,1000,4,2,0,25,1,0
15702.2,1000,4,2,0,25,1,0
15703.3,1000,4,2,0,25,1,0
15704.4,1000,4,2,0,25,1,0
15705.6,1000,4,2,0,25,1,0
15706.7,1000,4,2,0,25,1,0
15707.8,1000,4,2,0,25,1,0
15708.9,1000,4,2,0,25,1,0
15710,1000,4,2,0,25,1,0
15711.1,1000,4,2,0,25,1,0
15712.2,1000,4,2,0,25,1,0
15713.3,1000,4,2,0,25,1,0
15714.4,1000,4,2,0,25,1,0
15715.6,1000,4,2,0,25,1,0
15716.7,1000,4,2,0,25,1,0
15717.8,1000,4,2,0,25,1,0
15718.9,1000,4,2,0,25,1,0
15720,1000,4,2,0,25,1,0
15721.1,1000,4,2,0,25,1,0
15722.2,1000,4,2,0,25,1,0
15723.3,1000,4,2,0,25,1,0
15724.4,1000,4,2,0,25,1,0
15725.6,1000,4,2,0,25,1,0
15726.7,1000,4,2,0,25,1,0
15727.8,1000,4,2,0,25,1,0
15728.9,1000,4,2,0,25,1,0
15730,1000,4,2,0,25,1,0
15731.1,1000,4,2,0,25,1,0
15732.2,1000,4,2,0,25,1,0
15733.3,1000,4,2,0,25,1,0
15734.4,1000,4,2,0,25,1,0
15735.6,1000,4,2,0,25,1,0
15736.7,1000,4,2,0,25,1,0
15737.8,1000,4,2,0,25,1,0
15738.9,1000,4,2,0,25,1,0
15740,1000,4,2,0,25,1,0
15741.1,1000,4,2,0,25,1,0
15742.2,1000,4,2,0,25,1,0
15743.3,1000,4,2,0,25,1,0
15744.4,1000,4,2,0,25,1,0
15745.6,1000,4,2,0,25,1,0
15746.7,1000,4,2,0,25,1,0
15747.8,1000,4,2,0,25,1,0
15748.9,1000,4,2,0,25,1,0
15750,1000,4,2,0,25,1,0
15751.1,1000,4,2,0,25,1,0
15752.2,1000,4,2,0,25,1,0
15753.3,1000,4,2,0,25,1,0
15754.4,1000,4,2,0,25,1,0
15755.6,1000,4,2,0,25,1,0
15756.7,1000,4,2,0,25,1,0
15757.8,1000,4,2,0,25,1,0
15758.9,1000,4,2,0,25,1,0
15760,1000,4,2,0,25,1,0
15761.1,1000,4,2,0,25,1,0
15762.2,1000,4,2,0,25,1,0
15763.3,1000,4,2,0,25,1,0
15764.4,1000,4,2,0,25,1,0
15765.6,1000,4,2,0,25,1,0
15766.7,1000,4,2,0,25,1,0
15767.8,1000,4,2,0,25,1,0
15768.9,1000,4,2,0,25,1,0
15770,1000,4,2,0,25,1,0
15771.1,1000,4,2,0,25,1,0
15772.2,1000,4,2,0,25,1,0
15773.3,1000,4,2,0,25,1,0
15774.4,1000,4,2,0,25,1,0
15775.6,1000,4,2,0,25,1,0
15776.7,1000,4,2,0,25,1,0
15777.8,1000,4,2,0,25,1,0
15778.9,1000,4,2,0,25,1,0
15780,1000,4,2,0,25,1,0
15781.1,1000,4,2,0,25,1,0
15782.2,1000,4,2,0,25,1,0
15783.3,1000,4,2,0,25,1,0
15784.4,1000,4,2,0,25,1,0
15785.6,1000,4,2,0,25,1,0
15786.7,1000,4,2,0,25,1,0
15787.8,1000,4,2,0,25,1,0
15788.9,1000,4,2,0,25,1,0
15790,1000,4,2,0,25,1,0
15791.1,1000,4,2,0,25,1,0
15792.2,1000,4,2,0,25,1,0
15793.3,1000,4,2,0,25,1,0
15794.4,1000,4,2,0,25,1,0
15795.6,1000,4,2,0,25,1,0
15796.7,1000,4,2,0,25,1,0
15797.8,1000,4,2,0,25,1,0
15798.9,1000,4,2,0,25,1,0
15800,1000,4,2,0,25,1,0
15801.1,1000,4,2,0,25,1,0
15802.2,1000,4,2,0,25,1,0
15803.3,1000,4,2,0,25,1,0
15804.4,1000,4,2,0,25,1,0
15805.6,1000,4,2,0,25,1,0
15806.7,1000,4,2,0,25,1,0
15807.8,1000,4,2,0,25,1,0
15808.9,1000,4,2,0,25,1,0
15810,1000,4,2,0,25,1,0
15811.1,1000,4,2,0,25,1,0
15812.2,1000,4,2,0,25,1,0
15813.3,1000,4,2,0,25,1,0
15814.4,1000,4,2,0,25,1,0
15815.6,1000,4,2,0,25,1,0
15816.7,1000,4,2,0,25,1,0
15817.8,1000,4,2,0,25,1,0
15818.9,1000,4,2,0,25,1,0
15820,1000,4,2,0,25,1,0
15821.1,1000,4,2,0,25,1,0
15822.2,1000,4,2,0,25,1,0
15823.3,1000,4,2,0,25,1,0
15824.4,1000,4,2,0,25,1,0
15825.6,1000,4,2,0,25,1,0
15826.7,1000,4,2,0,25,1,0
15827.8,1000,4,2,0,25,1,0
15828.9,1000,4,2,0,25,1,0
15830,1000,4,2,0,25,1,0
15831.1,1000,4,2,0,25,1,0
15832.2,1000,4,2,0,25,1,0
15833.3,1000,4,2,0,25,1,0
15834.4,1000,4,2,0,25,1,0
15835.6,1000,4,2,0,25,1,0
15836.7,1000,4,2,0,25,1,0
15837.8,1000,4,2,0,25,1,0
15838.9,1000,4,2,0,25,1,0
15840,1000,4,2,0,25,1,0
15841.1,1000,4,2,0,25,1,0
15842.2,1000,4,2,0,25,1,0
15843.3,1000,4,2,0,25,1,0
15844.4,1000,4,2,0,25,1,0
15845.6,1000,4,2,0,25,1,0
15846.7,1000,4,2,0,25,1,0
15847.8,1000,4,2,0,25,1,0
15848.9,1000,4,2,0,25,1,0
15850,1000,4,2,0,25,1,0
15851.1,1000,4,2,0,25,1,0
15852.2,1000,4,2,0,25,1,0
15853.3,1000,4,2,0,25,1,0
15854.4,1000,4,2,0,25,1,0
15855.6,1000,4,2,0,25,1,0
15856.7,1000,4,2,0,25,1,0
15857.8,1000,4,2,0,25,1,0
15858.9,1000,4,2,0,25,1,0
15860,1000,4,2,0,25,1,0
15861.1,1000,4,2,0,25,1,0
15862.2,1000,4,2,0,25,1,0
15863.3,1000,4,2,0,25,1,0
15864.4,1000,4,2,0,25,1,0
15865.6,1000,4,2,0,25,1,0
15866.7,1000,4,2,0,25,1,0
15867.8,1000,4,2,0,25,1,0
15868.9,1000,4,2,0,25,1,0
15870,1000,4,2,0,25,1,0
15871.1,1000,4,2,0,25,1,0
15872.2,1000,4,2,0,25,1,0
15873.3,1000,4,2,0,25,1,0
15874.4,1000,4,2,0,25,1,0
15875.6,1000,4,2,0,25,1,0
15876.7,1000,4,2,0,25,1,0
15877.8,1000,4,2,0,25,1,0
15878.9,1000,4,2,0,25,1,0
15880,1000,4,2,0,25,1,0
15881.1,1000,4,2,0,25,1,0
15882.2,1000,4,2,0,25,1,0
15883.3,1000,4,2,0,25,1,0
15884.4,1000,4,2,0,25,1,0
15885.6,1000,4,2,0,25,1,0
15886.7,1000,4,2,0,25,1,0
15887.8,1000,4,2,0,25,1,0
15888.9,1000,4,2,0,25,1,0
15890,1000,4,2,0,25,1,0
15891.1,1000,4,2,0,25,1,0
15892.2,1000,4,2,0,25,1,0
15893.3,1000,4,2,0,25,1,0
15894.4,1000,4,2,0,25,1,0
15895.6,1000,4,2,0,25,1,0
15896.7,1000,4,2,0,25,1,0
15897.8,1000,4,2,0,25,1,0
15898.9,1000,4,2,0,25,1,0
15900,1000,4,2,0,25,1,0
15901.1,1000,4,2,0,25,1,0
15902.2,1000,4,2,0,25,1,0
15903.3,1000,4,2,0,25,1,0
15904.4,1000,4,2,0,25,1,0
15905.6,1000,4,2,0,25,1,0
15906.7,1000,4,2,0,25,1,0
15907.8,1000,4,2,0,25,1,0
15908.9,1000,4,2,0,25,1,0
15910,1000,4,2,0,25,1,0
15911.1,1000,4,2,0,25,1,0
15912.2,1000,4,2,0,25,1,0
15913.3,1000,4,2,0,25,1,0
15914.4,1000,4,2,0,25,1,0
15915.6,1000,4,2,0,25,1,0
15916.7,1000,4,2,0,25,1,0
15917.8,1000,4,2,0,25,1,0
15918.9,1000,4,2,0,25,1,0
15920,1000,4,2,0,25,1,0
15921.1,1000,4,2,0,25,1,0
15922.2,1000,4,2,0,25,1,0
15923.3,1000,4,2,0,25,1,0
15924.4,1000,4,2,0,25,1,0
15925.6,1000,4,2,0,25,1,0
15926.7,1000,4,2,0,25,1,0
15927.8,1000,4,2,0,25,1,0
15928.9,1000,4,2,0,25,1,0
15930,1000,4,2,0,25,1,0
15931.1,1000,4,2,0,25,1,0
15932.2,1000,4,2,0,25,1,0
15933.3,1000,4,2,0,25,1,0
15934.4,1000,4,2,0,25,1,0
15935.6,1000,4,2,0,25,1,0
15936.7,1000,4,2,0,25,1,0
15937.8,1000,4,2,0,25,1,0
15938.9,1000,4,2,0,25,1,0
15940,1000,4,2,0,25,1,0
15941.1,1000,4,2,0,25,1,0
15942.2,1000,4,2,0,25,1,0
15943.3,1000,4,2,0,25,1,0
15944.4,1000,4,2,0,25,1,0
15945.6,1000,4,2,0,25,1,0
15946.7,1000,4,2,0,25,1,0
15947.8,1000,4,2,0,25,1,0
15948.9,1000,4,2,0,25,1,0
15950,1000,4,2,0,25,1,0
15951.1,1000,4,2,0,25,1,0
15952.2,1000,4,2,0,25,1,0
15953.3,1000,4,2,0,25,1,0
15954.4,1000,4,2,0,25,1,0
15955.6,1000,4,2,0,25,1,0
15956.7,1000,4,2,0,25,1,0
15957.8,1000,4,2,0,25,1,0
15958.9,1000,4,2,0,25,1,0
15960,1000,4,2,0,25,1,0
15961.1,1000,4,2,0,25,1,0
15962.2,1000,4,2,0,25,1,0
15963.3,1000,4,2,0,25,1,0
15964.4,1000,4,2,0,25,1,0
15965.6,1000,4,2,0,25,1,0
15966.7,1000,4,2,0,25,1,0
15967.8,1000,4,2,0,25,1,0
15968.9,1000,4,2,0,25,1,0
15970,1000,4,2,0,25,1,0
15971.1,1000,4,2,0,25,1,0
15972.2,1000,4,2,0,25,1,0
15973.3,1000,4,2,0,25,1,0
15974.4,1000,4,2,0,25,1,0
15975.6,1000,4,2,0,25,1,0
15976.7,1000,4,2,0,25,1,0
15977.8,1000,4,2,0,25,1,0
15978.9,1000,4,2,0,25,1,0
15980,1000,4,2,0,25,1,0
15981.1,1000,4,2,0,25,1,0
15982.2,1000,4,2,0,25,1,0
15983.3,1000,4,2,0,25,1,0
15984.4,1000,4,2,0,25,1,0
15985.6,1000,4,2,0,25,1,0
15986.7,1000,4,2,0,25,1,0
15987.8,1000,4,2,0,25,1,0
15988.9,1000,4,2,0,25,1,0
15990,1000,4,2,0,25,1,0
15991.1,1000,4,2,0,25,1,0
15992.2,1000,4,2,0,25,1,0
15993.3,1000,4,2,0,25,1,0
15994.4,1000,4,2,0,25,1,0
15995.6,1000,4,2,0,25,1,0
15996.7,1000,4,2,0,25,1,0
15997.8,1000,4,2,0,25,1,0
15998.9,1000,4,2,0,25,1,0
16000,1000,4,2,0,25,1,0
16001.1,1000,4,2,0,25,1,0
16002.2,1000,4,2,0,25,1,0
16003.3,1000,4,2,0,25,1,0
16004.4,1000,4,2,0,25,1,0
16005.6,1000,4,2,0,25,1,0
16006.7,1000,4,2,0,25,1,0
16007.8,1000,4,2,0,25,1,0
16008.9,1000,4,2,0,25,1,0
16010,1000,4,2,0,25,1,0
16510,1000,4,2,0,25,1,0
16511.1,1000,4,2,0,25,1,0
16512.2,1000,4,2,0,25,1,0
16513.3,1000,4,2,0,25,1,0
16514.4,1000,4,2,0,25,1,0
16515.6,1000,4,2,0,25,1,0
16516.7,1000,4,2,0,25,1,0
16517.8,1000,4,2,0,25,1,0
16518.9,1000,4,2,0,25,1,0
16520,1000,4,2,0,25,1,0
16521.1,1000,4,2,0,25,1,0
16522.2,1000,4,2,0,25,1,0
16523.3,1000,4,2,0,25,1,0
16524.4,1000,4,2,0,25,1,0
16525.6,1000,4,2,0,25,1,0
16526.7,1000,4,2,0,25,1,0
16527.8,1000,4,2,0,25,1,0
16528.9,1000,4,2,0,25,1,0
16530,1000,4,2,0,25,1,0
16531.1,1000,4,2,0,25,1,0
16532.2,1000,4,2,0,25,1,0
16533.3,1000,4,2,0,25,1,0
16534.4,1000,4,2,0,25,1,0
16535.6,1000,4,2,0,25,1,0
16536.7,1000,4,2,0,25,1,0
16537.8,1000,4,2,0,25,1,0
16538.9,1000,4,2,0,25,1,0
16540,1000,4,2,0,25,1,0
16541.1,1000,4,2,0,25,1,0
16542.2,1000,4,2,0,25,1,0
16543.3,1000,4,2,0,25,1,0
16544.4,1000,4,2,0,25,1,0
16545.6,1000,4,2,0,25,1,0
16546.7,1000,4,2,0,25,1,0
16547.8,1000,4,2,0,25,1,0
16548.9,1000,4,2,0,25,1,0
16550,1000,4,2,0,25,1,0
16551.1,1000,4,2,0,25,1,0
16552.2,1000,4,2,0,25,1,0
16553.3,1000,4,2,0,25,1,0
16554.4,1000,4,2,0,25,1,0
16555.6,1000,4,2,0,25,1,0
16556.7,1000,4,2,0,25,1,0
16557.8,1000,4,2,0,25,1,0
16558.9,1000,4,2,0,25,1,0
16560,1000,4,2,0,25,1,0
16561.1,1000,4,2,0,25,1,0
16562.2,1000,4,2,0,25,1,0
16563.3,1000,4,2,0,25,1,0
16564.4,1000,4,2,0,25,1,0
16565.6,1000,4,2,0,25,1,0
16566.7,1000,4,2,0,25,1,0
16567.8,1000,4,2,0,25,1,0
16568.9,1000,4,2,0,25,1,0
16570,1000,4,2,0,25,1,0
16571.1,1000,4,2,0,25,1,0
16572.2,1000,4,2,0,25,1,0
16573.3,1000,4,2,0,25,1,0
16574.4,1000,4,2,0,25,1,0
16575.6,1000,4,2,0,25,1,0
16576.7,1000,4,2,0,25,1,0
16577.8,1000,4,2,0,25,1,0
16578.9,1000,4,2,0,25,1,0
16580,1000,4,2,0,25,1,0
16581.1,1000,4,2,0,25,1,0
16582.2,1000,4,2,0,25,1,0
16583.3,1000,4,2,0,25,1,0
16584.4,1000,4,2,0,25,1,0
16585.6,1000,4,2,0,25,1,0
16586.7,1000,4,2,0,25,1,0
16587.8,1000,4,2,0,25,1,0
16588.9,1000,4,2,0,25,1,0
16590,1000,4,2,0,25,1,0
16591.1,1000,4,2,0,25,1,0
16592.2,1000,4,2,0,25,1,0
16593.3,1000,4,2,0,25,1,0
16594.4,1000,4,2,0,25,1,0
16595.6,1000,4,2,0,25,1,0
16596.7,1000,4,2,0,25,1,0
16597.8,1000,4,2,0,25,1,0
16598.9,1000,4,2,0,25,1,0
16600,1000,4,2,0,25,1,0
16601.1,1000,4,2,0,25,1,0
16602.2,1000,4,2,0,25,1,0
16603.3,1000,4,2,0,25,1,0
16604.4,1000,4,2,0,25,1,0
16605.6,1000,4,2,0,25,1,0
16606.7,1000,4,2,0,25,1,0
16607.8,1000,4,2,0,25,1,0
16608.9,1000,4,2,0,25,1,0
16610,1000,4,2,0,25,1,0
16611.1,1000,4,2,0,25,1,0
16612.2,1000,4,2,0,25,1,0
16613.3,1000,4,2,0,25,1,0
16614.4,1000,4,2,0,25,1,0
16615.6,1000,4,2,0,25,1,0
16616.7,1000,4,2,0,25,1,0
16617.8,1000,4,2,0,25,1,0
16618.9,1000,4,2,0,25,1,0
16620,1000,4,2,0,25,1,0
16621.1,1000,4,2,0,25,1,0
16622.2,1000,4,2,0,25,1,0
16623.3,1000,4,2,0,25,1,0
16624.4,1000,4,2,0,25,1,0
16625.6,1000,4,2,0,25,1,0
16626.7,1000,4,2,0,25,1,0
16627.8,1000,4,2,0,25,1,0
16628.9,1000,4,2,0,25,1,0
16630,1000,4,2,0,25,1,0
16631.1,1000,4,2,0,25,1,0
16632.2,1000,4,2,0,25,1,0
16633.3,1000,4,2,0,25,1,0
16634.4,1000,4,2,0,25,1,0
16635.6,1000,4,2,0,25,1,0
16636.7,1000,4,2,0,25,1,0
16637.8,1000,4,2,0,25,1,0
16638.9,1000,4,2,0,25,1,0
16640,1000,4,2,0,25,1,0
16641.1,1000,4,2,0,25,1,0
16642.2,1000,4,2,0,25,1,0
16643.3,1000,4,2,0,25,1,0
16644.4,1000,4,2,0,25,1,0
16645.6,1000,4,2,0,25,1,0
16646.7,1000,4,2,0,25,1,0
16647.8,1000,4,2,0,25,1,0
16648.9,1000,4,2,0,25,1,0
16650,1000,4,2,0,25,1,0
16651.1,1000,4,2,0,25,1,0
16652.2,1000,4,2,0,25,1,0
16653.3,1000,4,2,0,25,1,0
16654.4,1000,4,2,0,25,1,0
16655.6,1000,4,2,0,25,1,0
16656.7,1000,4,2,0,25,1,0
16657.8,1000,4,2,0,25,1,0
16658.9,1000,4,2,0,25,1,0
16660,1000,4,2,0,25,1,0
16661.1,1000,4,2,0,25,1,0
16662.2,1000,4,2,0,25,1,0
16663.3,1000,4,2,0,25,1,0
16664.4,1000,4,2,0,25,1,0
16665.6,1000,4,2,0,25,1,0
16666.7,1000,4,2,0,25,1,0
16667.8,1000,4,2,0,25,1,0
16668.9,1000,4,2,0,25,1,0
16670,1000,4,2,0,25,1,0
16671.1,1000,4,2,0,25,1,0
16672.2,1000,4,2,0,25,1,0
16673.3,1000,4,2,0,25,1,0
16674.4,1000,4,2,0,25,1,0
16675.6,1000,4,2,0,25,1,0
16676.7,1000,4,2,0,25,1,0
16677.8,1000,4,2,0,25,1,0
16678.9,1000,4,2,0,25,1,0
16680,1000,4,2,0,25,1,0
16681.1,1000,4,2,0,25,1,0
16682.2,1000,4,2,0,25,1,0
16683.3,1000,4,2,0,25,1,0
16684.4,1000,4,2,0,25,1,0
16685.6,1000,4,2,0,25,1,0
16686.7,1000,4,2,0,25,1,0
16687.8,1000,4,2,0,25,1,0
16688.9,1000,4,2,0,25,1,0
16690,1000,4,2,0,25,1,0
16691.1,1000,4,2,0,25,1,0
16692.2,1000,4,2,0,25,1,0
16693.3,1000,4,2,0,25,1,0
16694.4,1000,4,2,0,25,1,0
16695.6,1000,4,2,0,25,1,0
16696.7,1000,4,2,0,25,1,0
16697.8,1000,4,2,0,25,1,0
16698.9,1000,4,2,0,25,1,0
16700,1000,4,2,0,25,1,0
16701.1,1000,4,2,0,25,1,0
16702.2,1000,4,2,0,25,1,0
16703.3,1000,4,2,0,25,1,0
16704.4,1000,4,2,0,25,1,0
16705.6,1000,4,2,0,25,1,0
16706.7,1000,4,2,0,25,1,0
16707.8,1000,4,2,0,25,1,0
16708.9,1000,4,2,0,25,1,0
16710,1000,4,2,0,25,1,0
16711.1,1000,4,2,0,25,1,0
16712.2,1000,4,2,0,25,1,0
16713.3,1000,4,2,0,25,1,0
16714.4,1000,4,2,0,25,1,0
16715.6,1000,4,2,0,25,1,0
16716.7,1000,4,2,0,25,1,0
16717.8,1000,4,2,0,25,1,0
16718.9,1000,4,2,0,25,1,0
16720,1000,4,2,0,25,1,0
16721.1,1000,4,2,0,25,1,0
16722.2,1000,4,2,0,25,1,0
16723.3,1000,4,2,0,25,1,0
16724.4,1000,4,2,0,25,1,0
16725.6,1000,4,2,0,25,1,0
16726.7,1000,4,2,0,25,1,0
16727.8,1000,4,2,0,25,1,0
16728.9,1000,4,2,0,25,1,0
16730,1000,4,2,0,25,1,0
16731.1,1000,4,2,0,25,1,0
16732.2,1000,4,2,0,25,1,0
16733.3,1000,4,2,0,25,1,0
16734.4,1000,4,2,0,25,1,0
16735.6,1000,4,2,0,25,1,0
16736.7,1000,4,2,0,25,1,0
16737.8,1000,4,2,0,25,1,0
16738.9,1000,4,2,0,25,1,0
16740,1000,4,2,0,25,1,0
16741.1,1000,4,2,0,25,1,0
16742.2,1000,4,2,0,25,1,0
16743.3,1000,4,2,0,25,1,0
16744.4,1000,4,2,0,25,1,0
16745.6,1000,4,2,0,25,1,0
16746.7,1000,4,2,0,25,1,0
16747.8,1000,4,2,0,25,1,0
16748.9,1000,4,2,0,25,1,0
16750,1000,4,2,0,25,1,0
16751.1,1000,4,2,0,25,1,0
16752.2,1000,4,2,0,25,1,0
16753.3,1000,4,2,0,25,1,0
16754.4,1000,4,2,0,25,1,0
16755.6,1000,4,2,0,25,1,0
16756.7,1000,4,2,0,25,1,0
16757.8,1000,4,2,0,25,1,0
16758.9,1000,4,2,0,25,1,0
16760,1000,4,2,0,25,1,0
16761.1,1000,4,2,0,25,1,0
16762.2,1000,4,2,0,25,1,0
16763.3,1000,4,2,0,25,1,0
16764.4,1000,4,2,0,25,1,0
16765.6,1000,4,2,0,25,1,0
16766.7,1000,4,2,0,25,1,0
16767.8,1000,4,2,0,25,1,0
16768.9,1000,4,2,0,25,1,0
16770,1000,4,2,0,25,1,0
16771.1,1000,4,2,0,25,1,0
16772.2,1000,4,2,0,25,1,0
16773.3,1000,4,2,0,25,1,0
16774.4,1000,4,2,0,25,1,0
16775.6,1000,4,2,0,25,1,0
16776.7,1000,4,2,0,25,1,0
16777.8,1000,4,2,0,25,1,0
16778.9,1000,4,2,0,25,1,0
16780,1000,4,2,0,25,1,0
16781.1,1000,4,2,0,25,1,0
16782.2,1000,4,2,0,25,1,0
16783.3,1000,4,2,0,25,1,0
16784.4,1000,4,2,0,25,1,0
16785.6,1000,4,2,0,25,1,0
16786.7,1000,4,2,0,25,1,0
16787.8,1000,4,2,0,25,1,0
16788.9,1000,4,2,0,25,1,0
16790,1000,4,2,0,25,1,0
16791.1,1000,4,2,0,25,1,0
16792.2,1000,4,2,0,25,1,0
16793.3,1000,4,2,0,25,1,0
16794.4,1000,4,2,0,25,1,0
16795.6,1000,4,2,0,25,1,0
16796.7,1000,4,2,0,25,1,0
16797.8,1000,4,2,0,25,1,0
16798.9,1000,4,2,0,25,1,0
16800,1000,4,2,0,25,1,0
16801.1,1000,4,2,0,25,1,0
16802.2,1000,4,2,0,25,1,0
16803.3,1000,4,2,0,25,1,0
16804.4,1000,4,2,0,25,1,0
16805.6,1000,4,2,0,25,1,0
16806.7,1000,4,2,0,25,1,0
16807.8,1000,4,2,0,25,1,0
16808.9,1000,4,2,0,25,1,0
16810,1000,4,2,0,25,1,0
16811.1,1000,4,2,0,25,1,0
16812.2,1000,4,2,0,25,1,0
16813.3,1000,4,2,0,25,1,0
16814.4,1000,4,2,0,25,1,0
16815.6,1000,4,2,0,25,1,0
16816.7,1000,4,2,0,25,1,0
16817.8,1000,4,2,0,25,1,0
16818.9,1000,4,2,0,25,1,0
16820,1000,4,2,0,25,1,0
16821.1,1000,4,2,0,25,1,0
16822.2,1000,4,2,0,25,1,0
16823.3,1000,4,2,0,25,1,0
16824.4,1000,4,2,0,25,1,0
16825.6,1000,4,2,0,25,1,0
16826.7,1000,4,2,0,25,1,0
16827.8,1000,4,2,0,25,1,0
16828.9,1000,4,2,0,25,1,0
16830,1000,4,2,0,25,1,0
16831.1,1000,4,2,0,25,1,0
16832.2,1000,4,2,0,25,1,0
16833.3,1000,4,2,0,25,1,0
16834.4,1000,4,2,0,25,1,0
16835.6,1000,4,2,0,25,1,0
16836.7,1000,4,2,0,25,1,0
16837.8,1000,4,2,0,25,1,0
16838.9,1000,4,2,0,25,1,0
16840,1000,4,2,0,25,1,0
16841.1,1000,4,2,0,25,1,0
16842.2,1000,4,2,0,25,1,0
16843.3,1000,4,2,0,25,1,0
16844.4,1000,4,2,0,25,1,0
16845.6,1000,4,2,0,25,1,0
16846.7,1000,4,2,0,25,1,0
16847.8,1000,4,2,0,25,1,0
16848.9,1000,4,2,0,25,1,0
16850,1000,4,2,0,25,1,0
16851.1,1000,4,2,0,25,1,0
16852.2,1000,4,2,0,25,1,0
16853.3,1000,4,2,0,25,1,0
16854.4,1000,4,2,0,25,1,0
16855.6,1000,4,2,0,25,1,0
16856.7,1000,4,2,0,25,1,0
16857.8,1000,4,2,0,25,1,0
16858.9,1000,4,2,0,25,1,0
16860,1000,4,2,0,25,1,0
16861.1,1000,4,2,0,25,1,0
16862.2,1000,4,2,0,25,1,0
16863.3,1000,4,2,0,25,1,0
16864.4,1000,4,2,0,25,1,0
16865.6,1000,4,2,0,25,1,0
16866.7,1000,4,2,0,25,1,0
16867.8,1000,4,2,0,25,1,0
16868.9,1000,4,2,0,25,1,0
16870,1000,4,2,0,25,1,0
16871.1,1000,4,2,0,25,1,0
16872.2,1000,4,2,0,25,1,0
16873.3,1000,4,2,0,25,1,0
16874.4,1000,4,2,0,25,1,0
16875.6,1000,4,2,0,25,1,0
16876.7,1000,4,2,0,25,1,0
16877.8,1000,4,2,0,25,1,0
16878.9,1000,4,2,0,25,1,0
16880,1000,4,2,0,25,1,0
16881.1,1000,4,2,0,25,1,0
16882.2,1000,4,2,0,25,1,0
16883.3,1000,4,2,0,25,1,0
16884.4,1000,4,2,0,25,1,0
16885.6,1000,4,2,0,25,1,0
16886.7,1000,4,2,0,25,1,0
16887.8,1000,4,2,0,25,1,0
16888.9,1000,4,2,0,25,1,0
16890,1000,4,2,0,25,1,0
16891.1,1000,4,2,0,25,1,0
16892.2,1000,4,2,0,25,1,0
16893.3,1000,4,2,0,25,1,0
16894.4,1000,4,2,0,25,1,0
16895.6,1000,4,2,0,25,1,0
16896.7,1000,4,2,0,25,1,0
16897.8,1000,4,2,0,25,1,0
16898.9,1000,4,2,0,25,1,0
16900,1000,4,2,0,25,1,0
16901.1,1000,4,2,0,25,1,0
16902.2,1000,4,2,0,25,1,0
16903.3,1000,4,2,0,25,1,0
16904.4,1000,4,2,0,25,1,0
16905.6,1000,4,2,0,25,1,0
16906.7,1000,4,2,0,25,1,0
16907.8,1000,4,2,0,25,1,0
16908.9,1000,4,2,0,25,1,0
16910,1000,4,2,0,25,1,0
16911.1,1000,4,2,0,25,1,0
16912.2,1000,4,2,0,25,1,0
16913.3,1000,4,2,0,25,1,0
16914.4,1000,4,2,0,25,1,0
16915.6,1000,4,2,0,25,1,0
16916.7,1000,4,2,0,25,1,0
16917.8,1000,4,2,0,25,1,0
16918.9,1000,4,2,0,25,1,0
16920,1000,4,2,0,25,1,0
16921.1,1000,4,2,0,25,1,0
16922.2,1000,4,2,0,25,1,0
16923.3,1000,4,2,0,25,1,0
16924.4,1000,4,2,0,25,1,0
16925.6,1000,4,2,0,25,1,0
16926.7,1000,4,2,0,25,1,0
16927.8,1000,4,2,0,25,1,0
16928.9,1000,4,2,0,25,1,0
16930,1000,4,2,0,25,1,0
16931.1,1000,4,2,0,25,1,0
16932.2,1000,4,2,0,25,1,0
16933.3,1000,4,2,0,25,1,0
16934.4,1000,4,2,0,25,1,0
16935.6,1000,4,2,0,25,1,0
16936.7,1000,4,2,0,25,1,0
16937.8,1000,4,2,0,25,1,0
16938.9,1000,4,2,0,25,1,0
16940,1000,4,2,0,25,1,0
16941.1,1000,4,2,0,25,1,0
16942.2,1000,4,2,0,25,1,0
16943.3,1000,4,2,0,25,1,0
16944.4,1000,4,2,0,25,1,0
16945.6,1000,4,2,0,25,1,0
16946.7,1000,4,2,0,25,1,0
16947.8,1000,4,2,0,25,1,0
16948.9,1000,4,2,0,25,1,0
16950,1000,4,2,0,25,1,0
16951.1,1000,4,2,0,25,1,0
16952.2,1000,4,2,0,25,1,0
16953.3,1000,4,2,0,25,1,0
16954.4,1000,4,2,0,25,1,0
16955.6,1000,4,2,0,25,1,0
16956.7,1000,4,2,0,25,1,0
16957.8,1000,4,2,0,25,1,0
16958.9,1000,4,2,0,25,1,0
16960,1000,4,2,0,25,1,0
16961.1,1000,4,2,0,25,1,0
16962.2,1000,4,2,0,25,1,0
16963.3,1000,4,2,0,25,1,0
16964.4,1000,4,2,0,25,1,0
16965.6,1000,4,2,0,25,1,0
16966.7,1000,4,2,0,25,1,0
16967.8,1000,4,2,0,25,1,0
16968.9,1000,4,2,0,25,1,0
16970,1000,4,2,0,25,1,0
16971.1,1000,4,2,0,25,1,0
16972.2,1000,4,2,0,25,1,0
16973.3,1000,4,2,0,25,1,0
16974.4,1000,4,2,0,25,1,0
16975.6,1000,4,2,0,25,1,0
16976.7,1000,4,2,0,25,1,0
16977.8,1000,4,2,0,25,1,0
16978.9,1000,4,2,0,25,1,0
16980,1000,4,2,0,25,1,0
16981.1,1000,4,2,0,25,1,0
16982.2,1000,4,2,0,25,1,0
16983.3,1000,4,2,0,25,1,0
16984.4,1000,4,2,0,25,1,0
16985.6,1000,4,2,0,25,1,0
16986.7,1000,4,2,0,25,1,0
16987.8,1000,4,2,0,25,1,0
16988.9,1000,4,2,0,25,1,0
16990,1000,4,2,0,25,1,0
16991.1,1000,4,2,0,25,1,0
16992.2,1000,4,2,0,25,1,0
16993.3,1000,4,2,0,25,1,0
16994.4,1000,4,2,0,25,1,0
16995.6,1000,4,2,0,25,1,0
16996.7,1000,4,2,0,25,1,0
16997.8,1000,4,2,0,25,1,0
16998.9,1000,4,2,0,25,1,0
17000,1000,4,2,0,25,1,0
17001.1,1000,4,2,0,25,1,0
17002.2,1000,4,2,0,25,1,0
17003.3,1000,4,2,0,25,1,0
17004.4,1000,4,2,0,25,1,0
17005.6,1000,4,2,0,25,1,0
17006.7,1000,4,2,0,25,1,0
17007.8,1000,4,2,0,25,1,0
17008.9,1000,4,2,0,25,1,0
17010,1000,4,2,0,25,1,0
17510,1000,4,2,0,25,1,0
17511.1,1000,4,2,0,25,1,0
17512.2,1000,4,2,0,25,1,0
17513.3,1000,4,2,0,25,1,0
17514.4,1000,4,2,0,25,1,0
17515.6,1000,4,2,0,25,1,0
17516.7,1000,4,2,0,25,1,0
17517.8,1000,4,2,0,25,1,0
17518.9,1000,4,2,0,25,1,0
17520,1000,4,2,0,25,1,0
17521.1,1000,4,2,0,25,1,0
17522.2,1000,4,2,0,25,1,0
17523.3,1000,4,2,0,25,1,0
17524.4,1000,4,2,0,25,1,0
17525.6,1000,4,2,0,25,1,0
17526.7,1000,4,2,0,25,1,0
17527.8,1000,4,2,0,25,1,0
17528.9,1000,4,2,0,25,1,0
17530,1000,4,2,0,25,1,0
17531.1,1000,4,2,0,25,1,0
17532.2,1000,4,2,0,25,1,0
17533.3,1000,4,2,0,25,1,0
17534.4,1000,4,2,0,25,1,0
17535.6,1000,4,2,0,25,1,0
17536.7,1000,4,2,0,25,1,0
17537.8,1000,4,2,0,25,1,0
17538.9,1000,4,2,0,25,1,0
17540,1000,4,2,0,25,1,0
17541.1,1000,4,2,0,25,1,0
17542.2,1000,4,2,0,25,1,0
17543.3,1000,4,2,0,25,1,0
17544.4,1000,4,2,0,25,1,0
17545.6,1000,4,2,0,25,1,0
17546.7,1000,4,2,0,25,1,0
17547.8,1000,4,2,0,25,1,0
17548.9,1000,4,2,0,25,1,0
17550,1000,4,2,0,25,1,0
17551.1,1000,4,2,0,25,1,0
17552.2,1000,4,2,0,25,1,0
17553.3,1000,4,2,0,25,1,0
17554.4,1000,4,2,0,25,1,0
17555.6,1000,4,2,0,25,1,0
17556.7,1000,4,2,0,25,1,0
17557.8,1000,4,2,0,25,1,0
17558.9,1000,4,2,0,25,1,0
17560,1000,4,2,0,25,1,0
17561.1,1000,4,2,0,25,1,0
17562.2,1000,4,2,0,25,1,0
17563.3,1000,4,2,0,25,1,0
17564.4,1000,4,2,0,25,1,0
17565.6,1000,4,2,0,25,1,0
17566.7,1000,4,2,0,25,1,0
17567.8,1000,4,2,0,25,1,0
17568.9,1000,4,2,0,25,1,0
17570,1000,4,2,0,25,1,0
17571.1,1000,4,2,0,25,1,0
17572.2,1000,4,2,0,25,1,0
17573.3,1000,4,2,0,25,1,0
17574.4,1000,4,2,0,25,1,0
17575.6,1000,4,2,0,25,1,0
17576.7,1000,4,2,0,25,1,0
17577.8,1000,4,2,0,25,1,0
17578.9,1000,4,2,0,25,1,0
17580,1000,4,2,0,25,1,0
17581.1,1000,4,2,0,25,1,0
17582.2,1000,4,2,0,25,1,0
17583.3,1000,4,2,0,25,1,0
17584.4,1000,4,2,0,25,1,0
17585.6,1000,4,2,0,25,1,0
17586.7,1000,4,2,0,25,1,0
17587.8,1000,4,2,0,25,1,0
17588.9,1000,4,2,0,25,1,0
17590,1000,4,2,0,25,1,0
17591.1,1000,4,2,0,25,1,0
17592.2,1000,4,2,0,25,1,0
17593.3,1000,4,2,0,25,1,0
17594.4,1000,4,2,0,25,1,0
17595.6,1000,4,2,0,25,1,0
17596.7,1000,4,2,0,25,1,0
17597.8,1000,4,2,0,25,1,0
17598.9,1000,4,2,0,25,1,0
17600,1000,4,2,0,25,1,0
17601.1,1000,4,2,0,25,1,0
17602.2,1000,4,2,0,25,1,0
17603.3,1000,4,2,0,25,1,0
17604.4,1000,4,2,0,25,1,0
17605.6,1000,4,2,0,25,1,0
17606.7,1000,4,2,0,25,1,0
17607.8,1000,4,2,0,25,1,0
17608.9,1000,4,2,0,25,1,0
17610,1000,4,2,0,25,1,0
17611.1,1000,4,2,0,25,1,0
17612.2,1000,4,2,0,25,1,0
17613.3,1000,4,2,0,25,1,0
17614.4,1000,4,2,0,25,1,0
17615.6,1000,4,2,0,25,1,0
17616.7,1000,4,2,0,25,1,0
17617.8,1000,4,2,0,25,1,0
17618.9,1000,4,2,0,25,1,0
17620,1000,4,2,0,25,1,0
17621.1,1000,4,2,0,25,1,0
17622.2,1000,4,2,0,25,1,0
17623.3,1000,4,2,0,25,1,0
17624.4,1000,4,2,0,25,1,0
17625.6,1000,4,2,0,25,1,0
17626.7,1000,4,2,0,25,1,0
17627.8,1000,4,2,0,25,1,0
17628.9,1000,4,2,0,25,1,0
17630,1000,4,2,0,25,1,0
17631.1,1000,4,2,0,25,1,0
17632.2,1000,4,2,0,25,1,0
17633.3,1000,4,2,0,25,1,0
17634.4,1000,4,2,0,25,1,0
17635.6,1000,4,2,0,25,1,0
17636.7,1000,4,2,0,25,1,0
17637.8,1000,4,2,0,25,1,0
17638.9,1000,4,2,0,25,1,0
17640,1000,4,2,0,25,1,0
17641.1,1000,4,2,0,25,1,0
17642.2,1000,4,2,0,25,1,0
17643.3,1000,4,2,0,25,1,0
17644.4,1000,4,2,0,25,1,0
17645.6,1000,4,2,0,25,1,0
17646.7,1000,4,2,0,25,1,0
17647.8,1000,4,2,0,25,1,0
17648.9,1000,4,2,0,25,1,0
17650,1000,4,2,0,25,1,0
17651.1,1000,4,2,0,25,1,0
17652.2,1000,4,2,0,25,1,0
17653.3,1000,4,2,0,25,1,0
17654.4,1000,4,2,0,25,1,0
17655.6,1000,4,2,0,25,1,0
17656.7,1000,4,2,0,25,1,0
17657.8,1000,4,2,0,25,1,0
17658.9,1000,4,2,0,25,1,0
17660,1000,4,2,0,25,1,0
17661.1,1000,4,2,0,25,1,0
17662.2,1000,4,2,0,25,1,0
17663.3,1000,4,2,0,25,1,0
17664.4,1000,4,2,0,25,1,0
17665.6,1000,4,2,0,25,1,0
17666.7,1000,4,2,0,25,1,0
17667.8,1000,4,2,0,25,1,0
17668.9,1000,4,2,0,25,1,0
17670,1000,4,2,0,25,1,0
17671.1,1000,4,2,0,25,1,0
17672.2,1000,4,2,0,25,1,0
17673.3,1000,4,2,0,25,1,0
17674.4,1000,4,2,0,25,1,0
17675.6,1000,4,2,0,25,1,0
17676.7,1000,4,2,0,25,1,0
17677.8,1000,4,2,0,25,1,0
17678.9,1000,4,2,0,25,1,0
17680,1000,4,2,0,25,1,0
17681.1,1000,4,2,0,25,1,0
17682.2,1000,4,2,0,25,1,0
17683.3,1000,4,2,0,25,1,0
17684.4,1000,4,2,0,25,1,0
17685.6,1000,4,2,0,25,1,0
17686.7,1000,4,2,0,25,1,0
17687.8,1000,4,2,0,25,1,0
17688.9,1000,4,2,0,25,1,0
17690,1000,4,2,0,25,1,0
17691.1,1000,4,2,0,25,1,0
17692.2,1000,4,2,0,25,1,0
17693.3,1000,4,2,0,25,1,0
17694.4,1000,4,2,0,25,1,0
17695.6,1000,4,2,0,25,1,0
17696.7,1000,4,2,0,25,1,0
17697.8,1000,4,2,0,25,1,0
17698.9,1000,4,2,0,25,1,0
17700,1000,4,2,0,25,1,0
17701.1,1000,4,2,0,25,1,0
17702.2,1000,4,2,0,25,1,0
17703.3,1000,4,2,0,25,1,0
17704.4,1000,4,2,0,25,1,0
17705.6,1000,4,2,0,25,1,0
17706.7,1000,4,2,0,25,1,0
17707.8,1000,4,2,0,25,1,0
17708.9,1000,4,2,0,25,1,0
17710,1000,4,2,0,25,1,0
17711.1,1000,4,2,0,25,1,0
17712.2,1000,4,2,0,25,1,0
17713.3,1000,4,2,0,25,1,0
17714.4,1000,4,2,0,25,1,0
17715.6,1000,4,2,0,25,1,0
17716.7,1000,4,2,0,25,1,0
17717.8,1000,4,2,0,25,1,0
17718.9,1000,4,2,0,25,1,0
17720,1000,4,2,0,25,1,0
17721.1,1000,4,2,0,25,1,0
17722.2,1000,4,2,0,25,1,0
17723.3,1000,4,2,0,25,1,0
17724.4,1000,4,2,0,25,1,0
17725.6,1000,4,2,0,25,1,0
17726.7,1000,4,2,0,25,1,0
17727.8,1000,4,2,0,25,1,0
17728.9,1000,4,2,0,25,1,0
17730,1000,4,2,0,25,1,0
17731.1,1000,4,2,0,25,1,0
17732.2,1000,4,2,0,25,1,0
17733.3,1000,4,2,0,25,1,0
17734.4,1000,4,2,0,25,1,0
17735.6,1000,4,2,0,25,1,0
17736.7,1000,4,2,0,25,1,0
17737.8,1000,4,2,0,25,1,0
17738.9,1000,4,2,0,25,1,0
17740,1000,4,2,0,25,1,0
17741.1,1000,4,2,0,25,1,0
17742.2,1000,4,2,0,25,1,0
17743.3,1000,4,2,0,25,1,0
17744.4,1000,4,2,0,25,1,0
17745.6,1000,4,2,0,25,1,0
17746.7,1000,4,2,0,25,1,0
17747.8,1000,4,2,0,25,1,0
17748.9,1000,4,2,0,25,1,0
17750,1000,4,2,0,25,1,0
17751.1,1000,4,2,0,25,1,0
17752.2,1000,4,2,0,25,1,0
17753.3,1000,4,2,0,25,1,0
17754.4,1000,4,2,0,25,1,0
17755.6,1000,4,2,0,25,1,0
17756.7,1000,4,2,0,25,1,0
17757.8,1000,4,2,0,25,1,0
17758.9,1000,4,2,0,25,1,0
17760,1000,4,2,0,25,1,0
17761.1,1000,4,2,0,25,1,0
17762.2,1000,4,2,0,25,1,0
17763.3,1000,4,2,0,25,1,0
17764.4,1000,4,2,0,25,1,0
17765.6,1000,4,2,0,25,1,0
17766.7,1000,4,2,0,25,1,0
17767.8,1000,4,2,0,25,1,0
17768.9,1000,4,2,0,25,1,0
17770,1000,4,2,0,25,1,0
17771.1,1000,4,2,0,25,1,0
17772.2,1000,4,2,0,25,1,0
17773.3,1000,4,2,0,25,1,0
17774.4,1000,4,2,0,25,1,0
17775.6,1000,4,2,0,25,1,0
17776.7,1000,4,2,0,25,1,0
17777.8,1000,4,2,0,25,1,0
17778.9,1000,4,2,0,25,1,0
17780,1000,4,2,0,25,1,0
17781.1,1000,4,2,0,25,1,0
17782.2,1000,4,2,0,25,1,0
17783.3,1000,4,2,0,25,1,0
17784.4,1000,4,2,0,25,1,0
17785.6,1000,4,2,0,25,1,0
17786.7,1000,4,2,0,25,1,0
17787.8,1000,4,2,0,25,1,0
17788.9,1000,4,2,0,25,1,0
17790,1000,4,2,0,25,1,0
17791.1,1000,4,2,0,25,1,0
17792.2,1000,4,2,0,25,1,0
17793.3,1000,4,2,0,25,1,0
17794.4,1000,4,2,0,25,1,0
17795.6,1000,4,2,0,25,1,0
17796.7,1000,4,2,0,25,1,0
17797.8,1000,4,2,0,25,1,0
17798.9,1000,4,2,0,25,1,0
17800,1000,4,2,0,25,1,0
17801.1,1000,4,2,0,25,1,0
17802.2,1000,4,2,0,25,1,0
17803.3,1000,4,2,0,25,1,0
17804.4,1000,4,2,0,25,1,0
17805.6,1000,4,2,0,25,1,0
17806.7,1000,4,2,0,25,1,0
17807.8,1000,4,2,0,25,1,0
17808.9,1000,4,2,0,25,1,0
17810,1000,4,2,0,25,1,0
17811.1,1000,4,2,0,25,1,0
17812.2,1000,4,2,0,25,1,0
17813.3,1000,4,2,0,25,1,0
17814.4,1000,4,2,0,25,1,0
17815.6,1000,4,2,0,25,1,0
17816.7,1000,4,2,0,25,1,0
17817.8,1000,4,2,0,25,1,0
17818.9,1000,4,2,0,25,1,0
17820,1000,4,2,0,25,1,0
17821.1,1000,4,2,0,25,1,0
17822.2,1000,4,2,0,25,1,0
17823.3,1000,4,2,0,25,1,0
17824.4,1000,4,2,0,25,1,0
17825.6,1000,4,2,0,25,1,0
17826.7,1000,4,2,0,25,1,0
17827.8,1000,4,2,0,25,1,0
17828.9,1000,4,2,0,25,1,0
17830,1000,4,2,0,25,1,0
17831.1,1000,4,2,0,25,1,0
17832.2,1000,4,2,0,25,1,0
17833.3,1000,4,2,0,25,1,0
17834.4,1000,4,2,0,25,1,0
17835.6,1000,4,2,0,25,1,0
17836.7,1000,4,2,0,25,1,0
17837.8,1000,4,2,0,25,1,0
17838.9,1000,4,2,0,25,1,0
17840,1000,4,2,0,25,1,0
17841.1,1000,4,2,0,25,1,0
17842.2,1000,4,2,0,25,1,0
17843.3,1000,4,2,0,25,1,0
17844.4,1000,4,2,0,25,1,0
17845.6,1000,4,2,0,25,1,0
17846.7,1000,4,2,0,25,1,0
17847.8,1000,4,2,0,25,1,0
17848.9,1000,4,2,0,25,1,0
17850,1000,4,2,0,25,1,0
17851.1,1000,4,2,0,25,1,0
17852.2,1000,4,2,0,25,1,0
17853.3,1000,4,2,0,25,1,0
17854.4,1000,4,2,0,25,1,0
17855.6,1000,4,2,0,25,1,0
17856.7,1000,4,2,0,25,1,0
17857.8,1000,4,2,0,25,1,0
17858.9,1000,4,2,0,25,1,0
17860,1000,4,2,0,25,1,0
17861.1,1000,4,2,0,25,1,0
17862.2,1000,4,2,0,25,1,0
17863.3,1000,4,2,0,25,1,0
17864.4,1000,4,2,0,25,1,0
17865.6,1000,4,2,0,25,1,0
17866.7,1000,4,2,0,25,1,0
17867.8,1000,4,2,0,25,1,0
17868.9,1000,4,2,0,25,1,0
17870,1000,4,2,0,25,1,0
17871.1,1000,4,2,0,25,1,0
17872.2,1000,4,2,0,25,1,0
17873.3,1000,4,2,0,25,1,0
17874.4,1000,4,2,0,25,1,0
17875.6,1000,4,2,0,25,1,0
17876.7,1000,4,2,0,25,1,0
17877.8,1000,4,2,0,25,1,0
17878.9,1000,4,2,0,25,1,0
17880,1000,4,2,0,25,1,0
17881.1,1000,4,2,0,25,1,0
17882.2,1000,4,2,0,25,1,0
17883.3,1000,4,2,0,25,1,0
17884.4,1000,4,2,0,25,1,0
17885.6,1000,4,2,0,25,1,0
17886.7,1000,4,2,0,25,1,0
17887.8,1000,4,2,0,25,1,0
17888.9,1000,4,2,0,25,1,0
17890,1000,4,2,0,25,1,0
17891.1,1000,4,2,0,25,1,0
17892.2,1000,4,2,0,25,1,0
17893.3,1000,4,2,0,25,1,0
17894.4,1000,4,2,0,25,1,0
17895.6,1000,4,2,0,25,1,0
17896.7,1000,4,2,0,25,1,0
17897.8,1000,4,2,0,25,1,0
17898.9,1000,4,2,0,25,1,0
17900,1000,4,2,0,25,1,0
17901.1,1000,4,2,0,25,1,0
17902.2,1000,4,2,0,25,1,0
17903.3,1000,4,2,0,25,1,0
17904.4,1000,4,2,0,25,1,0
17905.6,1000,4,2,0,25,1,0
17906.7,1000,4,2,0,25,1,0
17907.8,1000,4,2,0,25,1,0
17908.9,1000,4,2,0,25,1,0
17910,1000,4,2,0,25,1,0
17911.1,1000,4,2,0,25,1,0
17912.2,1000,4,2,0,25,1,0
17913.3,1000,4,2,0,25,1,0
17914.4,1000,4,2,0,25,1,0
17915.6,1000,4,2,0,25,1,0
17916.7,1000,4,2,0,25,1,0
17917.8,1000,4,2,0,25,1,0
17918.9,1000,4,2,0,25,1,0
17920,1000,4,2,0,25,1,0
17921.1,1000,4,2,0,25,1,0
17922.2,1000,4,2,0,25,1,0
17923.3,1000,4,2,0,25,1,0
17924.4,1000,4,2,0,25,1,0
17925.6,1000,4,2,0,25,1,0
17926.7,1000,4,2,0,25,1,0
17927.8,1000,4,2,0,25,1,0
17928.9,1000,4,2,0,25,1,0
17930,1000,4,2,0,25,1,0
17931.1,1000,4,2,0,25,1,0
17932.2,1000,4,2,0,25,1,0
17933.3,1000,4,2,0,25,1,0
17934.4,1000,4,2,0,25,1,0
17935.6,1000,4,2,0,25,1,0
17936.7,1000,4,2,0,25,1,0
17937.8,1000,4,2,0,25,1,0
17938.9,1000,4,2,0,25,1,0
17940,1000,4,2,0,25,1,0
17941.1,1000,4,2,0,25,1,0
17942.2,1000,4,2,0,25,1,0
17943.3,1000,4,2,0,25,1,0
17944.4,1000,4,2,0,25,1,0
17945.6,1000,4,2,0,25,1,0
17946.7,1000,4,2,0,25,1,0
17947.8,1000,4,2,0,25,1,0
17948.9,1000,4,2,0,25,1,0
17950,1000,4,2,0,25,1,0
17951.1,1000,4,2,0,25,1,0
17952.2,1000,4,2,0,25,1,0
17953.3,1000,4,2,0,25,1,0
17954.4,1000,4,2,0,25,1,0
17955.6,1000,4,2,0,25,1,0
17956.7,1000,4,2,0,25,1,0
17957.8,1000,4,2,0,25,1,0
17958.9,1000,4,2,0,25,1,0
17960,1000,4,2,0,25,1,0
17961.1,1000,4,2,0,25,1,0
17962.2,1000,4,2,0,25,1,0
17963.3,1000,4,2,0,25,1,0
17964.4,1000,4,2,0,25,1,0
17965.6,1000,4,2,0,25,1,0
17966.7,1000,4,2,0,25,1,0
17967.8,1000,4,2,0,25,1,0
17968.9,1000,4,2,0,25,1,0
17970,1000,4,2,0,25,1,0
17971.1,1000,4,2,0,25,1,0
17972.2,1000,4,2,0,25,1,0
17973.3,1000,4,2,0,25,1,0
17974.4,1000,4,2,0,25,1,0
17975.6,1000,4,2,0,25,1,0
17976.7,1000,4,2,0,25,1,0
17977.8,1000,4,2,0,25,1,0
17978.9,1000,4,2,0,25,1,0
17980,1000,4,2,0,25,1,0
17981.1,1000,4,2,0,25,1,0
17982.2,1000,4,2,0,25,1,0
17983.3,1000,4,2,0,25,1,0
17984.4,1000,4,2,0,25,1,0
17985.6,1000,4,2,0,25,1,0
17986.7,1000,4,2,0,25,1,0
17987.8,1000,4,2,0,25,1,0
17988.9,1000,4,2,0,25,1,0
17990,1000,4,2,0,25,1,0
17991.1,1000,4,2,0,25,1,0
17992.2,1000,4,2,0,25,1,0
17993.3,1000,4,2,0,25,1,0
17994.4,1000,4,2,0,25,1,0
17995.6,1000,4,2,0,25,1,0
17996.7,1000,4,2,0,25,1,0
17997.8,1000,4,2,0,25,1,0
17998.9,1000,4,2,0,25,1,0
18000,1000,4,2,0,25,1,0
18001.1,1000,4,2,0,25,1,0
18002.2,1000,4,2,0,25,1,0
18003.3,1000,4,2,0,25,1,0
18004.4,1000,4,2,0,25,1,0
18005.6,1000,4,2,0,25,1,0
18006.7,1000,4,2,0,25,1,0
18007.8,1000,4,2,0,25,1,0
18008.9,1000,4,2,0,25,1,0
18010,1000,4,2,0,25,1,0
18510,1000,4,2,0,25,1,0
18511.1,1000,4,2,0,25,1,0
18512.2,1000,4,2,0,25,1,0
18513.3,1000,4,2,0,25,1,0
18514.4,1000,4,2,0,25,1,0
18515.6,1000,4,2,0,25,1,0
18516.7,1000,4,2,0,25,1,0
18517.8,1000,4,2,0,25,1,0
18518.9,1000,4,2,0,25,1,0
18520,1000,4,2,0,25,1,0
18521.1,1000,4,2,0,25,1,0
18522.2,1000,4,2,0,25,1,0
18523.3,1000,4,2,0,25,1,0
18524.4,1000,4,2,0,25,1,0
18525.6,1000,4,2,0,25,1,0
18526.7,1000,4,2,0,25,1,0
18527.8,1000,4,2,0,25,1,0
18528.9,1000,4,2,0,25,1,0
18530,1000,4,2,0,25,1,0
18531.1,1000,4,2,0,25,1,0
18532.2,1000,4,2,0,25,1,0
18533.3,1000,4,2,0,25,1,0
18534.4,1000,4,2,0,25,1,0
18535.6,1000,4,2,0,25,1,0
18536.7,1000,4,2,0,25,1,0
18537.8,1000,4,2,0,25,1,0
18538.9,1000,4,2,0,25,1,0
18540,1000,4,2,0,25,1,0
18541.1,1000,4,2,0,25,1,0
18542.2,1000,4,2,0,25,1,0
18543.3,1000,4,2,0,25,1,0
18544.4,1000,4,2,0,25,1,0
18545.6,1000,4,2,0,25,1,0
18546.7,1000,4,2,0,25,1,0
18547.8,1000,4,2,0,25,1,0
18548.9,1000,4,2,0,25,1,0
18550,1000,4,2,0,25,1,0
18551.1,1000,4,2,0,25,1,0
18552.2,1000,4,2,0,25,1,0
18553.3,1000,4,2,0,25,1,0
18554.4,1000,4,2,0,25,1,0
18555.6,1000,4,2,0,25,1,0
18556.7,1000,4,2,0,25,1,0
18557.8,1000,4,2,0,25,1,0
18558.9,1000,4,2,0,25,1,0
18560,1000,4,2,0,25,1,0
18561.1,1000,4,2,0,25,1,0
18562.2,1000,4,2,0,25,1,0
18563.3,1000,4,2,0,25,1,0
18564.4,1000,4,2,0,25,1,0
18565.6,1000,4,2,0,25,1,0
18566.7,1000,4,2,0,25,1,0
18567.8,1000,4,2,0,25,1,0
18568.9,1000,4,2,0,25,1,0
18570,1000,4,2,0,25,1,0
18571.1,1000,4,2,0,25,1,0
18572.2,1000,4,2,0,25,1,0
18573.3,1000,4,2,0,25,1,0
18574.4,1000,4,2,0,25,1,0
18575.6,1000,4,2,0,25,1,0
18576.7,1000,4,2,0,25,1,0
18577.8,1000,4,2,0,25,1,0
18578.9,1000,4,2,0,25,1,0
18580,1000,4,2,0,25,1,0
18581.1,1000,4,2,0,25,1,0
18582.2,1000,4,2,0,25,1,0
18583.3,1000,4,2,0,25,1,0
18584.4,1000,4,2,0,25,1,0
18585.6,1000,4,2,0,25,1,0
18586.7,1000,4,2,0,25,1,0
18587.8,1000,4,2,0,25,1,0
18588.9,1000,4,2,0,25,1,0
18590,1000,4,2,0,25,1,0
18591.1,1000,4,2,0,25,1,0
18592.2,1000,4,2,0,25,1,0
18593.3,1000,4,2,0,25,1,0
18594.4,1000,4,2,0,25,1,0
18595.6,1000,4,2,0,25,1,0
18596.7,1000,4,2,0,25,1,0
18597.8,1000,4,2,0,25,1,0
18598.9,1000,4,2,0,25,1,0
18600,1000,4,2,0,25,1,0
18601.1,1000,4,2,0,25,1,0
18602.2,1000,4,2,0,25,1,0
18603.3,1000,4,2,0,25,1,0
18604.4,1000,4,2,0,25,1,0
18605.6,1000,4,2,0,25,1,0
18606.7,1000,4,2,0,25,1,0
18607.8,1000,4,2,0,25,1,0
18608.9,1000,4,2,0,25,1,0
18610,1000,4,2,0,25,1,0
18611.1,1000,4,2,0,25,1,0
18612.2,1000,4,2,0,25,1,0
18613.3,1000,4,2,0,25,1,0
18614.4,1000,4,2,0,25,1,0
18615.6,1000,4,2,0,25,1,0
18616.7,1000,4,2,0,25,1,0
18617.8,1000,4,2,0,25,1,0
18618.9,1000,4,2,0,25,1,0
18620,1000,4,2,0,25,1,0
18621.1,1000,4,2,0,25,1,0
18622.2,1000,4,2,0,25,1,0
18623.3,1000,4,2,0,25,1,0
18624.4,1000,4,2,0,25,1,0
18625.6,1000,4,2,0,25,1,0
18626.7,1000,4,2,0,25,1,0
18627.8,1000,4,2,0,25,1,0
18628.9,1000,4,2,0,25,1,0
18630,1000,4,2,0,25,1,0
18631.1,1000,4,2,0,25,1,0
18632.2,1000,4,2,0,25,1,0
18633.3,1000,4,2,0,25,1,0
18634.4,1000,4,2,0,25,1,0
18635.6,1000,4,2,0,25,1,0
18636.7,1000,4,2,0,25,1,0
18637.8,1000,4,2,0,25,1,0
18638.9,1000,4,2,0,25,1,0
18640,1000,4,2,0,25,1,0
18641.1,1000,4,2,0,25,1,0
18642.2,1000,4,2,0,25,1,0
18643.3,1000,4,2,0,25,1,0
18644.4,1000,4,2,0,25,1,0
18645.6,1000,4,2,0,25,1,0
18646.7,1000,4,2,0,25,1,0
18647.8,1000,4,2,0,25,1,0
18648.9,1000,4,2,0,25,1,0
18650,1000,4,2,0,25,1,0
18651.1,1000,4,2,0,25,1,0
18652.2,1000,4,2,0,25,1,0
18653.3,1000,4,2,0,25,1,0
18654.4,1000,4,2,0,25,1,0
18655.6,1000,4,2,0,25,1,0
18656.7,1000,4,2,0,25,1,0
18657.8,1000,4,2,0,25,1,0
18658.9,1000,4,2,0,25,1,0
18660,1000,4,2,0,25,1,0
18661.1,1000,4,2,0,25,1,0
18662.2,1000,4,2,0,25,1,0
18663.3,1000,4,2,0,25,1,0
18664.4,1000,4,2,0,25,1,0
18665.6,1000,4,2,0,25,1,0
18666.7,1000,4,2,0,25,1,0
18667.8,1000,4,2,0,25,1,0
18668.9,1000,4,2,0,25,1,0
18670,1000,4,2,0,25,1,0
18671.1,1000,4,2,0,25,1,0
18672.2,1000,4,2,0,25,1,0
18673.3,1000,4,2,0,25,1,0
18674.4,1000,4,2,0,25,1,0
18675.6,1000,4,2,0,25,1,0
18676.7,1000,4,2,0,25,1,0
18677.8,1000,4,2,0,25,1,0
18678.9,1000,4,2,0,25,1,0
18680,1000,4,2,0,25,1,0
18681.1,1000,4,2,0,25,1,0
18682.2,1000,4,2,0,25,1,0
18683.3,1000,4,2,0,25,1,0
18684.4,1000,4,2,0,25,1,0
18685.6,1000,4,2,0,25,1,0
18686.7,1000,4,2,0,25,1,0
18687.8,1000,4,2,0,25,1,0
18688.9,1000,4,2,0,25,1,0
18690,1000,4,2,0,25,1,0
18691.1,1000,4,2,0,25,1,0
18692.2,1000,4,2,0,25,1,0
18693.3,1000,4,2,0,25,1,0
18694.4,1000,4,2,0,25,1,0
18695.6,1000,4,2,0,25,1,0
18696.7,1000,4,2,0,25,1,0
18697.8,1000,4,2,0,25,1,0
18698.9,1000,4,2,0,25,1,0
18700,1000,4,2,0,25,1,0
18701.1,1000,4,2,0,25,1,0
18702.2,1000,4,2,0,25,1,0
18703.3,1000,4,2,0,25,1,0
18704.4,1000,4,2,0,25,1,0
18705.6,1000,4,2,0,25,1,0
18706.7,1000,4,2,0,25,1,0
18707.8,1000,4,2,0,25,1,0
18708.9,1000,4,2,0,25,1,0
18710,1000,4,2,0,25,1,0
18711.1,1000,4,2,0,25,1,0
18712.2,1000,4,2,0,25,1,0
18713.3,1000,4,2,0,25,1,0
18714.4,1000,4,2,0,25,1,0
18715.6,1000,4,2,0,25,1,0
18716.7,1000,4,2,0,25,1,0
18717.8,1000,4,2,0,25,1,0
18718.9,1000,4,2,0,25,1,0
18720,1000,4,2,0,25,1,0
18721.1,1000,4,2,0,25,1,0
18722.2,1000,4,2,0,25,1,0
18723.3,1000,4,2,0,25,1,0
18724.4,1000,4,2,0,25,1,0
18725.6,1000,4,2,0,25,1,0
18726.7,1000,4,2,0,25,1,0
18727.8,1000,4,2,0,25,1,0
18728.9,1000,4,2,0,25,1,0
18730,1000,4,2,0,25,1,0
18731.1,1000,4,2,0,25,1,0
18732.2,1000,4,2,0,25,1,0
18733.3,1000,4,2,0,25,1,0
18734.4,1000,4,2,0,25,1,0
18735.6,1000,4,2,0,25,1,0
18736.7,1000,4,2,0,25,1,0
18737.8,1000,4,2,0,25,1,0
18738.9,1000,4,2,0,25,1,0
18740,1000,4,2,0,25,1,0
18741.1,1000,4,2,0,25,1,0
18742.2,1000,4,2,0,25,1,0
18743.3,1000,4,2,0,25,1,0
18744.4,1000,4,2,0,25,1,0
18745.6,1000,4,2,0,25,1,0
18746.7,1000,4,2,0,25,1,0
18747.8,1000,4,2,0,25,1,0
18748.9,1000,4,2,0,25,1,0
18750,1000,4,2,0,25,1,0
18751.1,1000,4,2,0,25,1,0
18752.2,1000,4,2,0,25,1,0
18753.3,1000,4,2,0,25,1,0
18754.4,1000,4,2,0,25,1,0
18755.6,1000,4,2,0,25,1,0
18756.7,1000,4,2,0,25,1,0
18757.8,1000,4,2,0,25,1,0
18758.9,1000,4,2,0,25,1,0
18760,1000,4,2,0,25,1,0
18761.1,1000,4,2,0,25,1,0
18762.2,1000,4,2,0,25,1,0
18763.3,1000,4,2,0,25,1,0
18764.4,1000,4,2,0,25,1,0
18765.6,1000,4,2,0,25,1,0
18766.7,1000,4,2,0,25,1,0
18767.8,1000,4,2,0,25,1,0
18768.9,1000,4,2,0,25,1,0
18770,1000,4,2,0,25,1,0
18771.1,1000,4,2,0,25,1,0
18772.2,1000,4,2,0,25,1,0
18773.3,1000,4,2,0,25,1,0
18774.4,1000,4,2,0,25,1,0
18775.6,1000,4,2,0,25,1,0
18776.7,1000,4,2,0,25,1,0
18777.8,1000,4,2,0,25,1,0
18778.9,1000,4,2,0,25,1,0
18780,1000,4,2,0,25,1,0
18781.1,1000,4,2,0,25,1,0
18782.2,1000,4,2,0,25,1,0
18783.3,1000,4,2,0,25,1,0
18784.4,1000,4,2,0,25,1,0
18785.6,1000,4,2,0,25,1,0
18786.7,1000,4,2,0,25,1,0
18787.8,1000,4,2,0,25,1,0
18788.9,1000,4,2,0,25,1,0
18790,1000,4,2,0,25,1,0
18791.1,1000,4,2,0,25,1,0
18792.2,1000,4,2,0,25,1,0
18793.3,1000,4,2,0,25,1,0
18794.4,1000,4,2,0,25,1,0
18795.6,1000,4,2,0,25,1,0
18796.7,1000,4,2,0,25,1,0
18797.8,1000,4,2,0,25,1,0
18798.9,1000,4,2,0,25,1,0
18800,1000,4,2,0,25,1,0
18801.1,1000,4,2,0,25,1,0
18802.2,1000,4,2,0,25,1,0
18803.3,1000,4,2,0,25,1,0
18804.4,1000,4,2,0,25,1,0
18805.6,1000,4,2,0,25,1,0
18806.7,1000,4,2,0,25,1,0
18807.8,1000,4,2,0,25,1,0
18808.9,1000,4,2,0,25,1,0
18810,1000,4,2,0,25,1,0
18811.1,1000,4,2,0,25,1,0
18812.2,1000,4,2,0,25,1,0
18813.3,1000,4,2,0,25,1,0
18814.4,1000,4,2,0,25,1,0
18815.6,1000,4,2,0,25,1,0
18816.7,1000,4,2,0,25,1,0
18817.8,1000,4,2,0,25,1,0
18818.9,1000,4,2,0,25,1,0
18820,1000,4,2,0,25,1,0
18821.1,1000,4,2,0,25,1,0
18822.2,1000,4,2,0,25,1,0
18823.3,1000,4,2,0,25,1,0
18824.4,1000,4,2,0,25,1,0
18825.6,1000,4,2,0,25,1,0
18826.7,1000,4,2,0,25,1,0
18827.8,1000,4,2,0,25,1,0
18828.9,1000,4,2,0,25,1,0
18830,1000,4,2,0,25,1,0
18831.1,1000,4,2,0,25,1,0
18832.2,1000,4,2,0,25,1,0
18833.3,1000,4,2,0,25,1,0
18834.4,1000,4,2,0,25,1,0
18835.6,1000,4,2,0,25,1,0
18836.7,1000,4,2,0,25,1,0
18837.8,1000,4,2,0,25,1,0
18838.9,1000,4,2,0,25,1,0
18840,1000,4,2,0,25,1,0
18841.1,1000,4,2,0,25,1,0
18842.2,1000,4,2,0,25,1,0
18843.3,1000,4,2,0,25,1,0
18844.4,1000,4,2,0,25,1,0
18845.6,1000,4,2,0,25,1,0
18846.7,1000,4,2,0,25,1,0
18847.8,1000,4,2,0,25,1,0
18848.9,1000,4,2,0,25,1,0
18850,1000,4,2,0,25,1,0
18851.1,1000,4,2,0,25,1,0
18852.2,1000,4,2,0,25,1,0
18853.3,1000,4,2,0,25,1,0
18854.4,1000,4,2,0,25,1,0
18855.6,1000,4,2,0,25,1,0
18856.7,1000,4,2,0,25,1,0
18857.8,1000,4,2,0,25,1,0
18858.9,1000,4,2,0,25,1,0
18860,1000,4,2,0,25,1,0
18861.1,1000,4,2,0,25,1,0
18862.2,1000,4,2,0,25,1,0
18863.3,1000,4,2,0,25,1,0
18864.4,1000,4,2,0,25,1,0
18865.6,1000,4,2,0,25,1,0
18866.7,1000,4,2,0,25,1,0
18867.8,1000,4,2,0,25,1,0
18868.9,1000,4,2,0,25,1,0
18870,1000,4,2,0,25,1,0
18871.1,1000,4,2,0,25,1,0
18872.2,1000,4,2,0,25,1,0
18873.3,1000,4,2,0,25,1,0
18874.4,1000,4,2,0,25,1,0
18875.6,1000,4,2,0,25,1,0
18876.7,1000,4,2,0,25,1,0
18877.8,1000,4,2,0,25,1,0
18878.9,1000,4,2,0,25,1,0
18880,1000,4,2,0,25,1,0
18881.1,1000,4,2,0,25,1,0
18882.2,1000,4,2,0,25,1,0
18883.3,1000,4,2,0,25,1,0
18884.4,1000,4,2,0,25,1,0
18885.6,1000,4,2,0,25,1,0
18886.7,1000,4,2,0,25,1,0
18887.8,1000,4,2,0,25,1,0
18888.9,1000,4,2,0,25,1,0
18890,1000,4,2,0,25,1,0
18891.1,1000,4,2,0,25,1,0
18892.2,1000,4,2,0,25,1,0
18893.3,1000,4,2,0,25,1,0
18894.4,1000,4,2,0,25,1,0
18895.6,1000,4,2,0,25,1,0
18896.7,1000,4,2,0,25,1,0
18897.8,1000,4,2,0,25,1,0
18898.9,1000,4,2,0,25,1,0
18900,1000,4,2,0,25,1,0
18901.1,1000,4,2,0,25,1,0
18902.2,1000,4,2,0,25,1,0
18903.3,1000,4,2,0,25,1,0
18904.4,1000,4,2,0,25,1,0
18905.6,1000,4,2,0,25,1,0
18906.7,1000,4,2,0,25,1,0
18907.8,1000,4,2,0,25,1,0
18908.9,1000,4,2,0,25,1,0
18910,1000,4,2,0,25,1,0
18911.1,1000,4,2,0,25,1,0
18912.2,1000,4,2,0,25,1,0
18913.3,1000,4,2,0,25,1,0
18914.4,1000,4,2,0,25,1,0
18915.6,1000,4,2,0,25,1,0
18916.7,1000,4,2,0,25,1,0
18917.8,1000,4,2,0,25,1,0
18918.9,1000,4,2,0,25,1,0
18920,1000,4,2,0,25,1,0
18921.1,1000,4,2,0,25,1,0
18922.2,1000,4,2,0,25,1,0
18923.3,1000,4,2,0,25,1,0
18924.4,1000,4,2,0,25,1,0
18925.6,1000,4,2,0,25,1,0
18926.7,1000,4,2,0,25,1,0
18927.8,1000,4,2,0,25,1,0
18928.9,1000,4,2,0,25,1,0
18930,1000,4,2,0,25,1,0
18931.1,1000,4,2,0,25,1,0
18932.2,1000,4,2,0,25,1,0
18933.3,1000,4,2,0,25,1,0
18934.4,1000,4,2,0,25,1,0
18935.6,1000,4,2,0,25,1,0
18936.7,1000,4,2,0,25,1,0
18937.8,1000,4,2,0,25,1,0
18938.9,1000,4,2,0,25,1,0
18940,1000,4,2,0,25,1,0
18941.1,1000,4,2,0,25,1,0
18942.2,1000,4,2,0,25,1,0
18943.3,1000,4,2,0,25,1,0
18944.4,1000,4,2,0,25,1,0
18945.6,1000,4,2,0,25,1,0
18946.7,1000,4,2,0,25,1,0
18947.8,1000,4,2,0,25,1,0
18948.9,1000,4,2,0,25,1,0
18950,1000,4,2,0,25,1,0
18951.1,1000,4,2,0,25,1,0
18952.2,1000,4,2,0,25,1,0
18953.3,1000,4,2,0,25,1,0
18954.4,1000,4,2,0,25,1,0
18955.6,1000,4,2,0,25,1,0
18956.7,1000,4,2,0,25,1,0
18957.8,1000,4,2,0,25,1,0
18958.9,1000,4,2,0,25,1,0
18960,1000,4,2,0,25,1,0
18961.1,1000,4,2,0,25,1,0
18962.2,1000,4,2,0,25,1,0
18963.3,1000,4,2,0,25,1,0
18964.4,1000,4,2,0,25,1,0
18965.6,1000,4,2,0,25,1,0
18966.7,1000,4,2,0,25,1,0
18967.8,1000,4,2,0,25,1,0
18968.9,1000,4,2,0,25,1,0
18970,1000,4,2,0,25,1,0
18971.1,1000,4,2,0,25,1,0
18972.2,1000,4,2,0,25,1,0
18973.3,1000,4,2,0,25,1,0
18974.4,1000,4,2,0,25,1,0
18975.6,1000,4,2,0,25,1,0
18976.7,1000,4,2,0,25,1,0
18977.8,1000,4,2,0,25,1,0
18978.9,1000,4,2,0,25,1,0
18980,1000,4,2,0,25,1,0
18981.1,1000,4,2,0,25,1,0
18982.2,1000,4,2,0,25,1,0
18983.3,1000,4,2,0,25,1,0
18984.4,1000,4,2,0,25,1,0
18985.6,1000,4,2,0,25,1,0
18986.7,1000,4,2,0,25,1,0
18987.8,1000,4,2,0,25,1,0
18988.9,1000,4,2,0,25,1,0
18990,1000,4,2,0,25,1,0
18991.1,1000,4,2,0,25,1,0
18992.2,1000,4,2,0,25,1,0
18993.3,1000,4,2,0,25,1,0
18994.4,1000,4,2,0,25,1,0
18995.6,1000,4,2,0,25,1,0
18996.7,1000,4,2,0,25,1,0
18997.8,1000,4,2,0,25,1,0
18998.9,1000,4,2,0,25,1,0
19000,1000,4,2,0,25,1,0
19001.1,1000,4,2,0,25,1,0
19002.2,1000,4,2,0,25,1,0
19003.3,1000,4,2,0,25,1,0
19004.4,1000,4,2,0,25,1,0
19005.6,1000,4,2,0,25,1,0
19006.7,1000,4,2,0,25,1,0
19007.8,1000,4,2,0,25,1,0
19008.9,1000,4,2,0,25,1,0
19010,1000,4,2,0,25,1,0
19510,1000,4,2,0,25,1,0
19511.1,1000,4,2,0,25,1,0
19512.2,1000,4,2,0,25,1,0
19513.3,1000,4,2,0,25,1,0
19514.4,1000,4,2,0,25,1,0
19515.6,1000,4,2,0,25,1,0
19516.7,1000,4,2,0,25,1,0
19517.8,1000,4,2,0,25,1,0
19518.9,1000,4,2,0,25,1,0
19520,1000,4,2,0,25,1,0
19521.1,1000,4,2,0,25,1,0
19522.2,1000,4,2,0,25,1,0
19523.3,1000,4,2,0,25,1,0
19524.4,1000,4,2,0,25,1,0
19525.6,1000,4,2,0,25,1,0
19526.7,1000,4,2,0,25,1,0
19527.8,1000,4,2,0,25,1,0
19528.9,1000,4,2,0,25,1,0
19530,1000,4,2,0,25,1,0
19531.1,1000,4,2,0,25,1,0
19532.2,1000,4,2,0,25,1,0
19533.3,1000,4,2,0,25,1,0
19534.4,1000,4,2,0,25,1,0
19535.6,1000,4,2,0,25,1,0
19536.7,1000,4,2,0,25,1,0
19537.8,1000,4,2,0,25,1,0
19538.9,1000,4,2,0,25,1,0
19540,1000,4,2,0,25,1,0
19541.1,1000,4,2,0,25,1,0
19542.2,1000,4,2,0,25,1,0
19543.3,1000,4,2,0,25,1,0
19544.4,1000,4,2,0,25,1,0
19545.6,1000,4,2,0,25,1,0
19546.7,1000,4,2,0,25,1,0
19547.8,1000,4,2,0,25,1,0
19548.9,1000,4,2,0,25,1,0
19550,1000,4,2,0,25,1,0
19551.1,1000,4,2,0,25,1,0
19552.2,1000,4,2,0,25,1,0
19553.3,1000,4,2,0,25,1,0
19554.4,1000,4,2,0,25,1,0
19555.6,1000,4,2,0,25,1,0
19556.7,1000,4,2,0,25,1,0
19557.8,1000,4,2,0,25,1,0
19558.9,1000,4,2,0,25,1,0
19560,1000,4,2,0,25,1,0
19561.1,1000,4,2,0,25,1,0
19562.2,1000,4,2,0,25,1,0
19563.3,1000,4,2,0,25,1,0
19564.4,1000,4,2,0,25,1,0
19565.6,1000,4,2,0,25,1,0
19566.7,1000,4,2,0,25,1,0
19567.8,1000,4,2,0,25,1,0
19568.9,1000,4,2,0,25,1,0
19570,1000,4,2,0,25,1,0
19571.1,1000,4,2,0,25,1,0
19572.2,1000,4,2,0,25,1,0
19573.3,1000,4,2,0,25,1,0
19574.4,1000,4,2,0,25,1,0
19575.6,1000,4,2,0,25,1,0
19576.7,1000,4,2,0,25,1,0
19577.8,1000,4,2,0,25,1,0
19578.9,1000,4,2,0,25,1,0
19580,1000,4,2,0,25,1,0
19581.1,1000,4,2,0,25,1,0
19582.2,1000,4,2,0,25,1,0
19583.3,1000,4,2,0,25,1,0
19584.4,1000,4,2,0,25,1,0
19585.6,1000,4,2,0,25,1,0
19586.7,1000,4,2,0,25,1,0
19587.8,1000,4,2,0,25,1,0
19588.9,1000,4,2,0,25,1,0
19590,1000,4,2,0,25,1,0
19591.1,1000,4,2,0,25,1,0
19592.2,1000,4,2,0,25,1,0
19593.3,1000,4,2,0,25,1,0
19594.4,1000,4,2,0,25,1,0
19595.6,1000,4,2,0,25,1,0
19596.7,1000,4,2,0,25,1,0
19597.8,1000,4,2,0,25,1,0
19598.9,1000,4,2,0,25,1,0
19600,1000,4,2,0,25,1,0
19601.1,1000,4,2,0,25,1,0
19602.2,1000,4,2,0,25,1,0
19603.3,1000,4,2,0,25,1,0
19604.4,1000,4,2,0,25,1,0
19605.6,1000,4,2,0,25,1,0
19606.7,1000,4,2,0,25,1,0
19607.8,1000,4,2,0,25,1,0
19608.9,1000,4,2,0,25,1,0
19610,1000,4,2,0,25,1,0
19611.1,1000,4,2,0,25,1,0
19612.2,1000,4,2,0,25,1,0
19613.3,1000,4,2,0,25,1,0
19614.4,1000,4,2,0,25,1,0
19615.6,1000,4,2,0,25,1,0
19616.7,1000,4,2,0,25,1,0
19617.8,1000,4,2,0,25,1,0
19618.9,1000,4,2,0,25,1,0
19620,1000,4,2,0,25,1,0
19621.1,1000,4,2,0,25,1,0
19622.2,1000,4,2,0,25,1,0
19623.3,1000,4,2,0,25,1,0
19624.4,1000,4,2,0,25,1,0
19625.6,1000,4,2,0,25,1,0
19626.7,1000,4,2,0,25,1,0
19627.8,1000,4,2,0,25,1,0
19628.9,1000,4,2,0,25,1,0
19630,1000,4,2,0,25,1,0
19631.1,1000,4,2,0,25,1,0
19632.2,1000,4,2,0,25,1,0
19633.3,1000,4,2,0,25,1,0
19634.4,1000,4,2,0,25,1,0
19635.6,1000,4,2,0,25,1,0
19636.7,1000,4,2,0,25,1,0
19637.8,1000,4,2,0,25,1,0
19638.9,1000,4,2,0,25,1,0
19640,1000,4,2,0,25,1,0
19641.1,1000,4,2,0,25,1,0
19642.2,1000,4,2,0,25,1,0
19643.3,1000,4,2,0,25,1,0
19644.4,1000,4,2,0,25,1,0
19645.6,1000,4,2,0,25,1,0
19646.7,1000,4,2,0,25,1,0
19647.8,1000,4,2,0,25,1,0
19648.9,1000,4,2,0,25,1,0
19650,1000,4,2,0,25,1,0
19651.1,1000,4,2,0,25,1,0
19652.2,1000,4,2,0,25,1,0
19653.3,1000,4,2,0,25,1,0
19654.4,1000,4,2,0,25,1,0
19655.6,1000,4,2,0,25,1,0
19656.7,1000,4,2,0,25,1,0
19657.8,1000,4,2,0,25,1,0
19658.9,1000,4,2,0,25,1,0
19660,1000,4,2,0,25,1,0
19661.1,1000,4,2,0,25,1,0
19662.2,1000,4,2,0,25,1,0
19663.3,1000,4,2,0,25,1,0
19664.4,1000,4,2,0,25,1,0
19665.6,1000,4,2,0,25,1,0
19666.7,1000,4,2,0,25,1,0
19667.8,1000,4,2,0,25,1,0
19668.9,1000,4,2,0,25,1,0
19670,1000,4,2,0,25,1,0
19671.1,1000,4,2,0,25,1,0
19672.2,1000,4,2,0,25,1,0
19673.3,1000,4,2,0,25,1,0
19674.4,1000,4,2,0,25,1,0
19675.6,1000,4,2,0,25,1,0
19676.7,1000,4,2,0,25,1,0
19677.8,1000,4,2,0,25,1,0
19678.9,1000,4,2,0,25,1,0
19680,1000,4,2,0,25,1,0
19681.1,1000,4,2,0,25,1,0
19682.2,1000,4,2,0,25,1,0
19683.3,1000,4,2,0,25,1,0
19684.4,1000,4,2,0,25,1,0
19685.6,1000,4,2,0,25,1,0
19686.7,1000,4,2,0,25,1,0
19687.8,1000,4,2,0,25,1,0
19688.9,1000,4,2,0,25,1,0
19690,1000,4,2,0,25,1,0
19691.1,1000,4,2,0,25,1,0
19692.2,1000,4,2,0,25,1,0
19693.3,1000,4,2,0,25,1,0
19694.4,1000,4,2,0,25,1,0
19695.6,1000,4,2,0,25,1,0
19696.7,1000,4,2,0,25,1,0
19697.8,1000,4,2,0,25,1,0
19698.9,1000,4,2,0,25,1,0
19700,1000,4,2,0,25,1,0
19701.1,1000,4,2,0,25,1,0
19702.2,1000,4,2,0,25,1,0
19703.3,1000,4,2,0,25,1,0
19704.4,1000,4,2,0,25,1,0
19705.6,1000,4,2,0,25,1,0
19706.7,1000,4,2,0,25,1,0
19707.8,1000,4,2,0,25,1,0
19708.9,1000,4,2,0,25,1,0
19710,1000,4,2,0,25,1,0
19711.1,1000,4,2,0,25,1,0
19712.2,1000,4,2,0,25,1,0
19713.3,1000,4,2,0,25,1,0
19714.4,1000,4,2,0,25,1,0
19715.6,1000,4,2,0,25,1,0
19716.7,1000,4,2,0,25,1,0
19717.8,1000,4,2,0,25,1,0
19718.9,1000,4,2,0,25,1,0
19720,1000,4,2,0,25,1,0
19721.1,1000,4,2,0,25,1,0
19722.2,1000,4,2,0,25,1,0
19723.3,1000,4,2,0,25,1,0
19724.4,1000,4,2,0,25,1,0
19725.6,1000,4,2,0,25,1,0
19726.7,1000,4,2,0,25,1,0
19727.8,1000,4,2,0,25,1,0
19728.9,1000,4,2,0,25,1,0
19730,1000,4,2,0,25,1,0
19731.1,1000,4,2,0,25,1,0
19732.2,1000,4,2,0,25,1,0
19733.3,1000,4,2,0,25,1,0
19734.4,1000,4,2,0,25,1,0
19735.6,1000,4,2,0,25,1,0
19736.7,1000,4,2,0,25,1,0
19737.8,1000,4,2,0,25,1,0
19738.9,1000,4,2,0,25,1,0
19740,1000,4,2,0,25,1,0
19741.1,1000,4,2,0,25,1,0
19742.2,1000,4,2,0,25,1,0
19743.3,1000,4,2,0,25,1,0
19744.4,1000,4,2,0,25,1,0
19745.6,1000,4,2,0,25,1,0
19746.7,1000,4,2,0,25,1,0
19747.8,1000,4,2,0,25,1,0
19748.9,1000,4,2,0,25,1,0
19750,1000,4,2,0,25,1,0
19751.1,1000,4,2,0,25,1,0
19752.2,1000,4,2,0,25,1,0
19753.3,1000,4,2,0,25,1,0
19754.4,1000,4,2,0,25,1,0
19755.6,1000,4,2,0,25,1,0
19756.7,1000,4,2,0,25,1,0
19757.8,1000,4,2,0,25,1,0
19758.9,1000,4,2,0,25,1,0
19760,1000,4,2,0,25,1,0
19761.1,1000,4,2,0,25,1,0
19762.2,1000,4,2,0,25,1,0
19763.3,1000,4,2,0,25,1,0
19764.4,1000,4,2,0,25,1,0
19765.6,1000,4,2,0,25,1,0
19766.7,1000,4,2,0,25,1,0
19767.8,1000,4,2,0,25,1,0
19768.9,1000,4,2,0,25,1,0
19770,1000,4,2,0,25,1,0
19771.1,1000,4,2,0,25,1,0
19772.2,1000,4,2,0,25,1,0
19773.3,1000,4,2,0,25,1,0
19774.4,1000,4,2,0,25,1,0
19775.6,1000,4,2,0,25,1,0
19776.7,1000,4,2,0,25,1,0
19777.8,1000,4,2,0,25,1,0
19778.9,1000,4,2,0,25,1,0
19780,1000,4,2,0,25,1,0
19781.1,1000,4,2,0,25,1,0
19782.2,1000,4,2,0,25,1,0
19783.3,1000,4,2,0,25,1,0
19784.4,1000,4,2,0,25,1,0
19785.6,1000,4,2,0,25,1,0
19786.7,1000,4,2,0,25,1,0
19787.8,1000,4,2,0,25,1,0
19788.9,1000,4,2,0,25,1,0
19790,1000,4,2,0,25,1,0
19791.1,1000,4,2,0,25,1,0
19792.2,1000,4,2,0,25,1,0
19793.3,1000,4,2,0,25,1,0
19794.4,1000,4,2,0,25,1,0
19795.6,1000,4,2,0,25,1,0
19796.7,1000,4,2,0,25,1,0
19797.8,1000,4,2,0,25,1,0
19798.9,1000,4,2,0,25,1,0
19800,1000,4,2,0,25,1,0
19801.1,1000,4,2,0,25,1,0
19802.2,1000,4,2,0,25,1,0
19803.3,1000,4,2,0,25,1,0
19804.4,1000,4,2,0,25,1,0
19805.6,1000,4,2,0,25,1,0
19806.7,1000,4,2,0,25,1,0
19807.8,1000,4,2,0,25,1,0
19808.9,1000,4,2,0,25,1,0
19810,1000,4,2,0,25,1,0
19811.1,1000,4,2,0,25,1,0
19812.2,1000,4,2,0,25,1,0
19813.3,1000,4,2,0,25,1,0
19814.4,1000,4,2,0,25,1,0
19815.6,1000,4,2,0,25,1,0
19816.7,1000,4,2,0,25,1,0
19817.8,1000,4,2,0,25,1,0
19818.9,1000,4,2,0,25,1,0
19820,1000,4,2,0,25,1,0
19821.1,1000,4,2,0,25,1,0
19822.2,1000,4,2,0,25,1,0
19823.3,1000,4,2,0,25,1,0
19824.4,1000,4,2,0,25,1,0
19825.6,1000,4,2,0,25,1,0
19826.7,1000,4,2,0,25,1,0
19827.8,1000,4,2,0,25,1,0
19828.9,1000,4,2,0,25,1,0
19830,1000,4,2,0,25,1,0
19831.1,1000,4,2,0,25,1,0
19832.2,1000,4,2,0,25,1,0
19833.3,1000,4,2,0,25,1,0
19834.4,1000,4,2,0,25,1,0
19835.6,1000,4,2,0,25,1,0
19836.7,1000,4,2,0,25,1,0
19837.8,1000,4,2,0,25,1,0
19838.9,1000,4,2,0,25,1,0
19840,1000,4,2,0,25,1,0
19841.1,1000,4,2,0,25,1,0
19842.2,1000,4,2,0,25,1,0
19843.3,1000,4,2,0,25,1,0
19844.4,1000,4,2,0,25,1,0
19845.6,1000,4,2,0,25,1,0
19846.7,1000,4,2,0,25,1,0
19847.8,1000,4,2,0,25,1,0
19848.9,1000,4,2,0,25,1,0
19850,1000,4,2,0,25,1,0
19851.1,1000,4,2,0,25,1,0
19852.2,1000,4,2,0,25,1,0
19853.3,1000,4,2,0,25,1,0
19854.4,1000,4,2,0,25,1,0
19855.6,1000,4,2,0,25,1,0
19856.7,1000,4,2,0,25,1,0
19857.8,1000,4,2,0,25,1,0
19858.9,1000,4,2,0,25,1,0
19860,1000,4,2,0,25,1,0
19861.1,1000,4,2,0,25,1,0
19862.2,1000,4,2,0,25,1,0
19863.3,1000,4,2,0,25,1,0
19864.4,1000,4,2,0,25,1,0
19865.6,1000,4,2,0,25,1,0
19866.7,1000,4,2,0,25,1,0
19867.8,1000,4,2,0,25,1,0
19868.9,1000,4,2,0,25,1,0
19870,1000,4,2,0,25,1,0
19871.1,1000,4,2,0,25,1,0
19872.2,1000,4,2,0,25,1,0
19873.3,1000,4,2,0,25,1,0
19874.4,1000,4,2,0,25,1,0
19875.6,1000,4,2,0,25,1,0
19876.7,1000,4,2,0,25,1,0
19877.8,1000,4,2,0,25,1,0
19878.9,1000,4,2,0,25,1,0
19880,1000,4,2,0,25,1,0
19881.1,1000,4,2,0,25,1,0
19882.2,1000,4,2,0,25,1,0
19883.3,1000,4,2,0,25,1,0
19884.4,1000,4,2,0,25,1,0
19885.6,1000,4,2,0,25,1,0
19886.7,1000,4,2,0,25,1,0
19887.8,1000,4,2,0,25,1,0
19888.9,1000,4,2,0,25,1,0
19890,1000,4,2,0,25,1,0
19891.1,1000,4,2,0,25,1,0
19892.2,1000,4,2,0,25,1,0
19893.3,1000,4,2,0,25,1,0
19894.4,1000,4,2,0,25,1,0
19895.6,1000,4,2,0,25,1,0
19896.7,1000,4,2,0,25,1,0
19897.8,1000,4,2,0,25,1,0
19898.9,1000,4,2,0,25,1,0
19900,1000,4,2,0,25,1,0
19901.1,1000,4,2,0,25,1,0
19902.2,1000,4,2,0,25,1,0
19903.3,1000,4,2,0,25,1,0
19904.4,1000,4,2,0,25,1,0
19905.6,1000,4,2,0,25,1,0
19906.7,1000,4,2,0,25,1,0
19907.8,1000,4,2,0,25,1,0
19908.9,1000,4,2,0,25,1,0
19910,1000,4,2,0,25,1,0
19911.1,1000,4,2,0,25,1,0
19912.2,1000,4,2,0,25,1,0
19913.3,1000,4,2,0,25,1,0
19914.4,1000,4,2,0,25,1,0
19915.6,1000,4,2,0,25,1,0
19916.7,1000,4,2,0,25,1,0
19917.8,1000,4,2,0,25,1,0
19918.9,1000,4,2,0,25,1,0
19920,1000,4,2,0,25,1,0
19921.1,1000,4,2,0,25,1,0
19922.2,1000,4,2,0,25,1,0
19923.3,1000,4,2,0,25,1,0
19924.4,1000,4,2,0,25,1,0
19925.6,1000,4,2,0,25,1,0
19926.7,1000,4,2,0,25,1,0
19927.8,1000,4,2,0,25,1,0
19928.9,1000,4,2,0,25,1,0
19930,1000,4,2,0,25,1,0
19931.1,1000,4,2,0,25,1,0
19932.2,1000,4,2,0,25,1,0
19933.3,1000,4,2,0,25,1,0
19934.4,1000,4,2,0,25,1,0
19935.6,1000,4,2,0,25,1,0
19936.7,1000,4,2,0,25,1,0
19937.8,1000,4,2,0,25,1,0
19938.9,1000,4,2,0,25,1,0
19940,1000,4,2,0,25,1,0
19941.1,1000,4,2,0,25,1,0
19942.2,1000,4,2,0,25,1,0
19943.3,1000,4,2,0,25,1,0
19944.4,1000,4,2,0,25,1,0
19945.6,1000,4,2,0,25,1,0
19946.7,1000,4,2,0,25,1,0
19947.8,1000,4,2,0,25,1,0
19948.9,1000,4,2,0,25,1,0
19950,1000,4,2,0,25,1,0
19951.1,1000,4,2,0,25,1,0
19952.2,1000,4,2,0,25,1,0
19953.3,1000,4,2,0,25,1,0
19954.4,1000,4,2,0,25,1,0
19955.6,1000,4,2,0,25,1,0
19956.7,1000,4,2,0,25,1,0
19957.8,1000,4,2,0,25,1,0
19958.9,1000,4,2,0,25,1,0
19960,1000,4,2,0,25,1,0
19961.1,1000,4,2,0,25,1,0
19962.2,1000,4,2,0,25,1,0
19963.3,1000,4,2,0,25,1,0
19964.4,1000,4,2,0,25,1,0
19965.6,1000,4,2,0,25,1,0
19966.7,1000,4,2,0,25,1,0
19967.8,1000,4,2,0,25,1,0
19968.9,1000,4,2,0,25,1,0
19970,1000,4,2,0,25,1,0
19971.1,1000,4,2,0,25,1,0
19972.2,1000,4,2,0,25,1,0
19973.3,1000,4,2,0,25,1,0
19974.4,1000,4,2,0,25,1,0
19975.6,1000,4,2,0,25,1,0
19976.7,1000,4,2,0,25,1,0
19977.8,1000,4,2,0,25,1,0
19978.9,1000,4,2,0,25,1,0
19980,1000,4,2,0,25,1,0
19981.1,1000,4,2,0,25,1,0
19982.2,1000,4,2,0,25,1,0
19983.3,1000,4,2,0,25,1,0
19984.4,1000,4,2,0,25,1,0
19985.6,1000,4,2,0,25,1,0
19986.7,1000,4,2,0,25,1,0
19987.8,1000,4,2,0,25,1,0
19988.9,1000,4,2,0,25,1,0
19990,1000,4,2,0,25,1,0
19991.1,1000,4,2,0,25,1,0
19992.2,1000,4,2,0,25,1,0
19993.3,1000,4,2,0,25,1,0
19994.4,1000,4,2,0,25,1,0
19995.6,1000,4,2,0,25,1,0
19996.7,1000,4,2,0,25,1,0
19997.8,1000,4,2,0,25,1,0
19998.9,1000,4,2,0,25,1,0
20000,1000,4,2,0,25,1,0
20001.1,1000,4,2,0,25,1,0
20002.2,1000,4,2,0,25,1,0
20003.3,1000,4,2,0,25,1,0
20004.4,1000,4,2,0,25,1,0
20005.6,1000,4,2,0,25,1,0
20006.7,1000,4,2,0,25,1,0
20007.8,1000,4,2,0,25,1,0
20008.9,1000,4,2,0,25,1,0
20010,1000,4,2,0,25,1,0
20510,1000,4,2,0,25,1,0
20511.1,1000,4,2,0,25,1,0
20512.2,1000,4,2,0,25,1,0
20513.3,1000,4,2,0,25,1,0
20514.4,1000,4,2,0,25,1,0
20515.6,1000,4,2,0,25,1,0
20516.7,1000,4,2,0,25,1,0
20517.8,1000,4,2,0,25,1,0
20518.9,1000,4,2,0,25,1,0
20520,1000,4,2,0,25,1,0
20521.1,1000,4,2,0,25,1,0
20522.2,1000,4,2,0,25,1,0
20523.3,1000,4,2,0,25,1,0
20524.4,1000,4,2,0,25,1,0
20525.6,1000,4,2,0,25,1,0
20526.7,1000,4,2,0,25,1,0
20527.8,1000,4,2,0,25,1,0
20528.9,1000,4,2,0,25,1,0
20530,1000,4,2,0,25,1,0
20531.1,1000,4,2,0,25,1,0
20532.2,1000,4,2,0,25,1,0
20533.3,1000,4,2,0,25,1,0
20534.4,1000,4,2,0,25,1,0
20535.6,1000,4,2,0,25,1,0
20536.7,1000,4,2,0,25,1,0
20537.8,1000,4,2,0,25,1,0
20538.9,1000,4,2,0,25,1,0
20540,1000,4,2,0,25,1,0
20541.1,1000,4,2,0,25,1,0
20542.2,1000,4,2,0,25,1,0
20543.3,1000,4,2,0,25,1,0
20544.4,1000,4,2,0,25,1,0
20545.6,1000,4,2,0,25,1,0
20546.7,1000,4,2,0,25,1,0
20547.8,1000,4,2,0,25,1,0
20548.9,1000,4,2,0,25,1,0
20550,1000,4,2,0,25,1,0
20551.1,1000,4,2,0,25,1,0
20552.2,1000,4,2,0,25,1,0
20553.3,1000,4,2,0,25,1,0
20554.4,1000,4,2,0,25,1,0
20555.6,1000,4,2,0,25,1,0
20556.7,1000,4,2,0,25,1,0
20557.8,1000,4,2,0,25,1,0
20558.9,1000,4,2,0,25,1,0
20560,1000,4,2,0,25,1,0
20561.1,1000,4,2,0,25,1,0
20562.2,1000,4,2,0,25,1,0
20563.3,1000,4,2,0,25,1,0
20564.4,1000,4,2,0,25,1,0
20565.6,1000,4,2,0,25,1,0
20566.7,1000,4,2,0,25,1,0
20567.8,1000,4,2,0,25,1,0
20568.9,1000,4,2,0,25,1,0
20570,1000,4,2,0,25,1,0
20571.1,1000,4,2,0,25,1,0
20572.2,1000,4,2,0,25,1,0
20573.3,1000,4,2,0,25,1,0
20574.4,1000,4,2,0,25,1,0
20575.6,1000,4,2,0,25,1,0
20576.7,1000,4,2,0,25,1,0
20577.8,1000,4,2,0,25,1,0
20578.9,1000,4,2,0,25,1,0
20580,1000,4,2,0,25,1,0
20581.1,1000,4,2,0,25,1,0
20582.2,1000,4,2,0,25,1,0
20583.3,1000,4,2,0,25,1,0
20584.4,1000,4,2,0,25,1,0
20585.6,1000,4,2,0,25,1,0
20586.7,1000,4,2,0,25,1,0
20587.8,1000,4,2,0,25,1,0
20588.9,1000,4,2,0,25,1,0
20590,1000,4,2,0,25,1,0
20591.1,1000,4,2,0,25,1,0
20592.2,1000,4,2,0,25,1,0
20593.3,1000,4,2,0,25,1,0
20594.4,1000,4,2,0,25,1,0
20595.6,1000,4,2,0,25,1,0
20596.7,1000,4,2,0,25,1,0
20597.8,1000,4,2,0,25,1,0
20598.9,1000,4,2,0,25,1,0
20600,1000,4,2,0,25,1,0
20601.1,1000,4,2,0,25,1,0
20602.2,1000,4,2,0,25,1,0
20603.3,1000,4,2,0,25,1,0
20604.4,1000,4,2,0,25,1,0
20605.6,1000,4,2,0,25,1,0
20606.7,1000,4,2,0,25,1,0
20607.8,1000,4,2,0,25,1,0
20608.9,1000,4,2,0,25,1,0
20610,1000,4,2,0,25,1,0
20611.1,1000,4,2,0,25,1,0
20612.2,1000,4,2,0,25,1,0
20613.3,1000,4,2,0,25,1,0
20614.4,1000,4,2,0,25,1,0
20615.6,1000,4,2,0,25,1,0
20616.7,1000,4,2,0,25,1,0
20617.8,1000,4,2,0,25,1,0
20618.9,1000,4,2,0,25,1,0
20620,1000,4,2,0,25,1,0
20621.1,1000,4,2,0,25,1,0
20622.2,1000,4,2,0,25,1,0
20623.3,1000,4,2,0,25,1,0
20624.4,1000,4,2,0,25,1,0
20625.6,1000,4,2,0,25,1,0
20626.7,1000,4,2,0,25,1,0
20627.8,1000,4,2,0,25,1,0
20628.9,1000,4,2,0,25,1,0
20630,1000,4,2,0,25,1,0
20631.1,1000,4,2,0,25,1,0
20632.2,1000,4,2,0,25,1,0
20633.3,1000,4,2,0,25,1,0
20634.4,1000,4,2,0,25,1,0
20635.6,1000,4,2,0,25,1,0
20636.7,1000,4,2,0,25,1,0
20637.8,1000,4,2,0,25,1,0
20638.9,1000,4,2,0,25,1,0
20640,1000,4,2,0,25,1,0
20641.1,1000,4,2,0,25,1,0
20642.2,1000,4,2,0,25,1,0
20643.3,1000,4,2,0,25,1,0
20644.4,1000,4,2,0,25,1,0
20645.6,1000,4,2,0,25,1,0
20646.7,1000,4,2,0,25,1,0
20647.8,1000,4,2,0,25,1,0
20648.9,1000,4,2,0,25,1,0
20650,1000,4,2,0,25,1,0
20651.1,1000,4,2,0,25,1,0
20652.2,1000,4,2,0,25,1,0
20653.3,1000,4,2,0,25,1,0
20654.4,1000,4,2,0,25,1,0
20655.6,1000,4,2,0,25,1,0
20656.7,1000,4,2,0,25,1,0
20657.8,1000,4,2,0,25,1,0
20658.9,1000,4,2,0,25,1,0
20660,1000,4,2,0,25,1,0
20661.1,1000,4,2,0,25,1,0
20662.2,1000,4,2,0,25,1,0
20663.3,1000,4,2,0,25,1,0
20664.4,1000,4,2,0,25,1,0
20665.6,1000,4,2,0,25,1,0
20666.7,1000,4,2,0,25,1,0
20667.8,1000,4,2,0,25,1,0
20668.9,1000,4,2,0,25,1,0
20670,1000,4,2,0,25,1,0
20671.1,1000,4,2,0,25,1,0
20672.2,1000,4,2,0,25,1,0
20673.3,1000,4,2,0,25,1,0
20674.4,1000,4,2,0,25,1,0
20675.6,1000,4,2,0,25,1,0
20676.7,1000,4,2,0,25,1,0
20677.8,1000,4,2,0,25,1,0
20678.9,1000,4,2,0,25,1,0
20680,1000,4,2,0,25,1,0
20681.1,1000,4,2,0,25,1,0
20682.2,1000,4,2,0,25,1,0
20683.3,1000,4,2,0,25,1,0
20684.4,1000,4,2,0,25,1,0
20685.6,1000,4,2,0,25,1,0
20686.7,1000,4,2,0,25,1,0
20687.8,1000,4,2,0,25,1,0
20688.9,1000,4,2,0,25,1,0
20690,1000,4,2,0,25,1,0
20691.1,1000,4,2,0,25,1,0
20692.2,1000,4,2,0,25,1,0
20693.3,1000,4,2,0,25,1,0
20694.4,1000,4,2,0,25,1,0
20695.6,1000,4,2,0,25,1,0
20696.7,1000,4,2,0,25,1,0
20697.8,1000,4,2,0,25,1,0
20698.9,1000,4,2,0,25,1,0
20700,1000,4,2,0,25,1,0
20701.1,1000,4,2,0,25,1,0
20702.2,1000,4,2,0,25,1,0
20703.3,1000,4,2,0,25,1,0
20704.4,1000,4,2,0,25,1,0
20705.6,1000,4,2,0,25,1,0
20706.7,1000,4,2,0,25,1,0
20707.8,1000,4,2,0,25,1,0
20708.9,1000,4,2,0,25,1,0
20710,1000,4,2,0,25,1,0
20711.1,1000,4,2,0,25,1,0
20712.2,1000,4,2,0,25,1,0
20713.3,1000,4,2,0,25,1,0
20714.4,1000,4,2,0,25,1,0
20715.6,1000,4,2,0,25,1,0
20716.7,1000,4,2,0,25,1,0
20717.8,1000,4,2,0,25,1,0
20718.9,1000,4,2,0,25,1,0
20720,1000,4,2,0,25,1,0
20721.1,1000,4,2,0,25,1,0
20722.2,1000,4,2,0,25,1,0
20723.3,1000,4,2,0,25,1,0
20724.4,1000,4,2,0,25,1,0
20725.6,1000,4,2,0,25,1,0
20726.7,1000,4,2,0,25,1,0
20727.8,1000,4,2,0,25,1,0
20728.9,1000,4,2,0,25,1,0
20730,1000,4,2,0,25,1,0
20731.1,1000,4,2,0,25,1,0
20732.2,1000,4,2,0,25,1,0
20733.3,1000,4,2,0,25,1,0
20734.4,1000,4,2,0,25,1,0
20735.6,1000,4,2,0,25,1,0
20736.7,1000,4,2,0,25,1,0
20737.8,1000,4,2,0,25,1,0
20738.9,1000,4,2,0,25,1,0
20740,1000,4,2,0,25,1,0
20741.1,1000,4,2,0,25,1,0
20742.2,1000,4,2,0,25,1,0
20743.3,1000,4,2,0,25,1,0
20744.4,1000,4,2,0,25,1,0
20745.6,1000,4,2,0,25,1,0
20746.7,1000,4,2,0,25,1,0
20747.8,1000,4,2,0,25,1,0
20748.9,1000,4,2,0,25,1,0
20750,1000,4,2,0,25,1,0
20751.1,1000,4,2,0,25,1,0
20752.2,1000,4,2,0,25,1,0
20753.3,1000,4,2,0,25,1,0
20754.4,1000,4,2,0,25,1,0
20755.6,1000,4,2,0,25,1,0
20756.7,1000,4,2,0,25,1,0
20757.8,1000,4,2,0,25,1,0
20758.9,1000,4,2,0,25,1,0
20760,1000,4,2,0,25,1,0
20761.1,1000,4,2,0,25,1,0
20762.2,1000,4,2,0,25,1,0
20763.3,1000,4,2,0,25,1,0
20764.4,1000,4,2,0,25,1,0
20765.6,1000,4,2,0,25,1,0
20766.7,1000,4,2,0,25,1,0
20767.8,1000,4,2,0,25,1,0
20768.9,1000,4,2,0,25,1,0
20770,1000,4,2,0,25,1,0
20771.1,1000,4,2,0,25,1,0
20772.2,1000,4,2,0,25,1,0
20773.3,1000,4,2,0,25,1,0
20774.4,1000,4,2,0,25,1,0
20775.6,1000,4,2,0,25,1,0
20776.7,1000,4,2,0,25,1,0
20777.8,1000,4,2,0,25,1,0
20778.9,1000,4,2,0,25,1,0
20780,1000,4,2,0,25,1,0
20781.1,1000,4,2,0,25,1,0
20782.2,1000,4,2,0,25,1,0
20783.3,1000,4,2,0,25,1,0
20784.4,1000,4,2,0,25,1,0
20785.6,1000,4,2,0,25,1,0
20786.7,1000,4,2,0,25,1,0
20787.8,1000,4,2,0,25,1,0
20788.9,1000,4,2,0,25,1,0
20790,1000,4,2,0,25,1,0
20791.1,1000,4,2,0,25,1,0
20792.2,1000,4,2,0,25,1,0
20793.3,1000,4,2,0,25,1,0
20794.4,1000,4,2,0,25,1,0
20795.6,1000,4,2,0,25,1,0
20796.7,1000,4,2,0,25,1,0
20797.8,1000,4,2,0,25,1,0
20798.9,1000,4,2,0,25,1,0
20800,1000,4,2,0,25,1,0
20801.1,1000,4,2,0,25,1,0
20802.2,1000,4,2,0,25,1,0
20803.3,1000,4,2,0,25,1,0
20804.4,1000,4,2,0,25,1,0
20805.6,1000,4,2,0,25,1,0
20806.7,1000,4,2,0,25,1,0
20807.8,1000,4,2,0,25,1,0
20808.9,1000,4,2,0,25,1,0
20810,1000,4,2,0,25,1,0
20811.1,1000,4,2,0,25,1,0
20812.2,1000,4,2,0,25,1,0
20813.3,1000,4,2,0,25,1,0
20814.4,1000,4,2,0,25,1,0
20815.6,1000,4,2,0,25,1,0
20816.7,1000,4,2,0,25,1,0
20817.8,1000,4,2,0,25,1,0
20818.9,1000,4,2,0,25,1,0
20820,1000,4,2,0,25,1,0
20821.1,1000,4,2,0,25,1,0
20822.2,1000,4,2,0,25,1,0
20823.3,1000,4,2,0,25,1,0
20824.4,1000,4,2,0,25,1,0
20825.6,1000,4,2,0,25,1,0
20826.7,1000,4,2,0,25,1,0
20827.8,1000,4,2,0,25,1,0
20828.9,1000,4,2,0,25,1,0
20830,1000,4,2,0,25,1,0
20831.1,1000,4,2,0,25,1,0
20832.2,1000,4,2,0,25,1,0
20833.3,1000,4,2,0,25,1,0
20834.4,1000,4,2,0,25,1,0
20835.6,1000,4,2,0,25,1,0
20836.7,1000,4,2,0,25,1,0
20837.8,1000,4,2,0,25,1,0
20838.9,1000,4,2,0,25,1,0
20840,1000,4,2,0,25,1,0
20841.1,1000,4,2,0,25,1,0
20842.2,1000,4,2,0,25,1,0
20843.3,1000,4,2,0,25,1,0
20844.4,1000,4,2,0,25,1,0
20845.6,1000,4,2,0,25,1,0
20846.7,1000,4,2,0,25,1,0
20847.8,1000,4,2,0,25,1,0
20848.9,1000,4,2,0,25,1,0
20850,1000,4,2,0,25,1,0
20851.1,1000,4,2,0,25,1,0
20852.2,1000,4,2,0,25,1,0
20853.3,1000,4,2,0,25,1,0
20854.4,1000,4,2,0,25,1,0
20855.6,1000,4,2,0,25,1,0
20856.7,1000,4,2,0,25,1,0
20857.8,1000,4,2,0,25,1,0
20858.9,1000,4,2,0,25,1,0
20860,1000,4,2,0,25,1,0
20861.1,1000,4,2,0,25,1,0
20862.2,1000,4,2,0,25,1,0
20863.3,1000,4,2,0,25,1,0
20864.4,1000,4,2,0,25,1,0
20865.6,1000,4,2,0,25,1,0
20866.7,1000,4,2,0,25,1,0
20867.8,1000,4,2,0,25,1,0
20868.9,1000,4,2,0,25,1,0
20870,1000,4,2,0,25,1,0
20871.1,1000,4,2,0,25,1,0
20872.2,1000,4,2,0,25,1,0
20873.3,1000,4,2,0,25,1,0
20874.4,1000,4,2,0,25,1,0
20875.6,1000,4,2,0,25,1,0
20876.7,1000,4,2,0,25,1,0
20877.8,1000,4,2,0,25,1,0
20878.9,1000,4,2,0,25,1,0
20880,1000,4,2,0,25,1,0
20881.1,1000,4,2,0,25,1,0
20882.2,1000,4,2,0,25,1,0
20883.3,1000,4,2,0,25,1,0
20884.4,1000,4,2,0,25,1,0
20885.6,1000,4,2,0,25,1,0
20886.7,1000,4,2,0,25,1,0
20887.8,1000,4,2,0,25,1,0
20888.9,1000,4,2,0,25,1,0
20890,1000,4,2,0,25,1,0
20891.1,1000,4,2,0,25,1,0
20892.2,1000,4,2,0,25,1,0
20893.3,1000,4,2,0,25,1,0
20894.4,1000,4,2,0,25,1,0
20895.6,1000,4,2,0,25,1,0
20896.7,1000,4,2,0,25,1,0
20897.8,1000,4,2,0,25,1,0
20898.9,1000,4,2,0,25,1,0
20900,1000,4,2,0,25,1,0
20901.1,1000,4,2,0,25,1,0
20902.2,1000,4,2,0,25,1,0
20903.3,1000,4,2,0,25,1,0
20904.4,1000,4,2,0,25,1,0
20905.6,1000,4,2,0,25,1,0
20906.7,1000,4,2,0,25,1,0
20907.8,1000,4,2,0,25,1,0
20908.9,1000,4,2,0,25,1,0
20910,1000,4,2,0,25,1,0
20911.1,1000,4,2,0,25,1,0
20912.2,1000,4,2,0,25,1,0
20913.3,1000,4,2,0,25,1,0
20914.4,1000,4,2,0,25,1,0
20915.6,1000,4,2,0,25,1,0
20916.7,1000,4,2,0,25,1,0
20917.8,1000,4,2,0,25,1,0
20918.9,1000,4,2,0,25,1,0
20920,1000,4,2,0,25,1,0
20921.1,1000,4,2,0,25,1,0
20922.2,1000,4,2,0,25,1,0
20923.3,1000,4,2,0,25,1,0
20924.4,1000,4,2,0,25,1,0
20925.6,1000,4,2,0,25,1,0
20926.7,1000,4,2,0,25,1,0
20927.8,1000,4,2,0,25,1,0
20928.9,1000,4,2,0,25,1,0
20930,1000,4,2,0,25,1,0
20931.1,1000,4,2,0,25,1,0
20932.2,1000,4,2,0,25,1,0
20933.3,1000,4,2,0,25,1,0
20934.4,1000,4,2,0,25,1,0
20935.6,1000,4,2,0,25,1,0
20936.7,1000,4,2,0,25,1,0
20937.8,1000,4,2,0,25,1,0
20938.9,1000,4,2,0,25,1,0
20940,1000,4,2,0,25,1,0
20941.1,1000,4,2,0,25,1,0
20942.2,1000,4,2,0,25,1,0
20943.3,1000,4,2,0,25,1,0
20944.4,1000,4,2,0,25,1,0
20945.6,1000,4,2,0,25,1,0
20946.7,1000,4,2,0,25,1,0
20947.8,1000,4,2,0,25,1,0
20948.9,1000,4,2,0,25,1,0
20950,1000,4,2,0,25,1,0
20951.1,1000,4,2,0,25,1,0
20952.2,1000,4,2,0,25,1,0
20953.3,1000,4,2,0,25,1,0
20954.4,1000,4,2,0,25,1,0
20955.6,1000,4,2,0,25,1,0
20956.7,1000,4,2,0,25,1,0
20957.8,1000,4,2,0,25,1,0
20958.9,1000,4,2,0,25,1,0
20960,1000,4,2,0,25,1,0
20961.1,1000,4,2,0,25,1,0
20962.2,1000,4,2,0,25,1,0
20963.3,1000,4,2,0,25,1,0
20964.4,1000,4,2,0,25,1,0
20965.6,1000,4,2,0,25,1,0
20966.7,1000,4,2,0,25,1,0
20967.8,1000,4,2,0,25,1,0
20968.9,1000,4,2,0,25,1,0
20970,1000,4,2,0,25,1,0
20971.1,1000,4,2,0,25,1,0
20972.2,1000,4,2,0,25,1,0
20973.3,1000,4,2,0,25,1,0
20974.4,1000,4,2,0,25,1,0
20975.6,1000,4,2,0,25,1,0
20976.7,1000,4,2,0,25,1,0
20977.8,1000,4,2,0,25,1,0
20978.9,1000,4,2,0,25,1,0
20980,1000,4,2,0,25,1,0
20981.1,1000,4,2,0,25,1,0
20982.2,1000,4,2,0,25,1,0
20983.3,1000,4,2,0,25,1,0
20984.4,1000,4,2,0,25,1,0
20985.6,1000,4,2,0,25,1,0
20986.7,1000,4,2,0,25,1,0
20987.8,1000,4,2,0,25,1,0
20988.9,1000,4,2,0,25,1,0
20990,1000,4,2,0,25,1,0
20991.1,1000,4,2,0,25,1,0
20992.2,1000,4,2,0,25,1,0
20993.3,1000,4,2,0,25,1,0
20994.4,1000,4,2,0,25,1,0
20995.6,1000,4,2,0,25,1,0
20996.7,1000,4,2,0,25,1,0
20997.8,1000,4,2,0,25,1,0
20998.9,1000,4,2,0,25,1,0
21000,1000,4,2,0,25,1,0
21001.1,1000,4,2,0,25,1,0
21002.2,1000,4,2,0,25,1,0
21003.3,1000,4,2,0,25,1,0
21004.4,1000,4,2,0,25,1,0
21005.6,1000,4,2,0,25,1,0
21006.7,1000,4,2,0,25,1,0
21007.8,1000,4,2,0,25,1,0
21008.9,1000,4,2,0,25,1,0
21010,1000,4,2,0,25,1,0
21510,1000,4,2,0,25,1,0
21511.1,1000,4,2,0,25,1,0
21512.2,1000,4,2,0,25,1,0
21513.3,1000,4,2,0,25,1,0
21514.4,1000,4,2,0,25,1,0
21515.6,1000,4,2,0,25,1,0
21516.7,1000,4,2,0,25,1,0
21517.8,1000,4,2,0,25,1,0
21518.9,1000,4,2,0,25,1,0
21520,1000,4,2,0,25,1,0
21521.1,1000,4,2,0,25,1,0
21522.2,1000,4,2,0,25,1,0
21523.3,1000,4,2,0,25,1,0
21524.4,1000,4,2,0,25,1,0
21525.6,1000,4,2,0,25,1,0
21526.7,1000,4,2,0,25,1,0
21527.8,1000,4,2,0,25,1,0
21528.9,1000,4,2,0,25,1,0
21530,1000,4,2,0,25,1,0
21531.1,1000,4,2,0,25,1,0
21532.2,1000,4,2,0,25,1,0
21533.3,1000,4,2,0,25,1,0
21534.4,1000,4,2,0,25,1,0
21535.6,1000,4,2,0,25,1,0
21536.7,1000,4,2,0,25,1,0
21537.8,1000,4,2,0,25,1,0
21538.9,1000,4,2,0,25,1,0
21540,1000,4,2,0,25,1,0
21541.1,1000,4,2,0,25,1,0
21542.2,1000,4,2,0,25,1,0
21543.3,1000,4,2,0,25,1,0
21544.4,1000,4,2,0,25,1,0
21545.6,1000,4,2,0,25,1,0
21546.7,1000,4,2,0,25,1,0
21547.8,1000,4,2,0,25,1,0
21548.9,1000,4,2,0,25,1,0
21550,1000,4,2,0,25,1,0
21551.1,1000,4,2,0,25,1,0
21552.2,1000,4,2,0,25,1,0
21553.3,1000,4,2,0,25,1,0
21554.4,1000,4,2,0,25,1,0
21555.6,1000,4,2,0,25,1,0
21556.7,1000,4,2,0,25,1,0
21557.8,1000,4,2,0,25,1,0
21558.9,1000,4,2,0,25,1,0
21560,1000,4,2,0,25,1,0
21561.1,1000,4,2,0,25,1,0
21562.2,1000,4,2,0,25,1,0
21563.3,1000,4,2,0,25,1,0
21564.4,1000,4,2,0,25,1,0
21565.6,1000,4,2,0,25,1,0
21566.7,1000,4,2,0,25,1,0
21567.8,1000,4,2,0,25,1,0
21568.9,1000,4,2,0,25,1,0
21570,1000,4,2,0,25,1,0
21571.1,1000,4,2,0,25,1,0
21572.2,1000,4,2,0,25,1,0
21573.3,1000,4,2,0,25,1,0
21574.4,1000,4,2,0,25,1,0
21575.6,1000,4,2,0,25,1,0
21576.7,1000,4,2,0,25,1,0
21577.8,1000,4,2,0,25,1,0
21578.9,1000,4,2,0,25,1,0
21580,1000,4,2,0,25,1,0
21581.1,1000,4,2,0,25,1,0
21582.2,1000,4,2,0,25,1,0
21583.3,1000,4,2,0,25,1,0
21584.4,1000,4,2,0,25,1,0
21585.6,1000,4,2,0,25,1,0
21586.7,1000,4,2,0,25,1,0
21587.8,1000,4,2,0,25,1,0
21588.9,1000,4,2,0,25,1,0
21590,1000,4,2,0,25,1,0
21591.1,1000,4,2,0,25,1,0
21592.2,1000,4,2,0,25,1,0
21593.3,1000,4,2,0,25,1,0
21594.4,1000,4,2,0,25,1,0
21595.6,1000,4,2,0,25,1,0
21596.7,1000,4,2,0,25,1,0
21597.8,1000,4,2,0,25,1,0
21598.9,1000,4,2,0,25,1,0
21600,1000,4,2,0,25,1,0
21601.1,1000,4,2,0,25,1,0
21602.2,1000,4,2,0,25,1,0
21603.3,1000,4,2,0,25,1,0
21604.4,1000,4,2,0,25,1,0
21605.6,1000,4,2,0,25,1,0
21606.7,1000,4,2,0,25,1,0
21607.8,1000,4,2,0,25,1,0
21608.9,1000,4,2,0,25,1,0
21610,1000,4,2,0,25,1,0
21611.1,1000,4,2,0,25,1,0
21612.2,1000,4,2,0,25,1,0
21613.3,1000,4,2,0,25,1,0
21614.4,1000,4,2,0,25,1,0
21615.6,1000,4,2,0,25,1,0
21616.7,1000,4,2,0,25,1,0
21617.8,1000,4,2,0,25,1,0
21618.9,1000,4,2,0,25,1,0
21620,1000,4,2,0,25,1,0
21621.1,1000,4,2,0,25,1,0
21622.2,1000,4,2,0,25,1,0
21623.3,1000,4,2,0,25,1,0
21624.4,1000,4,2,0,25,1,0
21625.6,1000,4,2,0,25,1,0
21626.7,1000,4,2,0,25,1,0
21627.8,1000,4,2,0,25,1,0
21628.9,1000,4,2,0,25,1,0
21630,1000,4,2,0,25,1,0
21631.1,1000,4,2,0,25,1,0
21632.2,1000,4,2,0,25,1,0
21633.3,1000,4,2,0,25,1,0
21634.4,1000,4,2,0,25,1,0
21635.6,1000,4,2,0,25,1,0
21636.7,1000,4,2,0,25,1,0
21637.8,1000,4,2,0,25,1,0
21638.9,1000,4,2,0,25,1,0
21640,1000,4,2,0,25,1,0
21641.1,1000,4,2,0,25,1,0
21642.2,1000,4,2,0,25,1,0
21643.3,1000,4,2,0,25,1,0
21644.4,1000,4,2,0,25,1,0
21645.6,1000,4,2,0,25,1,0
21646.7,1000,4,2,0,25,1,0
21647.8,1000,4,2,0,25,1,0
21648.9,1000,4,2,0,25,1,0
21650,1000,4,2,0,25,1,0
21651.1,1000,4,2,0,25,1,0
21652.2,1000,4,2,0,25,1,0
21653.3,1000,4,2,0,25,1,0
21654.4,1000,4,2,0,25,1,0
21655.6,1000,4,2,0,25,1,0
21656.7,1000,4,2,0,25,1,0
21657.8,1000,4,2,0,25,1,0
21658.9,1000,4,2,0,25,1,0
21660,1000,4,2,0,25,1,0
21661.1,1000,4,2,0,25,1,0
21662.2,1000,4,2,0,25,1,0
21663.3,1000,4,2,0,25,1,0
21664.4,1000,4,2,0,25,1,0
21665.6,1000,4,2,0,25,1,0
21666.7,1000,4,2,0,25,1,0
21667.8,1000,4,2,0,25,1,0
21668.9,1000,4,2,0,25,1,0
21670,1000,4,2,0,25,1,0
21671.1,1000,4,2,0,25,1,0
21672.2,1000,4,2,0,25,1,0
21673.3,1000,4,2,0,25,1,0
21674.4,1000,4,2,0,25,1,0
21675.6,1000,4,2,0,25,1,0
21676.7,1000,4,2,0,25,1,0
21677.8,1000,4,2,0,25,1,0
21678.9,1000,4,2,0,25,1,0
21680,1000,4,2,0,25,1,0
21681.1,1000,4,2,0,25,1,0
21682.2,1000,4,2,0,25,1,0
21683.3,1000,4,2,0,25,1,0
21684.4,1000,4,2,0,25,1,0
21685.6,1000,4,2,0,25,1,0
21686.7,1000,4,2,0,25,1,0
21687.8,1000,4,2,0,25,1,0
21688.9,1000,4,2,0,25,1,0
21690,1000,4,2,0,25,1,0
21691.1,1000,4,2,0,25,1,0
21692.2,1000,4,2,0,25,1,0
21693.3,1000,4,2,0,25,1,0
21694.4,1000,4,2,0,25,1,0
21695.6,1000,4,2,0,25,1,0
21696.7,1000,4,2,0,25,1,0
21697.8,1000,4,2,0,25,1,0
21698.9,1000,4,2,0,25,1,0
21700,1000,4,2,0,25,1,0
21701.1,1000,4,2,0,25,1,0
21702.2,1000,4,2,0,25,1,0
21703.3,1000,4,2,0,25,1,0
21704.4,1000,4,2,0,25,1,0
21705.6,1000,4,2,0,25,1,0
21706.7,1000,4,2,0,25,1,0
21707.8,1000,4,2,0,25,1,0
21708.9,1000,4,2,0,25,1,0
21710,1000,4,2,0,25,1,0
21711.1,1000,4,2,0,25,1,0
21712.2,1000,4,2,0,25,1,0
21713.3,1000,4,2,0,25,1,0
21714.4,1000,4,2,0,25,1,0
21715.6,1000,4,2,0,25,1,0
21716.7,1000,4,2,0,25,1,0
21717.8,1000,4,2,0,25,1,0
21718.9,1000,4,2,0,25,1,0
21720,1000,4,2,0,25,1,0
21721.1,1000,4,2,0,25,1,0
21722.2,1000,4,2,0,25,1,0
21723.3,1000,4,2,0,25,1,0
21724.4,1000,4,2,0,25,1,0
21725.6,1000,4,2,0,25,1,0
21726.7,1000,4,2,0,25,1,0
21727.8,1000,4,2,0,25,1,0
21728.9,1000,4,2,0,25,1,0
21730,1000,4,2,0,25,1,0
21731.1,1000,4,2,0,25,1,0
21732.2,1000,4,2,0,25,1,0
21733.3,1000,4,2,0,25,1,0
21734.4,1000,4,2,0,25,1,0
21735.6,1000,4,2,0,25,1,0
21736.7,1000,4,2,0,25,1,0
21737.8,1000,4,2,0,25,1,0
21738.9,1000,4,2,0,25,1,0
21740,1000,4,2,0,25,1,0
21741.1,1000,4,2,0,25,1,0
21742.2,1000,4,2,0,25,1,0
21743.3,1000,4,2,0,25,1,0
21744.4,1000,4,2,0,25,1,0
21745.6,1000,4,2,0,25,1,0
21746.7,1000,4,2,0,25,1,0
21747.8,1000,4,2,0,25,1,0
21748.9,1000,4,2,0,25,1,0
21750,1000,4,2,0,25,1,0
21751.1,1000,4,2,0,25,1,0
21752.2,1000,4,2,0,25,1,0
21753.3,1000,4,2,0,25,1,0
21754.4,1000,4,2,0,25,1,0
21755.6,1000,4,2,0,25,1,0
21756.7,1000,4,2,0,25,1,0
21757.8,1000,4,2,0,25,1,0
21758.9,1000,4,2,0,25,1,0
21760,1000,4,2,0,25,1,0
21761.1,1000,4,2,0,25,1,0
21762.2,1000,4,2,0,25,1,0
21763.3,1000,4,2,0,25,1,0
21764.4,1000,4,2,0,25,1,0
21765.6,1000,4,2,0,25,1,0
21766.7,1000,4,2,0,25,1,0
21767.8,1000,4,2,0,25,1,0
21768.9,1000,4,2,0,25,1,0
21770,1000,4,2,0,25,1,0
21771.1,1000,4,2,0,25,1,0
21772.2,1000,4,2,0,25,1,0
21773.3,1000,4,2,0,25,1,0
21774.4,1000,4,2,0,25,1,0
21775.6,1000,4,2,0,25,1,0
21776.7,1000,4,2,0,25,1,0
21777.8,1000,4,2,0,25,1,0
21778.9,1000,4,2,0,25,1,0
21780,1000,4,2,0,25,1,0
21781.1,1000,4,2,0,25,1,0
21782.2,1000,4,2,0,25,1,0
21783.3,1000,4,2,0,25,1,0
21784.4,1000,4,2,0,25,1,0
21785.6,1000,4,2,0,25,1,0
21786.7,1000,4,2,0,25,1,0
21787.8,1000,4,2,0,25,1,0
21788.9,1000,4,2,0,25,1,0
21790,1000,4,2,0,25,1,0
21791.1,1000,4,2,0,25,1,0
21792.2,1000,4,2,0,25,1,0
21793.3,1000,4,2,0,25,1,0
21794.4,1000,4,2,0,25,1,0
21795.6,1000,4,2,0,25,1,0
21796.7,1000,4,2,0,25,1,0
21797.8,1000,4,2,0,25,1,0
21798.9,1000,4,2,0,25,1,0
21800,1000,4,2,0,25,1,0
21801.1,1000,4,2,0,25,1,0
21802.2,1000,4,2,0,25,1,0
21803.3,1000,4,2,0,25,1,0
21804.4,1000,4,2,0,25,1,0
21805.6,1000,4,2,0,25,1,0
21806.7,1000,4,2,0,25,1,0
21807.8,1000,4,2,0,25,1,0
21808.9,1000,4,2,0,25,1,0
21810,1000,4,2,0,25,1,0
21811.1,1000,4,2,0,25,1,0
21812.2,1000,4,2,0,25,1,0
21813.3,1000,4,2,0,25,1,0
21814.4,1000,4,2,0,25,1,0
21815.6,1000,4,2,0,25,1,0
21816.7,1000,4,2,0,25,1,0
21817.8,1000,4,2,0,25,1,0
21818.9,1000,4,2,0,25,1,0
21820,1000,4,2,0,25,1,0
21821.1,1000,4,2,0,25,1,0
21822.2,1000,4,2,0,25,1,0
21823.3,1000,4,2,0,25,1,0
21824.4,1000,4,2,0,25,1,0
21825.6,1000,4,2,0,25,1,0
21826.7,1000,4,2,0,25,1,0
21827.8,1000,4,2,0,25,1,0
21828.9,1000,4,2,0,25,1,0
21830,1000,4,2,0,25,1,0
21831.1,1000,4,2,0,25,1,0
21832.2,1000,4,2,0,25,1,0
21833.3,1000,4,2,0,25,1,0
21834.4,1000,4,2,0,25,1,0
21835.6,1000,4,2,0,25,1,0
21836.7,1000,4,2,0,25,1,0
21837.8,1000,4,2,0,25,1,0
21838.9,1000,4,2,0,25,1,0
21840,1000,4,2,0,25,1,0
21841.1,1000,4,2,0,25,1,0
21842.2,1000,4,2,0,25,1,0
21843.3,1000,4,2,0,25,1,0
21844.4,1000,4,2,0,25,1,0
21845.6,1000,4,2,0,25,1,0
21846.7,1000,4,2,0,25,1,0
21847.8,1000,4,2,0,25,1,0
21848.9,1000,4,2,0,25,1,0
21850,1000,4,2,0,25,1,0
21851.1,1000,4,2,0,25,1,0
21852.2,1000,4,2,0,25,1,0
21853.3,1000,4,2,0,25,1,0
21854.4,1000,4,2,0,25,1,0
21855.6,1000,4,2,0,25,1,0
21856.7,1000,4,2,0,25,1,0
21857.8,1000,4,2,0,25,1,0
21858.9,1000,4,2,0,25,1,0
21860,1000,4,2,0,25,1,0
21861.1,1000,4,2,0,25,1,0
21862.2,1000,4,2,0,25,1,0
21863.3,1000,4,2,0,25,1,0
21864.4,1000,4,2,0,25,1,0
21865.6,1000,4,2,0,25,1,0
21866.7,1000,4,2,0,25,1,0
21867.8,1000,4,2,0,25,1,0
21868.9,1000,4,2,0,25,1,0
21870,1000,4,2,0,25,1,0
21871.1,1000,4,2,0,25,1,0
21872.2,1000,4,2,0,25,1,0
21873.3,1000,4,2,0,25,1,0
21874.4,1000,4,2,0,25,1,0
21875.6,1000,4,2,0,25,1,0
21876.7,1000,4,2,0,25,1,0
21877.8,1000,4,2,0,25,1,0
21878.9,1000,4,2,0,25,1,0
21880,1000,4,2,0,25,1,0
21881.1,1000,4,2,0,25,1,0
21882.2,1000,4,2,0,25,1,0
21883.3,1000,4,2,0,25,1,0
21884.4,1000,4,2,0,25,1,0
21885.6,1000,4,2,0,25,1,0
21886.7,1000,4,2,0,25,1,0
21887.8,1000,4,2,0,25,1,0
21888.9,1000,4,2,0,25,1,0
21890,1000,4,2,0,25,1,0
21891.1,1000,4,2,0,25,1,0
21892.2,1000,4,2,0,25,1,0
21893.3,1000,4,2,0,25,1,0
21894.4,1000,4,2,0,25,1,0
21895.6,1000,4,2,0,25,1,0
21896.7,1000,4,2,0,25,1,0
21897.8,1000,4,2,0,25,1,0
21898.9,1000,4,2,0,25,1,0
21900,1000,4,2,0,25,1,0
21901.1,1000,4,2,0,25,1,0
21902.2,1000,4,2,0,25,1,0
21903.3,1000,4,2,0,25,1,0
21904.4,1000,4,2,0,25,1,0
21905.6,1000,4,2,0,25,1,0
21906.7,1000,4,2,0,25,1,0
21907.8,1000,4,2,0,25,1,0
21908.9,1000,4,2,0,25,1,0
21910,1000,4,2,0,25,1,0
21911.1,1000,4,2,0,25,1,0
21912.2,1000,4,2,0,25,1,0
21913.3,1000,4,2,0,25,1,0
21914.4,1000,4,2,0,25,1,0
21915.6,1000,4,2,0,25,1,0
21916.7,1000,4,2,0,25,1,0
21917.8,1000,4,2,0,25,1,0
21918.9,1000,4,2,0,25,1,0
21920,1000,4,2,0,25,1,0
21921.1,1000,4,2,0,25,1,0
21922.2,1000,4,2,0,25,1,0
21923.3,1000,4,2,0,25,1,0
21924.4,1000,4,2,0,25,1,0
21925.6,1000,4,2,0,25,1,0
21926.7,1000,4,2,0,25,1,0
21927.8,1000,4,2,0,25,1,0
21928.9,1000,4,2,0,25,1,0
21930,1000,4,2,0,25,1,0
21931.1,1000,4,2,0,25,1,0
21932.2,1000,4,2,0,25,1,0
21933.3,1000,4,2,0,25,1,0
21934.4,1000,4,2,0,25,1,0
21935.6,1000,4,2,0,25,1,0
21936.7,1000,4,2,0,25,1,0
21937.8,1000,4,2,0,25,1,0
21938.9,1000,4,2,0,25,1,0
21940,1000,4,2,0,25,1,0
21941.1,1000,4,2,0,25,1,0
21942.2,1000,4,2,0,25,1,0
21943.3,1000,4,2,0,25,1,0
21944.4,1000,4,2,0,25,1,0
21945.6,1000,4,2,0,25,1,0
21946.7,1000,4,2,0,25,1,0
21947.8,1000,4,2,0,25,1,0
21948.9,1000,4,2,0,25,1,0
21950,1000,4,2,0,25,1,0
21951.1,1000,4,2,0,25,1,0
21952.2,1000,4,2,0,25,1,0
21953.3,1000,4,2,0,25,1,0
21954.4,1000,4,2,0,25,1,0
21955.6,1000,4,2,0,25,1,0
21956.7,1000,4,2,0,25,1,0
21957.8,1000,4,2,0,25,1,0
21958.9,1000,4,2,0,25,1,0
21960,1000,4,2,0,25,1,0
21961.1,1000,4,2,0,25,1,0
21962.2,1000,4,2,0,25,1,0
21963.3,1000,4,2,0,25,1,0
21964.4,1000,4,2,0,25,1,0
21965.6,1000,4,2,0,25,1,0
21966.7,1000,4,2,0,25,1,0
21967.8,1000,4,2,0,25,1,0
21968.9,1000,4,2,0,25,1,0
21970,1000,4,2,0,25,1,0
21971.1,1000,4,2,0,25,1,0
21972.2,1000,4,2,0,25,1,0
21973.3,1000,4,2,0,25,1,0
21974.4,1000,4,2,0,25,1,0
21975.6,1000,4,2,0,25,1,0
21976.7,1000,4,2,0,25,1,0
21977.8,1000,4,2,0,25,1,0
21978.9,1000,4,2,0,25,1,0
21980,1000,4,2,0,25,1,0
21981.1,1000,4,2,0,25,1,0
21982.2,1000,4,2,0,25,1,0
21983.3,1000,4,2,0,25,1,0
21984.4,1000,4,2,0,25,1,0
21985.6,1000,4,2,0,25,1,0
21986.7,1000,4,2,0,25,1,0
21987.8,1000,4,2,0,25,1,0
21988.9,1000,4,2,0,25,1,0
21990,1000,4,2,0,25,1,0
21991.1,1000,4,2,0,25,1,0
21992.2,1000,4,2,0,25,1,0
21993.3,1000,4,2,0,25,1,0
21994.4,1000,4,2,0,25,1,0
21995.6,1000,4,2,0,25,1,0
21996.7,1000,4,2,0,25,1,0
21997.8,1000,4,2,0,25,1,0
21998.9,1000,4,2,0,25,1,0
22000,1000,4,2,0,25,1,0
22001.1,1000,4,2,0,25,1,0
22002.2,1000,4,2,0,25,1,0
22003.3,1000,4,2,0,25,1,0
22004.4,1000,4,2,0,25,1,0
22005.6,1000,4,2,0,25,1,0
22006.7,1000,4,2,0,25,1,0
22007.8,1000,4,2,0,25,1,0
22008.9,1000,4,2,0,25,1,0
22010,1000,4,2,0,25,1,0
22510,1000,4,2,0,25,1,0
22511.1,1000,4,2,0,25,1,0
22512.2,1000,4,2,0,25,1,0
22513.3,1000,4,2,0,25,1,0
22514.4,1000,4,2,0,25,1,0
22515.6,1000,4,2,0,25,1,0
22516.7,1000,4,2,0,25,1,0
22517.8,1000,4,2,0,25,1,0
22518.9,1000,4,2,0,25,1,0
22520,1000,4,2,0,25,1,0
22521.1,1000,4,2,0,25,1,0
22522.2,1000,4,2,0,25,1,0
22523.3,1000,4,2,0,25,1,0
22524.4,1000,4,2,0,25,1,0
22525.6,1000,4,2,0,25,1,0
22526.7,1000,4,2,0,25,1,0
22527.8,1000,4,2,0,25,1,0
22528.9,1000,4,2,0,25,1,0
22530,1000,4,2,0,25,1,0
22531.1,1000,4,2,0,25,1,0
22532.2,1000,4,2,0,25,1,0
22533.3,1000,4,2,0,25,1,0
22534.4,1000,4,2,0,25,1,0
22535.6,1000,4,2,0,25,1,0
22536.7,1000,4,2,0,25,1,0
22537.8,1000,4,2,0,25,1,0
22538.9,1000,4,2,0,25,1,0
22540,1000,4,2,0,25,1,0
22541.1,1000,4,2,0,25,1,0
22542.2,1000,4,2,0,25,1,0
22543.3,1000,4,2,0,25,1,0
22544.4,1000,4,2,0,25,1,0
22545.6,1000,4,2,0,25,1,0
22546.7,1000,4,2,0,25,1,0
22547.8,1000,4,2,0,25,1,0
22548.9,1000,4,2,0,25,1,0
22550,1000,4,2,0,25,1,0
22551.1,1000,4,2,0,25,1,0
22552.2,1000,4,2,0,25,1,0
22553.3,1000,4,2,0,25,1,0
22554.4,1000,4,2,0,25,1,0
22555.6,1000,4,2,0,25,1,0
22556.7,1000,4,2,0,25,1,0
22557.8,1000,4,2,0,25,1,0
22558.9,1000,4,2,0,25,1,0
22560,1000,4,2,0,25,1,0
22561.1,1000,4,2,0,25,1,0
22562.2,1000,4,2,0,25,1,0
22563.3,1000,4,2,0,25,1,0
22564.4,1000,4,2,0,25,1,0
22565.6,1000,4,2,0,25,1,0
22566.7,1000,4,2,0,25,1,0
22567.8,1000,4,2,0,25,1,0
22568.9,1000,4,2,0,25,1,0
22570,1000,4,2,0,25,1,0
22571.1,1000,4,2,0,25,1,0
22572.2,1000,4,2,0,25,1,0
22573.3,1000,4,2,0,25,1,0
22574.4,1000,4,2,0,25,1,0
22575.6,1000,4,2,0,25,1,0
22576.7,1000,4,2,0,25,1,0
22577.8,1000,4,2,0,25,1,0
22578.9,1000,4,2,0,25,1,0
22580,1000,4,2,0,25,1,0
22581.1,1000,4,2,0,25,1,0
22582.2,1000,4,2,0,25,1,0
22583.3,1000,4,2,0,25,1,0
22584.4,1000,4,2,0,25,1,0
22585.6,1000,4,2,0,25,1,0
22586.7,1000,4,2,0,25,1,0
22587.8,1000,4,2,0,25,1,0
22588.9,1000,4,2,0,25,1,0
22590,1000,4,2,0,25,1,0
22591.1,1000,4,2,0,25,1,0
22592.2,1000,4,2,0,25,1,0
22593.3,1000,4,2,0,25,1,0
22594.4,1000,4,2,0,25,1,0
22595.6,1000,4,2,0,25,1,0
22596.7,1000,4,2,0,25,1,0
22597.8,1000,4,2,0,25,1,0
22598.9,1000,4,2,0,25,1,0
22600,1000,4,2,0,25,1,0
22601.1,1000,4,2,0,25,1,0
22602.2,1000,4,2,0,25,1,0
22603.3,1000,4,2,0,25,1,0
22604.4,1000,4,2,0,25,1,0
22605.6,1000,4,2,0,25,1,0
22606.7,1000,4,2,0,25,1,0
22607.8,1000,4,2,0,25,1,0
22608.9,1000,4,2,0,25,1,0
22610,1000,4,2,0,25,1,0
22611.1,1000,4,2,0,25,1,0
22612.2,1000,4,2,0,25,1,0
22613.3,1000,4,2,0,25,1,0
22614.4,1000,4,2,0,25,1,0
22615.6,1000,4,2,0,25,1,0
22616.7,1000,4,2,0,25,1,0
22617.8,1000,4,2,0,25,1,0
22618.9,1000,4,2,0,25,1,0
22620,1000,4,2,0,25,1,0
22621.1,1000,4,2,0,25,1,0
22622.2,1000,4,2,0,25,1,0
22623.3,1000,4,2,0,25,1,0
22624.4,1000,4,2,0,25,1,0
22625.6,1000,4,2,0,25,1,0
22626.7,1000,4,2,0,25,1,0
22627.8,1000,4,2,0,25,1,0
22628.9,1000,4,2,0,25,1,0
22630,1000,4,2,0,25,1,0
22631.1,1000,4,2,0,25,1,0
22632.2,1000,4,2,0,25,1,0
22633.3,1000,4,2,0,25,1,0
22634.4,1000,4,2,0,25,1,0
22635.6,1000,4,2,0,25,1,0
22636.7,1000,4,2,0,25,1,0
22637.8,1000,4,2,0,25,1,0
22638.9,1000,4,2,0,25,1,0
22640,1000,4,2,0,25,1,0
22641.1,1000,4,2,0,25,1,0
22642.2,1000,4,2,0,25,1,0
22643.3,1000,4,2,0,25,1,0
22644.4,1000,4,2,0,25,1,0
22645.6,1000,4,2,0,25,1,0
22646.7,1000,4,2,0,25,1,0
22647.8,1000,4,2,0,25,1,0
22648.9,1000,4,2,0,25,1,0
22650,1000,4,2,0,25,1,0
22651.1,1000,4,2,0,25,1,0
22652.2,1000,4,2,0,25,1,0
22653.3,1000,4,2,0,25,1,0
22654.4,1000,4,2,0,25,1,0
22655.6,1000,4,2,0,25,1,0
22656.7,1000,4,2,0,25,1,0
22657.8,1000,4,2,0,25,1,0
22658.9,1000,4,2,0,25,1,0
22660,1000,4,2,0,25,1,0
22661.1,1000,4,2,0,25,1,0
22662.2,1000,4,2,0,25,1,0
22663.3,1000,4,2,0,25,1,0
22664.4,1000,4,2,0,25,1,0
22665.6,1000,4,2,0,25,1,0
22666.7,1000,4,2,0,25,1,0
22667.8,1000,4,2,0,25,1,0
22668.9,1000,4,2,0,25,1,0
22670,1000,4,2,0,25,1,0
22671.1,1000,4,2,0,25,1,0
22672.2,1000,4,2,0,25,1,0
22673.3,1000,4,2,0,25,1,0
22674.4,1000,4,2,0,25,1,0
22675.6,1000,4,2,0,25,1,0
22676.7,1000,4,2,0,25,1,0
22677.8,1000,4,2,0,25,1,0
22678.9,1000,4,2,0,25,1,0
22680,1000,4,2,0,25,1,0
22681.1,1000,4,2,0,25,1,0
22682.2,1000,4,2,0,25,1,0
22683.3,1000,4,2,0,25,1,0
22684.4,1000,4,2,0,25,1,0
22685.6,1000,4,2,0,25,1,0
22686.7,1000,4,2,0,25,1,0
22687.8,1000,4,2,0,25,1,0
22688.9,1000,4,2,0,25,1,0
22690,1000,4,2,0,25,1,0
22691.1,1000,4,2,0,25,1,0
22692.2,1000,4,2,0,25,1,0
22693.3,1000,4,2,0,25,1,0
22694.4,1000,4,2,0,25,1,0
22695.6,1000,4,2,0,25,1,0
22696.7,1000,4,2,0,25,1,0
22697.8,1000,4,2,0,25,1,0
22698.9,1000,4,2,0,25,1,0
22700,1000,4,2,0,25,1,0
22701.1,1000,4,2,0,25,1,0
22702.2,1000,4,2,0,25,1,0
22703.3,1000,4,2,0,25,1,0
22704.4,1000,4,2,0,25,1,0
22705.6,1000,4,2,0,25,1,0
22706.7,1000,4,2,0,25,1,0
22707.8,1000,4,2,0,25,1,0
22708.9,1000,4,2,0,25,1,0
22710,1000,4,2,0,25,1,0
22711.1,1000,4,2,0,25,1,0
22712.2,1000,4,2,0,25,1,0
22713.3,1000,4,2,0,25,1,0
22714.4,1000,4,2,0,25,1,0
22715.6,1000,4,2,0,25,1,0
22716.7,1000,4,2,0,25,1,0
22717.8,1000,4,2,0,25,1,0
22718.9,1000,4,2,0,25,1,0
22720,1000,4,2,0,25,1,0
22721.1,1000,4,2,0,25,1,0
22722.2,1000,4,2,0,25,1,0
22723.3,1000,4,2,0,25,1,0
22724.4,1000,4,2,0,25,1,0
22725.6,1000,4,2,0,25,1,0
22726.7,1000,4,2,0,25,1,0
22727.8,1000,4,2,0,25,1,0
22728.9,1000,4,2,0,25,1,0
22730,1000,4,2,0,25,1,0
22731.1,1000,4,2,0,25,1,0
22732.2,1000,4,2,0,25,1,0
22733.3,1000,4,2,0,25,1,0
22734.4,1000,4,2,0,25,1,0
22735.6,1000,4,2,0,25,1,0
22736.7,1000,4,2,0,25,1,0
22737.8,1000,4,2,0,25,1,0
22738.9,1000,4,2,0,25,1,0
22740,1000,4,2,0,25,1,0
22741.1,1000,4,2,0,25,1,0
22742.2,1000,4,2,0,25,1,0
22743.3,1000,4,2,0,25,1,0
22744.4,1000,4,2,0,25,1,0
22745.6,1000,4,2,0,25,1,0
22746.7,1000,4,2,0,25,1,0
22747.8,1000,4,2,0,25,1,0
22748.9,1000,4,2,0,25,1,0
22750,1000,4,2,0,25,1,0
22751.1,1000,4,2,0,25,1,0
22752.2,1000,4,2,0,25,1,0
22753.3,1000,4,2,0,25,1,0
22754.4,1000,4,2,0,25,1,0
22755.6,1000,4,2,0,25,1,0
22756.7,1000,4,2,0,25,1,0
22757.8,1000,4,2,0,25,1,0
22758.9,1000,4,2,0,25,1,0
22760,1000,4,2,0,25,1,0
22761.1,1000,4,2,0,25,1,0
22762.2,1000,4,2,0,25,1,0
22763.3,1000,4,2,0,25,1,0
22764.4,1000,4,2,0,25,1,0
22765.6,1000,4,2,0,25,1,0
22766.7,1000,4,2,0,25,1,0
22767.8,1000,4,2,0,25,1,0
22768.9,1000,4,2,0,25,1,0
22770,1000,4,2,0,25,1,0
22771.1,1000,4,2,0,25,1,0
22772.2,1000,4,2,0,25,1,0
22773.3,1000,4,2,0,25,1,0
22774.4,1000,4,2,0,25,1,0
22775.6,1000,4,2,0,25,1,0
22776.7,1000,4,2,0,25,1,0
22777.8,1000,4,2,0,25,1,0
22778.9,1000,4,2,0,25,1,0
22780,1000,4,2,0,25,1,0
22781.1,1000,4,2,0,25,1,0
22782.2,1000,4,2,0,25,1,0
22783.3,1000,4,2,0,25,1,0
22784.4,1000,4,2,0,25,1,0
22785.6,1000,4,2,0,25,1,0
22786.7,1000,4,2,0,25,1,0
22787.8,1000,4,2,0,25,1,0
22788.9,1000,4,2,0,25,1,0
22790,1000,4,2,0,25,1,0
22791.1,1000,4,2,0,25,1,0
22792.2,1000,4,2,0,25,1,0
22793.3,1000,4,2,0,25,1,0
22794.4,1000,4,2,0,25,1,0
22795.6,1000,4,2,0,25,1,0
22796.7,1000,4,2,0,25,1,0
22797.8,1000,4,2,0,25,1,0
22798.9,1000,4,2,0,25,1,0
22800,1000,4,2,0,25,1,0
22801.1,1000,4,2,0,25,1,0
22802.2,1000,4,2,0,25,1,0
22803.3,1000,4,2,0,25,1,0
22804.4,1000,4,2,0,25,1,0
22805.6,1000,4,2,0,25,1,0
22806.7,1000,4,2,0,25,1,0
22807.8,1000,4,2,0,25,1,0
22808.9,1000,4,2,0,25,1,0
22810,1000,4,2,0,25,1,0
22811.1,1000,4,2,0,25,1,0
22812.2,1000,4,2,0,25,1,0
22813.3,1000,4,2,0,25,1,0
22814.4,1000,4,2,0,25,1,0
22815.6,1000,4,2,0,25,1,0
22816.7,1000,4,2,0,25,1,0
22817.8,1000,4,2,0,25,1,0
22818.9,1000,4,2,0,25,1,0
22820,1000,4,2,0,25,1,0
22821.1,1000,4,2,0,25,1,0
22822.2,1000,4,2,0,25,1,0
22823.3,1000,4,2,0,25,1,0
22824.4,1000,4,2,0,25,1,0
22825.6,1000,4,2,0,25,1,0
22826.7,1000,4,2,0,25,1,0
22827.8,1000,4,2,0,25,1,0
22828.9,1000,4,2,0,25,1,0
22830,1000,4,2,0,25,1,0
22831.1,1000,4,2,0,25,1,0
22832.2,1000,4,2,0,25,1,0
22833.3,1000,4,2,0,25,1,0
22834.4,1000,4,2,0,25,1,0
22835.6,1000,4,2,0,25,1,0
22836.7,1000,4,2,0,25,1,0
22837.8,1000,4,2,0,25,1,0
22838.9,1000,4,2,0,25,1,0
22840,1000,4,2,0,25,1,0
22841.1,1000,4,2,0,25,1,0
22842.2,1000,4,2,0,25,1,0
22843.3,1000,4,2,0,25,1,0
22844.4,1000,4,2,0,25,1,0
22845.6,1000,4,2,0,25,1,0
22846.7,1000,4,2,0,25,1,0
22847.8,1000,4,2,0,25,1,0
22848.9,1000,4,2,0,25,1,0
22850,1000,4,2,0,25,1,0
22851.1,1000,4,2,0,25,1,0
22852.2,1000,4,2,0,25,1,0
22853.3,1000,4,2,0,25,1,0
22854.4,1000,4,2,0,25,1,0
22855.6,1000,4,2,0,25,1,0
22856.7,1000,4,2,0,25,1,0
22857.8,1000,4,2,0,25,1,0
22858.9,1000,4,2,0,25,1,0
22860,1000,4,2,0,25,1,0
22861.1,1000,4,2,0,25,1,0
22862.2,1000,4,2,0,25,1,0
22863.3,1000,4,2,0,25,1,0
22864.4,1000,4,2,0,25,1,0
22865.6,1000,4,2,0,25,1,0
22866.7,1000,4,2,0,25,1,0
22867.8,1000,4,2,0,25,1,0
22868.9,1000,4,2,0,25,1,0
22870,1000,4,2,0,25,1,0
22871.1,1000,4,2,0,25,1,0
22872.2,1000,4,2,0,25,1,0
22873.3,1000,4,2,0,25,1,0
22874.4,1000,4,2,0,25,1,0
22875.6,1000,4,2,0,25,1,0
22876.7,1000,4,2,0,25,1,0
22877.8,1000,4,2,0,25,1,0
22878.9,1000,4,2,0,25,1,0
22880,1000,4,2,0,25,1,0
22881.1,1000,4,2,0,25,1,0
22882.2,1000,4,2,0,25,1,0
22883.3,1000,4,2,0,25,1,0
22884.4,1000,4,2,0,25,1,0
22885.6,1000,4,2,0,25,1,0
22886.7,1000,4,2,0,25,1,0
22887.8,1000,4,2,0,25,1,0
22888.9,1000,4,2,0,25,1,0
22890,1000,4,2,0,25,1,0
22891.1,1000,4,2,0,25,1,0
22892.2,1000,4,2,0,25,1,0
22893.3,1000,4,2,0,25,1,0
22894.4,1000,4,2,0,25,1,0
22895.6,1000,4,2,0,25,1,0
22896.7,1000,4,2,0,25,1,0
22897.8,1000,4,2,0,25,1,0
22898.9,1000,4,2,0,25,1,0
22900,1000,4,2,0,25,1,0
22901.1,1000,4,2,0,25,1,0
22902.2,1000,4,2,0,25,1,0
22903.3,1000,4,2,0,25,1,0
22904.4,1000,4,2,0,25,1,0
22905.6,1000,4,2,0,25,1,0
22906.7,1000,4,2,0,25,1,0
22907.8,1000,4,2,0,25,1,0
22908.9,1000,4,2,0,25,1,0
22910,1000,4,2,0,25,1,0
22911.1,1000,4,2,0,25,1,0
22912.2,1000,4,2,0,25,1,0
22913.3,1000,4,2,0,25,1,0
22914.4,1000,4,2,0,25,1,0
22915.6,1000,4,2,0,25,1,0
22916.7,1000,4,2,0,25,1,0
22917.8,1000,4,2,0,25,1,0
22918.9,1000,4,2,0,25,1,0
22920,1000,4,2,0,25,1,0
22921.1,1000,4,2,0,25,1,0
22922.2,1000,4,2,0,25,1,0
22923.3,1000,4,2,0,25,1,0
22924.4,1000,4,2,0,25,1,0
22925.6,1000,4,2,0,25,1,0
22926.7,1000,4,2,0,25,1,0
22927.8,1000,4,2,0,25,1,0
22928.9,1000,4,2,0,25,1,0
22930,1000,4,2,0,25,1,0
22931.1,1000,4,2,0,25,1,0
22932.2,1000,4,2,0,25,1,0
22933.3,1000,4,2,0,25,1,0
22934.4,1000,4,2,0,25,1,0
22935.6,1000,4,2,0,25,1,0
22936.7,1000,4,2,0,25,1,0
22937.8,1000,4,2,0,25,1,0
22938.9,1000,4,2,0,25,1,0
22940,1000,4,2,0,25,1,0
22941.1,1000,4,2,0,25,1,0
22942.2,1000,4,2,0,25,1,0
22943.3,1000,4,2,0,25,1,0
22944.4,1000,4,2,0,25,1,0
22945.6,1000,4,2,0,25,1,0
22946.7,1000,4,2,0,25,1,0
22947.8,1000,4,2,0,25,1,0
22948.9,1000,4,2,0,25,1,0
22950,1000,4,2,0,25,1,0
22951.1,1000,4,2,0,25,1,0
22952.2,1000,4,2,0,25,1,0
22953.3,1000,4,2,0,25,1,0
22954.4,1000,4,2,0,25,1,0
22955.6,1000,4,2,0,25,1,0
22956.7,1000,4,2,0,25,1,0
22957.8,1000,4,2,0,25,1,0
22958.9,1000,4,2,0,25,1,0
22960,1000,4,2,0,25,1,0
22961.1,1000,4,2,0,25,1,0
22962.2,1000,4,2,0,25,1,0
22963.3,1000,4,2,0,25,1,0
22964.4,1000,4,2,0,25,1,0
22965.6,1000,4,2,0,25,1,0
22966.7,1000,4,2,0,25,1,0
22967.8,1000,4,2,0,25,1,0
22968.9,1000,4,2,0,25,1,0
22970,1000,4,2,0,25,1,0
22971.1,1000,4,2,0,25,1,0
22972.2,1000,4,2,0,25,1,0
22973.3,1000,4,2,0,25,1,0
22974.4,1000,4,2,0,25,1,0
22975.6,1000,4,2,0,25,1,0
22976.7,1000,4,2,0,25,1,0
22977.8,1000,4,2,0,25,1,0
22978.9,1000,4,2,0,25,1,0
22980,1000,4,2,0,25,1,0
22981.1,1000,4,2,0,25,1,0
22982.2,1000,4,2,0,25,1,0
22983.3,1000,4,2,0,25,1,0
22984.4,1000,4,2,0,25,1,0
22985.6,1000,4,2,0,25,1,0
22986.7,1000,4,2,0,25,1,0
22987.8,1000,4,2,0,25,1,0
22988.9,1000,4,2,0,25,1,0
22990,1000,4,2,0,25,1,0
22991.1,1000,4,2,0,25,1,0
22992.2,1000,4,2,0,25,1,0
22993.3,1000,4,2,0,25,1,0
22994.4,1000,4,2,0,25,1,0
22995.6,1000,4,2,0,25,1,0
22996.7,1000,4,2,0,25,1,0
22997.8,1000,4,2,0,25,1,0
22998.9,1000,4,2,0,25,1,0
23000,1000,4,2,0,25,1,0
23001.1,1000,4,2,0,25,1,0
23002.2,1000,4,2,0,25,1,0
23003.3,1000,4,2,0,25,1,0
23004.4,1000,4,2,0,25,1,0
23005.6,1000,4,2,0,25,1,0
23006.7,1000,4,2,0,25,1,0
23007.8,1000,4,2,0,25,1,0
23008.9,1000,4,2,0,25,1,0
23010,1000,4,2,0,25,1,0
23510,1000,4,2,0,25,1,0
23511.1,1000,4,2,0,25,1,0
23512.2,1000,4,2,0,25,1,0
23513.3,1000,4,2,0,25,1,0
23514.4,1000,4,2,0,25,1,0
23515.6,1000,4,2,0,25,1,0
23516.7,1000,4,2,0,25,1,0
23517.8,1000,4,2,0,25,1,0
23518.9,1000,4,2,0,25,1,0
23520,1000,4,2,0,25,1,0
23521.1,1000,4,2,0,25,1,0
23522.2,1000,4,2,0,25,1,0
23523.3,1000,4,2,0,25,1,0
23524.4,1000,4,2,0,25,1,0
23525.6,1000,4,2,0,25,1,0
23526.7,1000,4,2,0,25,1,0
23527.8,1000,4,2,0,25,1,0
23528.9,1000,4,2,0,25,1,0
23530,1000,4,2,0,25,1,0
23531.1,1000,4,2,0,25,1,0
23532.2,1000,4,2,0,25,1,0
23533.3,1000,4,2,0,25,1,0
23534.4,1000,4,2,0,25,1,0
23535.6,1000,4,2,0,25,1,0
23536.7,1000,4,2,0,25,1,0
23537.8,1000,4,2,0,25,1,0
23538.9,1000,4,2,0,25,1,0
23540,1000,4,2,0,25,1,0
23541.1,1000,4,2,0,25,1,0
23542.2,1000,4,2,0,25,1,0
23543.3,1000,4,2,0,25,1,0
23544.4,1000,4,2,0,25,1,0
23545.6,1000,4,2,0,25,1,0
23546.7,1000,4,2,0,25,1,0
23547.8,1000,4,2,0,25,1,0
23548.9,1000,4,2,0,25,1,0
23550,1000,4,2,0,25,1,0
23551.1,1000,4,2,0,25,1,0
23552.2,1000,4,2,0,25,1,0
23553.3,1000,4,2,0,25,1,0
23554.4,1000,4,2,0,25,1,0
23555.6,1000,4,2,0,25,1,0
23556.7,1000,4,2,0,25,1,0
23557.8,1000,4,2,0,25,1,0
23558.9,1000,4,2,0,25,1,0
23560,1000,4,2,0,25,1,0
23561.1,1000,4,2,0,25,1,0
23562.2,1000,4,2,0,25,1,0
23563.3,1000,4,2,0,25,1,0
23564.4,1000,4,2,0,25,1,0
23565.6,1000,4,2,0,25,1,0
23566.7,1000,4,2,0,25,1,0
23567.8,1000,4,2,0,25,1,0
23568.9,1000,4,2,0,25,1,0
23570,1000,4,2,0,25,1,0
23571.1,1000,4,2,0,25,1,0
23572.2,1000,4,2,0,25,1,0
23573.3,1000,4,2,0,25,1,0
23574.4,1000,4,2,0,25,1,0
23575.6,1000,4,2,0,25,1,0
23576.7,1000,4,2,0,25,1,0
23577.8,1000,4,2,0,25,1,0
23578.9,1000,4,2,0,25,1,0
23580,1000,4,2,0,25,1,0
23581.1,1000,4,2,0,25,1,0
23582.2,1000,4,2,0,25,1,0
23583.3,1000,4,2,0,25,1,0
23584.4,1000,4,2,0,25,1,0
23585.6,1000,4,2,0,25,1,0
23586.7,1000,4,2,0,25,1,0
23587.8,1000,4,2,0,25,1,0
23588.9,1000,4,2,0,25,1,0
23590,1000,4,2,0,25,1,0
23591.1,1000,4,2,0,25,1,0
23592.2,1000,4,2,0,25,1,0
23593.3,1000,4,2,0,25,1,0
23594.4,1000,4,2,0,25,1,0
23595.6,1000,4,2,0,25,1,0
23596.7,1000,4,2,0,25,1,0
23597.8,1000,4,2,0,25,1,0
23598.9,1000,4,2,0,25,1,0
23600,1000,4,2,0,25,1,0
23601.1,1000,4,2,0,25,1,0
23602.2,1000,4,2,0,25,1,0
23603.3,1000,4,2,0,25,1,0
23604.4,1000,4,2,0,25,1,0
23605.6,1000,4,2,0,25,1,0
23606.7,1000,4,2,0,25,1,0
23607.8,1000,4,2,0,25,1,0
23608.9,1000,4,2,0,25,1,0
23610,1000,4,2,0,25,1,0
23611.1,1000,4,2,0,25,1,0
23612.2,1000,4,2,0,25,1,0
23613.3,1000,4,2,0,25,1,0
23614.4,1000,4,2,0,25,1,0
23615.6,1000,4,2,0,25,1,0
23616.7,1000,4,2,0,25,1,0
23617.8,1000,4,2,0,25,1,0
23618.9,1000,4,2,0,25,1,0
23620,1000,4,2,0,25,1,0
23621.1,1000,4,2,0,25,1,0
23622.2,1000,4,2,0,25,1,0
23623.3,1000,4,2,0,25,1,0
23624.4,1000,4,2,0,25,1,0
23625.6,1000,4,2,0,25,1,0
23626.7,1000,4,2,0,25,1,0
23627.8,1000,4,2,0,25,1,0
23628.9,1000,4,2,0,25,1,0
23630,1000,4,2,0,25,1,0
23631.1,1000,4,2,0,25,1,0
23632.2,1000,4,2,0,25,1,0
23633.3,1000,4,2,0,25,1,0
23634.4,1000,4,2,0,25,1,0
23635.6,1000,4,2,0,25,1,0
23636.7,1000,4,2,0,25,1,0
23637.8,1000,4,2,0,25,1,0
23638.9,1000,4,2,0,25,1,0
23640,1000,4,2,0,25,1,0
23641.1,1000,4,2,0,25,1,0
23642.2,1000,4,2,0,25,1,0
23643.3,1000,4,2,0,25,1,0
23644.4,1000,4,2,0,25,1,0
23645.6,1000,4,2,0,25,1,0
23646.7,1000,4,2,0,25,1,0
23647.8,1000,4,2,0,25,1,0
23648.9,1000,4,2,0,25,1,0
23650,1000,4,2,0,25,1,0
23651.1,1000,4,2,0,25,1,0
23652.2,1000,4,2,0,25,1,0
23653.3,1000,4,2,0,25,1,0
23654.4,1000,4,2,0,25,1,0
23655.6,1000,4,2,0,25,1,0
23656.7,1000,4,2,0,25,1,0
23657.8,1000,4,2,0,25,1,0
23658.9,1000,4,2,0,25,1,0
23660,1000,4,2,0,25,1,0
23661.1,1000,4,2,0,25,1,0
23662.2,1000,4,2,0,25,1,0
23663.3,1000,4,2,0,25,1,0
23664.4,1000,4,2,0,25,1,0
23665.6,1000,4,2,0,25,1,0
23666.7,1000,4,2,0,25,1,0
23667.8,1000,4,2,0,25,1,0
23668.9,1000,4,2,0,25,1,0
23670,1000,4,2,0,25,1,0
23671.1,1000,4,2,0,25,1,0
23672.2,1000,4,2,0,25,1,0
23673.3,1000,4,2,0,25,1,0
23674.4,1000,4,2,0,25,1,0
23675.6,1000,4,2,0,25,1,0
23676.7,1000,4,2,0,25,1,0
23677.8,1000,4,2,0,25,1,0
23678.9,1000,4,2,0,25,1,0
23680,1000,4,2,0,25,1,0
23681.1,1000,4,2,0,25,1,0
23682.2,1000,4,2,0,25,1,0
23683.3,1000,4,2,0,25,1,0
23684.4,1000,4,2,0,25,1,0
23685.6,1000,4,2,0,25,1,0
23686.7,1000,4,2,0,25,1,0
23687.8,1000,4,2,0,25,1,0
23688.9,1000,4,2,0,25,1,0
23690,1000,4,2,0,25,1,0
23691.1,1000,4,2,0,25,1,0
23692.2,1000,4,2,0,25,1,0
23693.3,1000,4,2,0,25,1,0
23694.4,1000,4,2,0,25,1,0
23695.6,1000,4,2,0,25,1,0
23696.7,1000,4,2,0,25,1,0
23697.8,1000,4,2,0,25,1,0
23698.9,1000,4,2,0,25,1,0
23700,1000,4,2,0,25,1,0
23701.1,1000,4,2,0,25,1,0
23702.2,1000,4,2,0,25,1,0
23703.3,1000,4,2,0,25,1,0
23704.4,1000,4,2,0,25,1,0
23705.6,1000,4,2,0,25,1,0
23706.7,1000,4,2,0,25,1,0
23707.8,1000,4,2,0,25,1,0
23708.9,1000,4,2,0,25,1,0
23710,1000,4,2,0,25,1,0
23711.1,1000,4,2,0,25,1,0
23712.2,1000,4,2,0,25,1,0
23713.3,1000,4,2,0,25,1,0
23714.4,1000,4,2,0,25,1,0
23715.6,1000,4,2,0,25,1,0
23716.7,1000,4,2,0,25,1,0
23717.8,1000,4,2,0,25,1,0
23718.9,1000,4,2,0,25,1,0
23720,1000,4,2,0,25,1,0
23721.1,1000,4,2,0,25,1,0
23722.2,1000,4,2,0,25,1,0
23723.3,1000,4,2,0,25,1,0
23724.4,1000,4,2,0,25,1,0
23725.6,1000,4,2,0,25,1,0
23726.7,1000,4,2,0,25,1,0
23727.8,1000,4,2,0,25,1,0
23728.9,1000,4,2,0,25,1,0
23730,1000,4,2,0,25,1,0
23731.1,1000,4,2,0,25,1,0
23732.2,1000,4,2,0,25,1,0
23733.3,1000,4,2,0,25,1,0
23734.4,1000,4,2,0,25,1,0
23735.6,1000,4,2,0,25,1,0
23736.7,1000,4,2,0,25,1,0
23737.8,1000,4,2,0,25,1,0
23738.9,1000,4,2,0,25,1,0
23740,1000,4,2,0,25,1,0
23741.1,1000,4,2,0,25,1,0
23742.2,1000,4,2,0,25,1,0
23743.3,1000,4,2,0,25,1,0
23744.4,1000,4,2,0,25,1,0
23745.6,1000,4,2,0,25,1,0
23746.7,1000,4,2,0,25,1,0
23747.8,1000,4,2,0,25,1,0
23748.9,1000,4,2,0,25,1,0
23750,1000,4,2,0,25,1,0
23751.1,1000,4,2,0,25,1,0
23752.2,1000,4,2,0,25,1,0
23753.3,1000,4,2,0,25,1,0
23754.4,1000,4,2,0,25,1,0
23755.6,1000,4,2,0,25,1,0
23756.7,1000,4,2,0,25,1,0
23757.8,1000,4,2,0,25,1,0
23758.9,1000,4,2,0,25,1,0
23760,1000,4,2,0,25,1,0
23761.1,1000,4,2,0,25,1,0
23762.2,1000,4,2,0,25,1,0
23763.3,1000,4,2,0,25,1,0
23764.4,1000,4,2,0,25,1,0
23765.6,1000,4,2,0,25,1,0
23766.7,1000,4,2,0,25,1,0
23767.8,1000,4,2,0,25,1,0
23768.9,1000,4,2,0,25,1,0
23770,1000,4,2,0,25,1,0
23771.1,1000,4,2,0,25,1,0
23772.2,1000,4,2,0,25,1,0
23773.3,1000,4,2,0,25,1,0
23774.4,1000,4,2,0,25,1,0
23775.6,1000,4,2,0,25,1,0
23776.7,1000,4,2,0,25,1,0
23777.8,1000,4,2,0,25,1,0
23778.9,1000,4,2,0,25,1,0
23780,1000,4,2,0,25,1,0
23781.1,1000,4,2,0,25,1,0
23782.2,1000,4,2,0,25,1,0
23783.3,1000,4,2,0,25,1,0
23784.4,1000,4,2,0,25,1,0
23785.6,1000,4,2,0,25,1,0
23786.7,1000,4,2,0,25,1,0
23787.8,1000,4,2,0,25,1,0
23788.9,1000,4,2,0,25,1,0
23790,1000,4,2,0,25,1,0
23791.1,1000,4,2,0,25,1,0
23792.2,1000,4,2,0,25,1,0
23793.3,1000,4,2,0,25,1,0
23794.4,1000,4,2,0,25,1,0
23795.6,1000,4,2,0,25,1,0
23796.7,1000,4,2,0,25,1,0
23797.8,1000,4,2,0,25,1,0
23798.9,1000,4,2,0,25,1,0
23800,1000,4,2,0,25,1,0
23801.1,1000,4,2,0,25,1,0
23802.2,1000,4,2,0,25,1,0
23803.3,1000,4,2,0,25,1,0
23804.4,1000,4,2,0,25,1,0
23805.6,1000,4,2,0,25,1,0
23806.7,1000,4,2,0,25,1,0
23807.8,1000,4,2,0,25,1,0
23808.9,1000,4,2,0,25,1,0
23810,1000,4,2,0,25,1,0
23811.1,1000,4,2,0,25,1,0
23812.2,1000,4,2,0,25,1,0
23813.3,1000,4,2,0,25,1,0
23814.4,1000,4,2,0,25,1,0
23815.6,1000,4,2,0,25,1,0
23816.7,1000,4,2,0,25,1,0
23817.8,1000,4,2,0,25,1,0
23818.9,1000,4,2,0,25,1,0
23820,1000,4,2,0,25,1,0
23821.1,1000,4,2,0,25,1,0
23822.2,1000,4,2,0,25,1,0
23823.3,1000,4,2,0,25,1,0
23824.4,1000,4,2,0,25,1,0
23825.6,1000,4,2,0,25,1,0
23826.7,1000,4,2,0,25,1,0
23827.8,1000,4,2,0,25,1,0
23828.9,1000,4,2,0,25,1,0
23830,1000,4,2,0,25,1,0
23831.1,1000,4,2,0,25,1,0
23832.2,1000,4,2,0,25,1,0
23833.3,1000,4,2,0,25,1,0
23834.4,1000,4,2,0,25,1,0
23835.6,1000,4,2,0,25,1,0
23836.7,1000,4,2,0,25,1,0
23837.8,1000,4,2,0,25,1,0
23838.9,1000,4,2,0,25,1,0
23840,1000,4,2,0,25,1,0
23841.1,1000,4,2,0,25,1,0
23842.2,1000,4,2,0,25,1,0
23843.3,1000,4,2,0,25,1,0
23844.4,1000,4,2,0,25,1,0
23845.6,1000,4,2,0,25,1,0
23846.7,1000,4,2,0,25,1,0
23847.8,1000,4,2,0,25,1,0
23848.9,1000,4,2,0,25,1,0
23850,1000,4,2,0,25,1,0
23851.1,1000,4,2,0,25,1,0
23852.2,1000,4,2,0,25,1,0
23853.3,1000,4,2,0,25,1,0
23854.4,1000,4,2,0,25,1,0
23855.6,1000,4,2,0,25,1,0
23856.7,1000,4,2,0,25,1,0
23857.8,1000,4,2,0,25,1,0
23858.9,1000,4,2,0,25,1,0
23860,1000,4,2,0,25,1,0
23861.1,1000,4,2,0,25,1,0
23862.2,1000,4,2,0,25,1,0
23863.3,1000,4,2,0,25,1,0
23864.4,1000,4,2,0,25,1,0
23865.6,1000,4,2,0,25,1,0
23866.7,1000,4,2,0,25,1,0
23867.8,1000,4,2,0,25,1,0
23868.9,1000,4,2,0,25,1,0
23870,1000,4,2,0,25,1,0
23871.1,1000,4,2,0,25,1,0
23872.2,1000,4,2,0,25,1,0
23873.3,1000,4,2,0,25,1,0
23874.4,1000,4,2,0,25,1,0
23875.6,1000,4,2,0,25,1,0
23876.7,1000,4,2,0,25,1,0
23877.8,1000,4,2,0,25,1,0
23878.9,1000,4,2,0,25,1,0
23880,1000,4,2,0,25,1,0
23881.1,1000,4,2,0,25,1,0
23882.2,1000,4,2,0,25,1,0
23883.3,1000,4,2,0,25,1,0
23884.4,1000,4,2,0,25,1,0
23885.6,1000,4,2,0,25,1,0
23886.7,1000,4,2,0,25,1,0
23887.8,1000,4,2,0,25,1,0
23888.9,1000,4,2,0,25,1,0
23890,1000,4,2,0,25,1,0
23891.1,1000,4,2,0,25,1,0
23892.2,1000,4,2,0,25,1,0
23893.3,1000,4,2,0,25,1,0
23894.4,1000,4,2,0,25,1,0
23895.6,1000,4,2,0,25,1,0
23896.7,1000,4,2,0,25,1,0
23897.8,1000,4,2,0,25,1,0
23898.9,1000,4,2,0,25,1,0
23900,1000,4,2,0,25,1,0
23901.1,1000,4,2,0,25,1,0
23902.2,1000,4,2,0,25,1,0
23903.3,1000,4,2,0,25,1,0
23904.4,1000,4,2,0,25,1,0
23905.6,1000,4,2,0,25,1,0
23906.7,1000,4,2,0,25,1,0
23907.8,1000,4,2,0,25,1,0
23908.9,1000,4,2,0,25,1,0
23910,1000,4,2,0,25,1,0
23911.1,1000,4,2,0,25,1,0
23912.2,1000,4,2,0,25,1,0
23913.3,1000,4,2,0,25,1,0
23914.4,1000,4,2,0,25,1,0
23915.6,1000,4,2,0,25,1,0
23916.7,1000,4,2,0,25,1,0
23917.8,1000,4,2,0,25,1,0
23918.9,1000,4,2,0,25,1,0
23920,1000,4,2,0,25,1,0
23921.1,1000,4,2,0,25,1,0
23922.2,1000,4,2,0,25,1,0
23923.3,1000,4,2,0,25,1,0
23924.4,1000,4,2,0,25,1,0
23925.6,1000,4,2,0,25,1,0
23926.7,1000,4,2,0,25,1,0
23927.8,1000,4,2,0,25,1,0
23928.9,1000,4,2,0,25,1,0
23930,1000,4,2,0,25,1,0
23931.1,1000,4,2,0,25,1,0
23932.2,1000,4,2,0,25,1,0
23933.3,1000,4,2,0,25,1,0
23934.4,1000,4,2,0,25,1,0
23935.6,1000,4,2,0,25,1,0
23936.7,1000,4,2,0,25,1,0
23937.8,1000,4,2,0,25,1,0
23938.9,1000,4,2,0,25,1,0
23940,1000,4,2,0,25,1,0
23941.1,1000,4,2,0,25,1,0
23942.2,1000,4,2,0,25,1,0
23943.3,1000,4,2,0,25,1,0
23944.4,1000,4,2,0,25,1,0
23945.6,1000,4,2,0,25,1,0
23946.7,1000,4,2,0,25,1,0
23947.8,1000,4,2,0,25,1,0
23948.9,1000,4,2,0,25,1,0
23950,1000,4,2,0,25,1,0
23951.1,1000,4,2,0,25,1,0
23952.2,1000,4,2,0,25,1,0
23953.3,1000,4,2,0,25,1,0
23954.4,1000,4,2,0,25,1,0
23955.6,1000,4,2,0,25,1,0
23956.7,1000,4,2,0,25,1,0
23957.8,1000,4,2,0,25,1,0
23958.9,1000,4,2,0,25,1,0
23960,1000,4,2,0,25,1,0
23961.1,1000,4,2,0,25,1,0
23962.2,1000,4,2,0,25,1,0
23963.3,1000,4,2,0,25,1,0
23964.4,1000,4,2,0,25,1,0
23965.6,1000,4,2,0,25,1,0
23966.7,1000,4,2,0,25,1,0
23967.8,1000,4,2,0,25,1,0
23968.9,1000,4,2,0,25,1,0
23970,1000,4,2,0,25,1,0
23971.1,1000,4,2,0,25,1,0
23972.2,1000,4,2,0,25,1,0
23973.3,1000,4,2,0,25,1,0
23974.4,1000,4,2,0,25,1,0
23975.6,1000,4,2,0,25,1,0
23976.7,1000,4,2,0,25,1,0
23977.8,1000,4,2,0,25,1,0
23978.9,1000,4,2,0,25,1,0
23980,1000,4,2,0,25,1,0
23981.1,1000,4,2,0,25,1,0
23982.2,1000,4,2,0,25,1,0
23983.3,1000,4,2,0,25,1,0
23984.4,1000,4,2,0,25,1,0
23985.6,1000,4,2,0,25,1,0
23986.7,1000,4,2,0,25,1,0
23987.8,1000,4,2,0,25,1,0
23988.9,1000,4,2,0,25,1,0
23990,1000,4,2,0,25,1,0
23991.1,1000,4,2,0,25,1,0
23992.2,1000,4,2,0,25,1,0
23993.3,1000,4,2,0,25,1,0
23994.4,1000,4,2,0,25,1,0
23995.6,1000,4,2,0,25,1,0
23996.7,1000,4,2,0,25,1,0
23997.8,1000,4,2,0,25,1,0
23998.9,1000,4,2,0,25,1,0
24000,1000,4,2,0,25,1,0
24001.1,1000,4,2,0,25,1,0
24002.2,1000,4,2,0,25,1,0
24003.3,1000,4,2,0,25,1,0
24004.4,1000,4,2,0,25,1,0
24005.6,1000,4,2,0,25,1,0
24006.7,1000,4,2,0,25,1,0
24007.8,1000,4,2,0,25,1,0
24008.9,1000,4,2,0,25,1,0
24010,1000,4,2,0,25,1,0
24510,1000,4,2,0,25,1,0
24511.1,1000,4,2,0,25,1,0
24512.2,1000,4,2,0,25,1,0
24513.3,1000,4,2,0,25,1,0
24514.4,1000,4,2,0,25,1,0
24515.6,1000,4,2,0,25,1,0
24516.7,1000,4,2,0,25,1,0
24517.8,1000,4,2,0,25,1,0
24518.9,1000,4,2,0,25,1,0
24520,1000,4,2,0,25,1,0
24521.1,1000,4,2,0,25,1,0
24522.2,1000,4,2,0,25,1,0
24523.3,1000,4,2,0,25,1,0
24524.4,1000,4,2,0,25,1,0
24525.6,1000,4,2,0,25,1,0
24526.7,1000,4,2,0,25,1,0
24527.8,1000,4,2,0,25,1,0
24528.9,1000,4,2,0,25,1,0
24530,1000,4,2,0,25,1,0
24531.1,1000,4,2,0,25,1,0
24532.2,1000,4,2,0,25,1,0
24533.3,1000,4,2,0,25,1,0
24534.4,1000,4,2,0,25,1,0
24535.6,1000,4,2,0,25,1,0
24536.7,1000,4,2,0,25,1,0
24537.8,1000,4,2,0,25,1,0
24538.9,1000,4,2,0,25,1,0
24540,1000,4,2,0,25,1,0
24541.1,1000,4,2,0,25,1,0
24542.2,1000,4,2,0,25,1,0
24543.3,1000,4,2,0,25,1,0
24544.4,1000,4,2,0,25,1,0
24545.6,1000,4,2,0,25,1,0
24546.7,1000,4,2,0,25,1,0
24547.8,1000,4,2,0,25,1,0
24548.9,1000,4,2,0,25,1,0
24550,1000,4,2,0,25,1,0
24551.1,1000,4,2,0,25,1,0
24552.2,1000,4,2,0,25,1,0
24553.3,1000,4,2,0,25,1,0
24554.4,1000,4,2,0,25,1,0
24555.6,1000,4,2,0,25,1,0
24556.7,1000,4,2,0,25,1,0
24557.8,1000,4,2,0,25,1,0
24558.9,1000,4,2,0,25,1,0
24560,1000,4,2,0,25,1,0
24561.1,1000,4,2,0,25,1,0
24562.2,1000,4,2,0,25,1,0
24563.3,1000,4,2,0,25,1,0
24564.4,1000,4,2,0,25,1,0
24565.6,1000,4,2,0,25,1,0
24566.7,1000,4,2,0,25,1,0
24567.8,1000,4,2,0,25,1,0
24568.9,1000,4,2,0,25,1,0
24570,1000,4,2,0,25,1,0
24571.1,1000,4,2,0,25,1,0
24572.2,1000,4,2,0,25,1,0
24573.3,1000,4,2,0,25,1,0
24574.4,1000,4,2,0,25,1,0
24575.6,1000,4,2,0,25,1,0
24576.7,1000,4,2,0,25,1,0
24577.8,1000,4,2,0,25,1,0
24578.9,1000,4,2,0,25,1,0
24580,1000,4,2,0,25,1,0
24581.1,1000,4,2,0,25,1,0
24582.2,1000,4,2,0,25,1,0
24583.3,1000,4,2,0,25,1,0
24584.4,1000,4,2,0,25,1,0
24585.6,1000,4,2,0,25,1,0
24586.7,1000,4,2,0,25,1,0
24587.8,1000,4,2,0,25,1,0
24588.9,1000,4,2,0,25,1,0
24590,1000,4,2,0,25,1,0
24591.1,1000,4,2,0,25,1,0
24592.2,1000,4,2,0,25,1,0
24593.3,1000,4,2,0,25,1,0
24594.4,1000,4,2,0,25,1,0
24595.6,1000,4,2,0,25,1,0
24596.7,1000,4,2,0,25,1,0
24597.8,1000,4,2,0,25,1,0
24598.9,1000,4,2,0,25,1,0
24600,1000,4,2,0,25,1,0
24601.1,1000,4,2,0,25,1,0
24602.2,1000,4,2,0,25,1,0
24603.3,1000,4,2,0,25,1,0
24604.4,1000,4,2,0,25,1,0
24605.6,1000,4,2,0,25,1,0
24606.7,1000,4,2,0,25,1,0
24607.8,1000,4,2,0,25,1,0
24608.9,1000,4,2,0,25,1,0
24610,1000,4,2,0,25,1,0
24611.1,1000,4,2,0,25,1,0
24612.2,1000,4,2,0,25,1,0
24613.3,1000,4,2,0,25,1,0
24614.4,1000,4,2,0,25,1,0
24615.6,1000,4,2,0,25,1,0
24616.7,1000,4,2,0,25,1,0
24617.8,1000,4,2,0,25,1,0
24618.9,1000,4,2,0,25,1,0
24620,1000,4,2,0,25,1,0
24621.1,1000,4,2,0,25,1,0
24622.2,1000,4,2,0,25,1,0
24623.3,1000,4,2,0,25,1,0
24624.4,1000,4,2,0,25,1,0
24625.6,1000,4,2,0,25,1,0
24626.7,1000,4,2,0,25,1,0
24627.8,1000,4,2,0,25,1,0
24628.9,1000,4,2,0,25,1,0
24630,1000,4,2,0,25,1,0
24631.1,1000,4,2,0,25,1,0
24632.2,1000,4,2,0,25,1,0
24633.3,1000,4,2,0,25,1,0
24634.4,1000,4,2,0,25,1,0
24635.6,1000,4,2,0,25,1,0
24636.7,1000,4,2,0,25,1,0
24637.8,1000,4,2,0,25,1,0
24638.9,1000,4,2,0,25,1,0
24640,1000,4,2,0,25,1,0
24641.1,1000,4,2,0,25,1,0
24642.2,1000,4,2,0,25,1,0
24643.3,1000,4,2,0,25,1,0
24644.4,1000,4,2,0,25,1,0
24645.6,1000,4,2,0,25,1,0
24646.7,1000,4,2,0,25,1,0
24647.8,1000,4,2,0,25,1,0
24648.9,1000,4,2,0,25,1,0
24650,1000,4,2,0,25,1,0
24651.1,1000,4,2,0,25,1,0
24652.2,1000,4,2,0,25,1,0
24653.3,1000,4,2,0,25,1,0
24654.4,1000,4,2,0,25,1,0
24655.6,1000,4,2,0,25,1,0
24656.7,1000,4,2,0,25,1,0
24657.8,1000,4,2,0,25,1,0
24658.9,1000,4,2,0,25,1,0
24660,1000,4,2,0,25,1,0
24661.1,1000,4,2,0,25,1,0
24662.2,1000,4,2,0,25,1,0
24663.3,1000,4,2,0,25,1,0
24664.4,1000,4,2,0,25,1,0
24665.6,1000,4,2,0,25,1,0
24666.7,1000,4,2,0,25,1,0
24667.8,1000,4,2,0,25,1,0
24668.9,1000,4,2,0,25,1,0
24670,1000,4,2,0,25,1,0
24671.1,1000,4,2,0,25,1,0
24672.2,1000,4,2,0,25,1,0
24673.3,1000,4,2,0,25,1,0
24674.4,1000,4,2,0,25,1,0
24675.6,1000,4,2,0,25,1,0
24676.7,1000,4,2,0,25,1,0
24677.8,1000,4,2,0,25,1,0
24678.9,1000,4,2,0,25,1,0
24680,1000,4,2,0,25,1,0
24681.1,1000,4,2,0,25,1,0
24682.2,1000,4,2,0,25,1,0
24683.3,1000,4,2,0,25,1,0
24684.4,1000,4,2,0,25,1,0
24685.6,1000,4,2,0,25,1,0
24686.7,1000,4,2,0,25,1,0
24687.8,1000,4,2,0,25,1,0
24688.9,1000,4,2,0,25,1,0
24690,1000,4,2,0,25,1,0
24691.1,1000,4,2,0,25,1,0
24692.2,1000,4,2,0,25,1,0
24693.3,1000,4,2,0,25,1,0
24694.4,1000,4,2,0,25,1,0
24695.6,1000,4,2,0,25,1,0
24696.7,1000,4,2,0,25,1,0
24697.8,1000,4,2,0,25,1,0
24698.9,1000,4,2,0,25,1,0
24700,1000,4,2,0,25,1,0
24701.1,1000,4,2,0,25,1,0
24702.2,1000,4,2,0,25,1,0
24703.3,1000,4,2,0,25,1,0
24704.4,1000,4,2,0,25,1,0
24705.6,1000,4,2,0,25,1,0
24706.7,1000,4,2,0,25,1,0
24707.8,1000,4,2,0,25,1,0
24708.9,1000,4,2,0,25,1,0
24710,1000,4,2,0,25,1,0
24711.1,1000,4,2,0,25,1,0
24712.2,1000,4,2,0,25,1,0
24713.3,1000,4,2,0,25,1,0
24714.4,1000,4,2,0,25,1,0
24715.6,1000,4,2,0,25,1,0
24716.7,1000,4,2,0,25,1,0
24717.8,1000,4,2,0,25,1,0
24718.9,1000,4,2,0,25,1,0
24720,1000,4,2,0,25,1,0
24721.1,1000,4,2,0,25,1,0
24722.2,1000,4,2,0,25,1,0
24723.3,1000,4,2,0,25,1,0
24724.4,1000,4,2,0,25,1,0
24725.6,1000,4,2,0,25,1,0
24726.7,1000,4,2,0,25,1,0
24727.8,1000,4,2,0,25,1,0
24728.9,1000,4,2,0,25,1,0
24730,1000,4,2,0,25,1,0
24731.1,1000,4,2,0,25,1,0
24732.2,1000,4,2,0,25,1,0
24733.3,1000,4,2,0,25,1,0
24734.4,1000,4,2,0,25,1,0
24735.6,1000,4,2,0,25,1,0
24736.7,1000,4,2,0,25,1,0
24737.8,1000,4,2,0,25,1,0
24738.9,1000,4,2,0,25,1,0
24740,1000,4,2,0,25,1,0
24741.1,1000,4,2,0,25,1,0
24742.2,1000,4,2,0,25,1,0
24743.3,1000,4,2,0,25,1,0
24744.4,1000,4,2,0,25,1,0
24745.6,1000,4,2,0,25,1,0
24746.7,1000,4,2,0,25,1,0
24747.8,1000,4,2,0,25,1,0
24748.9,1000,4,2,0,25,1,0
24750,1000,4,2,0,25,1,0
24751.1,1000,4,2,0,25,1,0
24752.2,1000,4,2,0,25,1,0
24753.3,1000,4,2,0,25,1,0
24754.4,1000,4,2,0,25,1,0
24755.6,1000,4,2,0,25,1,0
24756.7,1000,4,2,0,25,1,0
24757.8,1000,4,2,0,25,1,0
24758.9,1000,4,2,0,25,1,0
24760,1000,4,2,0,25,1,0
24761.1,1000,4,2,0,25,1,0
24762.2,1000,4,2,0,25,1,0
24763.3,1000,4,2,0,25,1,0
24764.4,1000,4,2,0,25,1,0
24765.6,1000,4,2,0,25,1,0
24766.7,1000,4,2,0,25,1,0
24767.8,1000,4,2,0,25,1,0
24768.9,1000,4,2,0,25,1,0
24770,1000,4,2,0,25,1,0
24771.1,1000,4,2,0,25,1,0
24772.2,1000,4,2,0,25,1,0
24773.3,1000,4,2,0,25,1,0
24774.4,1000,4,2,0,25,1,0
24775.6,1000,4,2,0,25,1,0
24776.7,1000,4,2,0,25,1,0
24777.8,1000,4,2,0,25,1,0
24778.9,1000,4,2,0,25,1,0
24780,1000,4,2,0,25,1,0
24781.1,1000,4,2,0,25,1,0
24782.2,1000,4,2,0,25,1,0
24783.3,1000,4,2,0,25,1,0
24784.4,1000,4,2,0,25,1,0
24785.6,1000,4,2,0,25,1,0
24786.7,1000,4,2,0,25,1,0
24787.8,1000,4,2,0,25,1,0
24788.9,1000,4,2,0,25,1,0
24790,1000,4,2,0,25,1,0
24791.1,1000,4,2,0,25,1,0
24792.2,1000,4,2,0,25,1,0
24793.3,1000,4,2,0,25,1,0
24794.4,1000,4,2,0,25,1,0
24795.6,1000,4,2,0,25,1,0
24796.7,1000,4,2,0,25,1,0
24797.8,1000,4,2,0,25,1,0
24798.9,1000,4,2,0,25,1,0
24800,1000,4,2,0,25,1,0
24801.1,1000,4,2,0,25,1,0
24802.2,1000,4,2,0,25,1,0
24803.3,1000,4,2,0,25,1,0
24804.4,1000,4,2,0,25,1,0
24805.6,1000,4,2,0,25,1,0
24806.7,1000,4,2,0,25,1,0
24807.8,1000,4,2,0,25,1,0
24808.9,1000,4,2,0,25,1,0
24810,1000,4,2,0,25,1,0
24811.1,1000,4,2,0,25,1,0
24812.2,1000,4,2,0,25,1,0
24813.3,1000,4,2,0,25,1,0
24814.4,1000,4,2,0,25,1,0
24815.6,1000,4,2,0,25,1,0
24816.7,1000,4,2,0,25,1,0
24817.8,1000,4,2,0,25,1,0
24818.9,1000,4,2,0,25,1,0
24820,1000,4,2,0,25,1,0
24821.1,1000,4,2,0,25,1,0
24822.2,1000,4,2,0,25,1,0
24823.3,1000,4,2,0,25,1,0
24824.4,1000,4,2,0,25,1,0
24825.6,1000,4,2,0,25,1,0
24826.7,1000,4,2,0,25,1,0
24827.8,1000,4,2,0,25,1,0
24828.9,1000,4,2,0,25,1,0
24830,1000,4,2,0,25,1,0
24831.1,1000,4,2,0,25,1,0
24832.2,1000,4,2,0,25,1,0
24833.3,1000,4,2,0,25,1,0
24834.4,1000,4,2,0,25,1,0
24835.6,1000,4,2,0,25,1,0
24836.7,1000,4,2,0,25,1,0
24837.8,1000,4,2,0,25,1,0
24838.9,1000,4,2,0,25,1,0
24840,1000,4,2,0,25,1,0
24841.1,1000,4,2,0,25,1,0
24842.2,1000,4,2,0,25,1,0
24843.3,1000,4,2,0,25,1,0
24844.4,1000,4,2,0,25,1,0
24845.6,1000,4,2,0,25,1,0
24846.7,1000,4,2,0,25,1,0
24847.8,1000,4,2,0,25,1,0
24848.9,1000,4,2,0,25,1,0
24850,1000,4,2,0,25,1,0
24851.1,1000,4,2,0,25,1,0
24852.2,1000,4,2,0,25,1,0
24853.3,1000,4,2,0,25,1,0
24854.4,1000,4,2,0,25,1,0
24855.6,1000,4,2,0,25,1,0
24856.7,1000,4,2,0,25,1,0
24857.8,1000,4,2,0,25,1,0
24858.9,1000,4,2,0,25,1,0
24860,1000,4,2,0,25,1,0
24861.1,1000,4,2,0,25,1,0
24862.2,1000,4,2,0,25,1,0
24863.3,1000,4,2,0,25,1,0
24864.4,1000,4,2,0,25,1,0
24865.6,1000,4,2,0,25,1,0
24866.7,1000,4,2,0,25,1,0
24867.8,1000,4,2,0,25,1,0
24868.9,1000,4,2,0,25,1,0
24870,1000,4,2,0,25,1,0
24871.1,1000,4,2,0,25,1,0
24872.2,1000,4,2,0,25,1,0
24873.3,1000,4,2,0,25,1,0
24874.4,1000,4,2,0,25,1,0
24875.6,1000,4,2,0,25,1,0
24876.7,1000,4,2,0,25,1,0
24877.8,1000,4,2,0,25,1,0
24878.9,1000,4,2,0,25,1,0
24880,1000,4,2,0,25,1,0
24881.1,1000,4,2,0,25,1,0
24882.2,1000,4,2,0,25,1,0
24883.3,1000,4,2,0,25,1,0
24884.4,1000,4,2,0,25,1,0
24885.6,1000,4,2,0,25,1,0
24886.7,1000,4,2,0,25,1,0
24887.8,1000,4,2,0,25,1,0
24888.9,1000,4,2,0,25,1,0
24890,1000,4,2,0,25,1,0
24891.1,1000,4,2,0,25,1,0
24892.2,1000,4,2,0,25,1,0
24893.3,1000,4,2,0,25,1,0
24894.4,1000,4,2,0,25,1,0
24895.6,1000,4,2,0,25,1,0
24896.7,1000,4,2,0,25,1,0
24897.8,1000,4,2,0,25,1,0
24898.9,1000,4,2,0,25,1,0
24900,1000,4,2,0,25,1,0
24901.1,1000,4,2,0,25,1,0
24902.2,1000,4,2,0,25,1,0
24903.3,1000,4,2,0,25,1,0
24904.4,1000,4,2,0,25,1,0
24905.6,1000,4,2,0,25,1,0
24906.7,1000,4,2,0,25,1,0
24907.8,1000,4,2,0,25,1,0
24908.9,1000,4,2,0,25,1,0
24910,1000,4,2,0,25,1,0
24911.1,1000,4,2,0,25,1,0
24912.2,1000,4,2,0,25,1,0
24913.3,1000,4,2,0,25,1,0
24914.4,1000,4,2,0,25,1,0
24915.6,1000,4,2,0,25,1,0
24916.7,1000,4,2,0,25,1,0
24917.8,1000,4,2,0,25,1,0
24918.9,1000,4,2,0,25,1,0
24920,1000,4,2,0,25,1,0
24921.1,1000,4,2,0,25,1,0
24922.2,1000,4,2,0,25,1,0
24923.3,1000,4,2,0,25,1,0
24924.4,1000,4,2,0,25,1,0
24925.6,1000,4,2,0,25,1,0
24926.7,1000,4,2,0,25,1,0
24927.8,1000,4,2,0,25,1,0
24928.9,1000,4,2,0,25,1,0
24930,1000,4,2,0,25,1,0
24931.1,1000,4,2,0,25,1,0
24932.2,1000,4,2,0,25,1,0
24933.3,1000,4,2,0,25,1,0
24934.4,1000,4,2,0,25,1,0
24935.6,1000,4,2,0,25,1,0
24936.7,1000,4,2,0,25,1,0
24937.8,1000,4,2,0,25,1,0
24938.9,1000,4,2,0,25,1,0
24940,1000,4,2,0,25,1,0
24941.1,1000,4,2,0,25,1,0
24942.2,1000,4,2,0,25,1,0
24943.3,1000,4,2,0,25,1,0
24944.4,1000,4,2,0,25,1,0
24945.6,1000,4,2,0,25,1,0
24946.7,1000,4,2,0,25,1,0
24947.8,1000,4,2,0,25,1,0
24948.9,1000,4,2,0,25,1,0
24950,1000,4,2,0,25,1,0
24951.1,1000,4,2,0,25,1,0
24952.2,1000,4,2,0,25,1,0
24953.3,1000,4,2,0,25,1,0
24954.4,1000,4,2,0,25,1,0
24955.6,1000,4,2,0,25,1,0
24956.7,1000,4,2,0,25,1,0
24957.8,1000,4,2,0,25,1,0
24958.9,1000,4,2,0,25,1,0
24960,1000,4,2,0,25,1,0
24961.1,1000,4,2,0,25,1,0
24962.2,1000,4,2,0,25,1,0
24963.3,1000,4,2,0,25,1,0
24964.4,1000,4,2,0,25,1,0
24965.6,1000,4,2,0,25,1,0
24966.7,1000,4,2,0,25,1,0
24967.8,1000,4,2,0,25,1,0
24968.9,1000,4,2,0,25,1,0
24970,1000,4,2,0,25,1,0
24971.1,1000,4,2,0,25,1,0
24972.2,1000,4,2,0,25,1,0
24973.3,1000,4,2,0,25,1,0
24974.4,1000,4,2,0,25,1,0
24975.6,1000,4,2,0,25,1,0
24976.7,1000,4,2,0,25,1,0
24977.8,1000,4,2,0,25,1,0
24978.9,1000,4,2,0,25,1,0
24980,1000,4,2,0,25,1,0
24981.1,1000,4,2,0,25,1,0
24982.2,1000,4,2,0,25,1,0
24983.3,1000,4,2,0,25,1,0
24984.4,1000,4,2,0,25,1,0
24985.6,1000,4,2,0,25,1,0
24986.7,1000,4,2,0,25,1,0
24987.8,1000,4,2,0,25,1,0
24988.9,1000,4,2,0,25,1,0
24990,1000,4,2,0,25,1,0
24991.1,1000,4,2,0,25,1,0
24992.2,1000,4,2,0,25,1,0
24993.3,1000,4,2,0,25,1,0
24994.4,1000,4,2,0,25,1,0
24995.6,1000,4,2,0,25,1,0
24996.7,1000,4,2,0,25,1,0
24997.8,1000,4,2,0,25,1,0
24998.9,1000,4,2,0,25,1,0
25000,1000,4,2,0,25,1,0
25001.1,1000,4,2,0,25,1,0
25002.2,1000,4,2,0,25,1,0
25003.3,1000,4,2,0,25,1,0
25004.4,1000,4,2,0,25,1,0
25005.6,1000,4,2,0,25,1,0
25006.7,1000,4,2,0,25,1,0
25007.8,1000,4,2,0,25,1,0
25008.9,1000,4,2,0,25,1,0
25010,1000,4,2,0,25,1,0
25510,1000,4,2,0,25,1,0
25511.1,1000,4,2,0,25,1,0
25512.2,1000,4,2,0,25,1,0
25513.3,1000,4,2,0,25,1,0
25514.4,1000,4,2,0,25,1,0
25515.6,1000,4,2,0,25,1,0
25516.7,1000,4,2,0,25,1,0
25517.8,1000,4,2,0,25,1,0
25518.9,1000,4,2,0,25,1,0
25520,1000,4,2,0,25,1,0
25521.1,1000,4,2,0,25,1,0
25522.2,1000,4,2,0,25,1,0
25523.3,1000,4,2,0,25,1,0
25524.4,1000,4,2,0,25,1,0
25525.6,1000,4,2,0,25,1,0
25526.7,1000,4,2,0,25,1,0
25527.8,1000,4,2,0,25,1,0
25528.9,1000,4,2,0,25,1,0
25530,1000,4,2,0,25,1,0
25531.1,1000,4,2,0,25,1,0
25532.2,1000,4,2,0,25,1,0
25533.3,1000,4,2,0,25,1,0
25534.4,1000,4,2,0,25,1,0
25535.6,1000,4,2,0,25,1,0
25536.7,1000,4,2,0,25,1,0
25537.8,1000,4,2,0,25,1,0
25538.9,1000,4,2,0,25,1,0
25540,1000,4,2,0,25,1,0
25541.1,1000,4,2,0,25,1,0
25542.2,1000,4,2,0,25,1,0
25543.3,1000,4,2,0,25,1,0
25544.4,1000,4,2,0,25,1,0
25545.6,1000,4,2,0,25,1,0
25546.7,1000,4,2,0,25,1,0
25547.8,1000,4,2,0,25,1,0
25548.9,1000,4,2,0,25,1,0
25550,1000,4,2,0,25,1,0
25551.1,1000,4,2,0,25,1,0
25552.2,1000,4,2,0,25,1,0
25553.3,1000,4,2,0,25,1,0
25554.4,1000,4,2,0,25,1,0
25555.6,1000,4,2,0,25,1,0
25556.7,1000,4,2,0,25,1,0
25557.8,1000,4,2,0,25,1,0
25558.9,1000,4,2,0,25,1,0
25560,1000,4,2,0,25,1,0
25561.1,1000,4,2,0,25,1,0
25562.2,1000,4,2,0,25,1,0
25563.3,1000,4,2,0,25,1,0
25564.4,1000,4,2,0,25,1,0
25565.6,1000,4,2,0,25,1,0
25566.7,1000,4,2,0,25,1,0
25567.8,1000,4,2,0,25,1,0
25568.9,1000,4,2,0,25,1,0
25570,1000,4,2,0,25,1,0
25571.1,1000,4,2,0,25,1,0
25572.2,1000,4,2,0,25,1,0
25573.3,1000,4,2,0,25,1,0
25574.4,1000,4,2,0,25,1,0
25575.6,1000,4,2,0,25,1,0
25576.7,1000,4,2,0,25,1,0
25577.8,1000,4,2,0,25,1,0
25578.9,1000,4,2,0,25,1,0
25580,1000,4,2,0,25,1,0
25581.1,1000,4,2,0,25,1,0
25582.2,1000,4,2,0,25,1,0
25583.3,1000,4,2,0,25,1,0
25584.4,1000,4,2,0,25,1,0
25585.6,1000,4,2,0,25,1,0
25586.7,1000,4,2,0,25,1,0
25587.8,1000,4,2,0,25,1,0
25588.9,1000,4,2,0,25,1,0
25590,1000,4,2,0,25,1,0
25591.1,1000,4,2,0,25,1,0
25592.2,1000,4,2,0,25,1,0
25593.3,1000,4,2,0,25,1,0
25594.4,1000,4,2,0,25,1,0
25595.6,1000,4,2,0,25,1,0
25596.7,1000,4,2,0,25,1,0
25597.8,1000,4,2,0,25,1,0
25598.9,1000,4,2,0,25,1,0
25600,1000,4,2,0,25,1,0
25601.1,1000,4,2,0,25,1,0
25602.2,1000,4,2,0,25,1,0
25603.3,1000,4,2,0,25,1,0
25604.4,1000,4,2,0,25,1,0
25605.6,1000,4,2,0,25,1,0
25606.7,1000,4,2,0,25,1,0
25607.8,1000,4,2,0,25,1,0
25608.9,1000,4,2,0,25,1,0
25610,1000,4,2,0,25,1,0
25611.1,1000,4,2,0,25,1,0
25612.2,1000,4,2,0,25,1,0
25613.3,1000,4,2,0,25,1,0
25614.4,1000,4,2,0,25,1,0
25615.6,1000,4,2,0,25,1,0
25616.7,1000,4,2,0,25,1,0
25617.8,1000,4,2,0,25,1,0
25618.9,1000,4,2,0,25,1,0
25620,1000,4,2,0,25,1,0
25621.1,1000,4,2,0,25,1,0
25622.2,1000,4,2,0,25,1,0
25623.3,1000,4,2,0,25,1,0
25624.4,1000,4,2,0,25,1,0
25625.6,1000,4,2,0,25,1,0
25626.7,1000,4,2,0,25,1,0
25627.8,1000,4,2,0,25,1,0
25628.9,1000,4,2,0,25,1,0
25630,1000,4,2,0,25,1,0
25631.1,1000,4,2,0,25,1,0
25632.2,1000,4,2,0,25,1,0
25633.3,1000,4,2,0,25,1,0
25634.4,1000,4,2,0,25,1,0
25635.6,1000,4,2,0,25,1,0
25636.7,1000,4,2,0,25,1,0
25637.8,1000,4,2,0,25,1,0
25638.9,1000,4,2,0,25,1,0
25640,1000,4,2,0,25,1,0
25641.1,1000,4,2,0,25,1,0
25642.2,1000,4,2,0,25,1,0
25643.3,1000,4,2,0,25,1,0
25644.4,1000,4,2,0,25,1,0
25645.6,1000,4,2,0,25,1,0
25646.7,1000,4,2,0,25,1,0
25647.8,1000,4,2,0,25,1,0
25648.9,1000,4,2,0,25,1,0
25650,1000,4,2,0,25,1,0
25651.1,1000,4,2,0,25,1,0
25652.2,1000,4,2,0,25,1,0
25653.3,1000,4,2,0,25,1,0
25654.4,1000,4,2,0,25,1,0
25655.6,1000,4,2,0,25,1,0
25656.7,1000,4,2,0,25,1,0
25657.8,1000,4,2,0,25,1,0
25658.9,1000,4,2,0,25,1,0
25660,1000,4,2,0,25,1,0
25661.1,1000,4,2,0,25,1,0
25662.2,1000,4,2,0,25,1,0
25663.3,1000,4,2,0,25,1,0
25664.4,1000,4,2,0,25,1,0
25665.6,1000,4,2,0,25,1,0
25666.7,1000,4,2,0,25,1,0
25667.8,1000,4,2,0,25,1,0
25668.9,1000,4,2,0,25,1,0
25670,1000,4,2,0,25,1,0
25671.1,1000,4,2,0,25,1,0
25672.2,1000,4,2,0,25,1,0
25673.3,1000,4,2,0,25,1,0
25674.4,1000,4,2,0,25,1,0
25675.6,1000,4,2,0,25,1,0
25676.7,1000,4,2,0,25,1,0
25677.8,1000,4,2,0,25,1,0
25678.9,1000,4,2,0,25,1,0
25680,1000,4,2,0,25,1,0
25681.1,1000,4,2,0,25,1,0
25682.2,1000,4,2,0,25,1,0
25683.3,1000,4,2,0,25,1,0
25684.4,1000,4,2,0,25,1,0
25685.6,1000,4,2,0,25,1,0
25686.7,1000,4,2,0,25,1,0
25687.8,1000,4,2,0,25,1,0
25688.9,1000,4,2,0,25,1,0
25690,1000,4,2,0,25,1,0
25691.1,1000,4,2,0,25,1,0
25692.2,1000,4,2,0,25,1,0
25693.3,1000,4,2,0,25,1,0
25694.4,1000,4,2,0,25,1,0
25695.6,1000,4,2,0,25,1,0
25696.7,1000,4,2,0,25,1,0
25697.8,1000,4,2,0,25,1,0
25698.9,1000,4,2,0,25,1,0
25700,1000,4,2,0,25,1,0
25701.1,1000,4,2,0,25,1,0
25702.2,1000,4,2,0,25,1,0
25703.3,1000,4,2,0,25,1,0
25704.4,1000,4,2,0,25,1,0
25705.6,1000,4,2,0,25,1,0
25706.7,1000,4,2,0,25,1,0
25707.8,1000,4,2,0,25,1,0
25708.9,1000,4,2,0,25,1,0
25710,1000,4,2,0,25,1,0
25711.1,1000,4,2,0,25,1,0
25712.2,1000,4,2,0,25,1,0
25713.3,1000,4,2,0,25,1,0
25714.4,1000,4,2,0,25,1,0
25715.6,1000,4,2,0,25,1,0
25716.7,1000,4,2,0,25,1,0
25717.8,1000,4,2,0,25,1,0
25718.9,1000,4,2,0,25,1,0
25720,1000,4,2,0,25,1,0
25721.1,1000,4,2,0,25,1,0
25722.2,1000,4,2,0,25,1,0
25723.3,1000,4,2,0,25,1,0
25724.4,1000,4,2,0,25,1,0
25725.6,1000,4,2,0,25,1,0
25726.7,1000,4,2,0,25,1,0
25727.8,1000,4,2,0,25,1,0
25728.9,1000,4,2,0,25,1,0
25730,1000,4,2,0,25,1,0
25731.1,1000,4,2,0,25,1,0
25732.2,1000,4,2,0,25,1,0
25733.3,1000,4,2,0,25,1,0
25734.4,1000,4,2,0,25,1,0
25735.6,1000,4,2,0,25,1,0
25736.7,1000,4,2,0,25,1,0
25737.8,1000,4,2,0,25,1,0
25738.9,1000,4,2,0,25,1,0
25740,1000,4,2,0,25,1,0
25741.1,1000,4,2,0,25,1,0
25742.2,1000,4,2,0,25,1,0
25743.3,1000,4,2,0,25,1,0
25744.4,1000,4,2,0,25,1,0
25745.6,1000,4,2,0,25,1,0
25746.7,1000,4,2,0,25,1,0
25747.8,1000,4,2,0,25,1,0
25748.9,1000,4,2,0,25,1,0
25750,1000,4,2,0,25,1,0
25751.1,1000,4,2,0,25,1,0
25752.2,1000,4,2,0,25,1,0
25753.3,1000,4,2,0,25,1,0
25754.4,1000,4,2,0,25,1,0
25755.6,1000,4,2,0,25,1,0
25756.7,1000,4,2,0,25,1,0
25757.8,1000,4,2,0,25,1,0
25758.9,1000,4,2,0,25,1,0
25760,1000,4,2,0,25,1,0
25761.1,1000,4,2,0,25,1,0
25762.2,1000,4,2,0,25,1,0
25763.3,1000,4,2,0,25,1,0
25764.4,1000,4,2,0,25,1,0
25765.6,1000,4,2,0,25,1,0
25766.7,1000,4,2,0,25,1,0
25767.8,1000,4,2,0,25,1,0
25768.9,1000,4,2,0,25,1,0
25770,1000,4,2,0,25,1,0
25771.1,1000,4,2,0,25,1,0
25772.2,1000,4,2,0,25,1,0
25773.3,1000,4,2,0,25,1,0
25774.4,1000,4,2,0,25,1,0
25775.6,1000,4,2,0,25,1,0
25776.7,1000,4,2,0,25,1,0
25777.8,1000,4,2,0,25,1,0
25778.9,1000,4,2,0,25,1,0
25780,1000,4,2,0,25,1,0
25781.1,1000,4,2,0,25,1,0
25782.2,1000,4,2,0,25,1,0
25783.3,1000,4,2,0,25,1,0
25784.4,1000,4,2,0,25,1,0
25785.6,1000,4,2,0,25,1,0
25786.7,1000,4,2,0,25,1,0
25787.8,1000,4,2,0,25,1,0
25788.9,1000,4,2,0,25,1,0
25790,1000,4,2,0,25,1,0
25791.1,1000,4,2,0,25,1,0
25792.2,1000,4,2,0,25,1,0
25793.3,1000,4,2,0,25,1,0
25794.4,1000,4,2,0,25,1,0
25795.6,1000,4,2,0,25,1,0
25796.7,1000,4,2,0,25,1,0
25797.8,1000,4,2,0,25,1,0
25798.9,1000,4,2,0,25,1,0
25800,1000,4,2,0,25,1,0
25801.1,1000,4,2,0,25,1,0
25802.2,1000,4,2,0,25,1,0
25803.3,1000,4,2,0,25,1,0
25804.4,1000,4,2,0,25,1,0
25805.6,1000,4,2,0,25,1,0
25806.7,1000,4,2,0,25,1,0
25807.8,1000,4,2,0,25,1,0
25808.9,1000,4,2,0,25,1,0
25810,1000,4,2,0,25,1,0
25811.1,1000,4,2,0,25,1,0
25812.2,1000,4,2,0,25,1,0
25813.3,1000,4,2,0,25,1,0
25814.4,1000,4,2,0,25,1,0
25815.6,1000,4,2,0,25,1,0
25816.7,1000,4,2,0,25,1,0
25817.8,1000,4,2,0,25,1,0
25818.9,1000,4,2,0,25,1,0
25820,1000,4,2,0,25,1,0
25821.1,1000,4,2,0,25,1,0
25822.2,1000,4,2,0,25,1,0
25823.3,1000,4,2,0,25,1,0
25824.4,1000,4,2,0,25,1,0
25825.6,1000,4,2,0,25,1,0
25826.7,1000,4,2,0,25,1,0
25827.8,1000,4,2,0,25,1,0
25828.9,1000,4,2,0,25,1,0
25830,1000,4,2,0,25,1,0
25831.1,1000,4,2,0,25,1,0
25832.2,1000,4,2,0,25,1,0
25833.3,1000,4,2,0,25,1,0
25834.4,1000,4,2,0,25,1,0
25835.6,1000,4,2,0,25,1,0
25836.7,1000,4,2,0,25,1,0
25837.8,1000,4,2,0,25,1,0
25838.9,1000,4,2,0,25,1,0
25840,1000,4,2,0,25,1,0
25841.1,1000,4,2,0,25,1,0
25842.2,1000,4,2,0,25,1,0
25843.3,1000,4,2,0,25,1,0
25844.4,1000,4,2,0,25,1,0
25845.6,1000,4,2,0,25,1,0
25846.7,1000,4,2,0,25,1,0
25847.8,1000,4,2,0,25,1,0
25848.9,1000,4,2,0,25,1,0
25850,1000,4,2,0,25,1,0
25851.1,1000,4,2,0,25,1,0
25852.2,1000,4,2,0,25,1,0
25853.3,1000,4,2,0,25,1,0
25854.4,1000,4,2,0,25,1,0
25855.6,1000,4,2,0,25,1,0
25856.7,1000,4,2,0,25,1,0
25857.8,1000,4,2,0,25,1,0
25858.9,1000,4,2,0,25,1,0
25860,1000,4,2,0,25,1,0
25861.1,1000,4,2,0,25,1,0
25862.2,1000,4,2,0,25,1,0
25863.3,1000,4,2,0,25,1,0
25864.4,1000,4,2,0,25,1,0
25865.6,1000,4,2,0,25,1,0
25866.7,1000,4,2,0,25,1,0
25867.8,1000,4,2,0,25,1,0
25868.9,1000,4,2,0,25,1,0
25870,1000,4,2,0,25,1,0
25871.1,1000,4,2,0,25,1,0
25872.2,1000,4,2,0,25,1,0
25873.3,1000,4,2,0,25,1,0
25874.4,1000,4,2,0,25,1,0
25875.6,1000,4,2,0,25,1,0
25876.7,1000,4,2,0,25,1,0
25877.8,1000,4,2,0,25,1,0
25878.9,1000,4,2,0,25,1,0
25880,1000,4,2,0,25,1,0
25881.1,1000,4,2,0,25,1,0
25882.2,1000,4,2,0,25,1,0
25883.3,1000,4,2,0,25,1,0
25884.4,1000,4,2,0,25,1,0
25885.6,1000,4,2,0,25,1,0
25886.7,1000,4,2,0,25,1,0
25887.8,1000,4,2,0,25,1,0
25888.9,1000,4,2,0,25,1,0
25890,1000,4,2,0,25,1,0
25891.1,1000,4,2,0,25,1,0
25892.2,1000,4,2,0,25,1,0
25893.3,1000,4,2,0,25,1,0
25894.4,1000,4,2,0,25,1,0
25895.6,1000,4,2,0,25,1,0
25896.7,1000,4,2,0,25,1,0
25897.8,1000,4,2,0,25,1,0
25898.9,1000,4,2,0,25,1,0
25900,1000,4,2,0,25,1,0
25901.1,1000,4,2,0,25,1,0
25902.2,1000,4,2,0,25,1,0
25903.3,1000,4,2,0,25,1,0
25904.4,1000,4,2,0,25,1,0
25905.6,1000,4,2,0,25,1,0
25906.7,1000,4,2,0,25,1,0
25907.8,1000,4,2,0,25,1,0
25908.9,1000,4,2,0,25,1,0
25910,1000,4,2,0,25,1,0
25911.1,1000,4,2,0,25,1,0
25912.2,1000,4,2,0,25,1,0
25913.3,1000,4,2,0,25,1,0
25914.4,1000,4,2,0,25,1,0
25915.6,1000,4,2,0,25,1,0
25916.7,1000,4,2,0,25,1,0
25917.8,1000,4,2,0,25,1,0
25918.9,1000,4,2,0,25,1,0
25920,1000,4,2,0,25,1,0
25921.1,1000,4,2,0,25,1,0
25922.2,1000,4,2,0,25,1,0
25923.3,1000,4,2,0,25,1,0
25924.4,1000,4,2,0,25,1,0
25925.6,1000,4,2,0,25,1,0
25926.7,1000,4,2,0,25,1,0
25927.8,1000,4,2,0,25,1,0
25928.9,1000,4,2,0,25,1,0
25930,1000,4,2,0,25,1,0
25931.1,1000,4,2,0,25,1,0
25932.2,1000,4,2,0,25,1,0
25933.3,1000,4,2,0,25,1,0
25934.4,1000,4,2,0,25,1,0
25935.6,1000,4,2,0,25,1,0
25936.7,1000,4,2,0,25,1,0
25937.8,1000,4,2,0,25,1,0
25938.9,1000,4,2,0,25,1,0
25940,1000,4,2,0,25,1,0
25941.1,1000,4,2,0,25,1,0
25942.2,1000,4,2,0,25,1,0
25943.3,1000,4,2,0,25,1,0
25944.4,1000,4,2,0,25,1,0
25945.6,1000,4,2,0,25,1,0
25946.7,1000,4,2,0,25,1,0
25947.8,1000,4,2,0,25,1,0
25948.9,1000,4,2,0,25,1,0
25950,1000,4,2,0,25,1,0
25951.1,1000,4,2,0,25,1,0
25952.2,1000,4,2,0,25,1,0
25953.3,1000,4,2,0,25,1,0
25954.4,1000,4,2,0,25,1,0
25955.6,1000,4,2,0,25,1,0
25956.7,1000,4,2,0,25,1,0
25957.8,1000,4,2,0,25,1,0
25958.9,1000,4,2,0,25,1,0
25960,1000,4,2,0,25,1,0
25961.1,1000,4,2,0,25,1,0
25962.2,1000,4,2,0,25,1,0
25963.3,1000,4,2,0,25,1,0
25964.4,1000,4,2,0,25,1,0
25965.6,1000,4,2,0,25,1,0
25966.7,1000,4,2,0,25,1,0
25967.8,1000,4,2,0,25,1,0
25968.9,1000,4,2,0,25,1,0
25970,1000,4,2,0,25,1,0
25971.1,1000,4,2,0,25,1,0
25972.2,1000,4,2,0,25,1,0
25973.3,1000,4,2,0,25,1,0
25974.4,1000,4,2,0,25,1,0
25975.6,1000,4,2,0,25,1,0
25976.7,1000,4,2,0,25,1,0
25977.8,1000,4,2,0,25,1,0
25978.9,1000,4,2,0,25,1,0
25980,1000,4,2,0,25,1,0
25981.1,1000,4,2,0,25,1,0
25982.2,1000,4,2,0,25,1,0
25983.3,1000,4,2,0,25,1,0
25984.4,1000,4,2,0,25,1,0
25985.6,1000,4,2,0,25,1,0
25986.7,1000,4,2,0,25,1,0
25987.8,1000,4,2,0,25,1,0
25988.9,1000,4,2,0,25,1,0
25990,1000,4,2,0,25,1,0
25991.1,1000,4,2,0,25,1,0
25992.2,1000,4,2,0,25,1,0
25993.3,1000,4,2,0,25,1,0
25994.4,1000,4,2,0,25,1,0
25995.6,1000,4,2,0,25,1,0
25996.7,1000,4,2,0,25,1,0
25997.8,1000,4,2,0,25,1,0
25998.9,1000,4,2,0,25,1,0
26000,1000,4,2,0,25,1,0
26001.1,1000,4,2,0,25,1,0
26002.2,1000,4,2,0,25,1,0
26003.3,1000,4,2,0,25,1,0
26004.4,1000,4,2,0,25,1,0
26005.6,1000,4,2,0,25,1,0
26006.7,1000,4,2,0,25,1,0
26007.8,1000,4,2,0,25,1,0
26008.9,1000,4,2,0,25,1,0
26010,1000,4,2,0,25,1,0
26508,1000,4,2,0,25,1,0
26509.1,1000,4,2,0,25,1,0
26510.2,1000,4,2,0,25,1,0
26511.3,1000,4,2,0,25,1,0
26512.4,1000,4,2,0,25,1,0
26513.5,1000,4,2,0,25,1,0
26514.6,1000,4,2,0,25,1,0
26515.7,1000,4,2,0,25,1,0
26516.8,1000,4,2,0,25,1,0
26518,1000,4,2,0,25,1,0
26519.1,1000,4,2,0,25,1,0
26520.2,1000,4,2,0,25,1,0
26521.3,1000,4,2,0,25,1,0
26522.4,1000,4,2,0,25,1,0
26523.5,1000,4,2,0,25,1,0
26524.6,1000,4,2,0,25,1,0
26525.7,1000,4,2,0,25,1,0
26526.8,1000,4,2,0,25,1,0
26527.9,1000,4,2,0,25,1,0
26529,1000,4,2,0,25,1,0
26530.1,1000,4,2,0,25,1,0
26531.2,1000,4,2,0,25,1,0
26532.3,1000,4,2,0,25,1,0
26533.4,1000,4,2,0,25,1,0
26534.5,1000,4,2,0,25,1,0
26535.7,1000,4,2,0,25,1,0
26536.8,1000,4,2,0,25,1,0
26537.9,1000,4,2,0,25,1,0
26539,1000,4,2,0,25,1,0
26540.1,1000,4,2,0,25,1,0
26541.2,1000,4,2,0,25,1,0
26542.3,1000,4,2,0,25,1,0
26543.4,1000,4,2,0,25,1,0
26544.5,1000,4,2,0,25,1,0
26545.6,1000,4,2,0,25,1,0
26546.7,1000,4,2,0,25,1,0
26547.8,1000,4,2,0,25,1,0
26548.9,1000,4,2,0,25,1,0
26550,1000,4,2,0,25,1,0
26551.1,1000,4,2,0,25,1,0
26552.2,1000,4,2,0,25,1,0
26553.4,1000,4,2,0,25,1,0
26554.5,1000,4,2,0,25,1,0
26555.6,1000,4,2,0,25,1,0
26556.7,1000,4,2,0,25,1,0
26557.8,1000,4,2,0,25,1,0
26558.9,1000,4,2,0,25,1,0
26560,1000,4,2,0,25,1,0
26561.1,1000,4,2,0,25,1,0
26562.2,1000,4,2,0,25,1,0
26563.3,1000,4,2,0,25,1,0
26564.4,1000,4,2,0,25,1,0
26565.5,1000,4,2,0,25,1,0
26566.6,1000,4,2,0,25,1,0
26567.7,1000,4,2,0,25,1,0
26568.8,1000,4,2,0,25,1,0
26569.9,1000,4,2,0,25,1,0
26571.1,1000,4,2,0,25,1,0
26572.2,1000,4,2,0,25,1,0
26573.3,1000,4,2,0,25,1,0
26574.4,1000,4,2,0,25,1,0
26575.5,1000,4,2,0,25,1,0
26576.6,1000,4,2,0,25,1,0
26577.7,1000,4,2,0,25,1,0
26578.8,1000,4,2,0,25,1,0
26579.9,1000,4,2,0,25,1,0
26581,1000,4,2,0,25,1,0
26582.1,1000,4,2,0,25,1,0
26583.2,1000,4,2,0,25,1,0
26584.3,1000,4,2,0,25,1,0
26585.4,1000,4,2,0,25,1,0
26586.5,1000,4,2,0,25,1,0
26587.6,1000,4,2,0,25,1,0
26588.8,1000,4,2,0,25,1,0
26589.9,1000,4,2,0,25,1,0
26591,1000,4,2,0,25,1,0
26592.1,1000,4,2,0,25,1,0
26593.2,1000,4,2,0,25,1,0
26594.3,1000,4,2,0,25,1,0
26595.4,1000,4,2,0,25,1,0
26596.5,1000,4,2,0,25,1,0
26597.6,1000,4,2,0,25,1,0
26598.7,1000,4,2,0,25,1,0
26599.8,1000,4,2,0,25,1,0
26600.9,1000,4,2,0,25,1,0
26602,1000,4,2,0,25,1,0
26603.1,1000,4,2,0,25,1,0
26604.2,1000,4,2,0,25,1,0
26605.3,1000,4,2,0,25,1,0
26606.5,1000,4,2,0,25,1,0
26607.6,1000,4,2,0,25,1,0
26608.7,1000,4,2,0,25,1,0
26609.8,1000,4,2,0,25,1,0
26610.9,1000,4,2,0,25,1,0
26612,1000,4,2,0,25,1,0
26613.1,1000,4,2,0,25,1,0
26614.2,1000,4,2,0,25,1,0
26615.3,1000,4,2,0,25,1,0
26616.4,1000,4,2,0,25,1,0
26617.5,1000,4,2,0,25,1,0
26618.6,1000,4,2,0,25,1,0
26619.7,1000,4,2,0,25,1,0
26620.8,1000,4,2,0,25,1,0
26621.9,1000,4,2,0,25,1,0
26623,1000,4,2,0,25,1,0
26624.2,1000,4,2,0,25,1,0
26625.3,1000,4,2,0,25,1,0
26626.4,1000,4,2,0,25,1,0
26627.5,1000,4,2,0,25,1,0
26628.6,1000,4,2,0,25,1,0
26629.7,1000,4,2,0,25,1,0
26630.8,1000,4,2,0,25,1,0
26631.9,1000,4,2,0,25,1,0
26633,1000,4,2,0,25,1,0
26634.1,1000,4,2,0,25,1,0
26635.2,1000,4,2,0,25,1,0
26636.3,1000,4,2,0,25,1,0
26637.4,1000,4,2,0,25,1,0
26638.5,1000,4,2,0,25,1,0
26639.6,1000,4,2,0,25,1,0
26640.7,1000,4,2,0,25,1,0
26641.8,1000,4,2,0,25,1,0
26643,1000,4,2,0,25,1,0
26644.1,1000,4,2,0,25,1,0
26645.2,1000,4,2,0,25,1,0
26646.3,1000,4,2,0,25,1,0
26647.4,1000,4,2,0,25,1,0
26648.5,1000,4,2,0,25,1,0
26649.6,1000,4,2,0,25,1,0
26650.7,1000,4,2,0,25,1,0
26651.8,1000,4,2,0,25,1,0
26652.9,1000,4,2,0,25,1,0
26654,1000,4,2,0,25,1,0
26655.1,1000,4,2,0,25,1,0
26656.2,1000,4,2,0,25,1,0
26657.3,1000,4,2,0,25,1,0
26658.4,1000,4,2,0,25,1,0
26659.5,1000,4,2,0,25,1,0
26660.7,1000,4,2,0,25,1,0
26661.8,1000,4,2,0,25,1,0
26662.9,1000,4,2,0,25,1,0
26664,1000,4,2,0,25,1,0
26665.1,1000,4,2,0,25,1,0
26666.2,1000,4,2,0,25,1,0
26667.3,1000,4,2,0,25,1,0
26668.4,1000,4,2,0,25,1,0
26669.5,1000,4,2,0,25,1,0
26670.6,1000,4,2,0,25,1,0
26671.7,1000,4,2,0,25,1,0
26672.8,1000,4,2,0,25,1,0
26673.9,1000,4,2,0,25,1,0
26675,1000,4,2,0,25,1,0
26676.1,1000,4,2,0,25,1,0
26677.2,1000,4,2,0,25,1,0
26678.4,1000,4,2,0,25,1,0
26679.5,1000,4,2,0,25,1,0
26680.6,1000,4,2,0,25,1,0
26681.7,1000,4,2,0,25,1,0
26682.8,1000,4,2,0,25,1,0
26683.9,1000,4,2,0,25,1,0
26685,1000,4,2,0,25,1,0
26686.1,1000,4,2,0,25,1,0
26687.2,1000,4,2,0,25,1,0
26688.3,1000,4,2,0,25,1,0
26689.4,1000,4,2,0,25,1,0
26690.5,1000,4,2,0,25,1,0
26691.6,1000,4,2,0,25,1,0
26692.7,1000,4,2,0,25,1,0
26693.8,1000,4,2,0,25,1,0
26694.9,1000,4,2,0,25,1,0
26696.1,1000,4,2,0,25,1,0
26697.2,1000,4,2,0,25,1,0
26698.3,1000,4,2,0,25,1,0
26699.4,1000,4,2,0,25,1,0
26700.5,1000,4,2,0,25,1,0
26701.6,1000,4,2,0,25,1,0
26702.7,1000,4,2,0,25,1,0
26703.8,1000,4,2,0,25,1,0
26704.9,1000,4,2,0,25,1,0
26706,1000,4,2,0,25,1,0
26707.1,1000,4,2,0,25,1,0
26708.2,1000,4,2,0,25,1,0
26709.3,1000,4,2,0,25,1,0
26710.4,1000,4,2,0,25,1,0
26711.5,1000,4,2,0,25,1,0
26712.6,1000,4,2,0,25,1,0
26713.8,1000,4,2,0,25,1,0
26714.9,1000,4,2,0,25,1,0
26716,1000,4,2,0,25,1,0
26717.1,1000,4,2,0,25,1,0
26718.2,1000,4,2,0,25,1,0
26719.3,1000,4,2,0,25,1,0
26720.4,1000,4,2,0,25,1,0
26721.5,1000,4,2,0,25,1,0
26722.6,1000,4,2,0,25,1,0
26723.7,1000,4,2,0,25,1,0
26724.8,1000,4,2,0,25,1,0
26725.9,1000,4,2,0,25,1,0
26727,1000,4,2,0,25,1,0
26728.1,1000,4,2,0,25,1,0
26729.2,1000,4,2,0,25,1,0
26730.3,1000,4,2,0,25,1,0
26731.5,1000,4,2,0,25,1,0
26732.6,1000,4,2,0,25,1,0
26733.7,1000,4,2,0,25,1,0
26734.8,1000,4,2,0,25,1,0
26735.9,1000,4,2,0,25,1,0
26737,1000,4,2,0,25,1,0
26738.1,1000,4,2,0,25,1,0
26739.2,1000,4,2,0,25,1,0
26740.3,1000,4,2,0,25,1,0
26741.4,1000,4,2,0,25,1,0
26742.5,1000,4,2,0,25,1,0
26743.6,1000,4,2,0,25,1,0
26744.7,1000,4,2,0,25,1,0
26745.8,1000,4,2,0,25,1,0
26746.9,1000,4,2,0,25,1,0
26748,1000,4,2,0,25,1,0
26749.2,1000,4,2,0,25,1,0
26750.3,1000,4,2,0,25,1,0
26751.4,1000,4,2,0,25,1,0
26752.5,1000,4,2,0,25,1,0
26753.6,1000,4,2,0,25,1,0
26754.7,1000,4,2,0,25,1,0
26755.8,1000,4,2,0,25,1,0
26756.9,1000,4,2,0,25,1,0
26758,1000,4,2,0,25,1,0
26758,-14.2857,4,2,0,25,0,0
26781,-663.636,4,2,0,25,0,0
26843,-14.2857,4,2,0,25,0,0
26865.4,-663.636,4,2,0,25,0,0
26926,-14.2857,4,2,0,25,0,0
26948.7,-663.636,4,2,0,25,0,0
27010,-14.2857,4,2,0,25,0,0
27032.4,-663.636,4,2,0,25,0,0
27093,-14.2857,4,2,0,25,0,0
27115.4,-663.636,4,2,0,25,0,0
27176,-14.2857,4,2,0,25,0,0
27198.7,-663.636,4,2,0,25,0,0
27260,-14.2857,4,2,0,25,0,0
27282.4,-663.636,4,2,0,25,0,0
27343,-14.2857,4,2,0,25,0,0
27365.4,-663.636,4,2,0,25,0,0
27426,-50,4,2,0,25,0,0
27510,1.07143,4,2,0,25,1,0
27512,0.3,4,2,0,25,1,0
27514,6000000,4,2,0,25,1,0
27520,1.11606,4,2,0,25,1,0
27522,0.3,4,2,0,25,1,0
27524,6000000,4,2,0,25,1,0
27530,1.16458,4,2,0,25,1,0
27532,0.3,4,2,0,25,1,0
27534,6000000,4,2,0,25,1,0
27540,1.2175,4,2,0,25,1,0
27542,0.3,4,2,0,25,1,0
27544,6000000,4,2,0,25,1,0
27550,1.27546,4,2,0,25,1,0
27552,0.3,4,2,0,25,1,0
27554,6000000,4,2,0,25,1,0
27560,1.33922,4,2,0,25,1,0
27562,0.3,4,2,0,25,1,0
27564,6000000,4,2,0,25,1,0
27570,1.40969,4,2,0,25,1,0
27572,0.3,4,2,0,25,1,0
27574,6000000,4,2,0,25,1,0
27580,1.48799,4,2,0,25,1,0
27582,0.3,4,2,0,25,1,0
27584,6000000,4,2,0,25,1,0
27590,1.57549,4,2,0,25,1,0
27592,0.3,4,2,0,25,1,0
27594,6000000,4,2,0,25,1,0
27600,1.67391,4,2,0,25,1,0
27602,0.3,4,2,0,25,1,0
27604,6000000,4,2,0,25,1,0
27610,1.78547,4,2,0,25,1,0
27612,0.3,4,2,0,25,1,0
27614,6000000,4,2,0,25,1,0
27620,1.91297,4,2,0,25,1,0
27622,0.3,4,2,0,25,1,0
27624,6000000,4,2,0,25,1,0
27630,2.06006,4,2,0,25,1,0
27632,0.3,4,2,0,25,1,0
27634,6000000,4,2,0,25,1,0
27640,2.23166,4,2,0,25,1,0
27642,0.3,4,2,0,25,1,0
27644,6000000,4,2,0,25,1,0
27650,2.43444,4,2,0,25,1,0
27652,0.3,4,2,0,25,1,0
27654,6000000,4,2,0,25,1,0
27660,2.67777,4,2,0,25,1,0
27662,0.3,4,2,0,25,1,0
27664,6000000,4,2,0,25,1,0
27670,2.97513,4,2,0,25,1,0
27672,0.3,4,2,0,25,1,0
27674,6000000,4,2,0,25,1,0
27680,3.3468,4,2,0,25,1,0
27682,0.3,4,2,0,25,1,0
27684,6000000,4,2,0,25,1,0
27690,3.82456,4,2,0,25,1,0
27692,0.3,4,2,0,25,1,0
27694,6000000,4,2,0,25,1,0
27700,4.46147,4,2,0,25,1,0
27702,0.3,4,2,0,25,1,0
27704,6000000,4,2,0,25,1,0
27710,5.35286,4,2,0,25,1,0
27712,0.3,4,2,0,25,1,0
27714,6000000,4,2,0,25,1,0
27720,6.6894,4,2,0,25,1,0
27722,0.3,4,2,0,25,1,0
27724,6000000,4,2,0,25,1,0
27730,8.91549,4,2,0,25,1,0
27732,0.3,4,2,0,25,1,0
27734,6000000,4,2,0,25,1,0
27740,13.3621,4,2,0,25,1,0
27742,0.3,4,2,0,25,1,0
27744,6000000,4,2,0,25,1,0
27750,26.6577,4,2,0,25,1,0
27752,0.3,4,2,0,25,1,0
27754,6000000,4,2,0,25,1,0
27760,5357.14,4,2,0,25,1,0
27762,0.3,4,2,0,25,1,0
27764,6000000,4,2,0,25,1,0
31000,5000,7,2,0,25,1,0
31002,0.3,7,2,0,25,1,0
31004,6000000,7,2,0,25,1,0
31008,884.917,7,2,0,25,1,0
31010,0.3,7,2,0,25,1,0
31012,6000000,7,2,0,25,1,0
31016,485.415,7,2,0,25,1,0
31018,0.3,7,2,0,25,1,0
31020,6000000,7,2,0,25,1,0
31024,334.433,7,2,0,25,1,0
31026,0.3,7,2,0,25,1,0
31028,6000000,7,2,0,25,1,0
31032,255.09,7,2,0,25,1,0
31034,0.3,7,2,0,25,1,0
31036,6000000,7,2,0,25,1,0
31040,206.176,7,2,0,25,1,0
31042,0.3,7,2,0,25,1,0
31044,6000000,7,2,0,25,1,0
31048,173.002,7,2,0,25,1,0
31050,0.3,7,2,0,25,1,0
31052,6000000,7,2,0,25,1,0
31056,149.024,7,2,0,25,1,0
31058,0.3,7,2,0,25,1,0
31060,6000000,7,2,0,25,1,0
31064,130.883,7,2,0,25,1,0
31066,0.3,7,2,0,25,1,0
31068,6000000,7,2,0,25,1,0
31072,116.68,7,2,0,25,1,0
31074,0.3,7,2,0,25,1,0
31076,6000000,7,2,0,25,1,0
31080,105.258,7,2,0,25,1,0
31082,0.3,7,2,0,25,1,0
31084,6000000,7,2,0,25,1,0
31088,95.8725,7,2,0,25,1,0
31090,0.3,7,2,0,25,1,0
31092,6000000,7,2,0,25,1,0
31096,88.0242,7,2,0,25,1,0
31098,0.3,7,2,0,25,1,0
31100,6000000,7,2,0,25,1,0
31104,81.363,7,2,0,25,1,0
31106,0.3,7,2,0,25,1,0
31108,6000000,7,2,0,25,1,0
31112,75.6393,7,2,0,25,1,0
31114,0.3,7,2,0,25,1,0
31116,6000000,7,2,0,25,1,0
31120,70.6679,7,2,0,25,1,0
31122,0.3,7,2,0,25,1,0
31124,6000000,7,2,0,25,1,0
31128,66.3097,7,2,0,25,1,0
31130,0.3,7,2,0,25,1,0
31132,6000000,7,2,0,25,1,0
31136,62.4579,7,2,0,25,1,0
31138,0.3,7,2,0,25,1,0
31140,6000000,7,2,0,25,1,0
31144,59.029,7,2,0,25,1,0
31146,0.3,7,2,0,25,1,0
31148,6000000,7,2,0,25,1,0
31152,55.9569,7,2,0,25,1,0
31154,0.3,7,2,0,25,1,0
31156,6000000,7,2,0,25,1,0
31160,53.1888,7,2,0,25,1,0
31162,0.3,7,2,0,25,1,0
31164,6000000,7,2,0,25,1,0
31168,50.6818,7,2,0,25,1,0
31170,0.3,7,2,0,25,1,0
31172,6000000,7,2,0,25,1,0
31176,48.4003,7,2,0,25,1,0
31178,0.3,7,2,0,25,1,0
31180,6000000,7,2,0,25,1,0
31184,46.3154,7,2,0,25,1,0
31186,0.3,7,2,0,25,1,0
31188,6000000,7,2,0,25,1,0
31192,44.4027,7,2,0,25,1,0
31194,0.3,7,2,0,25,1,0
31196,6000000,7,2,0,25,1,0
31200,42.6418,7,2,0,25,1,0
31202,0.3,7,2,0,25,1,0
31204,6000000,7,2,0,25,1,0
31208,41.0152,7,2,0,25,1,0
31210,0.3,7,2,0,25,1,0
31212,6000000,7,2,0,25,1,0
31216,39.5081,7,2,0,25,1,0
31218,0.3,7,2,0,25,1,0
31220,6000000,7,2,0,25,1,0
31224,38.1078,7,2,0,25,1,0
31226,0.3,7,2,0,25,1,0
31228,6000000,7,2,0,25,1,0
31232,36.8035,7,2,0,25,1,0
31234,0.3,7,2,0,25,1,0
31236,6000000,7,2,0,25,1,0
31240,35.5854,7,2,0,25,1,0
31242,0.3,7,2,0,25,1,0
31244,6000000,7,2,0,25,1,0
31248,34.4454,7,2,0,25,1,0
31250,0.3,7,2,0,25,1,0
31252,6000000,7,2,0,25,1,0
31256,33.3762,7,2,0,25,1,0
31258,0.3,7,2,0,25,1,0
31260,6000000,7,2,0,25,1,0
31264,32.3713,7,2,0,25,1,0
31266,0.3,7,2,0,25,1,0
31268,6000000,7,2,0,25,1,0
31272,31.4252,7,2,0,25,1,0
31274,0.3,7,2,0,25,1,0
31276,6000000,7,2,0,25,1,0
31280,30.5328,7,2,0,25,1,0
31282,0.3,7,2,0,25,1,0
31284,6000000,7,2,0,25,1,0
31288,29.6897,7,2,0,25,1,0
31290,0.3,7,2,0,25,1,0
31292,6000000,7,2,0,25,1,0
31296,28.8919,7,2,0,25,1,0
31298,0.3,7,2,0,25,1,0
31300,6000000,7,2,0,25,1,0
31304,28.1359,7,2,0,25,1,0
31306,0.3,7,2,0,25,1,0
31308,6000000,7,2,0,25,1,0
31312,27.4184,7,2,0,25,1,0
31314,0.3,7,2,0,25,1,0
31316,6000000,7,2,0,25,1,0
31320,26.7367,7,2,0,25,1,0
31322,0.3,7,2,0,25,1,0
31324,6000000,7,2,0,25,1,0
31328,26.0879,7,2,0,25,1,0
31330,0.3,7,2,0,25,1,0
31332,6000000,7,2,0,25,1,0
31336,25.4699,7,2,0,25,1,0
31338,0.3,7,2,0,25,1,0
31340,6000000,7,2,0,25,1,0
31344,24.8806,7,2,0,25,1,0
31346,0.3,7,2,0,25,1,0
31348,6000000,7,2,0,25,1,0
31352,24.3178,7,2,0,25,1,0
31354,0.3,7,2,0,25,1,0
31356,6000000,7,2,0,25,1,0
31360,23.78,7,2,0,25,1,0
31362,0.3,7,2,0,25,1,0
31364,6000000,7,2,0,25,1,0
31368,23.2655,7,2,0,25,1,0
31370,0.3,7,2,0,25,1,0
31372,6000000,7,2,0,25,1,0
31376,22.7728,7,2,0,25,1,0
31378,0.3,7,2,0,25,1,0
31380,6000000,7,2,0,25,1,0
31384,22.3004,7,2,0,25,1,0
31386,0.3,7,2,0,25,1,0
31388,6000000,7,2,0,25,1,0
31392,21.8472,7,2,0,25,1,0
31394,0.3,7,2,0,25,1,0
31396,6000000,7,2,0,25,1,0
31400,21.4123,7,2,0,25,1,0
31402,0.3,7,2,0,25,1,0
31404,6000000,7,2,0,25,1,0
31408,20.9942,7,2,0,25,1,0
31410,0.3,7,2,0,25,1,0
31412,6000000,7,2,0,25,1,0
31416,20.5921,7,2,0,25,1,0
31418,0.3,7,2,0,25,1,0
31420,6000000,7,2,0,25,1,0
31424,20.2051,7,2,0,25,1,0
31426,0.3,7,2,0,25,1,0
31428,6000000,7,2,0,25,1,0
31432,19.8324,7,2,0,25,1,0
31434,0.3,7,2,0,25,1,0
31436,6000000,7,2,0,25,1,0
31440,19.4733,7,2,0,25,1,0
31442,0.3,7,2,0,25,1,0
31444,6000000,7,2,0,25,1,0
31448,19.1268,7,2,0,25,1,0
31450,0.3,7,2,0,25,1,0
31452,6000000,7,2,0,25,1,0
31456,18.7925,7,2,0,25,1,0
31458,0.3,7,2,0,25,1,0
31460,6000000,7,2,0,25,1,0
31464,18.4697,7,2,0,25,1,0
31466,0.3,7,2,0,25,1,0
31468,6000000,7,2,0,25,1,0
31472,18.1578,7,2,0,25,1,0
31474,0.3,7,2,0,25,1,0
31476,6000000,7,2,0,25,1,0
31480,17.8562,7,2,0,25,1,0
31482,0.3,7,2,0,25,1,0
31484,6000000,7,2,0,25,1,0
31488,17.5646,7,2,0,25,1,0
31490,0.3,7,2,0,25,1,0
31492,6000000,7,2,0,25,1,0
31496,17.2823,7,2,0,25,1,0
31498,0.3,7,2,0,25,1,0
31500,6000000,7,2,0,25,1,0
31504,17.0088,7,2,0,25,1,0
31506,0.3,7,2,0,25,1,0
31508,6000000,7,2,0,25,1,0
31512,16.744,7,2,0,25,1,0
31514,0.3,7,2,0,25,1,0
31516,6000000,7,2,0,25,1,0
31520,16.4872,7,2,0,25,1,0
31522,0.3,7,2,0,25,1,0
31524,6000000,7,2,0,25,1,0
31528,16.2383,7,2,0,25,1,0
31530,0.3,7,2,0,25,1,0
31532,6000000,7,2,0,25,1,0
31536,15.9967,7,2,0,25,1,0
31538,0.3,7,2,0,25,1,0
31540,6000000,7,2,0,25,1,0
31544,15.7622,7,2,0,25,1,0
31546,0.3,7,2,0,25,1,0
31548,6000000,7,2,0,25,1,0
31552,15.5344,7,2,0,25,1,0
31554,0.3,7,2,0,25,1,0
31556,6000000,7,2,0,25,1,0
31560,15.3132,7,2,0,25,1,0
31562,0.3,7,2,0,25,1,0
31564,6000000,7,2,0,25,1,0
31568,15.0982,7,2,0,25,1,0
31570,0.3,7,2,0,25,1,0
31572,6000000,7,2,0,25,1,0
31576,14.8891,7,2,0,25,1,0
31578,0.3,7,2,0,25,1,0
31580,6000000,7,2,0,25,1,0
31584,14.6858,7,2,0,25,1,0
31586,0.3,7,2,0,25,1,0
31588,6000000,7,2,0,25,1,0
31592,14.4878,7,2,0,25,1,0
31594,0.3,7,2,0,25,1,0
31596,6000000,7,2,0,25,1,0
31600,14.2952,7,2,0,25,1,0
31602,0.3,7,2,0,25,1,0
31604,6000000,7,2,0,25,1,0
31608,14.1077,7,2,0,25,1,0
31610,0.3,7,2,0,25,1,0
31612,6000000,7,2,0,25,1,0
31616,13.9249,7,2,0,25,1,0
31618,0.3,7,2,0,25,1,0
31620,6000000,7,2,0,25,1,0
31624,13.7469,7,2,0,25,1,0
31626,0.3,7,2,0,25,1,0
31628,6000000,7,2,0,25,1,0
31632,13.5733,7,2,0,25,1,0
31634,0.3,7,2,0,25,1,0
31636,6000000,7,2,0,25,1,0
31640,13.4042,7,2,0,25,1,0
31642,0.3,7,2,0,25,1,0
31644,6000000,7,2,0,25,1,0
31648,13.2391,7,2,0,25,1,0
31650,0.3,7,2,0,25,1,0
31652,6000000,7,2,0,25,1,0
31656,13.0781,7,2,0,25,1,0
31658,0.3,7,2,0,25,1,0
31660,6000000,7,2,0,25,1,0
31664,12.9209,7,2,0,25,1,0
31666,0.3,7,2,0,25,1,0
31668,6000000,7,2,0,25,1,0
31672,12.7675,7,2,0,25,1,0
31674,0.3,7,2,0,25,1,0
31676,6000000,7,2,0,25,1,0
31680,12.6177,7,2,0,25,1,0
31682,0.3,7,2,0,25,1,0
31684,6000000,7,2,0,25,1,0
31688,12.4713,7,2,0,25,1,0
31690,0.3,7,2,0,25,1,0
31692,6000000,7,2,0,25,1,0
31696,12.3283,7,2,0,25,1,0
31698,0.3,7,2,0,25,1,0
31700,6000000,7,2,0,25,1,0
31704,12.1886,7,2,0,25,1,0
31706,0.3,7,2,0,25,1,0
31708,6000000,7,2,0,25,1,0
31712,12.0519,7,2,0,25,1,0
31714,0.3,7,2,0,25,1,0
31716,6000000,7,2,0,25,1,0
31720,11.9183,7,2,0,25,1,0
31722,0.3,7,2,0,25,1,0
31724,6000000,7,2,0,25,1,0
31728,11.7877,7,2,0,25,1,0
31730,0.3,7,2,0,25,1,0
31732,6000000,7,2,0,25,1,0
31736,11.6598,7,2,0,25,1,0
31738,0.3,7,2,0,25,1,0
31740,6000000,7,2,0,25,1,0
31744,11.5348,7,2,0,25,1,0
31746,0.3,7,2,0,25,1,0
31748,6000000,7,2,0,25,1,0
31752,11.4123,7,2,0,25,1,0
31754,0.3,7,2,0,25,1,0
31756,6000000,7,2,0,25,1,0
31760,11.2925,7,2,0,25,1,0
31762,0.3,7,2,0,25,1,0
31764,6000000,7,2,0,25,1,0
31768,11.1751,7,2,0,25,1,0
31770,0.3,7,2,0,25,1,0
31772,6000000,7,2,0,25,1,0
31776,11.0602,7,2,0,25,1,0
31778,0.3,7,2,0,25,1,0
31780,6000000,7,2,0,25,1,0
31784,10.9476,7,2,0,25,1,0
31786,0.3,7,2,0,25,1,0
31788,6000000,7,2,0,25,1,0
31792,10.8372,7,2,0,25,1,0
31794,0.3,7,2,0,25,1,0
31796,6000000,7,2,0,25,1,0
31800,10.7291,7,2,0,25,1,0
31802,0.3,7,2,0,25,1,0
31804,6000000,7,2,0,25,1,0
31808,10.6231,7,2,0,25,1,0
31810,0.3,7,2,0,25,1,0
31812,6000000,7,2,0,25,1,0
31816,10.5192,7,2,0,25,1,0
31818,0.3,7,2,0,25,1,0
31820,6000000,7,2,0,25,1,0
31824,10.4172,7,2,0,25,1,0
31826,0.3,7,2,0,25,1,0
31828,6000000,7,2,0,25,1,0
31832,10.3172,7,2,0,25,1,0
31834,0.3,7,2,0,25,1,0
31836,6000000,7,2,0,25,1,0
31840,10.2193,7,2,0,25,1,0
31842,0.3,7,2,0,25,1,0
31844,6000000,7,2,0,25,1,0
31848,10.123,7,2,0,25,1,0
31850,0.3,7,2,0,25,1,0
31852,6000000,7,2,0,25,1,0
31856,10.0286,7,2,0,25,1,0
31858,0.3,7,2,0,25,1,0
31860,6000000,7,2,0,25,1,0
31864,9.93592,7,2,0,25,1,0
31866,0.3,7,2,0,25,1,0
31868,6000000,7,2,0,25,1,0
31872,9.84492,7,2,0,25,1,0
31874,0.3,7,2,0,25,1,0
31876,6000000,7,2,0,25,1,0
31880,9.75558,7,2,0,25,1,0
31882,0.3,7,2,0,25,1,0
31884,6000000,7,2,0,25,1,0
31888,9.66792,7,2,0,25,1,0
31890,0.3,7,2,0,25,1,0
31892,6000000,7,2,0,25,1,0
31896,9.58175,7,2,0,25,1,0
31898,0.3,7,2,0,25,1,0
31900,6000000,7,2,0,25,1,0
31904,9.49708,7,2,0,25,1,0
31906,0.3,7,2,0,25,1,0
31908,6000000,7,2,0,25,1,0
31912,9.41392,7,2,0,25,1,0
31914,0.3,7,2,0,25,1,0
31916,6000000,7,2,0,25,1,0
31920,9.33225,7,2,0,25,1,0
31922,0.3,7,2,0,25,1,0
31924,6000000,7,2,0,25,1,0
31928,9.25192,7,2,0,25,1,0
31930,0.3,7,2,0,25,1,0
31932,6000000,7,2,0,25,1,0
31936,9.173,7,2,0,25,1,0
31938,0.3,7,2,0,25,1,0
31940,6000000,7,2,0,25,1,0
31944,9.09542,7,2,0,25,1,0
31946,0.3,7,2,0,25,1,0
31948,6000000,7,2,0,25,1,0
31952,9.01908,7,2,0,25,1,0
31954,0.3,7,2,0,25,1,0
31956,6000000,7,2,0,25,1,0
31960,8.94408,7,2,0,25,1,0
31962,0.3,7,2,0,25,1,0
31964,6000000,7,2,0,25,1,0
31968,8.87033,7,2,0,25,1,0
31970,0.3,7,2,0,25,1,0
31972,6000000,7,2,0,25,1,0
31976,8.79775,7,2,0,25,1,0
31978,0.3,7,2,0,25,1,0
31980,6000000,7,2,0,25,1,0
31984,8.72633,7,2,0,25,1,0
31986,0.3,7,2,0,25,1,0
31988,6000000,7,2,0,25,1,0
31992,8.65608,7,2,0,25,1,0
31994,0.3,7,2,0,25,1,0
31996,6000000,7,2,0,25,1,0
32000,8.58692,7,2,0,25,1,0
32002,0.3,7,2,0,25,1,0
32004,6000000,7,2,0,25,1,0
32008,8.51892,7,2,0,25,1,0
32010,0.3,7,2,0,25,1,0
32012,6000000,7,2,0,25,1,0
32016,8.45192,7,2,0,25,1,0
32018,0.3,7,2,0,25,1,0
32020,6000000,7,2,0,25,1,0
32024,8.386,7,2,0,25,1,0
32026,0.3,7,2,0,25,1,0
32028,6000000,7,2,0,25,1,0
32032,8.32113,7,2,0,25,1,0
32034,0.3,7,2,0,25,1,0
32036,6000000,7,2,0,25,1,0
32040,8.25723,7,2,0,25,1,0
32042,0.3,7,2,0,25,1,0
32044,6000000,7,2,0,25,1,0
32048,8.1943,7,2,0,25,1,0
32050,0.3,7,2,0,25,1,0
32052,6000000,7,2,0,25,1,0
32056,8.13232,7,2,0,25,1,0
32058,0.3,7,2,0,25,1,0
32060,6000000,7,2,0,25,1,0
32064,8.07127,7,2,0,25,1,0
32066,0.3,7,2,0,25,1,0
32068,6000000,7,2,0,25,1,0
32072,8.01113,7,2,0,25,1,0
32074,0.3,7,2,0,25,1,0
32076,6000000,7,2,0,25,1,0
32080,7.95189,7,2,0,25,1,0
32082,0.3,7,2,0,25,1,0
32084,6000000,7,2,0,25,1,0
32088,7.89351,7,2,0,25,1,0
32090,0.3,7,2,0,25,1,0
32092,6000000,7,2,0,25,1,0
32096,7.83598,7,2,0,25,1,0
32098,0.3,7,2,0,25,1,0
32100,6000000,7,2,0,25,1,0
32104,7.77929,7,2,0,25,1,0
32106,0.3,7,2,0,25,1,0
32108,6000000,7,2,0,25,1,0
32112,7.72341,7,2,0,25,1,0
32114,0.3,7,2,0,25,1,0
32116,6000000,7,2,0,25,1,0
32120,7.66833,7,2,0,25,1,0
32122,0.3,7,2,0,25,1,0
32124,6000000,7,2,0,25,1,0
32128,7.61402,7,2,0,25,1,0
32130,0.3,7,2,0,25,1,0
32132,6000000,7,2,0,25,1,0
32136,7.56048,7,2,0,25,1,0
32138,0.3,7,2,0,25,1,0
32140,6000000,7,2,0,25,1,0
32144,7.5077,7,2,0,25,1,0
32146,0.3,7,2,0,25,1,0
32148,6000000,7,2,0,25,1,0
32152,7.45563,7,2,0,25,1,0
32154,0.3,7,2,0,25,1,0
32156,6000000,7,2,0,25,1,0
32160,7.40429,7,2,0,25,1,0
32162,0.3,7,2,0,25,1,0
32164,6000000,7,2,0,25,1,0
32168,7.35366,7,2,0,25,1,0
32170,0.3,7,2,0,25,1,0
32172,6000000,7,2,0,25,1,0
32176,7.3037,7,2,0,25,1,0
32178,0.3,7,2,0,25,1,0
32180,6000000,7,2,0,25,1,0
32184,7.25442,7,2,0,25,1,0
32186,0.3,7,2,0,25,1,0
32188,6000000,7,2,0,25,1,0
32192,7.20581,7,2,0,25,1,0
32194,0.3,7,2,0,25,1,0
32196,6000000,7,2,0,25,1,0
32200,7.15784,7,2,0,25,1,0
32202,0.3,7,2,0,25,1,0
32204,6000000,7,2,0,25,1,0
32208,7.1105,7,2,0,25,1,0
32210,0.3,7,2,0,25,1,0
32212,6000000,7,2,0,25,1,0
32216,7.06379,7,2,0,25,1,0
32218,0.3,7,2,0,25,1,0
32220,6000000,7,2,0,25,1,0
32224,7.01768,7,2,0,25,1,0
32226,0.3,7,2,0,25,1,0
32228,6000000,7,2,0,25,1,0
32232,6.97218,7,2,0,25,1,0
32234,0.3,7,2,0,25,1,0
32236,6000000,7,2,0,25,1,0
32240,6.92726,7,2,0,25,1,0
32242,0.3,7,2,0,25,1,0
32244,6000000,7,2,0,25,1,0
32248,6.88292,7,2,0,25,1,0
32250,0.3,7,2,0,25,1,0
32252,6000000,7,2,0,25,1,0
32256,6.83913,7,2,0,25,1,0
32258,0.3,7,2,0,25,1,0
32260,6000000,7,2,0,25,1,0
32264,6.79591,7,2,0,25,1,0
32266,0.3,7,2,0,25,1,0
32268,6000000,7,2,0,25,1,0
32272,6.75322,7,2,0,25,1,0
32274,0.3,7,2,0,25,1,0
32276,6000000,7,2,0,25,1,0
32280,6.71107,7,2,0,25,1,0
32282,0.3,7,2,0,25,1,0
32284,6000000,7,2,0,25,1,0
32288,6.66945,7,2,0,25,1,0
32290,0.3,7,2,0,25,1,0
32292,6000000,7,2,0,25,1,0
32296,6.62833,7,2,0,25,1,0
32298,0.3,7,2,0,25,1,0
32300,6000000,7,2,0,25,1,0
32304,6.58772,7,2,0,25,1,0
32306,0.3,7,2,0,25,1,0
32308,6000000,7,2,0,25,1,0
32312,6.5476,7,2,0,25,1,0
32314,0.3,7,2,0,25,1,0
32316,6000000,7,2,0,25,1,0
32320,6.50797,7,2,0,25,1,0
32322,0.3,7,2,0,25,1,0
32324,6000000,7,2,0,25,1,0
32328,6.46882,7,2,0,25,1,0
32330,0.3,7,2,0,25,1,0
32332,6000000,7,2,0,25,1,0
32336,6.43013,7,2,0,25,1,0
32338,0.3,7,2,0,25,1,0
32340,6000000,7,2,0,25,1,0
32344,6.39191,7,2,0,25,1,0
32346,0.3,7,2,0,25,1,0
32348,6000000,7,2,0,25,1,0
32352,6.35413,7,2,0,25,1,0
32354,0.3,7,2,0,25,1,0
32356,6000000,7,2,0,25,1,0
32360,6.3168,7,2,0,25,1,0
32362,0.3,7,2,0,25,1,0
32364,6000000,7,2,0,25,1,0
32368,6.27991,7,2,0,25,1,0
32370,0.3,7,2,0,25,1,0
32372,6000000,7,2,0,25,1,0
32376,6.24344,7,2,0,25,1,0
32378,0.3,7,2,0,25,1,0
32380,6000000,7,2,0,25,1,0
32384,6.2074,7,2,0,25,1,0
32386,0.3,7,2,0,25,1,0
32388,6000000,7,2,0,25,1,0
32392,6.17177,7,2,0,25,1,0
32394,0.3,7,2,0,25,1,0
32396,6000000,7,2,0,25,1,0
32400,6.13654,7,2,0,25,1,0
32402,0.3,7,2,0,25,1,0
32404,6000000,7,2,0,25,1,0
32408,6.10173,7,2,0,25,1,0
32410,0.3,7,2,0,25,1,0
32412,6000000,7,2,0,25,1,0
32416,6.06729,7,2,0,25,1,0
32418,0.3,7,2,0,25,1,0
32420,6000000,7,2,0,25,1,0
32424,6.03324,7,2,0,25,1,0
32426,0.3,7,2,0,25,1,0
32428,6000000,7,2,0,25,1,0
32432,5.99958,7,2,0,25,1,0
32434,0.3,7,2,0,25,1,0
32436,6000000,7,2,0,25,1,0
32440,5.96629,7,2,0,25,1,0
32442,0.3,7,2,0,25,1,0
32444,6000000,7,2,0,25,1,0
32448,5.93337,7,2,0,25,1,0
32450,0.3,7,2,0,25,1,0
32452,6000000,7,2,0,25,1,0
32456,5.9008,7,2,0,25,1,0
32458,0.3,7,2,0,25,1,0
32460,6000000,7,2,0,25,1,0
32464,5.8686,7,2,0,25,1,0
32466,0.3,7,2,0,25,1,0
32468,6000000,7,2,0,25,1,0
32472,5.83674,7,2,0,25,1,0
32474,0.3,7,2,0,25,1,0
32476,6000000,7,2,0,25,1,0
32480,5.80523,7,2,0,25,1,0
32482,0.3,7,2,0,25,1,0
32484,6000000,7,2,0,25,1,0
32488,5.77405,7,2,0,25,1,0
32490,0.3,7,2,0,25,1,0
32492,6000000,7,2,0,25,1,0
32496,5.74321,7,2,0,25,1,0
32498,0.3,7,2,0,25,1,0
32500,6000000,7,2,0,25,1,0
32504,5.71269,7,2,0,25,1,0
32506,0.3,7,2,0,25,1,0
32508,6000000,7,2,0,25,1,0
32512,5.6825,7,2,0,25,1,0
32514,0.3,7,2,0,25,1,0
32516,6000000,7,2,0,25,1,0
32520,5.65263,7,2,0,25,1,0
32522,0.3,7,2,0,25,1,0
32524,6000000,7,2,0,25,1,0
32528,5.62307,7,2,0,25,1,0
32530,0.3,7,2,0,25,1,0
32532,6000000,7,2,0,25,1,0
32536,5.59382,7,2,0,25,1,0
32538,0.3,7,2,0,25,1,0
32540,6000000,7,2,0,25,1,0
32544,5.56486,7,2,0,25,1,0
32546,0.3,7,2,0,25,1,0
32548,6000000,7,2,0,25,1,0
32552,5.53621,7,2,0,25,1,0
32554,0.3,7,2,0,25,1,0
32556,6000000,7,2,0,25,1,0
32560,5.50785,7,2,0,25,1,0
32562,0.3,7,2,0,25,1,0
32564,6000000,7,2,0,25,1,0
32568,5.47978,7,2,0,25,1,0
32570,0.3,7,2,0,25,1,0
32572,6000000,7,2,0,25,1,0
32576,5.45199,7,2,0,25,1,0
32578,0.3,7,2,0,25,1,0
32580,6000000,7,2,0,25,1,0
32584,5.42449,7,2,0,25,1,0
32586,0.3,7,2,0,25,1,0
32588,6000000,7,2,0,25,1,0
32592,5.39726,7,2,0,25,1,0
32594,0.3,7,2,0,25,1,0
32596,6000000,7,2,0,25,1,0
32600,5.3703,7,2,0,25,1,0
32602,0.3,7,2,0,25,1,0
32604,6000000,7,2,0,25,1,0
32608,5.34361,7,2,0,25,1,0
32610,0.3,7,2,0,25,1,0
32612,6000000,7,2,0,25,1,0
32616,5.31718,7,2,0,25,1,0
32618,0.3,7,2,0,25,1,0
32620,6000000,7,2,0,25,1,0
32624,5.29103,7,2,0,25,1,0
32626,0.3,7,2,0,25,1,0
32628,6000000,7,2,0,25,1,0
32632,5.26511,7,2,0,25,1,0
32634,0.3,7,2,0,25,1,0
32636,6000000,7,2,0,25,1,0
32640,5.23946,7,2,0,25,1,0
32642,0.3,7,2,0,25,1,0
32644,6000000,7,2,0,25,1,0
32648,5.21405,7,2,0,25,1,0
32650,0.3,7,2,0,25,1,0
32652,6000000,7,2,0,25,1,0
32656,5.18888,7,2,0,25,1,0
32658,0.3,7,2,0,25,1,0
32660,6000000,7,2,0,25,1,0
32664,5.16397,7,2,0,25,1,0
32666,0.3,7,2,0,25,1,0
32668,6000000,7,2,0,25,1,0
32672,5.13928,7,2,0,25,1,0
32674,0.3,7,2,0,25,1,0
32676,6000000,7,2,0,25,1,0
32680,5.11483,7,2,0,25,1,0
32682,0.3,7,2,0,25,1,0
32684,6000000,7,2,0,25,1,0
32688,5.09062,7,2,0,25,1,0
32690,0.3,7,2,0,25,1,0
32692,6000000,7,2,0,25,1,0
32696,5.06663,7,2,0,25,1,0
32698,0.3,7,2,0,25,1,0
32700,6000000,7,2,0,25,1,0
32704,5.04287,7,2,0,25,1,0
32706,0.3,7,2,0,25,1,0
32708,6000000,7,2,0,25,1,0
32712,5.01933,7,2,0,25,1,0
32714,0.3,7,2,0,25,1,0
32716,6000000,7,2,0,25,1,0
32720,4.996,7,2,0,25,1,0
32722,0.3,7,2,0,25,1,0
32724,6000000,7,2,0,25,1,0
32728,4.9729,7,2,0,25,1,0
32730,0.3,7,2,0,25,1,0
32732,6000000,7,2,0,25,1,0
32736,4.95,7,2,0,25,1,0
32738,0.3,7,2,0,25,1,0
32740,6000000,7,2,0,25,1,0
32744,4.92732,7,2,0,25,1,0
32746,0.3,7,2,0,25,1,0
32748,6000000,7,2,0,25,1,0
32752,4.90484,7,2,0,25,1,0
32754,0.3,7,2,0,25,1,0
32756,6000000,7,2,0,25,1,0
32760,4.88257,7,2,0,25,1,0
32762,0.3,7,2,0,25,1,0
32764,6000000,7,2,0,25,1,0
32768,4.8605,7,2,0,25,1,0
32770,0.3,7,2,0,25,1,0
32772,6000000,7,2,0,25,1,0
32776,4.83862,7,2,0,25,1,0
32778,0.3,7,2,0,25,1,0
32780,6000000,7,2,0,25,1,0
32784,4.81695,7,2,0,25,1,0
32786,0.3,7,2,0,25,1,0
32788,6000000,7,2,0,25,1,0
32792,4.79547,7,2,0,25,1,0
32794,0.3,7,2,0,25,1,0
32796,6000000,7,2,0,25,1,0
32800,4.77417,7,2,0,25,1,0
32802,0.3,7,2,0,25,1,0
32804,6000000,7,2,0,25,1,0
32808,4.75307,7,2,0,25,1,0
32810,0.3,7,2,0,25,1,0
32812,6000000,7,2,0,25,1,0
32816,4.73215,7,2,0,25,1,0
32818,0.3,7,2,0,25,1,0
32820,6000000,7,2,0,25,1,0
32824,4.71141,7,2,0,25,1,0
32826,0.3,7,2,0,25,1,0
32828,6000000,7,2,0,25,1,0
32832,4.69086,7,2,0,25,1,0
32834,0.3,7,2,0,25,1,0
32836,6000000,7,2,0,25,1,0
32840,4.67048,7,2,0,25,1,0
32842,0.3,7,2,0,25,1,0
32844,6000000,7,2,0,25,1,0
32848,4.65028,7,2,0,25,1,0
32850,0.3,7,2,0,25,1,0
32852,6000000,7,2,0,25,1,0
32856,4.63026,7,2,0,25,1,0
32858,0.3,7,2,0,25,1,0
32860,6000000,7,2,0,25,1,0
32864,4.6104,7,2,0,25,1,0
32866,0.3,7,2,0,25,1,0
32868,6000000,7,2,0,25,1,0
32872,4.59072,7,2,0,25,1,0
32874,0.3,7,2,0,25,1,0
32876,6000000,7,2,0,25,1,0
32880,4.5712,7,2,0,25,1,0
32882,0.3,7,2,0,25,1,0
32884,6000000,7,2,0,25,1,0
32888,4.55185,7,2,0,25,1,0
32890,0.3,7,2,0,25,1,0
32892,6000000,7,2,0,25,1,0
32896,4.53266,7,2,0,25,1,0
32898,0.3,7,2,0,25,1,0
32900,6000000,7,2,0,25,1,0
32904,4.51363,7,2,0,25,1,0
32906,0.3,7,2,0,25,1,0
32908,6000000,7,2,0,25,1,0
32912,4.49477,7,2,0,25,1,0
32914,0.3,7,2,0,25,1,0
32916,6000000,7,2,0,25,1,0
32920,4.47605,7,2,0,25,1,0
32922,0.3,7,2,0,25,1,0
32924,6000000,7,2,0,25,1,0
32928,4.45749,7,2,0,25,1,0
32930,0.3,7,2,0,25,1,0
32932,6000000,7,2,0,25,1,0
32936,4.43909,7,2,0,25,1,0
32938,0.3,7,2,0,25,1,0
32940,6000000,7,2,0,25,1,0
32944,4.42084,7,2,0,25,1,0
32946,0.3,7,2,0,25,1,0
32948,6000000,7,2,0,25,1,0
32952,4.40274,7,2,0,25,1,0
32954,0.3,7,2,0,25,1,0
32956,6000000,7,2,0,25,1,0
32960,4.38478,7,2,0,25,1,0
32962,0.3,7,2,0,25,1,0
32964,6000000,7,2,0,25,1,0
32968,4.36698,7,2,0,25,1,0
32970,0.3,7,2,0,25,1,0
32972,6000000,7,2,0,25,1,0
32976,4.34931,7,2,0,25,1,0
32978,0.3,7,2,0,25,1,0
32980,6000000,7,2,0,25,1,0
32984,4.33179,7,2,0,25,1,0
32986,0.3,7,2,0,25,1,0
32988,6000000,7,2,0,25,1,0
32992,4.31441,7,2,0,25,1,0
32994,0.3,7,2,0,25,1,0
32996,6000000,7,2,0,25,1,0
33000,4.29717,7,2,0,25,1,0
33002,0.3,7,2,0,25,1,0
33004,6000000,7,2,0,25,1,0
33008,4.28006,7,2,0,25,1,0
33010,0.3,7,2,0,25,1,0
33012,6000000,7,2,0,25,1,0
33016,4.26309,7,2,0,25,1,0
33018,0.3,7,2,0,25,1,0
33020,6000000,7,2,0,25,1,0
33024,4.24625,7,2,0,25,1,0
33026,0.3,7,2,0,25,1,0
33028,6000000,7,2,0,25,1,0
33032,4.22955,7,2,0,25,1,0
33034,0.3,7,2,0,25,1,0
33036,6000000,7,2,0,25,1,0
33040,4.21298,7,2,0,25,1,0
33042,0.3,7,2,0,25,1,0
33044,6000000,7,2,0,25,1,0
33048,4.19653,7,2,0,25,1,0
33050,0.3,7,2,0,25,1,0
33052,6000000,7,2,0,25,1,0
33056,4.18022,7,2,0,25,1,0
33058,0.3,7,2,0,25,1,0
33060,6000000,7,2,0,25,1,0
33064,4.16403,7,2,0,25,1,0
33066,0.3,7,2,0,25,1,0
33068,6000000,7,2,0,25,1,0
33072,4.14797,7,2,0,25,1,0
33074,0.3,7,2,0,25,1,0
33076,6000000,7,2,0,25,1,0
33080,4.13203,7,2,0,25,1,0
33082,0.3,7,2,0,25,1,0
33084,6000000,7,2,0,25,1,0
33088,4.11621,7,2,0,25,1,0
33090,0.3,7,2,0,25,1,0
33092,6000000,7,2,0,25,1,0
33096,4.10051,7,2,0,25,1,0
33098,0.3,7,2,0,25,1,0
33100,6000000,7,2,0,25,1,0
33104,4.08493,7,2,0,25,1,0
33106,0.3,7,2,0,25,1,0
33108,6000000,7,2,0,25,1,0
33112,4.06947,7,2,0,25,1,0
33114,0.3,7,2,0,25,1,0
33116,6000000,7,2,0,25,1,0
33120,4.05412,7,2,0,25,1,0
33122,0.3,7,2,0,25,1,0
33124,6000000,7,2,0,25,1,0
33128,4.0389,7,2,0,25,1,0
33130,0.3,7,2,0,25,1,0
33132,6000000,7,2,0,25,1,0
33136,4.02378,7,2,0,25,1,0
33138,0.3,7,2,0,25,1,0
33140,6000000,7,2,0,25,1,0
33144,4.00878,7,2,0,25,1,0
33146,0.3,7,2,0,25,1,0
33148,6000000,7,2,0,25,1,0
33152,3.99389,7,2,0,25,1,0
33154,0.3,7,2,0,25,1,0
33156,6000000,7,2,0,25,1,0
33160,3.97911,7,2,0,25,1,0
33162,0.3,7,2,0,25,1,0
33164,6000000,7,2,0,25,1,0
33168,3.96443,7,2,0,25,1,0
33170,0.3,7,2,0,25,1,0
33172,6000000,7,2,0,25,1,0
33176,3.94987,7,2,0,25,1,0
33178,0.3,7,2,0,25,1,0
33180,6000000,7,2,0,25,1,0
33184,3.93542,7,2,0,25,1,0
33186,0.3,7,2,0,25,1,0
33188,6000000,7,2,0,25,1,0
33192,3.92107,7,2,0,25,1,0
33194,0.3,7,2,0,25,1,0
33196,6000000,7,2,0,25,1,0
33200,3.90682,7,2,0,25,1,0
33202,0.3,7,2,0,25,1,0
33204,6000000,7,2,0,25,1,0
33208,3.89267,7,2,0,25,1,0
33210,0.3,7,2,0,25,1,0
33212,6000000,7,2,0,25,1,0
33216,3.87863,7,2,0,25,1,0
33218,0.3,7,2,0,25,1,0
33220,6000000,7,2,0,25,1,0
33224,3.86469,7,2,0,25,1,0
33226,0.3,7,2,0,25,1,0
33228,6000000,7,2,0,25,1,0
33232,3.85085,7,2,0,25,1,0
33234,0.3,7,2,0,25,1,0
33236,6000000,7,2,0,25,1,0
33240,3.83711,7,2,0,25,1,0
33242,0.3,7,2,0,25,1,0
33244,6000000,7,2,0,25,1,0
33248,3.82346,7,2,0,25,1,0
33250,0.3,7,2,0,25,1,0
33252,6000000,7,2,0,25,1,0
33256,3.80992,7,2,0,25,1,0
33258,0.3,7,2,0,25,1,0
33260,6000000,7,2,0,25,1,0
33264,3.79646,7,2,0,25,1,0
33266,0.3,7,2,0,25,1,0
33268,6000000,7,2,0,25,1,0
33272,3.7831,7,2,0,25,1,0
33274,0.3,7,2,0,25,1,0
33276,6000000,7,2,0,25,1,0
33280,3.76984,7,2,0,25,1,0
33282,0.3,7,2,0,25,1,0
33284,6000000,7,2,0,25,1,0
33288,3.75667,7,2,0,25,1,0
33290,0.3,7,2,0,25,1,0
33292,6000000,7,2,0,25,1,0
33296,3.74359,7,2,0,25,1,0
33298,0.3,7,2,0,25,1,0
33300,6000000,7,2,0,25,1,0
33304,3.7306,7,2,0,25,1,0
33306,0.3,7,2,0,25,1,0
33308,6000000,7,2,0,25,1,0
33312,3.7177,7,2,0,25,1,0
33314,0.3,7,2,0,25,1,0
33316,6000000,7,2,0,25,1,0
33320,3.70489,7,2,0,25,1,0
33322,0.3,7,2,0,25,1,0
33324,6000000,7,2,0,25,1,0
33328,3.69217,7,2,0,25,1,0
33330,0.3,7,2,0,25,1,0
33332,6000000,7,2,0,25,1,0
33336,3.67953,7,2,0,25,1,0
33338,0.3,7,2,0,25,1,0
33340,6000000,7,2,0,25,1,0
33344,3.66698,7,2,0,25,1,0
33346,0.3,7,2,0,25,1,0
33348,6000000,7,2,0,25,1,0
33352,3.65453,7,2,0,25,1,0
33354,0.3,7,2,0,25,1,0
33356,6000000,7,2,0,25,1,0
33360,3.64214,7,2,0,25,1,0
33362,0.3,7,2,0,25,1,0
33364,6000000,7,2,0,25,1,0
33368,3.62985,7,2,0,25,1,0
33370,0.3,7,2,0,25,1,0
33372,6000000,7,2,0,25,1,0
33376,3.61763,7,2,0,25,1,0
33378,0.3,7,2,0,25,1,0
33380,6000000,7,2,0,25,1,0
33384,3.6055,7,2,0,25,1,0
33386,0.3,7,2,0,25,1,0
33388,6000000,7,2,0,25,1,0
33392,3.59345,7,2,0,25,1,0
33394,0.3,7,2,0,25,1,0
33396,6000000,7,2,0,25,1,0
33400,3.58148,7,2,0,25,1,0
33402,0.3,7,2,0,25,1,0
33404,6000000,7,2,0,25,1,0
33408,3.56959,7,2,0,25,1,0
33410,0.3,7,2,0,25,1,0
33412,6000000,7,2,0,25,1,0
33416,3.55778,7,2,0,25,1,0
33418,0.3,7,2,0,25,1,0
33420,6000000,7,2,0,25,1,0
33424,3.54605,7,2,0,25,1,0
33426,0.3,7,2,0,25,1,0
33428,6000000,7,2,0,25,1,0
33432,3.53439,7,2,0,25,1,0
33434,0.3,7,2,0,25,1,0
33436,6000000,7,2,0,25,1,0
33440,3.52281,7,2,0,25,1,0
33442,0.3,7,2,0,25,1,0
33444,6000000,7,2,0,25,1,0
33448,3.51131,7,2,0,25,1,0
33450,0.3,7,2,0,25,1,0
33452,6000000,7,2,0,25,1,0
33456,3.49988,7,2,0,25,1,0
33458,0.3,7,2,0,25,1,0
33460,6000000,7,2,0,25,1,0
33464,3.48853,7,2,0,25,1,0
33466,0.3,7,2,0,25,1,0
33468,6000000,7,2,0,25,1,0
33472,3.47724,7,2,0,25,1,0
33474,0.3,7,2,0,25,1,0
33476,6000000,7,2,0,25,1,0
33480,3.46603,7,2,0,25,1,0
33482,0.3,7,2,0,25,1,0
33484,6000000,7,2,0,25,1,0
33488,3.45489,7,2,0,25,1,0
33490,0.3,7,2,0,25,1,0
33492,6000000,7,2,0,25,1,0
33496,3.44382,7,2,0,25,1,0
33498,0.3,7,2,0,25,1,0
33500,6000000,7,2,0,25,1,0
33504,3.43283,7,2,0,25,1,0
33506,0.3,7,2,0,25,1,0
33508,6000000,7,2,0,25,1,0
33512,3.42191,7,2,0,25,1,0
33514,0.3,7,2,0,25,1,0
33516,6000000,7,2,0,25,1,0
33520,3.41105,7,2,0,25,1,0
33522,0.3,7,2,0,25,1,0
33524,6000000,7,2,0,25,1,0
33528,3.40027,7,2,0,25,1,0
33530,0.3,7,2,0,25,1,0
33532,6000000,7,2,0,25,1,0
33536,3.38955,7,2,0,25,1,0
33538,0.3,7,2,0,25,1,0
33540,6000000,7,2,0,25,1,0
33544,3.37889,7,2,0,25,1,0
33546,0.3,7,2,0,25,1,0
33548,6000000,7,2,0,25,1,0
33552,3.36831,7,2,0,25,1,0
33554,0.3,7,2,0,25,1,0
33556,6000000,7,2,0,25,1,0
33560,3.35779,7,2,0,25,1,0
33562,0.3,7,2,0,25,1,0
33564,6000000,7,2,0,25,1,0
33568,3.34733,7,2,0,25,1,0
33570,0.3,7,2,0,25,1,0
33572,6000000,7,2,0,25,1,0
33576,3.33695,7,2,0,25,1,0
33578,0.3,7,2,0,25,1,0
33580,6000000,7,2,0,25,1,0
33584,3.32662,7,2,0,25,1,0
33586,0.3,7,2,0,25,1,0
33588,6000000,7,2,0,25,1,0
33592,3.31637,7,2,0,25,1,0
33594,0.3,7,2,0,25,1,0
33596,6000000,7,2,0,25,1,0
33600,3.30617,7,2,0,25,1,0
33602,0.3,7,2,0,25,1,0
33604,6000000,7,2,0,25,1,0
33608,3.29603,7,2,0,25,1,0
33610,0.3,7,2,0,25,1,0
33612,6000000,7,2,0,25,1,0
33616,3.28596,7,2,0,25,1,0
33618,0.3,7,2,0,25,1,0
33620,6000000,7,2,0,25,1,0
33624,3.27595,7,2,0,25,1,0
33626,0.3,7,2,0,25,1,0
33628,6000000,7,2,0,25,1,0
33632,3.266,7,2,0,25,1,0
33634,0.3,7,2,0,25,1,0
33636,6000000,7,2,0,25,1,0
33640,3.25611,7,2,0,25,1,0
33642,0.3,7,2,0,25,1,0
33644,6000000,7,2,0,25,1,0
33648,3.24627,7,2,0,25,1,0
33650,0.3,7,2,0,25,1,0
33652,6000000,7,2,0,25,1,0
33656,3.2365,7,2,0,25,1,0
33658,0.3,7,2,0,25,1,0
33660,6000000,7,2,0,25,1,0
33664,3.22679,7,2,0,25,1,0
33666,0.3,7,2,0,25,1,0
33668,6000000,7,2,0,25,1,0
33672,3.21713,7,2,0,25,1,0
33674,0.3,7,2,0,25,1,0
33676,6000000,7,2,0,25,1,0
33680,3.20754,7,2,0,25,1,0
33682,0.3,7,2,0,25,1,0
33684,6000000,7,2,0,25,1,0
33688,3.198,7,2,0,25,1,0
33690,0.3,7,2,0,25,1,0
33692,6000000,7,2,0,25,1,0
33696,3.18852,7,2,0,25,1,0
33698,0.3,7,2,0,25,1,0
33700,6000000,7,2,0,25,1,0
33704,3.17908,7,2,0,25,1,0
33706,0.3,7,2,0,25,1,0
33708,6000000,7,2,0,25,1,0
33712,3.16972,7,2,0,25,1,0
33714,0.3,7,2,0,25,1,0
33716,6000000,7,2,0,25,1,0
33720,3.1604,7,2,0,25,1,0
33722,0.3,7,2,0,25,1,0
33724,6000000,7,2,0,25,1,0
33728,3.15113,7,2,0,25,1,0
33730,0.3,7,2,0,25,1,0
33732,6000000,7,2,0,25,1,0
33736,3.14193,7,2,0,25,1,0
33738,0.3,7,2,0,25,1,0
33740,6000000,7,2,0,25,1,0
33744,3.13278,7,2,0,25,1,0
33746,0.3,7,2,0,25,1,0
33748,6000000,7,2,0,25,1,0
33752,3.12367,7,2,0,25,1,0
33754,0.3,7,2,0,25,1,0
33756,6000000,7,2,0,25,1,0
33760,3.11463,7,2,0,25,1,0
33762,0.3,7,2,0,25,1,0
33764,6000000,7,2,0,25,1,0
33768,3.10562,7,2,0,25,1,0
33770,0.3,7,2,0,25,1,0
33772,6000000,7,2,0,25,1,0
33776,3.09668,7,2,0,25,1,0
33778,0.3,7,2,0,25,1,0
33780,6000000,7,2,0,25,1,0
33784,3.08779,7,2,0,25,1,0
33786,0.3,7,2,0,25,1,0
33788,6000000,7,2,0,25,1,0
33792,3.07895,7,2,0,25,1,0
33794,0.3,7,2,0,25,1,0
33796,6000000,7,2,0,25,1,0
33800,3.07016,7,2,0,25,1,0
33802,0.3,7,2,0,25,1,0
33804,6000000,7,2,0,25,1,0
33808,3.06142,7,2,0,25,1,0
33810,0.3,7,2,0,25,1,0
33812,6000000,7,2,0,25,1,0
33816,3.05273,7,2,0,25,1,0
33818,0.3,7,2,0,25,1,0
33820,6000000,7,2,0,25,1,0
33824,3.04408,7,2,0,25,1,0
33826,0.3,7,2,0,25,1,0
33828,6000000,7,2,0,25,1,0
33832,3.03548,7,2,0,25,1,0
33834,0.3,7,2,0,25,1,0
33836,6000000,7,2,0,25,1,0
33840,3.02694,7,2,0,25,1,0
33842,0.3,7,2,0,25,1,0
33844,6000000,7,2,0,25,1,0
33848,3.01844,7,2,0,25,1,0
33850,0.3,7,2,0,25,1,0
33852,6000000,7,2,0,25,1,0
33856,3.00999,7,2,0,25,1,0
33858,0.3,7,2,0,25,1,0
33860,6000000,7,2,0,25,1,0
33864,3.00159,7,2,0,25,1,0
33866,0.3,7,2,0,25,1,0
33868,6000000,7,2,0,25,1,0
33872,2.99323,7,2,0,25,1,0
33874,0.3,7,2,0,25,1,0
33876,6000000,7,2,0,25,1,0
33880,2.98493,7,2,0,25,1,0
33882,0.3,7,2,0,25,1,0
33884,6000000,7,2,0,25,1,0
33888,2.97666,7,2,0,25,1,0
33890,0.3,7,2,0,25,1,0
33892,6000000,7,2,0,25,1,0
33896,2.96844,7,2,0,25,1,0
33898,0.3,7,2,0,25,1,0
33900,6000000,7,2,0,25,1,0
33904,2.96027,7,2,0,25,1,0
33906,0.3,7,2,0,25,1,0
33908,6000000,7,2,0,25,1,0
33912,2.95214,7,2,0,25,1,0
33914,0.3,7,2,0,25,1,0
33916,6000000,7,2,0,25,1,0
33920,2.94406,7,2,0,25,1,0
33922,0.3,7,2,0,25,1,0
33924,6000000,7,2,0,25,1,0
33928,2.93602,7,2,0,25,1,0
33930,0.3,7,2,0,25,1,0
33932,6000000,7,2,0,25,1,0
33936,2.92802,7,2,0,25,1,0
33938,0.3,7,2,0,25,1,0
33940,6000000,7,2,0,25,1,0
33944,2.92008,7,2,0,25,1,0
33946,0.3,7,2,0,25,1,0
33948,6000000,7,2,0,25,1,0
33952,2.91217,7,2,0,25,1,0
33954,0.3,7,2,0,25,1,0
33956,6000000,7,2,0,25,1,0
33960,2.9043,7,2,0,25,1,0
33962,0.3,7,2,0,25,1,0
33964,6000000,7,2,0,25,1,0
33968,2.89648,7,2,0,25,1,0
33970,0.3,7,2,0,25,1,0
33972,6000000,7,2,0,25,1,0
33976,2.88869,7,2,0,25,1,0
33978,0.3,7,2,0,25,1,0
33980,6000000,7,2,0,25,1,0
33984,2.88095,7,2,0,25,1,0
33986,0.3,7,2,0,25,1,0
33988,6000000,7,2,0,25,1,0
33992,2.87326,7,2,0,25,1,0
33994,0.3,7,2,0,25,1,0
33996,6000000,7,2,0,25,1,0
34000,2.8656,7,2,0,25,1,0
34002,0.3,7,2,0,25,1,0
34004,6000000,7,2,0,25,1,0
34008,2.85798,7,2,0,25,1,0
34010,0.3,7,2,0,25,1,0
34012,6000000,7,2,0,25,1,0
34016,2.8504,7,2,0,25,1,0
34018,0.3,7,2,0,25,1,0
34020,6000000,7,2,0,25,1,0
34024,2.84287,7,2,0,25,1,0
34026,0.3,7,2,0,25,1,0
34028,6000000,7,2,0,25,1,0
34032,2.83537,7,2,0,25,1,0
34034,0.3,7,2,0,25,1,0
34036,6000000,7,2,0,25,1,0
34040,2.82792,7,2,0,25,1,0
34042,0.3,7,2,0,25,1,0
34044,6000000,7,2,0,25,1,0
34048,2.82049,7,2,0,25,1,0
34050,0.3,7,2,0,25,1,0
34052,6000000,7,2,0,25,1,0
34056,2.81312,7,2,0,25,1,0
34058,0.3,7,2,0,25,1,0
34060,6000000,7,2,0,25,1,0
34064,2.80578,7,2,0,25,1,0
34066,0.3,7,2,0,25,1,0
34068,6000000,7,2,0,25,1,0
34072,2.79847,7,2,0,25,1,0
34074,0.3,7,2,0,25,1,0
34076,6000000,7,2,0,25,1,0
34080,2.79121,7,2,0,25,1,0
34082,0.3,7,2,0,25,1,0
34084,6000000,7,2,0,25,1,0
34088,2.78398,7,2,0,25,1,0
34090,0.3,7,2,0,25,1,0
34092,6000000,7,2,0,25,1,0
34096,2.77679,7,2,0,25,1,0
34098,0.3,7,2,0,25,1,0
34100,6000000,7,2,0,25,1,0
34104,2.76964,7,2,0,25,1,0
34106,0.3,7,2,0,25,1,0
34108,6000000,7,2,0,25,1,0
34112,2.76253,7,2,0,25,1,0
34114,0.3,7,2,0,25,1,0
34116,6000000,7,2,0,25,1,0
34120,2.75544,7,2,0,25,1,0
34122,0.3,7,2,0,25,1,0
34124,6000000,7,2,0,25,1,0
34128,2.7484,7,2,0,25,1,0
34130,0.3,7,2,0,25,1,0
34132,6000000,7,2,0,25,1,0
34136,2.74139,7,2,0,25,1,0
34138,0.3,7,2,0,25,1,0
34140,6000000,7,2,0,25,1,0
34144,2.73442,7,2,0,25,1,0
34146,0.3,7,2,0,25,1,0
34148,6000000,7,2,0,25,1,0
34152,2.72748,7,2,0,25,1,0
34154,0.3,7,2,0,25,1,0
34156,6000000,7,2,0,25,1,0
34160,2.72058,7,2,0,25,1,0
34162,0.3,7,2,0,25,1,0
34164,6000000,7,2,0,25,1,0
34168,2.71372,7,2,0,25,1,0
34170,0.3,7,2,0,25,1,0
34172,6000000,7,2,0,25,1,0
34176,2.70688,7,2,0,25,1,0
34178,0.3,7,2,0,25,1,0
34180,6000000,7,2,0,25,1,0
34184,2.70008,7,2,0,25,1,0
34186,0.3,7,2,0,25,1,0
34188,6000000,7,2,0,25,1,0
34192,2.69332,7,2,0,25,1,0
34194,0.3,7,2,0,25,1,0
34196,6000000,7,2,0,25,1,0
34200,2.68659,7,2,0,25,1,0
34202,0.3,7,2,0,25,1,0
34204,6000000,7,2,0,25,1,0
34208,2.6799,7,2,0,25,1,0
34210,0.3,7,2,0,25,1,0
34212,6000000,7,2,0,25,1,0
34216,2.67323,7,2,0,25,1,0
34218,0.3,7,2,0,25,1,0
34220,6000000,7,2,0,25,1,0
34224,2.66661,7,2,0,25,1,0
34226,0.3,7,2,0,25,1,0
34228,6000000,7,2,0,25,1,0
34232,2.66001,7,2,0,25,1,0
34234,0.3,7,2,0,25,1,0
34236,6000000,7,2,0,25,1,0
34240,2.65344,7,2,0,25,1,0
34242,0.3,7,2,0,25,1,0
34244,6000000,7,2,0,25,1,0
34248,2.64691,7,2,0,25,1,0
34250,0.3,7,2,0,25,1,0
34252,6000000,7,2,0,25,1,0
34256,2.64041,7,2,0,25,1,0
34258,0.3,7,2,0,25,1,0
34260,6000000,7,2,0,25,1,0
34264,2.63394,7,2,0,25,1,0
34266,0.3,7,2,0,25,1,0
34268,6000000,7,2,0,25,1,0
34272,2.62751,7,2,0,25,1,0
34274,0.3,7,2,0,25,1,0
34276,6000000,7,2,0,25,1,0
34280,2.6211,7,2,0,25,1,0
34282,0.3,7,2,0,25,1,0
34284,6000000,7,2,0,25,1,0
34288,2.61472,7,2,0,25,1,0
34290,0.3,7,2,0,25,1,0
34292,6000000,7,2,0,25,1,0
34296,2.60838,7,2,0,25,1,0
34298,0.3,7,2,0,25,1,0
34300,6000000,7,2,0,25,1,0
34304,2.60208,7,2,0,25,1,0
34306,0.3,7,2,0,25,1,0
34308,6000000,7,2,0,25,1,0
34312,2.59579,7,2,0,25,1,0
34314,0.3,7,2,0,25,1,0
34316,6000000,7,2,0,25,1,0
34320,2.58954,7,2,0,25,1,0
34322,0.3,7,2,0,25,1,0
34324,6000000,7,2,0,25,1,0
34328,2.58332,7,2,0,25,1,0
34330,0.3,7,2,0,25,1,0
34332,6000000,7,2,0,25,1,0
34336,2.57713,7,2,0,25,1,0
34338,0.3,7,2,0,25,1,0
34340,6000000,7,2,0,25,1,0
34344,2.57096,7,2,0,25,1,0
34346,0.3,7,2,0,25,1,0
34348,6000000,7,2,0,25,1,0
34352,2.56483,7,2,0,25,1,0
34354,0.3,7,2,0,25,1,0
34356,6000000,7,2,0,25,1,0
34360,2.55872,7,2,0,25,1,0
34362,0.3,7,2,0,25,1,0
34364,6000000,7,2,0,25,1,0
34368,2.55265,7,2,0,25,1,0
34370,0.3,7,2,0,25,1,0
34372,6000000,7,2,0,25,1,0
34376,2.54661,7,2,0,25,1,0
34378,0.3,7,2,0,25,1,0
34380,6000000,7,2,0,25,1,0
34384,2.54059,7,2,0,25,1,0
34386,0.3,7,2,0,25,1,0
34388,6000000,7,2,0,25,1,0
34392,2.5346,7,2,0,25,1,0
34394,0.3,7,2,0,25,1,0
34396,6000000,7,2,0,25,1,0
34400,2.52864,7,2,0,25,1,0
34402,0.3,7,2,0,25,1,0
34404,6000000,7,2,0,25,1,0
34408,2.52271,7,2,0,25,1,0
34410,0.3,7,2,0,25,1,0
34412,6000000,7,2,0,25,1,0
34416,2.5168,7,2,0,25,1,0
34418,0.3,7,2,0,25,1,0
34420,6000000,7,2,0,25,1,0
34424,2.51093,7,2,0,25,1,0
34426,0.3,7,2,0,25,1,0
34428,6000000,7,2,0,25,1,0
34432,2.50507,7,2,0,25,1,0
34434,0.3,7,2,0,25,1,0
34436,6000000,7,2,0,25,1,0
34440,2.49925,7,2,0,25,1,0
34442,0.3,7,2,0,25,1,0
34444,6000000,7,2,0,25,1,0
34448,2.49346,7,2,0,25,1,0
34450,0.3,7,2,0,25,1,0
34452,6000000,7,2,0,25,1,0
34456,2.48768,7,2,0,25,1,0
34458,0.3,7,2,0,25,1,0
34460,6000000,7,2,0,25,1,0
34464,2.48194,7,2,0,25,1,0
34466,0.3,7,2,0,25,1,0
34468,6000000,7,2,0,25,1,0
34472,2.47623,7,2,0,25,1,0
34474,0.3,7,2,0,25,1,0
34476,6000000,7,2,0,25,1,0
34480,2.47053,7,2,0,25,1,0
34482,0.3,7,2,0,25,1,0
34484,6000000,7,2,0,25,1,0
34488,2.46487,7,2,0,25,1,0
34490,0.3,7,2,0,25,1,0
34492,6000000,7,2,0,25,1,0
34496,2.45923,7,2,0,25,1,0
34498,0.3,7,2,0,25,1,0
34500,6000000,7,2,0,25,1,0
34504,2.45363,7,2,0,25,1,0
34506,0.3,7,2,0,25,1,0
34508,6000000,7,2,0,25,1,0
34512,2.44804,7,2,0,25,1,0
34514,0.3,7,2,0,25,1,0
34516,6000000,7,2,0,25,1,0
34520,2.44247,7,2,0,25,1,0
34522,0.3,7,2,0,25,1,0
34524,6000000,7,2,0,25,1,0
34528,2.43694,7,2,0,25,1,0
34530,0.3,7,2,0,25,1,0
34532,6000000,7,2,0,25,1,0
34536,2.43143,7,2,0,25,1,0
34538,0.3,7,2,0,25,1,0
34540,6000000,7,2,0,25,1,0
34544,2.42594,7,2,0,25,1,0
34546,0.3,7,2,0,25,1,0
34548,6000000,7,2,0,25,1,0
34552,2.42048,7,2,0,25,1,0
34554,0.3,7,2,0,25,1,0
34556,6000000,7,2,0,25,1,0
34560,2.41505,7,2,0,25,1,0
34562,0.3,7,2,0,25,1,0
34564,6000000,7,2,0,25,1,0
34568,2.40963,7,2,0,25,1,0
34570,0.3,7,2,0,25,1,0
34572,6000000,7,2,0,25,1,0
34576,2.40425,7,2,0,25,1,0
34578,0.3,7,2,0,25,1,0
34580,6000000,7,2,0,25,1,0
34584,2.39888,7,2,0,25,1,0
34586,0.3,7,2,0,25,1,0
34588,6000000,7,2,0,25,1,0
34592,2.39354,7,2,0,25,1,0
34594,0.3,7,2,0,25,1,0
34596,6000000,7,2,0,25,1,0
34600,2.38822,7,2,0,25,1,0
34602,0.3,7,2,0,25,1,0
34604,6000000,7,2,0,25,1,0
34608,2.38293,7,2,0,25,1,0
34610,0.3,7,2,0,25,1,0
34612,6000000,7,2,0,25,1,0
34616,2.37767,7,2,0,25,1,0
34618,0.3,7,2,0,25,1,0
34620,6000000,7,2,0,25,1,0
34624,2.37242,7,2,0,25,1,0
34626,0.3,7,2,0,25,1,0
34628,6000000,7,2,0,25,1,0
34632,2.36719,7,2,0,25,1,0
34634,0.3,7,2,0,25,1,0
34636,6000000,7,2,0,25,1,0
34640,2.36199,7,2,0,25,1,0
34642,0.3,7,2,0,25,1,0
34644,6000000,7,2,0,25,1,0
34648,2.35682,7,2,0,25,1,0
34650,0.3,7,2,0,25,1,0
34652,6000000,7,2,0,25,1,0
34656,2.35166,7,2,0,25,1,0
34658,0.3,7,2,0,25,1,0
34660,6000000,7,2,0,25,1,0
34664,2.34653,7,2,0,25,1,0
34666,0.3,7,2,0,25,1,0
34668,6000000,7,2,0,25,1,0
34672,2.34142,7,2,0,25,1,0
34674,0.3,7,2,0,25,1,0
34676,6000000,7,2,0,25,1,0
34680,2.33633,7,2,0,25,1,0
34682,0.3,7,2,0,25,1,0
34684,6000000,7,2,0,25,1,0
34688,2.33127,7,2,0,25,1,0
34690,0.3,7,2,0,25,1,0
34692,6000000,7,2,0,25,1,0
34696,2.32622,7,2,0,25,1,0
34698,0.3,7,2,0,25,1,0
34700,6000000,7,2,0,25,1,0
34704,2.3212,7,2,0,25,1,0
34706,0.3,7,2,0,25,1,0
34708,6000000,7,2,0,25,1,0
34712,2.3162,7,2,0,25,1,0
34714,0.3,7,2,0,25,1,0
34716,6000000,7,2,0,25,1,0
34720,2.31123,7,2,0,25,1,0
34722,0.3,7,2,0,25,1,0
34724,6000000,7,2,0,25,1,0
34728,2.30627,7,2,0,25,1,0
34730,0.3,7,2,0,25,1,0
34732,6000000,7,2,0,25,1,0
34736,2.30132,7,2,0,25,1,0
34738,0.3,7,2,0,25,1,0
34740,6000000,7,2,0,25,1,0
34744,2.29642,7,2,0,25,1,0
34746,0.3,7,2,0,25,1,0
34748,6000000,7,2,0,25,1,0
34752,2.29152,7,2,0,25,1,0
34754,0.3,7,2,0,25,1,0
34756,6000000,7,2,0,25,1,0
34760,2.28664,7,2,0,25,1,0
34762,0.3,7,2,0,25,1,0
34764,6000000,7,2,0,25,1,0
34768,2.28179,7,2,0,25,1,0
34770,0.3,7,2,0,25,1,0
34772,6000000,7,2,0,25,1,0
34776,2.27696,7,2,0,25,1,0
34778,0.3,7,2,0,25,1,0
34780,6000000,7,2,0,25,1,0
34784,2.27215,7,2,0,25,1,0
34786,0.3,7,2,0,25,1,0
34788,6000000,7,2,0,25,1,0
34792,2.26736,7,2,0,25,1,0
34794,0.3,7,2,0,25,1,0
34796,6000000,7,2,0,25,1,0
34800,2.26258,7,2,0,25,1,0
34802,0.3,7,2,0,25,1,0
34804,6000000,7,2,0,25,1,0
34808,2.25783,7,2,0,25,1,0
34810,0.3,7,2,0,25,1,0
34812,6000000,7,2,0,25,1,0
34816,2.2531,7,2,0,25,1,0
34818,0.3,7,2,0,25,1,0
34820,6000000,7,2,0,25,1,0
34824,2.24839,7,2,0,25,1,0
34826,0.3,7,2,0,25,1,0
34828,6000000,7,2,0,25,1,0
34832,2.2437,7,2,0,25,1,0
34834,0.3,7,2,0,25,1,0
34836,6000000,7,2,0,25,1,0
34840,2.23903,7,2,0,25,1,0
34842,0.3,7,2,0,25,1,0
34844,6000000,7,2,0,25,1,0
34848,2.23437,7,2,0,25,1,0
34850,0.3,7,2,0,25,1,0
34852,6000000,7,2,0,25,1,0
34856,2.22974,7,2,0,25,1,0
34858,0.3,7,2,0,25,1,0
34860,6000000,7,2,0,25,1,0
34864,2.22512,7,2,0,25,1,0
34866,0.3,7,2,0,25,1,0
34868,6000000,7,2,0,25,1,0
34872,2.22053,7,2,0,25,1,0
34874,0.3,7,2,0,25,1,0
34876,6000000,7,2,0,25,1,0
34880,2.21596,7,2,0,25,1,0
34882,0.3,7,2,0,25,1,0
34884,6000000,7,2,0,25,1,0
34888,2.2114,7,2,0,25,1,0
34890,0.3,7,2,0,25,1,0
34892,6000000,7,2,0,25,1,0
34896,2.20686,7,2,0,25,1,0
34898,0.3,7,2,0,25,1,0
34900,6000000,7,2,0,25,1,0
34904,2.20234,7,2,0,25,1,0
34906,0.3,7,2,0,25,1,0
34908,6000000,7,2,0,25,1,0
34912,2.19783,7,2,0,25,1,0
34914,0.3,7,2,0,25,1,0
34916,6000000,7,2,0,25,1,0
34920,2.19335,7,2,0,25,1,0
34922,0.3,7,2,0,25,1,0
34924,6000000,7,2,0,25,1,0
34928,2.18889,7,2,0,25,1,0
34930,0.3,7,2,0,25,1,0
34932,6000000,7,2,0,25,1,0
34936,2.18444,7,2,0,25,1,0
34938,0.3,7,2,0,25,1,0
34940,6000000,7,2,0,25,1,0
34944,2.18002,7,2,0,25,1,0
34946,0.3,7,2,0,25,1,0
34948,6000000,7,2,0,25,1,0
34952,2.1756,7,2,0,25,1,0
34954,0.3,7,2,0,25,1,0
34956,6000000,7,2,0,25,1,0
34960,2.17121,7,2,0,25,1,0
34962,0.3,7,2,0,25,1,0
34964,6000000,7,2,0,25,1,0
34968,2.16683,7,2,0,25,1,0
34970,0.3,7,2,0,25,1,0
34972,6000000,7,2,0,25,1,0
34976,2.16248,7,2,0,25,1,0
34978,0.3,7,2,0,25,1,0
34980,6000000,7,2,0,25,1,0
34984,2.15813,7,2,0,25,1,0
34986,0.3,7,2,0,25,1,0
34988,6000000,7,2,0,25,1,0
34992,2.15381,7,2,0,25,1,0
34994,0.3,7,2,0,25,1,0
34996,6000000,7,2,0,25,1,0
35000,2.14951,7,2,0,25,1,0
35002,0.3,7,2,0,25,1,0
35004,6000000,7,2,0,25,1,0
35008,2.14522,7,2,0,25,1,0
35010,0.3,7,2,0,25,1,0
35012,6000000,7,2,0,25,1,0
35016,2.14094,7,2,0,25,1,0
35018,0.3,7,2,0,25,1,0
35020,6000000,7,2,0,25,1,0
35024,2.13669,7,2,0,25,1,0
35026,0.3,7,2,0,25,1,0
35028,6000000,7,2,0,25,1,0
35032,2.13245,7,2,0,25,1,0
35034,0.3,7,2,0,25,1,0
35036,6000000,7,2,0,25,1,0
35040,2.12823,7,2,0,25,1,0
35042,0.3,7,2,0,25,1,0
35044,6000000,7,2,0,25,1,0
35048,2.12403,7,2,0,25,1,0
35050,0.3,7,2,0,25,1,0
35052,6000000,7,2,0,25,1,0
35056,2.11984,7,2,0,25,1,0
35058,0.3,7,2,0,25,1,0
35060,6000000,7,2,0,25,1,0
35064,2.11567,7,2,0,25,1,0
35066,0.3,7,2,0,25,1,0
35068,6000000,7,2,0,25,1,0
35072,2.11152,7,2,0,25,1,0
35074,0.3,7,2,0,25,1,0
35076,6000000,7,2,0,25,1,0
35080,2.10738,7,2,0,25,1,0
35082,0.3,7,2,0,25,1,0
35084,6000000,7,2,0,25,1,0
35088,2.10325,7,2,0,25,1,0
35090,0.3,7,2,0,25,1,0
35092,6000000,7,2,0,25,1,0
35096,2.09915,7,2,0,25,1,0
35098,0.3,7,2,0,25,1,0
35100,6000000,7,2,0,25,1,0
35104,2.09506,7,2,0,25,1,0
35106,0.3,7,2,0,25,1,0
35108,6000000,7,2,0,25,1,0
35112,2.09098,7,2,0,25,1,0
35114,0.3,7,2,0,25,1,0
35116,6000000,7,2,0,25,1,0
35120,2.08692,7,2,0,25,1,0
35122,0.3,7,2,0,25,1,0
35124,6000000,7,2,0,25,1,0
35128,2.08288,7,2,0,25,1,0
35130,0.3,7,2,0,25,1,0
35132,6000000,7,2,0,25,1,0
35136,2.07886,7,2,0,25,1,0
35138,0.3,7,2,0,25,1,0
35140,6000000,7,2,0,25,1,0
35144,2.07484,7,2,0,25,1,0
35146,0.3,7,2,0,25,1,0
35148,6000000,7,2,0,25,1,0
35152,2.07085,7,2,0,25,1,0
35154,0.3,7,2,0,25,1,0
35156,6000000,7,2,0,25,1,0
35160,2.06687,7,2,0,25,1,0
35162,0.3,7,2,0,25,1,0
35164,6000000,7,2,0,25,1,0
35168,2.0629,7,2,0,25,1,0
35170,0.3,7,2,0,25,1,0
35172,6000000,7,2,0,25,1,0
35176,2.05895,7,2,0,25,1,0
35178,0.3,7,2,0,25,1,0
35180,6000000,7,2,0,25,1,0
35184,2.05502,7,2,0,25,1,0
35186,0.3,7,2,0,25,1,0
35188,6000000,7,2,0,25,1,0
35192,2.05109,7,2,0,25,1,0
35194,0.3,7,2,0,25,1,0
35196,6000000,7,2,0,25,1,0
35200,2.04719,7,2,0,25,1,0
35202,0.3,7,2,0,25,1,0
35204,6000000,7,2,0,25,1,0
35208,2.0433,7,2,0,25,1,0
35210,0.3,7,2,0,25,1,0
35212,6000000,7,2,0,25,1,0
35216,2.03943,7,2,0,25,1,0
35218,0.3,7,2,0,25,1,0
35220,6000000,7,2,0,25,1,0
35224,2.03557,7,2,0,25,1,0
35226,0.3,7,2,0,25,1,0
35228,6000000,7,2,0,25,1,0
35232,2.03172,7,2,0,25,1,0
35234,0.3,7,2,0,25,1,0
35236,6000000,7,2,0,25,1,0
35240,2.02788,7,2,0,25,1,0
35242,0.3,7,2,0,25,1,0
35244,6000000,7,2,0,25,1,0
35248,2.02407,7,2,0,25,1,0
35250,0.3,7,2,0,25,1,0
35252,6000000,7,2,0,25,1,0
35256,2.02027,7,2,0,25,1,0
35258,0.3,7,2,0,25,1,0
35260,6000000,7,2,0,25,1,0
35264,2.01648,7,2,0,25,1,0
35266,0.3,7,2,0,25,1,0
35268,6000000,7,2,0,25,1,0
35272,2.0127,7,2,0,25,1,0
35274,0.3,7,2,0,25,1,0
35276,6000000,7,2,0,25,1,0
35280,2.00894,7,2,0,25,1,0
35282,0.3,7,2,0,25,1,0
35284,6000000,7,2,0,25,1,0
35288,2.00519,7,2,0,25,1,0
35290,0.3,7,2,0,25,1,0
35292,6000000,7,2,0,25,1,0
35296,2.00146,7,2,0,25,1,0
35298,0.3,7,2,0,25,1,0
35300,6000000,7,2,0,25,1,0
35304,1.99774,7,2,0,25,1,0
35306,0.3,7,2,0,25,1,0
35308,6000000,7,2,0,25,1,0
35312,1.99404,7,2,0,25,1,0
35314,0.3,7,2,0,25,1,0
35316,6000000,7,2,0,25,1,0
35320,1.99035,7,2,0,25,1,0
35322,0.3,7,2,0,25,1,0
35324,6000000,7,2,0,25,1,0
35328,1.98667,7,2,0,25,1,0
35330,0.3,7,2,0,25,1,0
35332,6000000,7,2,0,25,1,0
35336,1.98301,7,2,0,25,1,0
35338,0.3,7,2,0,25,1,0
35340,6000000,7,2,0,25,1,0
35344,1.97936,7,2,0,25,1,0
35346,0.3,7,2,0,25,1,0
35348,6000000,7,2,0,25,1,0
35352,1.97572,7,2,0,25,1,0
35354,0.3,7,2,0,25,1,0
35356,6000000,7,2,0,25,1,0
35360,1.97209,7,2,0,25,1,0
35362,0.3,7,2,0,25,1,0
35364,6000000,7,2,0,25,1,0
35368,1.96848,7,2,0,25,1,0
35370,0.3,7,2,0,25,1,0
35372,6000000,7,2,0,25,1,0
35376,1.96488,7,2,0,25,1,0
35378,0.3,7,2,0,25,1,0
35380,6000000,7,2,0,25,1,0
35384,1.9613,7,2,0,25,1,0
35386,0.3,7,2,0,25,1,0
35388,6000000,7,2,0,25,1,0
35392,1.95773,7,2,0,25,1,0
35394,0.3,7,2,0,25,1,0
35396,6000000,7,2,0,25,1,0
35400,1.95417,7,2,0,25,1,0
35402,0.3,7,2,0,25,1,0
35404,6000000,7,2,0,25,1,0
35408,1.95062,7,2,0,25,1,0
35410,0.3,7,2,0,25,1,0
35412,6000000,7,2,0,25,1,0
35416,1.94709,7,2,0,25,1,0
35418,0.3,7,2,0,25,1,0
35420,6000000,7,2,0,25,1,0
35424,1.94357,7,2,0,25,1,0
35426,0.3,7,2,0,25,1,0
35428,6000000,7,2,0,25,1,0
35432,1.94007,7,2,0,25,1,0
35434,0.3,7,2,0,25,1,0
35436,6000000,7,2,0,25,1,0
35440,1.93658,7,2,0,25,1,0
35442,0.3,7,2,0,25,1,0
35444,6000000,7,2,0,25,1,0
35448,1.93309,7,2,0,25,1,0
35450,0.3,7,2,0,25,1,0
35452,6000000,7,2,0,25,1,0
35456,1.92962,7,2,0,25,1,0
35458,0.3,7,2,0,25,1,0
35460,6000000,7,2,0,25,1,0
35464,1.92617,7,2,0,25,1,0
35466,0.3,7,2,0,25,1,0
35468,6000000,7,2,0,25,1,0
35472,1.92273,7,2,0,25,1,0
35474,0.3,7,2,0,25,1,0
35476,6000000,7,2,0,25,1,0
35480,1.91929,7,2,0,25,1,0
35482,0.3,7,2,0,25,1,0
35484,6000000,7,2,0,25,1,0
35488,1.91587,7,2,0,25,1,0
35490,0.3,7,2,0,25,1,0
35492,6000000,7,2,0,25,1,0
35496,1.91246,7,2,0,25,1,0
35498,0.3,7,2,0,25,1,0
35500,6000000,7,2,0,25,1,0
35504,1.90907,7,2,0,25,1,0
35506,0.3,7,2,0,25,1,0
35508,6000000,7,2,0,25,1,0
35512,1.90568,7,2,0,25,1,0
35514,0.3,7,2,0,25,1,0
35516,6000000,7,2,0,25,1,0
35520,1.90231,7,2,0,25,1,0
35522,0.3,7,2,0,25,1,0
35524,6000000,7,2,0,25,1,0
35528,1.89895,7,2,0,25,1,0
35530,0.3,7,2,0,25,1,0
35532,6000000,7,2,0,25,1,0
35536,1.8956,7,2,0,25,1,0
35538,0.3,7,2,0,25,1,0
35540,6000000,7,2,0,25,1,0
35544,1.89227,7,2,0,25,1,0
35546,0.3,7,2,0,25,1,0
35548,6000000,7,2,0,25,1,0
35552,1.88894,7,2,0,25,1,0
35554,0.3,7,2,0,25,1,0
35556,6000000,7,2,0,25,1,0
35560,1.88563,7,2,0,25,1,0
35562,0.3,7,2,0,25,1,0
35564,6000000,7,2,0,25,1,0
35568,1.88233,7,2,0,25,1,0
35570,0.3,7,2,0,25,1,0
35572,6000000,7,2,0,25,1,0
35576,1.87904,7,2,0,25,1,0
35578,0.3,7,2,0,25,1,0
35580,6000000,7,2,0,25,1,0
35584,1.87576,7,2,0,25,1,0
35586,0.3,7,2,0,25,1,0
35588,6000000,7,2,0,25,1,0
35592,1.87249,7,2,0,25,1,0
35594,0.3,7,2,0,25,1,0
35596,6000000,7,2,0,25,1,0
35600,1.86924,7,2,0,25,1,0
35602,0.3,7,2,0,25,1,0
35604,6000000,7,2,0,25,1,0
35608,1.866,7,2,0,25,1,0
35610,0.3,7,2,0,25,1,0
35612,6000000,7,2,0,25,1,0
35616,1.86277,7,2,0,25,1,0
35618,0.3,7,2,0,25,1,0
35620,6000000,7,2,0,25,1,0
35624,1.85954,7,2,0,25,1,0
35626,0.3,7,2,0,25,1,0
35628,6000000,7,2,0,25,1,0
35632,1.85633,7,2,0,25,1,0
35634,0.3,7,2,0,25,1,0
35636,6000000,7,2,0,25,1,0
35640,1.85313,7,2,0,25,1,0
35642,0.3,7,2,0,25,1,0
35644,6000000,7,2,0,25,1,0
35648,1.84994,7,2,0,25,1,0
35650,0.3,7,2,0,25,1,0
35652,6000000,7,2,0,25,1,0
35656,1.84677,7,2,0,25,1,0
35658,0.3,7,2,0,25,1,0
35660,6000000,7,2,0,25,1,0
35664,1.8436,7,2,0,25,1,0
35666,0.3,7,2,0,25,1,0
35668,6000000,7,2,0,25,1,0
35672,1.84044,7,2,0,25,1,0
35674,0.3,7,2,0,25,1,0
35676,6000000,7,2,0,25,1,0
35680,1.8373,7,2,0,25,1,0
35682,0.3,7,2,0,25,1,0
35684,6000000,7,2,0,25,1,0
35688,1.83417,7,2,0,25,1,0
35690,0.3,7,2,0,25,1,0
35692,6000000,7,2,0,25,1,0
35696,1.83104,7,2,0,25,1,0
35698,0.3,7,2,0,25,1,0
35700,6000000,7,2,0,25,1,0
35704,1.82793,7,2,0,25,1,0
35706,0.3,7,2,0,25,1,0
35708,6000000,7,2,0,25,1,0
35712,1.82483,7,2,0,25,1,0
35714,0.3,7,2,0,25,1,0
35716,6000000,7,2,0,25,1,0
35720,1.82173,7,2,0,25,1,0
35722,0.3,7,2,0,25,1,0
35724,6000000,7,2,0,25,1,0
35728,1.81865,7,2,0,25,1,0
35730,0.3,7,2,0,25,1,0
35732,6000000,7,2,0,25,1,0
35736,1.81558,7,2,0,25,1,0
35738,0.3,7,2,0,25,1,0
35740,6000000,7,2,0,25,1,0
35744,1.81252,7,2,0,25,1,0
35746,0.3,7,2,0,25,1,0
35748,6000000,7,2,0,25,1,0
35752,1.80947,7,2,0,25,1,0
35754,0.3,7,2,0,25,1,0
35756,6000000,7,2,0,25,1,0
35760,1.80643,7,2,0,25,1,0
35762,0.3,7,2,0,25,1,0
35764,6000000,7,2,0,25,1,0
35768,1.8034,7,2,0,25,1,0
35770,0.3,7,2,0,25,1,0
35772,6000000,7,2,0,25,1,0
35776,1.80038,7,2,0,25,1,0
35778,0.3,7,2,0,25,1,0
35780,6000000,7,2,0,25,1,0
35784,1.79737,7,2,0,25,1,0
35786,0.3,7,2,0,25,1,0
35788,6000000,7,2,0,25,1,0
35792,1.79438,7,2,0,25,1,0
35794,0.3,7,2,0,25,1,0
35796,6000000,7,2,0,25,1,0
35800,1.79138,7,2,0,25,1,0
35802,0.3,7,2,0,25,1,0
35804,6000000,7,2,0,25,1,0
35808,1.7884,7,2,0,25,1,0
35810,0.3,7,2,0,25,1,0
35812,6000000,7,2,0,25,1,0
35816,1.78543,7,2,0,25,1,0
35818,0.3,7,2,0,25,1,0
35820,6000000,7,2,0,25,1,0
35824,1.78248,7,2,0,25,1,0
35826,0.3,7,2,0,25,1,0
35828,6000000,7,2,0,25,1,0
35832,1.77952,7,2,0,25,1,0
35834,0.3,7,2,0,25,1,0
35836,6000000,7,2,0,25,1,0
35840,1.77658,7,2,0,25,1,0
35842,0.3,7,2,0,25,1,0
35844,6000000,7,2,0,25,1,0
35848,1.77365,7,2,0,25,1,0
35850,0.3,7,2,0,25,1,0
35852,6000000,7,2,0,25,1,0
35856,1.77073,7,2,0,25,1,0
35858,0.3,7,2,0,25,1,0
35860,6000000,7,2,0,25,1,0
35864,1.76782,7,2,0,25,1,0
35866,0.3,7,2,0,25,1,0
35868,6000000,7,2,0,25,1,0
35872,1.76492,7,2,0,25,1,0
35874,0.3,7,2,0,25,1,0
35876,6000000,7,2,0,25,1,0
35880,1.76203,7,2,0,25,1,0
35882,0.3,7,2,0,25,1,0
35884,6000000,7,2,0,25,1,0
35888,1.75914,7,2,0,25,1,0
35890,0.3,7,2,0,25,1,0
35892,6000000,7,2,0,25,1,0
35896,1.75627,7,2,0,25,1,0
35898,0.3,7,2,0,25,1,0
35900,6000000,7,2,0,25,1,0
35904,1.75341,7,2,0,25,1,0
35906,0.3,7,2,0,25,1,0
35908,6000000,7,2,0,25,1,0
35912,1.75055,7,2,0,25,1,0
35914,0.3,7,2,0,25,1,0
35916,6000000,7,2,0,25,1,0
35920,1.74771,7,2,0,25,1,0
35922,0.3,7,2,0,25,1,0
35924,6000000,7,2,0,25,1,0
35928,1.74487,7,2,0,25,1,0
35930,0.3,7,2,0,25,1,0
35932,6000000,7,2,0,25,1,0
35936,1.74204,7,2,0,25,1,0
35938,0.3,7,2,0,25,1,0
35940,6000000,7,2,0,25,1,0
35944,1.73923,7,2,0,25,1,0
35946,0.3,7,2,0,25,1,0
35948,6000000,7,2,0,25,1,0
35952,1.73642,7,2,0,25,1,0
35954,0.3,7,2,0,25,1,0
35956,6000000,7,2,0,25,1,0
35960,1.73362,7,2,0,25,1,0
35962,0.3,7,2,0,25,1,0
35964,6000000,7,2,0,25,1,0
35968,1.73082,7,2,0,25,1,0
35970,0.3,7,2,0,25,1,0
35972,6000000,7,2,0,25,1,0
35976,1.72804,7,2,0,25,1,0
35978,0.3,7,2,0,25,1,0
35980,6000000,7,2,0,25,1,0
35984,1.72527,7,2,0,25,1,0
35986,0.3,7,2,0,25,1,0
35988,6000000,7,2,0,25,1,0
35992,1.72251,7,2,0,25,1,0
35994,0.3,7,2,0,25,1,0
35996,6000000,7,2,0,25,1,0
36000,1.71975,7,2,0,25,1,0
36002,0.3,7,2,0,25,1,0
36004,6000000,7,2,0,25,1,0
36008,1.71701,7,2,0,25,1,0
36010,0.3,7,2,0,25,1,0
36012,6000000,7,2,0,25,1,0
36016,1.71427,7,2,0,25,1,0
36018,0.3,7,2,0,25,1,0
36020,6000000,7,2,0,25,1,0
36024,1.71154,7,2,0,25,1,0
36026,0.3,7,2,0,25,1,0
36028,6000000,7,2,0,25,1,0
36032,1.70882,7,2,0,25,1,0
36034,0.3,7,2,0,25,1,0
36036,6000000,7,2,0,25,1,0
36040,1.70611,7,2,0,25,1,0
36042,0.3,7,2,0,25,1,0
36044,6000000,7,2,0,25,1,0
36048,1.70341,7,2,0,25,1,0
36050,0.3,7,2,0,25,1,0
36052,6000000,7,2,0,25,1,0
36056,1.70071,7,2,0,25,1,0
36058,0.3,7,2,0,25,1,0
36060,6000000,7,2,0,25,1,0
36064,1.69803,7,2,0,25,1,0
36066,0.3,7,2,0,25,1,0
36068,6000000,7,2,0,25,1,0
36072,1.69535,7,2,0,25,1,0
36074,0.3,7,2,0,25,1,0
36076,6000000,7,2,0,25,1,0
36080,1.69267,7,2,0,25,1,0
36082,0.3,7,2,0,25,1,0
36084,6000000,7,2,0,25,1,0
36088,1.69002,7,2,0,25,1,0
36090,0.3,7,2,0,25,1,0
36092,6000000,7,2,0,25,1,0
36096,1.68737,7,2,0,25,1,0
36098,0.3,7,2,0,25,1,0
36100,6000000,7,2,0,25,1,0
36104,1.68472,7,2,0,25,1,0
36106,0.3,7,2,0,25,1,0
36108,6000000,7,2,0,25,1,0
36112,1.68208,7,2,0,25,1,0
36114,0.3,7,2,0,25,1,0
36116,6000000,7,2,0,25,1,0
36120,1.67946,7,2,0,25,1,0
36122,0.3,7,2,0,25,1,0
36124,6000000,7,2,0,25,1,0
36128,1.67684,7,2,0,25,1,0
36130,0.3,7,2,0,25,1,0
36132,6000000,7,2,0,25,1,0
36136,1.67422,7,2,0,25,1,0
36138,0.3,7,2,0,25,1,0
36140,6000000,7,2,0,25,1,0
36144,1.67163,7,2,0,25,1,0
36146,0.3,7,2,0,25,1,0
36148,6000000,7,2,0,25,1,0
36152,1.66903,7,2,0,25,1,0
36154,0.3,7,2,0,25,1,0
36156,6000000,7,2,0,25,1,0
36160,1.66644,7,2,0,25,1,0
36162,0.3,7,2,0,25,1,0
36164,6000000,7,2,0,25,1,0
36168,1.66387,7,2,0,25,1,0
36170,0.3,7,2,0,25,1,0
36172,6000000,7,2,0,25,1,0
36176,1.66129,7,2,0,25,1,0
36178,0.3,7,2,0,25,1,0
36180,6000000,7,2,0,25,1,0
36184,1.65873,7,2,0,25,1,0
36186,0.3,7,2,0,25,1,0
36188,6000000,7,2,0,25,1,0
36192,1.65617,7,2,0,25,1,0
36194,0.3,7,2,0,25,1,0
36196,6000000,7,2,0,25,1,0
36200,1.65363,7,2,0,25,1,0
36202,0.3,7,2,0,25,1,0
36204,6000000,7,2,0,25,1,0
36208,1.65109,7,2,0,25,1,0
36210,0.3,7,2,0,25,1,0
36212,6000000,7,2,0,25,1,0
36216,1.64856,7,2,0,25,1,0
36218,0.3,7,2,0,25,1,0
36220,6000000,7,2,0,25,1,0
36224,1.64603,7,2,0,25,1,0
36226,0.3,7,2,0,25,1,0
36228,6000000,7,2,0,25,1,0
36232,1.64352,7,2,0,25,1,0
36234,0.3,7,2,0,25,1,0
36236,6000000,7,2,0,25,1,0
36240,1.64101,7,2,0,25,1,0
36242,0.3,7,2,0,25,1,0
36244,6000000,7,2,0,25,1,0
36248,1.63851,7,2,0,25,1,0
36250,0.3,7,2,0,25,1,0
36252,6000000,7,2,0,25,1,0
36256,1.63602,7,2,0,25,1,0
36258,0.3,7,2,0,25,1,0
36260,6000000,7,2,0,25,1,0
36264,1.63353,7,2,0,25,1,0
36266,0.3,7,2,0,25,1,0
36268,6000000,7,2,0,25,1,0
36272,1.63105,7,2,0,25,1,0
36274,0.3,7,2,0,25,1,0
36276,6000000,7,2,0,25,1,0
36280,1.62858,7,2,0,25,1,0
36282,0.3,7,2,0,25,1,0
36284,6000000,7,2,0,25,1,0
36288,1.62612,7,2,0,25,1,0
36290,0.3,7,2,0,25,1,0
36292,6000000,7,2,0,25,1,0
36296,1.62367,7,2,0,25,1,0
36298,0.3,7,2,0,25,1,0
36300,6000000,7,2,0,25,1,0
36304,1.62122,7,2,0,25,1,0
36306,0.3,7,2,0,25,1,0
36308,6000000,7,2,0,25,1,0
36312,1.61878,7,2,0,25,1,0
36314,0.3,7,2,0,25,1,0
36316,6000000,7,2,0,25,1,0
36320,1.61634,7,2,0,25,1,0
36322,0.3,7,2,0,25,1,0
36324,6000000,7,2,0,25,1,0
36328,1.61392,7,2,0,25,1,0
36330,0.3,7,2,0,25,1,0
36332,6000000,7,2,0,25,1,0
36336,1.6115,7,2,0,25,1,0
36338,0.3,7,2,0,25,1,0
36340,6000000,7,2,0,25,1,0
36344,1.60908,7,2,0,25,1,0
36346,0.3,7,2,0,25,1,0
36348,6000000,7,2,0,25,1,0
36352,1.60668,7,2,0,25,1,0
36354,0.3,7,2,0,25,1,0
36356,6000000,7,2,0,25,1,0
36360,1.60428,7,2,0,25,1,0
36362,0.3,7,2,0,25,1,0
36364,6000000,7,2,0,25,1,0
36368,1.60189,7,2,0,25,1,0
36370,0.3,7,2,0,25,1,0
36372,6000000,7,2,0,25,1,0
36376,1.59951,7,2,0,25,1,0
36378,0.3,7,2,0,25,1,0
36380,6000000,7,2,0,25,1,0
36384,1.59713,7,2,0,25,1,0
36386,0.3,7,2,0,25,1,0
36388,6000000,7,2,0,25,1,0
36392,1.59477,7,2,0,25,1,0
36394,0.3,7,2,0,25,1,0
36396,6000000,7,2,0,25,1,0
36400,1.5924,7,2,0,25,1,0
36402,0.3,7,2,0,25,1,0
36404,6000000,7,2,0,25,1,0
36408,1.59005,7,2,0,25,1,0
36410,0.3,7,2,0,25,1,0
36412,6000000,7,2,0,25,1,0
36416,1.5877,7,2,0,25,1,0
36418,0.3,7,2,0,25,1,0
36420,6000000,7,2,0,25,1,0
36424,1.58536,7,2,0,25,1,0
36426,0.3,7,2,0,25,1,0
36428,6000000,7,2,0,25,1,0
36432,1.58303,7,2,0,25,1,0
36434,0.3,7,2,0,25,1,0
36436,6000000,7,2,0,25,1,0
36440,1.5807,7,2,0,25,1,0
36442,0.3,7,2,0,25,1,0
36444,6000000,7,2,0,25,1,0
36448,1.57838,7,2,0,25,1,0
36450,0.3,7,2,0,25,1,0
36452,6000000,7,2,0,25,1,0
36456,1.57607,7,2,0,25,1,0
36458,0.3,7,2,0,25,1,0
36460,6000000,7,2,0,25,1,0
36464,1.57376,7,2,0,25,1,0
36466,0.3,7,2,0,25,1,0
36468,6000000,7,2,0,25,1,0
36472,1.57146,7,2,0,25,1,0
36474,0.3,7,2,0,25,1,0
36476,6000000,7,2,0,25,1,0
36480,1.56917,7,2,0,25,1,0
36482,0.3,7,2,0,25,1,0
36484,6000000,7,2,0,25,1,0
36488,1.56687,7,2,0,25,1,0
36490,0.3,7,2,0,25,1,0
36492,6000000,7,2,0,25,1,0
36496,1.5646,7,2,0,25,1,0
36498,0.3,7,2,0,25,1,0
36500,6000000,7,2,0,25,1,0
36504,1.56233,7,2,0,25,1,0
36506,0.3,7,2,0,25,1,0
36508,6000000,7,2,0,25,1,0
36512,1.56006,7,2,0,25,1,0
36514,0.3,7,2,0,25,1,0
36516,6000000,7,2,0,25,1,0
36520,1.5578,7,2,0,25,1,0
36522,0.3,7,2,0,25,1,0
36524,6000000,7,2,0,25,1,0
36528,1.55554,7,2,0,25,1,0
36530,0.3,7,2,0,25,1,0
36532,6000000,7,2,0,25,1,0
36536,1.5533,7,2,0,25,1,0
36538,0.3,7,2,0,25,1,0
36540,6000000,7,2,0,25,1,0
36544,1.55106,7,2,0,25,1,0
36546,0.3,7,2,0,25,1,0
36548,6000000,7,2,0,25,1,0
36552,1.54882,7,2,0,25,1,0
36554,0.3,7,2,0,25,1,0
36556,6000000,7,2,0,25,1,0
36560,1.54659,7,2,0,25,1,0
36562,0.3,7,2,0,25,1,0
36564,6000000,7,2,0,25,1,0
36568,1.54438,7,2,0,25,1,0
36570,0.3,7,2,0,25,1,0
36572,6000000,7,2,0,25,1,0
36576,1.54216,7,2,0,25,1,0
36578,0.3,7,2,0,25,1,0
36580,6000000,7,2,0,25,1,0
36584,1.53995,7,2,0,25,1,0
36586,0.3,7,2,0,25,1,0
36588,6000000,7,2,0,25,1,0
36592,1.53775,7,2,0,25,1,0
36594,0.3,7,2,0,25,1,0
36596,6000000,7,2,0,25,1,0
36600,1.53555,7,2,0,25,1,0
36602,0.3,7,2,0,25,1,0
36604,6000000,7,2,0,25,1,0
36608,1.53336,7,2,0,25,1,0
36610,0.3,7,2,0,25,1,0
36612,6000000,7,2,0,25,1,0
36616,1.53117,7,2,0,25,1,0
36618,0.3,7,2,0,25,1,0
36620,6000000,7,2,0,25,1,0
36624,1.529,7,2,0,25,1,0
36626,0.3,7,2,0,25,1,0
36628,6000000,7,2,0,25,1,0
36632,1.52683,7,2,0,25,1,0
36634,0.3,7,2,0,25,1,0
36636,6000000,7,2,0,25,1,0
36640,1.52467,7,2,0,25,1,0
36642,0.3,7,2,0,25,1,0
36644,6000000,7,2,0,25,1,0
36648,1.5225,7,2,0,25,1,0
36650,0.3,7,2,0,25,1,0
36652,6000000,7,2,0,25,1,0
36656,1.52035,7,2,0,25,1,0
36658,0.3,7,2,0,25,1,0
36660,6000000,7,2,0,25,1,0
36664,1.51821,7,2,0,25,1,0
36666,0.3,7,2,0,25,1,0
36668,6000000,7,2,0,25,1,0
36672,1.51607,7,2,0,25,1,0
36674,0.3,7,2,0,25,1,0
36676,6000000,7,2,0,25,1,0
36680,1.51393,7,2,0,25,1,0
36682,0.3,7,2,0,25,1,0
36684,6000000,7,2,0,25,1,0
36688,1.5118,7,2,0,25,1,0
36690,0.3,7,2,0,25,1,0
36692,6000000,7,2,0,25,1,0
36696,1.50968,7,2,0,25,1,0
36698,0.3,7,2,0,25,1,0
36700,6000000,7,2,0,25,1,0
36704,1.50756,7,2,0,25,1,0
36706,0.3,7,2,0,25,1,0
36708,6000000,7,2,0,25,1,0
36712,1.50545,7,2,0,25,1,0
36714,0.3,7,2,0,25,1,0
36716,6000000,7,2,0,25,1,0
36720,1.50334,7,2,0,25,1,0
36722,0.3,7,2,0,25,1,0
36724,6000000,7,2,0,25,1,0
36728,1.50125,7,2,0,25,1,0
36730,0.3,7,2,0,25,1,0
36732,6000000,7,2,0,25,1,0
36736,1.49915,7,2,0,25,1,0
36738,0.3,7,2,0,25,1,0
36740,6000000,7,2,0,25,1,0
36744,1.49707,7,2,0,25,1,0
36746,0.3,7,2,0,25,1,0
36748,6000000,7,2,0,25,1,0
36752,1.49498,7,2,0,25,1,0
36754,0.3,7,2,0,25,1,0
36756,6000000,7,2,0,25,1,0
36760,1.49291,7,2,0,25,1,0
36762,0.3,7,2,0,25,1,0
36764,6000000,7,2,0,25,1,0
36768,1.49084,7,2,0,25,1,0
36770,0.3,7,2,0,25,1,0
36772,6000000,7,2,0,25,1,0
36776,1.48877,7,2,0,25,1,0
36778,0.3,7,2,0,25,1,0
36780,6000000,7,2,0,25,1,0
36784,1.48672,7,2,0,25,1,0
36786,0.3,7,2,0,25,1,0
36788,6000000,7,2,0,25,1,0
36792,1.48467,7,2,0,25,1,0
36794,0.3,7,2,0,25,1,0
36796,6000000,7,2,0,25,1,0
36800,1.48262,7,2,0,25,1,0
36802,0.3,7,2,0,25,1,0
36804,6000000,7,2,0,25,1,0
36808,1.48057,7,2,0,25,1,0
36810,0.3,7,2,0,25,1,0
36812,6000000,7,2,0,25,1,0
36816,1.47854,7,2,0,25,1,0
36818,0.3,7,2,0,25,1,0
36820,6000000,7,2,0,25,1,0
36824,1.47651,7,2,0,25,1,0
36826,0.3,7,2,0,25,1,0
36828,6000000,7,2,0,25,1,0
36832,1.47448,7,2,0,25,1,0
36834,0.3,7,2,0,25,1,0
36836,6000000,7,2,0,25,1,0
36840,1.47247,7,2,0,25,1,0
36842,0.3,7,2,0,25,1,0
36844,6000000,7,2,0,25,1,0
36848,1.47045,7,2,0,25,1,0
36850,0.3,7,2,0,25,1,0
36852,6000000,7,2,0,25,1,0
36856,1.46844,7,2,0,25,1,0
36858,0.3,7,2,0,25,1,0
36860,6000000,7,2,0,25,1,0
36864,1.46644,7,2,0,25,1,0
36866,0.3,7,2,0,25,1,0
36868,6000000,7,2,0,25,1,0
36872,1.46444,7,2,0,25,1,0
36874,0.3,7,2,0,25,1,0
36876,6000000,7,2,0,25,1,0
36880,1.46245,7,2,0,25,1,0
36882,0.3,7,2,0,25,1,0
36884,6000000,7,2,0,25,1,0
36888,1.46047,7,2,0,25,1,0
36890,0.3,7,2,0,25,1,0
36892,6000000,7,2,0,25,1,0
36896,1.45848,7,2,0,25,1,0
36898,0.3,7,2,0,25,1,0
36900,6000000,7,2,0,25,1,0
36904,1.45651,7,2,0,25,1,0
36906,0.3,7,2,0,25,1,0
36908,6000000,7,2,0,25,1,0
36912,1.45453,7,2,0,25,1,0
36914,0.3,7,2,0,25,1,0
36916,6000000,7,2,0,25,1,0
36920,1.45257,7,2,0,25,1,0
36922,0.3,7,2,0,25,1,0
36924,6000000,7,2,0,25,1,0
36928,1.45061,7,2,0,25,1,0
36930,0.3,7,2,0,25,1,0
36932,6000000,7,2,0,25,1,0
36936,1.44866,7,2,0,25,1,0
36938,0.3,7,2,0,25,1,0
36940,6000000,7,2,0,25,1,0
36944,1.44671,7,2,0,25,1,0
36946,0.3,7,2,0,25,1,0
36948,6000000,7,2,0,25,1,0
36952,1.44477,7,2,0,25,1,0
36954,0.3,7,2,0,25,1,0
36956,6000000,7,2,0,25,1,0
36960,1.44283,7,2,0,25,1,0
36962,0.3,7,2,0,25,1,0
36964,6000000,7,2,0,25,1,0
36968,1.44089,7,2,0,25,1,0
36970,0.3,7,2,0,25,1,0
36972,6000000,7,2,0,25,1,0
36976,1.43897,7,2,0,25,1,0
36978,0.3,7,2,0,25,1,0
36980,6000000,7,2,0,25,1,0
36984,1.43704,7,2,0,25,1,0
36986,0.3,7,2,0,25,1,0
36988,6000000,7,2,0,25,1,0
36992,1.43512,7,2,0,25,1,0
36994,0.3,7,2,0,25,1,0
36996,6000000,7,2,0,25,1,0
37000,1.43321,7,2,0,25,1,0
37002,0.3,7,2,0,25,1,0
37004,6000000,7,2,0,25,1,0
37008,1.4313,7,2,0,25,1,0
37010,0.3,7,2,0,25,1,0
37012,6000000,7,2,0,25,1,0
37016,1.4294,7,2,0,25,1,0
37018,0.3,7,2,0,25,1,0
37020,6000000,7,2,0,25,1,0
37024,1.4275,7,2,0,25,1,0
37026,0.3,7,2,0,25,1,0
37028,6000000,7,2,0,25,1,0
37032,1.42561,7,2,0,25,1,0
37034,0.3,7,2,0,25,1,0
37036,6000000,7,2,0,25,1,0
37040,1.42372,7,2,0,25,1,0
37042,0.3,7,2,0,25,1,0
37044,6000000,7,2,0,25,1,0
37048,1.42184,7,2,0,25,1,0
37050,0.3,7,2,0,25,1,0
37052,6000000,7,2,0,25,1,0
37056,1.41996,7,2,0,25,1,0
37058,0.3,7,2,0,25,1,0
37060,6000000,7,2,0,25,1,0
37064,1.41808,7,2,0,25,1,0
37066,0.3,7,2,0,25,1,0
37068,6000000,7,2,0,25,1,0
37072,1.41622,7,2,0,25,1,0
37074,0.3,7,2,0,25,1,0
37076,6000000,7,2,0,25,1,0
37080,1.41436,7,2,0,25,1,0
37082,0.3,7,2,0,25,1,0
37084,6000000,7,2,0,25,1,0
37088,1.4125,7,2,0,25,1,0
37090,0.3,7,2,0,25,1,0
37092,6000000,7,2,0,25,1,0
37096,1.41064,7,2,0,25,1,0
37098,0.3,7,2,0,25,1,0
37100,6000000,7,2,0,25,1,0
37104,1.4088,7,2,0,25,1,0
37106,0.3,7,2,0,25,1,0
37108,6000000,7,2,0,25,1,0
37112,1.40695,7,2,0,25,1,0
37114,0.3,7,2,0,25,1,0
37116,6000000,7,2,0,25,1,0
37120,1.40512,7,2,0,25,1,0
37122,0.3,7,2,0,25,1,0
37124,6000000,7,2,0,25,1,0
37128,1.40328,7,2,0,25,1,0
37130,0.3,7,2,0,25,1,0
37132,6000000,7,2,0,25,1,0
37136,1.40145,7,2,0,25,1,0
37138,0.3,7,2,0,25,1,0
37140,6000000,7,2,0,25,1,0
37144,1.39962,7,2,0,25,1,0
37146,0.3,7,2,0,25,1,0
37148,6000000,7,2,0,25,1,0
37152,1.39781,7,2,0,25,1,0
37154,0.3,7,2,0,25,1,0
37156,6000000,7,2,0,25,1,0
37160,1.39599,7,2,0,25,1,0
37162,0.3,7,2,0,25,1,0
37164,6000000,7,2,0,25,1,0
37168,1.39418,7,2,0,25,1,0
37170,0.3,7,2,0,25,1,0
37172,6000000,7,2,0,25,1,0
37176,1.39238,7,2,0,25,1,0
37178,0.3,7,2,0,25,1,0
37180,6000000,7,2,0,25,1,0
37184,1.39058,7,2,0,25,1,0
37186,0.3,7,2,0,25,1,0
37188,6000000,7,2,0,25,1,0
37192,1.38878,7,2,0,25,1,0
37194,0.3,7,2,0,25,1,0
37196,6000000,7,2,0,25,1,0
37200,1.38699,7,2,0,25,1,0
37202,0.3,7,2,0,25,1,0
37204,6000000,7,2,0,25,1,0
37208,1.3852,7,2,0,25,1,0
37210,0.3,7,2,0,25,1,0
37212,6000000,7,2,0,25,1,0
37216,1.38342,7,2,0,25,1,0
37218,0.3,7,2,0,25,1,0
37220,6000000,7,2,0,25,1,0
37224,1.38164,7,2,0,25,1,0
37226,0.3,7,2,0,25,1,0
37228,6000000,7,2,0,25,1,0
37232,1.37987,7,2,0,25,1,0
37234,0.3,7,2,0,25,1,0
37236,6000000,7,2,0,25,1,0
37240,1.3781,7,2,0,25,1,0
37242,0.3,7,2,0,25,1,0
37244,6000000,7,2,0,25,1,0
37248,1.37633,7,2,0,25,1,0
37250,0.3,7,2,0,25,1,0
37252,6000000,7,2,0,25,1,0
37256,1.37458,7,2,0,25,1,0
37258,0.3,7,2,0,25,1,0
37260,6000000,7,2,0,25,1,0
37264,1.37283,7,2,0,25,1,0
37266,0.3,7,2,0,25,1,0
37268,6000000,7,2,0,25,1,0
37272,1.37107,7,2,0,25,1,0
37274,0.3,7,2,0,25,1,0
37276,6000000,7,2,0,25,1,0
37280,1.36932,7,2,0,25,1,0
37282,0.3,7,2,0,25,1,0
37284,6000000,7,2,0,25,1,0
37288,1.36758,7,2,0,25,1,0
37290,0.3,7,2,0,25,1,0
37292,6000000,7,2,0,25,1,0
37296,1.36585,7,2,0,25,1,0
37298,0.3,7,2,0,25,1,0
37300,6000000,7,2,0,25,1,0
37304,1.36412,7,2,0,25,1,0
37306,0.3,7,2,0,25,1,0
37308,6000000,7,2,0,25,1,0
37312,1.36238,7,2,0,25,1,0
37314,0.3,7,2,0,25,1,0
37316,6000000,7,2,0,25,1,0
37320,1.36066,7,2,0,25,1,0
37322,0.3,7,2,0,25,1,0
37324,6000000,7,2,0,25,1,0
37328,1.35894,7,2,0,25,1,0
37330,0.3,7,2,0,25,1,0
37332,6000000,7,2,0,25,1,0
37336,1.35723,7,2,0,25,1,0
37338,0.3,7,2,0,25,1,0
37340,6000000,7,2,0,25,1,0
37344,1.35552,7,2,0,25,1,0
37346,0.3,7,2,0,25,1,0
37348,6000000,7,2,0,25,1,0
37352,1.35381,7,2,0,25,1,0
37354,0.3,7,2,0,25,1,0
37356,6000000,7,2,0,25,1,0
37360,1.35211,7,2,0,25,1,0
37362,0.3,7,2,0,25,1,0
37364,6000000,7,2,0,25,1,0
37368,1.35041,7,2,0,25,1,0
37370,0.3,7,2,0,25,1,0
37372,6000000,7,2,0,25,1,0
37376,1.34872,7,2,0,25,1,0
37378,0.3,7,2,0,25,1,0
37380,6000000,7,2,0,25,1,0
37384,1.34703,7,2,0,25,1,0
37386,0.3,7,2,0,25,1,0
37388,6000000,7,2,0,25,1,0
37392,1.34534,7,2,0,25,1,0
37394,0.3,7,2,0,25,1,0
37396,6000000,7,2,0,25,1,0
37400,1.34366,7,2,0,25,1,0
37402,0.3,7,2,0,25,1,0
37404,6000000,7,2,0,25,1,0
37408,1.34198,7,2,0,25,1,0
37410,0.3,7,2,0,25,1,0
37412,6000000,7,2,0,25,1,0
37416,1.34031,7,2,0,25,1,0
37418,0.3,7,2,0,25,1,0
37420,6000000,7,2,0,25,1,0
37424,1.33864,7,2,0,25,1,0
37426,0.3,7,2,0,25,1,0
37428,6000000,7,2,0,25,1,0
37432,1.33698,7,2,0,25,1,0
37434,0.3,7,2,0,25,1,0
37436,6000000,7,2,0,25,1,0
37440,1.33532,7,2,0,25,1,0
37442,0.3,7,2,0,25,1,0
37444,6000000,7,2,0,25,1,0
37448,1.33366,7,2,0,25,1,0
37450,0.3,7,2,0,25,1,0
37452,6000000,7,2,0,25,1,0
37456,1.33201,7,2,0,25,1,0
37458,0.3,7,2,0,25,1,0
37460,6000000,7,2,0,25,1,0
37464,1.33036,7,2,0,25,1,0
37466,0.3,7,2,0,25,1,0
37468,6000000,7,2,0,25,1,0
37472,1.32872,7,2,0,25,1,0
37474,0.3,7,2,0,25,1,0
37476,6000000,7,2,0,25,1,0
37480,1.32708,7,2,0,25,1,0
37482,0.3,7,2,0,25,1,0
37484,6000000,7,2,0,25,1,0
37488,1.32544,7,2,0,25,1,0
37490,0.3,7,2,0,25,1,0
37492,6000000,7,2,0,25,1,0
37496,1.32381,7,2,0,25,1,0
37498,0.3,7,2,0,25,1,0
37500,6000000,7,2,0,25,1,0
37504,1.32217,7,2,0,25,1,0
37506,0.3,7,2,0,25,1,0
37508,6000000,7,2,0,25,1,0
37512,1.32055,7,2,0,25,1,0
37514,0.3,7,2,0,25,1,0
37516,6000000,7,2,0,25,1,0
37520,1.31893,7,2,0,25,1,0
37522,0.3,7,2,0,25,1,0
37524,6000000,7,2,0,25,1,0
37528,1.31732,7,2,0,25,1,0
37530,0.3,7,2,0,25,1,0
37532,6000000,7,2,0,25,1,0
37536,1.31571,7,2,0,25,1,0
37538,0.3,7,2,0,25,1,0
37540,6000000,7,2,0,25,1,0
37544,1.3141,7,2,0,25,1,0
37546,0.3,7,2,0,25,1,0
37548,6000000,7,2,0,25,1,0
37552,1.31249,7,2,0,25,1,0
37554,0.3,7,2,0,25,1,0
37556,6000000,7,2,0,25,1,0
37560,1.31089,7,2,0,25,1,0
37562,0.3,7,2,0,25,1,0
37564,6000000,7,2,0,25,1,0
37568,1.3093,7,2,0,25,1,0
37570,0.3,7,2,0,25,1,0
37572,6000000,7,2,0,25,1,0
37576,1.30771,7,2,0,25,1,0
37578,0.3,7,2,0,25,1,0
37580,6000000,7,2,0,25,1,0
37584,1.30612,7,2,0,25,1,0
37586,0.3,7,2,0,25,1,0
37588,6000000,7,2,0,25,1,0
37592,1.30453,7,2,0,25,1,0
37594,0.3,7,2,0,25,1,0
37596,6000000,7,2,0,25,1,0
37600,1.30295,7,2,0,25,1,0
37602,0.3,7,2,0,25,1,0
37604,6000000,7,2,0,25,1,0
37608,1.30137,7,2,0,25,1,0
37610,0.3,7,2,0,25,1,0
37612,6000000,7,2,0,25,1,0
37616,1.2998,7,2,0,25,1,0
37618,0.3,7,2,0,25,1,0
37620,6000000,7,2,0,25,1,0
37624,1.29823,7,2,0,25,1,0
37626,0.3,7,2,0,25,1,0
37628,6000000,7,2,0,25,1,0
37632,1.29667,7,2,0,25,1,0
37634,0.3,7,2,0,25,1,0
37636,6000000,7,2,0,25,1,0
37640,1.29511,7,2,0,25,1,0
37642,0.3,7,2,0,25,1,0
37644,6000000,7,2,0,25,1,0
37648,1.29355,7,2,0,25,1,0
37650,0.3,7,2,0,25,1,0
37652,6000000,7,2,0,25,1,0
37656,1.29199,7,2,0,25,1,0
37658,0.3,7,2,0,25,1,0
37660,6000000,7,2,0,25,1,0
37664,1.29044,7,2,0,25,1,0
37666,0.3,7,2,0,25,1,0
37668,6000000,7,2,0,25,1,0
37672,1.28889,7,2,0,25,1,0
37674,0.3,7,2,0,25,1,0
37676,6000000,7,2,0,25,1,0
37680,1.28735,7,2,0,25,1,0
37682,0.3,7,2,0,25,1,0
37684,6000000,7,2,0,25,1,0
37688,1.28581,7,2,0,25,1,0
37690,0.3,7,2,0,25,1,0
37692,6000000,7,2,0,25,1,0
37696,1.28428,7,2,0,25,1,0
37698,0.3,7,2,0,25,1,0
37700,6000000,7,2,0,25,1,0
37704,1.28274,7,2,0,25,1,0
37706,0.3,7,2,0,25,1,0
37708,6000000,7,2,0,25,1,0
37712,1.28122,7,2,0,25,1,0
37714,0.3,7,2,0,25,1,0
37716,6000000,7,2,0,25,1,0
37720,1.27969,7,2,0,25,1,0
37722,0.3,7,2,0,25,1,0
37724,6000000,7,2,0,25,1,0
37728,1.27817,7,2,0,25,1,0
37730,0.3,7,2,0,25,1,0
37732,6000000,7,2,0,25,1,0
37736,1.27665,7,2,0,25,1,0
37738,0.3,7,2,0,25,1,0
37740,6000000,7,2,0,25,1,0
37744,1.27513,7,2,0,25,1,0
37746,0.3,7,2,0,25,1,0
37748,6000000,7,2,0,25,1,0
37752,1.27363,7,2,0,25,1,0
37754,0.3,7,2,0,25,1,0
37756,6000000,7,2,0,25,1,0
37760,1.27212,7,2,0,25,1,0
37762,0.3,7,2,0,25,1,0
37764,6000000,7,2,0,25,1,0
37768,1.27062,7,2,0,25,1,0
37770,0.3,7,2,0,25,1,0
37772,6000000,7,2,0,25,1,0
37776,1.26912,7,2,0,25,1,0
37778,0.3,7,2,0,25,1,0
37780,6000000,7,2,0,25,1,0
37784,1.26762,7,2,0,25,1,0
37786,0.3,7,2,0,25,1,0
37788,6000000,7,2,0,25,1,0
37792,1.26613,7,2,0,25,1,0
37794,0.3,7,2,0,25,1,0
37796,6000000,7,2,0,25,1,0
37800,1.26464,7,2,0,25,1,0
37802,0.3,7,2,0,25,1,0
37804,6000000,7,2,0,25,1,0
37808,1.26315,7,2,0,25,1,0
37810,0.3,7,2,0,25,1,0
37812,6000000,7,2,0,25,1,0
37816,1.26168,7,2,0,25,1,0
37818,0.3,7,2,0,25,1,0
37820,6000000,7,2,0,25,1,0
37824,1.26019,7,2,0,25,1,0
37826,0.3,7,2,0,25,1,0
37828,6000000,7,2,0,25,1,0
37832,1.25872,7,2,0,25,1,0
37834,0.3,7,2,0,25,1,0
37836,6000000,7,2,0,25,1,0
37840,1.25724,7,2,0,25,1,0
37842,0.3,7,2,0,25,1,0
37844,6000000,7,2,0,25,1,0
37848,1.25578,7,2,0,25,1,0
37850,0.3,7,2,0,25,1,0
37852,6000000,7,2,0,25,1,0
37856,1.25431,7,2,0,25,1,0
37858,0.3,7,2,0,25,1,0
37860,6000000,7,2,0,25,1,0
37864,1.25285,7,2,0,25,1,0
37866,0.3,7,2,0,25,1,0
37868,6000000,7,2,0,25,1,0
37872,1.25139,7,2,0,25,1,0
37874,0.3,7,2,0,25,1,0
37876,6000000,7,2,0,25,1,0
37880,1.24994,7,2,0,25,1,0
37882,0.3,7,2,0,25,1,0
37884,6000000,7,2,0,25,1,0
37888,1.24848,7,2,0,25,1,0
37890,0.3,7,2,0,25,1,0
37892,6000000,7,2,0,25,1,0
37896,1.24704,7,2,0,25,1,0
37898,0.3,7,2,0,25,1,0
37900,6000000,7,2,0,25,1,0
37904,1.24559,7,2,0,25,1,0
37906,0.3,7,2,0,25,1,0
37908,6000000,7,2,0,25,1,0
37912,1.24415,7,2,0,25,1,0
37914,0.3,7,2,0,25,1,0
37916,6000000,7,2,0,25,1,0
37920,1.24272,7,2,0,25,1,0
37922,0.3,7,2,0,25,1,0
37924,6000000,7,2,0,25,1,0
37928,1.24128,7,2,0,25,1,0
37930,0.3,7,2,0,25,1,0
37932,6000000,7,2,0,25,1,0
37936,1.23985,7,2,0,25,1,0
37938,0.3,7,2,0,25,1,0
37940,6000000,7,2,0,25,1,0
37944,1.23842,7,2,0,25,1,0
37946,0.3,7,2,0,25,1,0
37948,6000000,7,2,0,25,1,0
37952,1.23699,7,2,0,25,1,0
37954,0.3,7,2,0,25,1,0
37956,6000000,7,2,0,25,1,0
37960,1.23558,7,2,0,25,1,0
37962,0.3,7,2,0,25,1,0
37964,6000000,7,2,0,25,1,0
37968,1.23416,7,2,0,25,1,0
37970,0.3,7,2,0,25,1,0
37972,6000000,7,2,0,25,1,0
37976,1.23274,7,2,0,25,1,0
37978,0.3,7,2,0,25,1,0
37980,6000000,7,2,0,25,1,0
37984,1.23133,7,2,0,25,1,0
37986,0.3,7,2,0,25,1,0
37988,6000000,7,2,0,25,1,0
37992,1.22992,7,2,0,25,1,0
37994,0.3,7,2,0,25,1,0
37996,6000000,7,2,0,25,1,0
38000,1.22852,7,2,0,25,1,0
38002,0.3,7,2,0,25,1,0
38004,6000000,7,2,0,25,1,0
38008,1.22712,7,2,0,25,1,0
38010,0.3,7,2,0,25,1,0
38012,6000000,7,2,0,25,1,0
38016,1.22572,7,2,0,25,1,0
38018,0.3,7,2,0,25,1,0
38020,6000000,7,2,0,25,1,0
38024,1.22432,7,2,0,25,1,0
38026,0.3,7,2,0,25,1,0
38028,6000000,7,2,0,25,1,0
38032,1.22293,7,2,0,25,1,0
38034,0.3,7,2,0,25,1,0
38036,6000000,7,2,0,25,1,0
38040,1.22153,7,2,0,25,1,0
38042,0.3,7,2,0,25,1,0
38044,6000000,7,2,0,25,1,0
38048,1.22015,7,2,0,25,1,0
38050,0.3,7,2,0,25,1,0
38052,6000000,7,2,0,25,1,0
38056,1.21877,7,2,0,25,1,0
38058,0.3,7,2,0,25,1,0
38060,6000000,7,2,0,25,1,0
38064,1.21739,7,2,0,25,1,0
38066,0.3,7,2,0,25,1,0
38068,6000000,7,2,0,25,1,0
38072,1.21601,7,2,0,25,1,0
38074,0.3,7,2,0,25,1,0
38076,6000000,7,2,0,25,1,0
38080,1.21463,7,2,0,25,1,0
38082,0.3,7,2,0,25,1,0
38084,6000000,7,2,0,25,1,0
38088,1.21327,7,2,0,25,1,0
38090,0.3,7,2,0,25,1,0
38092,6000000,7,2,0,25,1,0
38096,1.2119,7,2,0,25,1,0
38098,0.3,7,2,0,25,1,0
38100,6000000,7,2,0,25,1,0
38104,1.21053,7,2,0,25,1,0
38106,0.3,7,2,0,25,1,0
38108,6000000,7,2,0,25,1,0
38112,1.20918,7,2,0,25,1,0
38114,0.3,7,2,0,25,1,0
38116,6000000,7,2,0,25,1,0
38120,1.20782,7,2,0,25,1,0
38122,0.3,7,2,0,25,1,0
38124,6000000,7,2,0,25,1,0
38128,1.20646,7,2,0,25,1,0
38130,0.3,7,2,0,25,1,0
38132,6000000,7,2,0,25,1,0
38136,1.20511,7,2,0,25,1,0
38138,0.3,7,2,0,25,1,0
38140,6000000,7,2,0,25,1,0
38144,1.20376,7,2,0,25,1,0
38146,0.3,7,2,0,25,1,0
38148,6000000,7,2,0,25,1,0
38152,1.20241,7,2,0,25,1,0
38154,0.3,7,2,0,25,1,0
38156,6000000,7,2,0,25,1,0
38160,1.20107,7,2,0,25,1,0
38162,0.3,7,2,0,25,1,0
38164,6000000,7,2,0,25,1,0
38168,1.19973,7,2,0,25,1,0
38170,0.3,7,2,0,25,1,0
38172,6000000,7,2,0,25,1,0
38176,1.19839,7,2,0,25,1,0
38178,0.3,7,2,0,25,1,0
38180,6000000,7,2,0,25,1,0
38184,1.19706,7,2,0,25,1,0
38186,0.3,7,2,0,25,1,0
38188,6000000,7,2,0,25,1,0
38192,1.19572,7,2,0,25,1,0
38194,0.3,7,2,0,25,1,0
38196,6000000,7,2,0,25,1,0
38200,1.1944,7,2,0,25,1,0
38202,0.3,7,2,0,25,1,0
38204,6000000,7,2,0,25,1,0
38208,1.19308,7,2,0,25,1,0
38210,0.3,7,2,0,25,1,0
38212,6000000,7,2,0,25,1,0
38216,1.19175,7,2,0,25,1,0
38218,0.3,7,2,0,25,1,0
38220,6000000,7,2,0,25,1,0
38224,1.19043,7,2,0,25,1,0
38226,0.3,7,2,0,25,1,0
38228,6000000,7,2,0,25,1,0
38232,1.18912,7,2,0,25,1,0
38234,0.3,7,2,0,25,1,0
38236,6000000,7,2,0,25,1,0
38240,1.1878,7,2,0,25,1,0
38242,0.3,7,2,0,25,1,0
38244,6000000,7,2,0,25,1,0
38248,1.18649,7,2,0,25,1,0
38250,0.3,7,2,0,25,1,0
38252,6000000,7,2,0,25,1,0
38256,1.18518,7,2,0,25,1,0
38258,0.3,7,2,0,25,1,0
38260,6000000,7,2,0,25,1,0
38264,1.18388,7,2,0,25,1,0
38266,0.3,7,2,0,25,1,0
38268,6000000,7,2,0,25,1,0
38272,1.18258,7,2,0,25,1,0
38274,0.3,7,2,0,25,1,0
38276,6000000,7,2,0,25,1,0
38280,1.18128,7,2,0,25,1,0
38282,0.3,7,2,0,25,1,0
38284,6000000,7,2,0,25,1,0
38288,1.17998,7,2,0,25,1,0
38290,0.3,7,2,0,25,1,0
38292,6000000,7,2,0,25,1,0
38296,1.17868,7,2,0,25,1,0
38298,0.3,7,2,0,25,1,0
38300,6000000,7,2,0,25,1,0
38304,1.17739,7,2,0,25,1,0
38306,0.3,7,2,0,25,1,0
38308,6000000,7,2,0,25,1,0
38312,1.17611,7,2,0,25,1,0
38314,0.3,7,2,0,25,1,0
38316,6000000,7,2,0,25,1,0
38320,1.17483,7,2,0,25,1,0
38322,0.3,7,2,0,25,1,0
38324,6000000,7,2,0,25,1,0
38328,1.17354,7,2,0,25,1,0
38330,0.3,7,2,0,25,1,0
38332,6000000,7,2,0,25,1,0
38336,1.17226,7,2,0,25,1,0
38338,0.3,7,2,0,25,1,0
38340,6000000,7,2,0,25,1,0
38344,1.17098,7,2,0,25,1,0
38346,0.3,7,2,0,25,1,0
38348,6000000,7,2,0,25,1,0
38352,1.16971,7,2,0,25,1,0
38354,0.3,7,2,0,25,1,0
38356,6000000,7,2,0,25,1,0
38360,1.16844,7,2,0,25,1,0
38362,0.3,7,2,0,25,1,0
38364,6000000,7,2,0,25,1,0
38368,1.16717,7,2,0,25,1,0
38370,0.3,7,2,0,25,1,0
38372,6000000,7,2,0,25,1,0
38376,1.16591,7,2,0,25,1,0
38378,0.3,7,2,0,25,1,0
38380,6000000,7,2,0,25,1,0
38384,1.16464,7,2,0,25,1,0
38386,0.3,7,2,0,25,1,0
38388,6000000,7,2,0,25,1,0
38392,1.16338,7,2,0,25,1,0
38394,0.3,7,2,0,25,1,0
38396,6000000,7,2,0,25,1,0
38400,1.16212,7,2,0,25,1,0
38402,0.3,7,2,0,25,1,0
38404,6000000,7,2,0,25,1,0
38408,1.16087,7,2,0,25,1,0
38410,0.3,7,2,0,25,1,0
38412,6000000,7,2,0,25,1,0
38416,1.15962,7,2,0,25,1,0
38418,0.3,7,2,0,25,1,0
38420,6000000,7,2,0,25,1,0
38424,1.15837,7,2,0,25,1,0
38426,0.3,7,2,0,25,1,0
38428,6000000,7,2,0,25,1,0
38432,1.15713,7,2,0,25,1,0
38434,0.3,7,2,0,25,1,0
38436,6000000,7,2,0,25,1,0
38440,1.15587,7,2,0,25,1,0
38442,0.3,7,2,0,25,1,0
38444,6000000,7,2,0,25,1,0
38448,1.15463,7,2,0,25,1,0
38450,0.3,7,2,0,25,1,0
38452,6000000,7,2,0,25,1,0
38456,1.1534,7,2,0,25,1,0
38458,0.3,7,2,0,25,1,0
38460,6000000,7,2,0,25,1,0
38464,1.15216,7,2,0,25,1,0
38466,0.3,7,2,0,25,1,0
38468,6000000,7,2,0,25,1,0
38472,1.15092,7,2,0,25,1,0
38474,0.3,7,2,0,25,1,0
38476,6000000,7,2,0,25,1,0
38480,1.1497,7,2,0,25,1,0
38482,0.3,7,2,0,25,1,0
38484,6000000,7,2,0,25,1,0
38488,1.14847,7,2,0,25,1,0
38490,0.3,7,2,0,25,1,0
38492,6000000,7,2,0,25,1,0
38496,1.14724,7,2,0,25,1,0
38498,0.3,7,2,0,25,1,0
38500,6000000,7,2,0,25,1,0
38504,1.14603,7,2,0,25,1,0
38506,0.3,7,2,0,25,1,0
38508,6000000,7,2,0,25,1,0
38512,1.1448,7,2,0,25,1,0
38514,0.3,7,2,0,25,1,0
38516,6000000,7,2,0,25,1,0
38520,1.14358,7,2,0,25,1,0
38522,0.3,7,2,0,25,1,0
38524,6000000,7,2,0,25,1,0
38528,1.14237,7,2,0,25,1,0
38530,0.3,7,2,0,25,1,0
38532,6000000,7,2,0,25,1,0
38536,1.14116,7,2,0,25,1,0
38538,0.3,7,2,0,25,1,0
38540,6000000,7,2,0,25,1,0
38544,1.13995,7,2,0,25,1,0
38546,0.3,7,2,0,25,1,0
38548,6000000,7,2,0,25,1,0
38552,1.13874,7,2,0,25,1,0
38554,0.3,7,2,0,25,1,0
38556,6000000,7,2,0,25,1,0
38560,1.13753,7,2,0,25,1,0
38562,0.3,7,2,0,25,1,0
38564,6000000,7,2,0,25,1,0
38568,1.13633,7,2,0,25,1,0
38570,0.3,7,2,0,25,1,0
38572,6000000,7,2,0,25,1,0
38576,1.13513,7,2,0,25,1,0
38578,0.3,7,2,0,25,1,0
38580,6000000,7,2,0,25,1,0
38584,1.13393,7,2,0,25,1,0
38586,0.3,7,2,0,25,1,0
38588,6000000,7,2,0,25,1,0
38592,1.13274,7,2,0,25,1,0
38594,0.3,7,2,0,25,1,0
38596,6000000,7,2,0,25,1,0
38600,1.13155,7,2,0,25,1,0
38602,0.3,7,2,0,25,1,0
38604,6000000,7,2,0,25,1,0
38608,1.13036,7,2,0,25,1,0
38610,0.3,7,2,0,25,1,0
38612,6000000,7,2,0,25,1,0
38616,1.12918,7,2,0,25,1,0
38618,0.3,7,2,0,25,1,0
38620,6000000,7,2,0,25,1,0
38624,1.12799,7,2,0,25,1,0
38626,0.3,7,2,0,25,1,0
38628,6000000,7,2,0,25,1,0
38632,1.12681,7,2,0,25,1,0
38634,0.3,7,2,0,25,1,0
38636,6000000,7,2,0,25,1,0
38640,1.12562,7,2,0,25,1,0
38642,0.3,7,2,0,25,1,0
38644,6000000,7,2,0,25,1,0
38648,1.12445,7,2,0,25,1,0
38650,0.3,7,2,0,25,1,0
38652,6000000,7,2,0,25,1,0
38656,1.12328,7,2,0,25,1,0
38658,0.3,7,2,0,25,1,0
38660,6000000,7,2,0,25,1,0
38664,1.1221,7,2,0,25,1,0
38666,0.3,7,2,0,25,1,0
38668,6000000,7,2,0,25,1,0
38672,1.12093,7,2,0,25,1,0
38674,0.3,7,2,0,25,1,0
38676,6000000,7,2,0,25,1,0
38680,1.11977,7,2,0,25,1,0
38682,0.3,7,2,0,25,1,0
38684,6000000,7,2,0,25,1,0
38688,1.1186,7,2,0,25,1,0
38690,0.3,7,2,0,25,1,0
38692,6000000,7,2,0,25,1,0
38696,1.11743,7,2,0,25,1,0
38698,0.3,7,2,0,25,1,0
38700,6000000,7,2,0,25,1,0
38704,1.11628,7,2,0,25,1,0
38706,0.3,7,2,0,25,1,0
38708,6000000,7,2,0,25,1,0
38712,1.11512,7,2,0,25,1,0
38714,0.3,7,2,0,25,1,0
38716,6000000,7,2,0,25,1,0
38720,1.11397,7,2,0,25,1,0
38722,0.3,7,2,0,25,1,0
38724,6000000,7,2,0,25,1,0
38728,1.11281,7,2,0,25,1,0
38730,0.3,7,2,0,25,1,0
38732,6000000,7,2,0,25,1,0
38736,1.11166,7,2,0,25,1,0
38738,0.3,7,2,0,25,1,0
38740,6000000,7,2,0,25,1,0
38744,1.11052,7,2,0,25,1,0
38746,0.3,7,2,0,25,1,0
38748,6000000,7,2,0,25,1,0
38752,1.10937,7,2,0,25,1,0
38754,0.3,7,2,0,25,1,0
38756,6000000,7,2,0,25,1,0
38760,1.10823,7,2,0,25,1,0
38762,0.3,7,2,0,25,1,0
38764,6000000,7,2,0,25,1,0
38768,1.10708,7,2,0,25,1,0
38770,0.3,7,2,0,25,1,0
38772,6000000,7,2,0,25,1,0
38776,1.10594,7,2,0,25,1,0
38778,0.3,7,2,0,25,1,0
38780,6000000,7,2,0,25,1,0
38784,1.10481,7,2,0,25,1,0
38786,0.3,7,2,0,25,1,0
38788,6000000,7,2,0,25,1,0
38792,1.10367,7,2,0,25,1,0
38794,0.3,7,2,0,25,1,0
38796,6000000,7,2,0,25,1,0
38800,1.10254,7,2,0,25,1,0
38802,0.3,7,2,0,25,1,0
38804,6000000,7,2,0,25,1,0
38808,1.10141,7,2,0,25,1,0
38810,0.3,7,2,0,25,1,0
38812,6000000,7,2,0,25,1,0
38816,1.10028,7,2,0,25,1,0
38818,0.3,7,2,0,25,1,0
38820,6000000,7,2,0,25,1,0
38824,1.09916,7,2,0,25,1,0
38826,0.3,7,2,0,25,1,0
38828,6000000,7,2,0,25,1,0
38832,1.09804,7,2,0,25,1,0
38834,0.3,7,2,0,25,1,0
38836,6000000,7,2,0,25,1,0
38840,1.09692,7,2,0,25,1,0
38842,0.3,7,2,0,25,1,0
38844,6000000,7,2,0,25,1,0
38848,1.0958,7,2,0,25,1,0
38850,0.3,7,2,0,25,1,0
38852,6000000,7,2,0,25,1,0
38856,1.09468,7,2,0,25,1,0
38858,0.3,7,2,0,25,1,0
38860,6000000,7,2,0,25,1,0
38864,1.09357,7,2,0,25,1,0
38866,0.3,7,2,0,25,1,0
38868,6000000,7,2,0,25,1,0
38872,1.09246,7,2,0,25,1,0
38874,0.3,7,2,0,25,1,0
38876,6000000,7,2,0,25,1,0
38880,1.09135,7,2,0,25,1,0
38882,0.3,7,2,0,25,1,0
38884,6000000,7,2,0,25,1,0
38888,1.09024,7,2,0,25,1,0
38890,0.3,7,2,0,25,1,0
38892,6000000,7,2,0,25,1,0
38896,1.08914,7,2,0,25,1,0
38898,0.3,7,2,0,25,1,0
38900,6000000,7,2,0,25,1,0
38904,1.08804,7,2,0,25,1,0
38906,0.3,7,2,0,25,1,0
38908,6000000,7,2,0,25,1,0
38912,1.08694,7,2,0,25,1,0
38914,0.3,7,2,0,25,1,0
38916,6000000,7,2,0,25,1,0
38920,1.08584,7,2,0,25,1,0
38922,0.3,7,2,0,25,1,0
38924,6000000,7,2,0,25,1,0
38928,1.08474,7,2,0,25,1,0
38930,0.3,7,2,0,25,1,0
38932,6000000,7,2,0,25,1,0
38936,1.08365,7,2,0,25,1,0
38938,0.3,7,2,0,25,1,0
38940,6000000,7,2,0,25,1,0
38944,1.08256,7,2,0,25,1,0
38946,0.3,7,2,0,25,1,0
38948,6000000,7,2,0,25,1,0
38952,1.08148,7,2,0,25,1,0
38954,0.3,7,2,0,25,1,0
38956,6000000,7,2,0,25,1,0
38960,1.08038,7,2,0,25,1,0
38962,0.3,7,2,0,25,1,0
38964,6000000,7,2,0,25,1,0
38968,1.0793,7,2,0,25,1,0
38970,0.3,7,2,0,25,1,0
38972,6000000,7,2,0,25,1,0
38976,1.07822,7,2,0,25,1,0
38978,0.3,7,2,0,25,1,0
38980,6000000,7,2,0,25,1,0
38984,1.07714,7,2,0,25,1,0
38986,0.3,7,2,0,25,1,0
38988,6000000,7,2,0,25,1,0
38992,1.07606,7,2,0,25,1,0
38994,0.3,7,2,0,25,1,0
38996,6000000,7,2,0,25,1,0
39000,1.07498,7,2,0,25,1,0
39002,0.3,7,2,0,25,1,0
39004,6000000,7,2,0,25,1,0
39008,1.07391,7,2,0,25,1,0
39010,0.3,7,2,0,25,1,0
39012,6000000,7,2,0,25,1,0
39016,1.07284,7,2,0,25,1,0
39018,0.3,7,2,0,25,1,0
39020,6000000,7,2,0,25,1,0
39024,1.07177,7,2,0,25,1,0
39026,0.3,7,2,0,25,1,0
39028,6000000,7,2,0,25,1,0
39032,1.0707,7,2,0,25,1,0
39034,0.3,7,2,0,25,1,0
39036,6000000,7,2,0,25,1,0
39040,1.06963,7,2,0,25,1,0
39042,0.3,7,2,0,25,1,0
39044,6000000,7,2,0,25,1,0
39048,1.06858,7,2,0,25,1,0
39050,0.3,7,2,0,25,1,0
39052,6000000,7,2,0,25,1,0
39056,1.06752,7,2,0,25,1,0
39058,0.3,7,2,0,25,1,0
39060,6000000,7,2,0,25,1,0
39064,1.06645,7,2,0,25,1,0
39066,0.3,7,2,0,25,1,0
39068,6000000,7,2,0,25,1,0
39072,1.0654,7,2,0,25,1,0
39074,0.3,7,2,0,25,1,0
39076,6000000,7,2,0,25,1,0
39080,1.06434,7,2,0,25,1,0
39082,0.3,7,2,0,25,1,0
39084,6000000,7,2,0,25,1,0
39088,1.06329,7,2,0,25,1,0
39090,0.3,7,2,0,25,1,0
39092,6000000,7,2,0,25,1,0
39096,1.06224,7,2,0,25,1,0
39098,0.3,7,2,0,25,1,0
39100,6000000,7,2,0,25,1,0
39104,1.06119,7,2,0,25,1,0
39106,0.3,7,2,0,25,1,0
39108,6000000,7,2,0,25,1,0
39112,1.06014,7,2,0,25,1,0
39114,0.3,7,2,0,25,1,0
39116,6000000,7,2,0,25,1,0
39120,1.0591,7,2,0,25,1,0
39122,0.3,7,2,0,25,1,0
39124,6000000,7,2,0,25,1,0
39128,1.05806,7,2,0,25,1,0
39130,0.3,7,2,0,25,1,0
39132,6000000,7,2,0,25,1,0
39136,1.05702,7,2,0,25,1,0
39138,0.3,7,2,0,25,1,0
39140,6000000,7,2,0,25,1,0
39144,1.05598,7,2,0,25,1,0
39146,0.3,7,2,0,25,1,0
39148,6000000,7,2,0,25,1,0
39152,1.05494,7,2,0,25,1,0
39154,0.3,7,2,0,25,1,0
39156,6000000,7,2,0,25,1,0
39160,1.05391,7,2,0,25,1,0
39162,0.3,7,2,0,25,1,0
39164,6000000,7,2,0,25,1,0
39168,1.05288,7,2,0,25,1,0
39170,0.3,7,2,0,25,1,0
39172,6000000,7,2,0,25,1,0
39176,1.05185,7,2,0,25,1,0
39178,0.3,7,2,0,25,1,0
39180,6000000,7,2,0,25,1,0
39184,1.05082,7,2,0,25,1,0
39186,0.3,7,2,0,25,1,0
39188,6000000,7,2,0,25,1,0
39192,1.04979,7,2,0,25,1,0
39194,0.3,7,2,0,25,1,0
39196,6000000,7,2,0,25,1,0
39200,1.04877,7,2,0,25,1,0
39202,0.3,7,2,0,25,1,0
39204,6000000,7,2,0,25,1,0
39208,1.04775,7,2,0,25,1,0
39210,0.3,7,2,0,25,1,0
39212,6000000,7,2,0,25,1,0
39216,1.04673,7,2,0,25,1,0
39218,0.3,7,2,0,25,1,0
39220,6000000,7,2,0,25,1,0
39224,1.04571,7,2,0,25,1,0
39226,0.3,7,2,0,25,1,0
39228,6000000,7,2,0,25,1,0
39232,1.04469,7,2,0,25,1,0
39234,0.3,7,2,0,25,1,0
39236,6000000,7,2,0,25,1,0
39240,1.04368,7,2,0,25,1,0
39242,0.3,7,2,0,25,1,0
39244,6000000,7,2,0,25,1,0
39248,1.04267,7,2,0,25,1,0
39250,0.3,7,2,0,25,1,0
39252,6000000,7,2,0,25,1,0
39256,1.04166,7,2,0,25,1,0
39258,0.3,7,2,0,25,1,0
39260,6000000,7,2,0,25,1,0
39264,1.04065,7,2,0,25,1,0
39266,0.3,7,2,0,25,1,0
39268,6000000,7,2,0,25,1,0
39272,1.03964,7,2,0,25,1,0
39274,0.3,7,2,0,25,1,0
39276,6000000,7,2,0,25,1,0
39280,1.03864,7,2,0,25,1,0
39282,0.3,7,2,0,25,1,0
39284,6000000,7,2,0,25,1,0
39288,1.03763,7,2,0,25,1,0
39290,0.3,7,2,0,25,1,0
39292,6000000,7,2,0,25,1,0
39296,1.03663,7,2,0,25,1,0
39298,0.3,7,2,0,25,1,0
39300,6000000,7,2,0,25,1,0
39304,1.03564,7,2,0,25,1,0
39306,0.3,7,2,0,25,1,0
39308,6000000,7,2,0,25,1,0
39312,1.03464,7,2,0,25,1,0
39314,0.3,7,2,0,25,1,0
39316,6000000,7,2,0,25,1,0
39320,1.03365,7,2,0,25,1,0
39322,0.3,7,2,0,25,1,0
39324,6000000,7,2,0,25,1,0
39328,1.03265,7,2,0,25,1,0
39330,0.3,7,2,0,25,1,0
39332,6000000,7,2,0,25,1,0
39336,1.03167,7,2,0,25,1,0
39338,0.3,7,2,0,25,1,0
39340,6000000,7,2,0,25,1,0
39344,1.03068,7,2,0,25,1,0
39346,0.3,7,2,0,25,1,0
39348,6000000,7,2,0,25,1,0
39352,1.02968,7,2,0,25,1,0
39354,0.3,7,2,0,25,1,0
39356,6000000,7,2,0,25,1,0
39360,1.0287,7,2,0,25,1,0
39362,0.3,7,2,0,25,1,0
39364,6000000,7,2,0,25,1,0
39368,1.02772,7,2,0,25,1,0
39370,0.3,7,2,0,25,1,0
39372,6000000,7,2,0,25,1,0
39376,1.02674,7,2,0,25,1,0
39378,0.3,7,2,0,25,1,0
39380,6000000,7,2,0,25,1,0
39384,1.02576,7,2,0,25,1,0
39386,0.3,7,2,0,25,1,0
39388,6000000,7,2,0,25,1,0
39392,1.02478,7,2,0,25,1,0
39394,0.3,7,2,0,25,1,0
39396,6000000,7,2,0,25,1,0
39400,1.02381,7,2,0,25,1,0
39402,0.3,7,2,0,25,1,0
39404,6000000,7,2,0,25,1,0
39408,1.02283,7,2,0,25,1,0
39410,0.3,7,2,0,25,1,0
39412,6000000,7,2,0,25,1,0
39416,1.02186,7,2,0,25,1,0
39418,0.3,7,2,0,25,1,0
39420,6000000,7,2,0,25,1,0
39424,1.02089,7,2,0,25,1,0
39426,0.3,7,2,0,25,1,0
39428,6000000,7,2,0,25,1,0
39432,1.01992,7,2,0,25,1,0
39434,0.3,7,2,0,25,1,0
39436,6000000,7,2,0,25,1,0
39440,1.01895,7,2,0,25,1,0
39442,0.3,7,2,0,25,1,0
39444,6000000,7,2,0,25,1,0
39448,1.01799,7,2,0,25,1,0
39450,0.3,7,2,0,25,1,0
39452,6000000,7,2,0,25,1,0
39456,1.01703,7,2,0,25,1,0
39458,0.3,7,2,0,25,1,0
39460,6000000,7,2,0,25,1,0
39464,1.01607,7,2,0,25,1,0
39466,0.3,7,2,0,25,1,0
39468,6000000,7,2,0,25,1,0
39472,1.01511,7,2,0,25,1,0
39474,0.3,7,2,0,25,1,0
39476,6000000,7,2,0,25,1,0
39480,1.01415,7,2,0,25,1,0
39482,0.3,7,2,0,25,1,0
39484,6000000,7,2,0,25,1,0
39488,1.01319,7,2,0,25,1,0
39490,0.3,7,2,0,25,1,0
39492,6000000,7,2,0,25,1,0
39496,1.01224,7,2,0,25,1,0
39498,0.3,7,2,0,25,1,0
39500,6000000,7,2,0,25,1,0
39504,1.01128,7,2,0,25,1,0
39506,0.3,7,2,0,25,1,0
39508,6000000,7,2,0,25,1,0
39512,1.01033,7,2,0,25,1,0
39514,0.3,7,2,0,25,1,0
39516,6000000,7,2,0,25,1,0
39520,1.00939,7,2,0,25,1,0
39522,0.3,7,2,0,25,1,0
39524,6000000,7,2,0,25,1,0
39528,1.00844,7,2,0,25,1,0
39530,0.3,7,2,0,25,1,0
39532,6000000,7,2,0,25,1,0
39536,1.0075,7,2,0,25,1,0
39538,0.3,7,2,0,25,1,0
39540,6000000,7,2,0,25,1,0
39544,1.00655,7,2,0,25,1,0
39546,0.3,7,2,0,25,1,0
39548,6000000,7,2,0,25,1,0
39552,1.00561,7,2,0,25,1,0
39554,0.3,7,2,0,25,1,0
39556,6000000,7,2,0,25,1,0
39560,1.00468,7,2,0,25,1,0
39562,0.3,7,2,0,25,1,0
39564,6000000,7,2,0,25,1,0
39568,1.00373,7,2,0,25,1,0
39570,0.3,7,2,0,25,1,0
39572,6000000,7,2,0,25,1,0
39576,1.0028,7,2,0,25,1,0
39578,0.3,7,2,0,25,1,0
39580,6000000,7,2,0,25,1,0
39584,1.00187,7,2,0,25,1,0
39586,0.3,7,2,0,25,1,0
39588,6000000,7,2,0,25,1,0
39592,1.00093,7,2,0,25,1,0
39594,0.3,7,2,0,25,1,0
39596,6000000,7,2,0,25,1,0
39600,1,7,2,0,25,1,0
39602,0.3,7,2,0,25,1,0
39604,6000000,7,2,0,25,1,0
39930,333.333333333333,4,2,0,25,1,0
39930,-1500,4,2,0,25,0,0
39932,-1024.0965,4,2,0,25,0,0
39934,-777.459,4,2,0,25,0,0
39936,-626.5875,4,2,0,25,0,0
39938,-524.7825,4,2,0,25,0,0
39940,-451.461,4,2,0,25,0,0
39942,-396.144,4,2,0,25,0,0
39944,-352.926,4,2,0,25,0,0
39946,-318.2355,4,2,0,25,0,0
39948,-289.7745,4,2,0,25,0,0
39950,-266.0085,4,2,0,25,0,0
39952,-245.865,4,2,0,25,0,0
39954,-228.576,4,2,0,25,0,0
39956,-213.5775,4,2,0,25,0,0
39958,-200.442,4,2,0,25,0,0
39960,-188.8455,4,2,0,25,0,0
39962,-178.533,4,2,0,25,0,0
39964,-169.3035,4,2,0,25,0,0
39966,-160.9965,4,2,0,25,0,0
39968,-153.48,4,2,0,25,0,0
39970,-146.6469,4,2,0,25,0,0
39972,-140.40945,4,2,0,25,0,0
39974,-134.6934,4,2,0,25,0,0
39976,-129.43635,4,2,0,25,0,0
39978,-124.58595,4,2,0,25,0,0
39980,-120.0972,4,2,0,25,0,0
39982,-115.9314,4,2,0,25,0,0
39984,-112.05555,4,2,0,25,0,0
39986,-108.4407,4,2,0,25,0,0
39988,-105.0618,4,2,0,25,0,0
39990,-101.8968,4,2,0,25,0,0
39992,-98.92635,4,2,0,25,0,0
39994,-96.13335,4,2,0,25,0,0
39996,-93.50265,4,2,0,25,0,0
39998,-91.0209,4,2,0,25,0,0
40000,-88.67595,4,2,0,25,0,0
40002,-86.45715,4,2,0,25,0,0
40004,-84.3549,4,2,0,25,0,0
40006,-82.36035,4,2,0,25,0,0
40008,-80.4657,4,2,0,25,0,0
40010,-78.66405,4,2,0,25,0,0
40012,-76.94865,4,2,0,25,0,0
40014,-75.3138,4,2,0,25,0,0
40016,-73.75425,4,2,0,25,0,0
40018,-72.2649,4,2,0,25,0,0
40020,-70.8414,4,2,0,25,0,0
40022,-69.4797,4,2,0,25,0,0
40024,-68.17605,4,2,0,25,0,0
40026,-66.927,4,2,0,25,0,0
40028,-65.72925,4,2,0,25,0,0
40030,-64.57995,4,2,0,25,0,0
40032,-63.47625,4,2,0,25,0,0
40034,-62.4159,4,2,0,25,0,0
40036,-61.39635,4,2,0,25,0,0
40038,-60.41535,4,2,0,25,0,0
40040,-59.47125,4,2,0,25,0,0
40042,-58.5618,4,2,0,25,0,0
40044,-57.68535,4,2,0,25,0,0
40046,-56.8404,4,2,0,25,0,0
40048,-56.02515,4,2,0,25,0,0
40050,-55.23855,4,2,0,25,0,0
40052,-54.47895,4,2,0,25,0,0
40054,-53.7453,4,2,0,25,0,0
40056,-53.03625,4,2,0,25,0,0
40058,-52.35075,4,2,0,25,0,0
40060,-51.68775,4,2,0,25,0,0
40062,-51.0465,4,2,0,25,0,0
40064,-50.42565,4,2,0,25,0,0
40066,-49.82475,4,2,0,25,0,0
40068,-49.24275,4,2,0,25,0,0
40070,-48.67875,4,2,0,25,0,0
40072,-48.13245,4,2,0,25,0,0
40074,-47.6028,4,2,0,25,0,0
40076,-47.0892,4,2,0,25,0,0
40078,-46.59105,4,2,0,25,0,0
40080,-46.1079,4,2,0,25,0,0
40082,-45.639,4,2,0,25,0,0
40084,-45.18405,4,2,0,25,0,0
40086,-44.74215,4,2,0,25,0,0
40088,-44.3133,4,2,0,25,0,0
40090,-43.89675,4,2,0,25,0,0
40092,-43.4922,4,2,0,25,0,0
40094,-43.09905,4,2,0,25,0,0
40096,-42.71715,4,2,0,25,0,0
40098,-42.3459,4,2,0,25,0,0
40100,-41.98515,4,2,0,25,0,0
40102,-41.63445,4,2,0,25,0,0
40104,-41.2935,4,2,0,25,0,0
40106,-40.962,4,2,0,25,0,0
40108,-40.63965,4,2,0,25,0,0
40110,-40.3263,4,2,0,25,0,0
40112,-40.02135,4,2,0,25,0,0
40114,-39.7248,4,2,0,25,0,0
40116,-39.43635,4,2,0,25,0,0
40118,-39.1557,4,2,0,25,0,0
40120,-38.88285,4,2,0,25,0,0
40122,-38.6172,4,2,0,25,0,0
40124,-38.3589,4,2,0,25,0,0
40126,-38.1075,4,2,0,25,0,0
40128,-37.863,4,2,0,25,0,0
40130,-37.6251,4,2,0,25,0,0
40132,-37.39365,4,2,0,25,0,0
40134,-37.1685,4,2,0,25,0,0
40136,-36.94935,4,2,0,25,0,0
40138,-36.73635,4,2,0,25,0,0
40140,-36.52905,4,2,0,25,0,0
40142,-36.32745,4,2,0,25,0,0
40144,-36.1314,4,2,0,25,0,0
40146,-35.94075,4,2,0,25,0,0
40148,-35.75535,4,2,0,25,0,0
40150,-35.5752,4,2,0,25,0,0
40152,-35.4,4,2,0,25,0,0
40154,-35.22975,4,2,0,25,0,0
40156,-35.0643,4,2,0,25,0,0
40158,-34.9035,4,2,0,25,0,0
40160,-34.74735,4,2,0,25,0,0
40162,-34.5957,4,2,0,25,0,0
40164,-34.4484,4,2,0,25,0,0
40166,-34.30545,4,2,0,25,0,0
40168,-34.16685,4,2,0,25,0,0
40170,-34.03215,4,2,0,25,0,0
40172,-33.90165,4,2,0,25,0,0
40174,-33.7752,4,2,0,25,0,0
40176,-33.6525,4,2,0,25,0,0
40178,-33.5337,4,2,0,25,0,0
40180,333.333333333333,4,2,0,25,1,0
40180,-100,4,2,0,25,0,0
47930,-15.90675,4,2,0,25,0,0
47934.7,-1491.228,4,2,0,25,0,0
47961,-15.90675,4,2,0,25,0,0
47965.7,-1491.228,4,2,0,25,0,0
47992,-15.90675,4,2,0,25,0,0
47996.7,-1491.228,4,2,0,25,0,0
48023,-15.90675,4,2,0,25,0,0
48027.8,-1491.228,4,2,0,25,0,0
48055,-15.90675,4,2,0,25,0,0
48059.7,-1491.228,4,2,0,25,0,0
48086,-15.90675,4,2,0,25,0,0
48090.7,-1491.228,4,2,0,25,0,0
48117,-15.90675,4,2,0,25,0,0
48121.7,-1491.228,4,2,0,25,0,0
48148,-15.90675,4,2,0,25,0,0
48152.8,-1491.228,4,2,0,25,0,0
48180,-100.00005,4,2,0,25,0,0
55180,-26.31585,4,2,0,25,0,0
55195.5,-1500,4,2,0,25,0,0
55242,-26.31585,4,2,0,25,0,0
55257.8,-1500,4,2,0,25,0,0
55305,-26.31585,4,2,0,25,0,0
55320.5,-1500,4,2,0,25,0,0
55367,-26.31585,4,2,0,25,0,0
55382.8,-1500,4,2,0,25,0,0
55430,-26.31585,4,2,0,25,0,0
55445.5,-1500,4,2,0,25,0,0
55492,-26.31585,4,2,0,25,0,0
55507.8,-1500,4,2,0,25,0,0
55555,-26.31585,4,2,0,25,0,0
55570.5,-1500,4,2,0,25,0,0
55617,-26.31585,4,2,0,25,0,0
55632.8,-1500,4,2,0,25,0,0
55680,-26.31585,4,2,0,25,0,0
55695.5,-1500,4,2,0,25,0,0
55742,-26.31585,4,2,0,25,0,0
55757.8,-1500,4,2,0,25,0,0
55805,-26.31585,4,2,0,25,0,0
55820.5,-1500,4,2,0,25,0,0
55867,-26.31585,4,2,0,25,0,0
55882.8,-1500,4,2,0,25,0,0
55930,-26.31585,4,2,0,25,0,0
55945.5,-1500,4,2,0,25,0,0
55992,-26.31585,4,2,0,25,0,0
56007.8,-1500,4,2,0,25,0,0
56055,-26.31585,4,2,0,25,0,0
56070.5,-1500,4,2,0,25,0,0
56117,-26.31585,4,2,0,25,0,0
56132.8,-1500,4,2,0,25,0,0
56180,-100.00005,4,2,0,25,0,0
63930,-15.90675,4,2,0,25,0,0
63934.7,-1491.228,4,2,0,25,0,0
63961,-15.90675,4,2,0,25,0,0
63965.7,-1491.228,4,2,0,25,0,0
63992,-15.90675,4,2,0,25,0,0
63996.7,-1491.228,4,2,0,25,0,0
64023,-15.90675,4,2,0,25,0,0
64027.8,-1491.228,4,2,0,25,0,0
64055,-15.90675,4,2,0,25,0,0
64059.7,-1491.228,4,2,0,25,0,0
64086,-15.90675,4,2,0,25,0,0
64090.7,-1491.228,4,2,0,25,0,0
64117,-15.90675,4,2,0,25,0,0
64121.7,-1491.228,4,2,0,25,0,0
64148,-15.90675,4,2,0,25,0,0
64152.8,-1491.228,4,2,0,25,0,0
64180,-100.00005,4,2,0,25,0,0
71180,-26.31585,4,2,0,25,0,0
71195.5,-1500,4,2,0,25,0,0
71242,-26.31585,4,2,0,25,0,0
71257.8,-1500,4,2,0,25,0,0
71305,-26.31585,4,2,0,25,0,0
71320.5,-1500,4,2,0,25,0,0
71367,-26.31585,4,2,0,25,0,0
71382.8,-1500,4,2,0,25,0,0
71430,-26.31585,4,2,0,25,0,0
71445.5,-1500,4,2,0,25,0,0
71492,-26.31585,4,2,0,25,0,0
71507.8,-1500,4,2,0,25,0,0
71555,-26.31585,4,2,0,25,0,0
71570.5,-1500,4,2,0,25,0,0
71617,-26.31585,4,2,0,25,0,0
71632.8,-1500,4,2,0,25,0,0
71680,-26.31585,4,2,0,25,0,0
71695.5,-1500,4,2,0,25,0,0
71742,-26.31585,4,2,0,25,0,0
71757.8,-1500,4,2,0,25,0,0
71805,-26.31585,4,2,0,25,0,0
71820.5,-1500,4,2,0,25,0,0
71867,-26.31585,4,2,0,25,0,0
71882.8,-1500,4,2,0,25,0,0
71930,-26.31585,4,2,0,25,0,0
71945.5,-1500,4,2,0,25,0,0
71992,-26.31585,4,2,0,25,0,0
72007.8,-1500,4,2,0,25,0,0
72055,-26.31585,4,2,0,25,0,0
72070.5,-1500,4,2,0,25,0,0
72117,-26.31585,4,2,0,25,0,0
72132.8,-1500,4,2,0,25,0,0
72180,-15,4,2,0,25,0,0
72211,-1500,4,2,0,25,0,0
72305,-150,4,2,0,25,0,0
72367,-50,4,2,0,25,0,0
72430,-100.00005,4,2,0,25,0,0
72680,-15,4,2,0,25,0,0
72711,-1500,4,2,0,25,0,0
72805,-150,4,2,0,25,0,0
72867,-49.99995,4,2,0,25,0,0
72930,-100.00005,4,2,0,25,0,0
73180,-26.31585,4,2,0,25,0,0
73195.5,-1500,4,2,0,25,0,0
73242,-100.00005,4,2,0,25,0,0
73367,-26.31585,4,2,0,25,0,0
73382.5,-1500,4,2,0,25,0,0
73429,-100.00005,4,2,0,25,0,0
73555,-26.31585,4,2,0,25,0,0
73570.5,-1500,4,2,0,25,0,0
73617,-100.00005,4,2,0,25,0,0
73680,-26.31585,4,2,0,25,0,0
73695.5,-1500,4,2,0,25,0,0
73742,-100.00005,4,2,0,25,0,0
73867,-26.31585,4,2,0,25,0,0
73882.5,-1500,4,2,0,25,0,0
73929,-100.00005,4,2,0,25,0,0
74055,-26.31585,4,2,0,25,0,0
74070.5,-1500,4,2,0,25,0,0
74117,-100.00005,4,2,0,25,0,0
74180,-15,4,2,0,25,0,0
74211,-1500,4,2,0,25,0,0
74305,-150,4,2,0,25,0,0
74367,-49.99995,4,2,0,25,0,0
74430,-100.00005,4,2,0,25,0,0
74680,-15,4,2,0,25,0,0
74711,-1500,4,2,0,25,0,0
74805,-150,4,2,0,25,0,0
74867,-49.99995,4,2,0,25,0,0
74930,-100.00005,4,2,0,25,0,0
75180,-26.31585,4,2,0,25,0,0
75195.5,-1500,4,2,0,25,0,0
75242,-100.00005,4,2,0,25,0,0
75367,-26.31585,4,2,0,25,0,0
75382.5,-1500,4,2,0,25,0,0
75429,-100.00005,4,2,0,25,0,0
75555,-26.31585,4,2,0,25,0,0
75570.5,-1500,4,2,0,25,0,0
75617,-100.00005,4,2,0,25,0,0
76180,-15.90675,4,2,0,25,0,0
76208.1,-1491.228,4,2,0,25,0,0
76367,-15.90675,4,2,0,25,0,0
76395.2,-1491.228,4,2,0,25,0,0
76555,-15.90675,4,2,0,25,0,0
76564.3,-1491.228,4,2,0,25,0,0
76617,-15.90675,4,2,0,25,0,0
76626.4,-1491.228,4,2,0,25,0,0
76680,-15.90675,4,2,0,25,0,0
76708.1,-1491.228,4,2,0,25,0,0
76867,-15.90675,4,2,0,25,0,0
76895.2,-1491.228,4,2,0,25,0,0
77055,-15.90675,4,2,0,25,0,0
77064.3,-1491.228,4,2,0,25,0,0
77117,-15.90675,4,2,0,25,0,0
77126.4,-1491.228,4,2,0,25,0,0
77180,-15.90675,4,2,0,25,0,0
77208.1,-1491.228,4,2,0,25,0,0
77367,-15.90675,4,2,0,25,0,0
77395.2,-1491.228,4,2,0,25,0,0
77555,-15.90675,4,2,0,25,0,0
77564.3,-1491.228,4,2,0,25,0,0
77617,-15.90675,4,2,0,25,0,0
77626.4,-1491.228,4,2,0,25,0,0
77680,-15.90675,4,2,0,25,0,0
77708.1,-1491.228,4,2,0,25,0,0
77867,-15.90675,4,2,0,25,0,0
77895.2,-1491.228,4,2,0,25,0,0
78055,-15.90675,4,2,0,25,0,0
78064.3,-1491.228,4,2,0,25,0,0
78117,-15.90675,4,2,0,25,0,0
78126.4,-1491.228,4,2,0,25,0,0
78180,-15.90675,4,2,0,25,0,0
78189.3,-1491.228,4,2,0,25,0,0
78242,-15.90675,4,2,0,25,0,0
78251.4,-1491.228,4,2,0,25,0,0
78305,-15.90675,4,2,0,25,0,0
78314.3,-1491.228,4,2,0,25,0,0
78367,-15.90675,4,2,0,25,0,0
78376.4,-1491.228,4,2,0,25,0,0
78430,-15.90675,4,2,0,25,0,0
78439.3,-1491.228,4,2,0,25,0,0
78492,-15.90675,4,2,0,25,0,0
78501.4,-1491.228,4,2,0,25,0,0
78555,-15.90675,4,2,0,25,0,0
78564.3,-1491.228,4,2,0,25,0,0
78617,-15.90675,4,2,0,25,0,0
78626.4,-1491.228,4,2,0,25,0,0
78680,-15.90675,4,2,0,25,0,0
78689.3,-1491.228,4,2,0,25,0,0
78742,-15.90675,4,2,0,25,0,0
78751.4,-1491.228,4,2,0,25,0,0
78805,-15.90675,4,2,0,25,0,0
78814.3,-1491.228,4,2,0,25,0,0
78867,-15.90675,4,2,0,25,0,0
78876.4,-1491.228,4,2,0,25,0,0
78930,-15.90675,4,2,0,25,0,0
78939.3,-1491.228,4,2,0,25,0,0
78992,-15.90675,4,2,0,25,0,0
79001.4,-1491.228,4,2,0,25,0,0
79055,-15.90675,4,2,0,25,0,0
79064.3,-1491.228,4,2,0,25,0,0
79117,-15.90675,4,2,0,25,0,0
79126.4,-1491.228,4,2,0,25,0,0
79180,-100.00005,4,2,0,25,0,0
79182,-99.8004,4,2,0,25,0,0
79184,-99.60165,4,2,0,25,0,0
79186,-99.40365,4,2,0,25,0,0
79188,-99.2064,4,2,0,25,0,0
79190,-99.0099,4,2,0,25,0,0
79192,-98.8143,4,2,0,25,0,0
79194,-98.6193,4,2,0,25,0,0
79196,-98.4252,4,2,0,25,0,0
79198,-98.23185,4,2,0,25,0,0
79200,-98.03925,4,2,0,25,0,0
79202,-97.8474,4,2,0,25,0,0
79204,-97.6563,4,2,0,25,0,0
79206,-97.46595,4,2,0,25,0,0
79208,-97.2762,4,2,0,25,0,0
79210,-97.08735,4,2,0,25,0,0
79212,-96.89925,4,2,0,25,0,0
79214,-96.71175,4,2,0,25,0,0
79216,-96.52515,4,2,0,25,0,0
79218,-96.33915,4,2,0,25,0,0
79220,-96.1539,4,2,0,25,0,0
79222,-95.96925,4,2,0,25,0,0
79224,-95.7855,4,2,0,25,0,0
79226,-95.60235,4,2,0,25,0,0
79228,-95.4198,4,2,0,25,0,0
79230,-95.23815,4,2,0,25,0,0
79232,-95.0571,4,2,0,25,0,0
79234,-94.87665,4,2,0,25,0,0
79236,-94.69695,4,2,0,25,0,0
79238,-94.518,4,2,0,25,0,0
79240,-94.33965,4,2,0,25,0,0
79242,-94.1619,4,2,0,25,0,0
79244,-93.9849,4,2,0,25,0,0
79246,-93.80865,4,2,0,25,0,0
79248,-93.633,4,2,0,25,0,0
79250,-93.45795,4,2,0,25,0,0
79252,-93.28365,4,2,0,25,0,0
79254,-93.1098,4,2,0,25,0,0
79256,-92.93685,4,2,0,25,0,0
79258,-92.76435,4,2,0,25,0,0
79260,-92.5926,4,2,0,25,0,0
79262,-92.42145,4,2,0,25,0,0
79264,-92.2509,4,2,0,25,0,0
79266,-92.0811,4,2,0,25,0,0
79268,-91.91175,4,2,0,25,0,0
79270,-91.74315,4,2,0,25,0,0
79272,-91.57515,4,2,0,25,0,0
79274,-91.40775,4,2,0,25,0,0
79276,-91.24095,4,2,0,25,0,0
79278,-91.07475,4,2,0,25,0,0
79280,-90.90915,4,2,0,25,0,0
79282,-90.74415,4,2,0,25,0,0
79284,-90.57975,4,2,0,25,0,0
79286,-90.41595,4,2,0,25,0,0
79288,-90.25275,4,2,0,25,0,0
79290,-90.09015,4,2,0,25,0,0
79292,-89.928,4,2,0,25,0,0
79294,-89.7666,4,2,0,25,0,0
79296,-89.6058,4,2,0,25,0,0
79298,-89.44545,4,2,0,25,0,0
79300,-89.2857,4,2,0,25,0,0
79302,-89.12655,4,2,0,25,0,0
79304,-88.968,4,2,0,25,0,0
79306,-88.8099,4,2,0,25,0,0
79308,-88.65255,4,2,0,25,0,0
79310,-88.49565,4,2,0,25,0,0
79312,-88.3392,4,2,0,25,0,0
79314,-88.18335,4,2,0,25,0,0
79316,-88.0281,4,2,0,25,0,0
79318,-87.87345,4,2,0,25,0,0
79320,-87.71925,4,2,0,25,0,0
79322,-87.56565,4,2,0,25,0,0
79324,-87.41265,4,2,0,25,0,0
79326,-87.2601,4,2,0,25,0,0
79328,-87.108,4,2,0,25,0,0
79330,-86.9565,4,2,0,25,0,0
79332,-86.8056,4,2,0,25,0,0
79334,-86.65515,4,2,0,25,0,0
79336,-86.50515,4,2,0,25,0,0
79338,-86.35575,4,2,0,25,0,0
79340,-86.20695,4,2,0,25,0,0
79342,-86.05845,4,2,0,25,0,0
79344,-85.9107,4,2,0,25,0,0
79346,-85.76325,4,2,0,25,0,0
79348,-85.6164,4,2,0,25,0,0
79350,-85.47015,4,2,0,25,0,0
79352,-85.3242,4,2,0,25,0,0
79354,-85.17885,4,2,0,25,0,0
79356,-85.03395,4,2,0,25,0,0
79358,-84.88965,4,2,0,25,0,0
79360,-84.7458,4,2,0,25,0,0
79362,-84.6024,4,2,0,25,0,0
79364,-84.45945,4,2,0,25,0,0
79366,-84.3171,4,2,0,25,0,0
79368,-84.17505,4,2,0,25,0,0
79370,-84.0336,4,2,0,25,0,0
79372,-83.8926,4,2,0,25,0,0
79374,-83.75205,4,2,0,25,0,0
79376,-83.6121,4,2,0,25,0,0
79378,-83.47245,4,2,0,25,0,0
79380,-83.3334,4,2,0,25,0,0
79382,-83.19465,4,2,0,25,0,0
79384,-83.0565,4,2,0,25,0,0
79386,-82.9188,4,2,0,25,0,0
79388,-82.7814,4,2,0,25,0,0
79390,-82.6446,4,2,0,25,0,0
79392,-82.50825,4,2,0,25,0,0
79394,-82.37235,4,2,0,25,0,0
79396,-82.2369,4,2,0,25,0,0
79398,-82.10175,4,2,0,25,0,0
79400,-81.9672,4,2,0,25,0,0
79402,-81.8331,4,2,0,25,0,0
79404,-81.6993,4,2,0,25,0,0
79406,-81.5661,4,2,0,25,0,0
79408,-81.4332,4,2,0,25,0,0
79410,-81.30075,4,2,0,25,0,0
79412,-81.1689,4,2,0,25,0,0
79414,-81.03735,4,2,0,25,0,0
79416,-80.9061,4,2,0,25,0,0
79418,-80.77545,4,2,0,25,0,0
79420,-80.6451,4,2,0,25,0,0
79422,-80.51535,4,2,0,25,0,0
79424,-80.3859,4,2,0,25,0,0
79426,-80.25675,4,2,0,25,0,0
79428,-80.1282,4,2,0,25,0,0
79430,-79.99995,4,2,0,25,0,0
79432,-79.87215,4,2,0,25,0,0
79434,-79.7448,4,2,0,25,0,0
79436,-79.6179,4,2,0,25,0,0
79438,-79.4913,4,2,0,25,0,0
79440,-79.36515,4,2,0,25,0,0
79442,-79.2393,4,2,0,25,0,0
79444,-79.1139,4,2,0,25,0,0
79446,-78.98895,4,2,0,25,0,0
79448,-78.8643,4,2,0,25,0,0
79450,-78.7401,4,2,0,25,0,0
79452,-78.61635,4,2,0,25,0,0
79454,-78.4929,4,2,0,25,0,0
79456,-78.3699,4,2,0,25,0,0
79458,-78.2472,4,2,0,25,0,0
79460,-78.12495,4,2,0,25,0,0
79462,-78.00315,4,2,0,25,0,0
79464,-77.88165,4,2,0,25,0,0
79466,-77.76045,4,2,0,25,0,0
79468,-77.6397,4,2,0,25,0,0
79470,-77.5194,4,2,0,25,0,0
79472,-77.3994,4,2,0,25,0,0
79474,-77.2797,4,2,0,25,0,0
79476,-77.16045,4,2,0,25,0,0
79478,-77.04165,4,2,0,25,0,0
79480,-76.92315,4,2,0,25,0,0
79482,-76.80495,4,2,0,25,0,0
79484,-76.68705,4,2,0,25,0,0
79486,-76.56975,4,2,0,25,0,0
79488,-76.4526,4,2,0,25,0,0
79490,-76.3359,4,2,0,25,0,0
79492,-76.2195,4,2,0,25,0,0
79494,-76.10355,4,2,0,25,0,0
79496,-75.9879,4,2,0,25,0,0
79498,-75.87255,4,2,0,25,0,0
79500,-75.75765,4,2,0,25,0,0
79502,-75.6429,4,2,0,25,0,0
79504,-75.52875,4,2,0,25,0,0
79506,-75.41475,4,2,0,25,0,0
79508,-75.3012,4,2,0,25,0,0
79510,-75.18795,4,2,0,25,0,0
79512,-75.07515,4,2,0,25,0,0
79514,-74.9625,4,2,0,25,0,0
79516,-74.8503,4,2,0,25,0,0
79518,-74.7384,4,2,0,25,0,0
79520,-74.6268,4,2,0,25,0,0
79522,-74.51565,4,2,0,25,0,0
79524,-74.4048,4,2,0,25,0,0
79526,-74.29425,4,2,0,25,0,0
79528,-74.184,4,2,0,25,0,0
79530,-74.07405,4,2,0,25,0,0
79532,-73.96455,4,2,0,25,0,0
79534,-73.8552,4,2,0,25,0,0
79536,-73.7463,4,2,0,25,0,0
79538,-73.6377,4,2,0,25,0,0
79540,-73.5294,4,2,0,25,0,0
79542,-73.4214,4,2,0,25,0,0
79544,-73.31385,4,2,0,25,0,0
79546,-73.20645,4,2,0,25,0,0
79548,-73.09935,4,2,0,25,0,0
79550,-72.9927,4,2,0,25,0,0
79552,-72.88635,4,2,0,25,0,0
79554,-72.78015,4,2,0,25,0,0
79556,-72.6744,4,2,0,25,0,0
79558,-72.56895,4,2,0,25,0,0
79560,-72.4638,4,2,0,25,0,0
79562,-72.35895,4,2,0,25,0,0
79564,-72.2544,4,2,0,25,0,0
79566,-72.15,4,2,0,25,0,0
79568,-72.04605,4,2,0,25,0,0
79570,-71.9424,4,2,0,25,0,0
79572,-71.83905,4,2,0,25,0,0
79574,-71.736,4,2,0,25,0,0
79576,-71.63325,4,2,0,25,0,0
79578,-71.5308,4,2,0,25,0,0
79580,-71.4285,4,2,0,25,0,0
79582,-71.32665,4,2,0,25,0,0
79584,-71.2251,4,2,0,25,0,0
79586,-71.1237,4,2,0,25,0,0
79588,-71.02275,4,2,0,25,0,0
79590,-70.92195,4,2,0,25,0,0
79592,-70.8216,4,2,0,25,0,0
79594,-70.7214,4,2,0,25,0,0
79596,-70.6215,4,2,0,25,0,0
79598,-70.5219,4,2,0,25,0,0
79600,-70.4226,4,2,0,25,0,0
79602,-70.32345,4,2,0,25,0,0
79604,-70.22475,4,2,0,25,0,0
79606,-70.1262,4,2,0,25,0,0
79608,-70.02795,4,2,0,25,0,0
79610,-69.93,4,2,0,25,0,0
79612,-69.83235,4,2,0,25,0,0
79614,-69.735,4,2,0,25,0,0
79616,-69.63795,4,2,0,25,0,0
79618,-69.54105,4,2,0,25,0,0
79620,-69.44445,4,2,0,25,0,0
79622,-69.34815,4,2,0,25,0,0
79624,-69.25215,4,2,0,25,0,0
79626,-69.1563,4,2,0,25,0,0
79628,-69.06075,4,2,0,25,0,0
79630,-68.9655,4,2,0,25,0,0
79632,-68.87055,4,2,0,25,0,0
79634,-68.77575,4,2,0,25,0,0
79636,-68.68125,4,2,0,25,0,0
79638,-68.58705,4,2,0,25,0,0
79640,-68.49315,4,2,0,25,0,0
79642,-68.3994,4,2,0,25,0,0
79644,-68.30595,4,2,0,25,0,0
79646,-68.2128,4,2,0,25,0,0
79648,-68.11995,4,2,0,25,0,0
79650,-68.02725,4,2,0,25,0,0
79652,-67.93485,4,2,0,25,0,0
79654,-67.8426,4,2,0,25,0,0
79656,-67.75065,4,2,0,25,0,0
79658,-67.659,4,2,0,25,0,0
79660,-67.5675,4,2,0,25,0,0
79662,-67.47645,4,2,0,25,0,0
79664,-67.3854,4,2,0,25,0,0
79666,-67.2948,4,2,0,25,0,0
79668,-67.20435,4,2,0,25,0,0
79670,-67.11405,4,2,0,25,0,0
79672,-67.0242,4,2,0,25,0,0
79674,-66.93435,4,2,0,25,0,0
79676,-66.84495,4,2,0,25,0,0
79678,-66.7557,4,2,0,25,0,0
79680,-66.6666,4,2,0,25,0,0
79682,-66.57795,4,2,0,25,0,0
79684,-66.4893,4,2,0,25,0,0
79686,-66.4011,4,2,0,25,0,0
79688,-66.31305,4,2,0,25,0,0
79690,-66.22515,4,2,0,25,0,0
79692,-66.13755,4,2,0,25,0,0
79694,-66.05025,4,2,0,25,0,0
79696,-65.9631,4,2,0,25,0,0
79698,-65.8761,4,2,0,25,0,0
79700,-65.7894,4,2,0,25,0,0
79702,-65.703,4,2,0,25,0,0
79704,-65.61675,4,2,0,25,0,0
79706,-65.5308,4,2,0,25,0,0
79708,-65.445,4,2,0,25,0,0
79710,-65.3595,4,2,0,25,0,0
79712,-65.27415,4,2,0,25,0,0
79714,-65.1891,4,2,0,25,0,0
79716,-65.1042,4,2,0,25,0,0
79718,-65.01945,4,2,0,25,0,0
79720,-64.935,4,2,0,25,0,0
79722,-64.85085,4,2,0,25,0,0
79724,-64.76685,4,2,0,25,0,0
79726,-64.683,4,2,0,25,0,0
79728,-64.59945,4,2,0,25,0,0
79730,-64.5162,4,2,0,25,0,0
79732,-64.43295,4,2,0,25,0,0
79734,-64.35,4,2,0,25,0,0
79736,-64.26735,4,2,0,25,0,0
79738,-64.18485,4,2,0,25,0,0
79740,-64.1025,4,2,0,25,0,0
79742,-64.02045,4,2,0,25,0,0
79744,-63.93855,4,2,0,25,0,0
79746,-63.85695,4,2,0,25,0,0
79748,-63.7755,4,2,0,25,0,0
79750,-63.6942,4,2,0,25,0,0
79752,-63.6132,4,2,0,25,0,0
79754,-63.53235,4,2,0,25,0,0
79756,-63.4518,4,2,0,25,0,0
79758,-63.3714,4,2,0,25,0,0
79760,-63.29115,4,2,0,25,0,0
79762,-63.2112,4,2,0,25,0,0
79764,-63.13125,4,2,0,25,0,0
79766,-63.05175,4,2,0,25,0,0
79768,-62.97225,4,2,0,25,0,0
79770,-62.89305,4,2,0,25,0,0
79772,-62.814,4,2,0,25,0,0
79774,-62.73525,4,2,0,25,0,0
79776,-62.65665,4,2,0,25,0,0
79778,-62.5782,4,2,0,25,0,0
79780,-62.50005,4,2,0,25,0,0
79782,-62.4219,4,2,0,25,0,0
79784,-62.3442,4,2,0,25,0,0
79786,-62.2665,4,2,0,25,0,0
79788,-62.1891,4,2,0,25,0,0
79790,-62.11185,4,2,0,25,0,0
79792,-62.03475,4,2,0,25,0,0
79794,-61.9578,4,2,0,25,0,0
79796,-61.88115,4,2,0,25,0,0
79798,-61.80465,4,2,0,25,0,0
79800,-61.72845,4,2,0,25,0,0
79802,-61.65225,4,2,0,25,0,0
79804,-61.57635,4,2,0,25,0,0
79806,-61.5006,4,2,0,25,0,0
79808,-61.425,4,2,0,25,0,0
79810,-61.3497,4,2,0,25,0,0
79812,-61.27455,4,2,0,25,0,0
79814,-61.19955,4,2,0,25,0,0
79816,-61.1247,4,2,0,25,0,0
79818,-61.05,4,2,0,25,0,0
79820,-60.9756,4,2,0,25,0,0
79822,-60.90135,4,2,0,25,0,0
79824,-60.82725,4,2,0,25,0,0
79826,-60.7533,4,2,0,25,0,0
79828,-60.67965,4,2,0,25,0,0
79830,-60.606,4,2,0,25,0,0
79832,-60.53265,4,2,0,25,0,0
79834,-60.45945,4,2,0,25,0,0
79836,-60.3864,4,2,0,25,0,0
79838,-60.31365,4,2,0,25,0,0
79840,-60.2409,4,2,0,25,0,0
79842,-60.16845,4,2,0,25,0,0
79844,-60.09615,4,2,0,25,0,0
79846,-60.024,4,2,0,25,0,0
79848,-59.952,4,2,0,25,0,0
79850,-59.8803,4,2,0,25,0,0
79852,-59.8086,4,2,0,25,0,0
79854,-59.7372,4,2,0,25,0,0
79856,-59.6658,4,2,0,25,0,0
79858,-59.5947,4,2,0,25,0,0
79860,-59.52375,4,2,0,25,0,0
79862,-59.4531,4,2,0,25,0,0
79864,-59.38245,4,2,0,25,0,0
79866,-59.31195,4,2,0,25,0,0
79868,-59.24175,4,2,0,25,0,0
79870,-59.17155,4,2,0,25,0,0
79872,-59.10165,4,2,0,25,0,0
79874,-59.0319,4,2,0,25,0,0
79876,-58.9623,4,2,0,25,0,0
79878,-58.89285,4,2,0,25,0,0
79880,-58.82355,4,2,0,25,0,0
79882,-58.7544,4,2,0,25,0,0
79884,-58.6854,4,2,0,25,0,0
79886,-58.6167,4,2,0,25,0,0
79888,-58.548,4,2,0,25,0,0
79890,-58.4796,4,2,0,25,0,0
79892,-58.4112,4,2,0,25,0,0
79894,-58.3431,4,2,0,25,0,0
79896,-58.275,4,2,0,25,0,0
79898,-58.2072,4,2,0,25,0,0
79900,-58.13955,4,2,0,25,0,0
79902,-58.07205,4,2,0,25,0,0
79904,-58.0047,4,2,0,25,0,0
79906,-57.9375,4,2,0,25,0,0
79908,-57.8703,4,2,0,25,0,0
79910,-57.8034,4,2,0,25,0,0
79912,-57.73665,4,2,0,25,0,0
79914,-57.6702,4,2,0,25,0,0
79916,-57.60375,4,2,0,25,0,0
79918,-57.53745,4,2,0,25,0,0
79920,-57.4713,4,2,0,25,0,0
79922,-57.4053,4,2,0,25,0,0
79924,-57.33945,4,2,0,25,0,0
79926,-57.27375,4,2,0,25,0,0
79928,-57.2082,4,2,0,25,0,0
79930,-57.1428,4,2,0,25,0,0
79932,-57.0777,4,2,0,25,0,0
79934,-57.0126,4,2,0,25,0,0
79936,-56.94765,4,2,0,25,0,0
79938,-56.88285,4,2,0,25,0,0
79940,-56.8182,4,2,0,25,0,0
79942,-56.7537,4,2,0,25,0,0
79944,-56.68935,4,2,0,25,0,0
79946,-56.62515,4,2,0,25,0,0
79948,-56.5611,4,2,0,25,0,0
79950,-56.4972,4,2,0,25,0,0
79952,-56.43345,4,2,0,25,0,0
79954,-56.36985,4,2,0,25,0,0
79956,-56.30625,4,2,0,25,0,0
79958,-56.24295,4,2,0,25,0,0
79960,-56.1798,4,2,0,25,0,0
79962,-56.11665,4,2,0,25,0,0
79964,-56.0538,4,2,0,25,0,0
79966,-55.9911,4,2,0,25,0,0
79968,-55.9284,4,2,0,25,0,0
79970,-55.86585,4,2,0,25,0,0
79972,-55.8036,4,2,0,25,0,0
79974,-55.74135,4,2,0,25,0,0
79976,-55.67925,4,2,0,25,0,0
79978,-55.6173,4,2,0,25,0,0
79980,-55.5555,4,2,0,25,0,0
79982,-55.49385,4,2,0,25,0,0
79984,-55.43235,4,2,0,25,0,0
79986,-55.371,4,2,0,25,0,0
79988,-55.3098,4,2,0,25,0,0
79990,-55.2486,4,2,0,25,0,0
79992,-55.1877,4,2,0,25,0,0
79994,-55.1268,4,2,0,25,0,0
79996,-55.06605,4,2,0,25,0,0
79998,-55.00545,4,2,0,25,0,0
80000,-54.945,4,2,0,25,0,0
80002,-54.8847,4,2,0,25,0,0
80004,-54.82455,4,2,0,25,0,0
80006,-54.76455,4,2,0,25,0,0
80008,-54.70455,4,2,0,25,0,0
80010,-54.64485,4,2,0,25,0,0
80012,-54.58515,4,2,0,25,0,0
80014,-54.5256,4,2,0,25,0,0
80016,-54.4662,4,2,0,25,0,0
80018,-54.40695,4,2,0,25,0,0
80020,-54.34785,4,2,0,25,0,0
80022,-54.28875,4,2,0,25,0,0
80024,-54.22995,4,2,0,25,0,0
80026,-54.17115,4,2,0,25,0,0
80028,-54.1125,4,2,0,25,0,0
80030,-54.054,4,2,0,25,0,0
80032,-53.99565,4,2,0,25,0,0
80034,-53.93745,4,2,0,25,0,0
80036,-53.87925,4,2,0,25,0,0
80038,-53.82135,4,2,0,25,0,0
80040,-53.76345,4,2,0,25,0,0
80042,-53.7057,4,2,0,25,0,0
80044,-53.6481,4,2,0,25,0,0
80046,-53.5905,4,2,0,25,0,0
80048,-53.5332,4,2,0,25,0,0
80050,-53.4759,4,2,0,25,0,0
80052,-53.41875,4,2,0,25,0,0
80054,-53.36175,4,2,0,25,0,0
80056,-53.3049,4,2,0,25,0,0
80058,-53.2482,4,2,0,25,0,0
80060,-53.1915,4,2,0,25,0,0
80062,-53.13495,4,2,0,25,0,0
80064,-53.07855,4,2,0,25,0,0
80066,-53.0223,4,2,0,25,0,0
80068,-52.96605,4,2,0,25,0,0
80070,-52.9101,4,2,0,25,0,0
80072,-52.85415,4,2,0,25,0,0
80074,-52.79835,4,2,0,25,0,0
80076,-52.74255,4,2,0,25,0,0
80078,-52.68705,4,2,0,25,0,0
80080,-52.63155,4,2,0,25,0,0
80082,-52.5762,4,2,0,25,0,0
80084,-52.521,4,2,0,25,0,0
80086,-52.46595,4,2,0,25,0,0
80088,-52.4109,4,2,0,25,0,0
80090,-52.356,4,2,0,25,0,0
80092,-52.30125,4,2,0,25,0,0
80094,-52.24665,4,2,0,25,0,0
80096,-52.19205,4,2,0,25,0,0
80098,-52.1376,4,2,0,25,0,0
80100,-52.0833,4,2,0,25,0,0
80102,-52.02915,4,2,0,25,0,0
80104,-51.975,4,2,0,25,0,0
80106,-51.92115,4,2,0,25,0,0
80108,-51.86715,4,2,0,25,0,0
80110,-51.81345,4,2,0,25,0,0
80112,-51.7599,4,2,0,25,0,0
80114,-51.70635,4,2,0,25,0,0
80116,-51.65295,4,2,0,25,0,0
80118,-51.59955,4,2,0,25,0,0
80120,-51.54645,4,2,0,25,0,0
80122,-51.49335,4,2,0,25,0,0
80124,-51.4404,4,2,0,25,0,0
80126,-51.38745,4,2,0,25,0,0
80128,-51.33465,4,2,0,25,0,0
80130,-51.282,4,2,0,25,0,0
80132,-51.2295,4,2,0,25,0,0
80134,-51.177,4,2,0,25,0,0
80136,-51.1248,4,2,0,25,0,0
80138,-51.07245,4,2,0,25,0,0
80140,-51.0204,4,2,0,25,0,0
80142,-50.96835,4,2,0,25,0,0
80144,-50.91645,4,2,0,25,0,0
80146,-50.8647,4,2,0,25,0,0
80148,-50.81295,4,2,0,25,0,0
80150,-50.76135,4,2,0,25,0,0
80152,-50.7099,4,2,0,25,0,0
80154,-50.6586,4,2,0,25,0,0
80156,-50.6073,4,2,0,25,0,0
80158,-50.55615,4,2,0,25,0,0
80160,-50.505,4,2,0,25,0,0
80162,-50.45415,4,2,0,25,0,0
80164,-50.4033,4,2,0,25,0,0
80166,-50.35245,4,2,0,25,0,0
80168,-50.30175,4,2,0,25,0,0
80170,-50.2512,4,2,0,25,0,0
80172,-50.2008,4,2,0,25,0,0
80174,-50.1504,4,2,0,25,0,0
80176,-50.10015,4,2,0,25,0,0
80178,-50.05005,4,2,0,25,0,0
80180,333.333333333333,4,2,0,25,1,0
80180,-100,4,2,0,25,0,0
88346,333.333,4,2,0,25,1,0
88348,333.333,4,2,0,25,1,0
88350,333.333,4,2,0,25,1,0
88352,333.333,4,2,0,25,1,0
88354,333.333,4,2,0,25,1,0
88356,333.333,4,2,0,25,1,0
88358,333.333,4,2,0,25,1,0
88360,333.333,4,2,0,25,1,0
88362,333.333,4,2,0,25,1,0
88364,333.333,4,2,0,25,1,0
88366,333.333,4,2,0,25,1,0
88368,333.333,4,2,0,25,1,0
88370,333.333,4,2,0,25,1,0
88372,333.333,4,2,0,25,1,0
88374,333.333,4,2,0,25,1,0
88376,333.333,4,2,0,25,1,0
88378,333.333,4,2,0,25,1,0
88380,333.333,4,2,0,25,1,0
88382,333.333,4,2,0,25,1,0
88384,333.333,4,2,0,25,1,0
88386,333.333,4,2,0,25,1,0
88388,333.333,4,2,0,25,1,0
88513,333.333,4,2,0,25,1,0
88515,333.333,4,2,0,25,1,0
88517,333.333,4,2,0,25,1,0
88519,333.333,4,2,0,25,1,0
88521,333.333,4,2,0,25,1,0
88523,333.333,4,2,0,25,1,0
88525,333.333,4,2,0,25,1,0
88527,333.333,4,2,0,25,1,0
88529,333.333,4,2,0,25,1,0
88531,333.333,4,2,0,25,1,0
88533,333.333,4,2,0,25,1,0
88535,333.333,4,2,0,25,1,0
88537,333.333,4,2,0,25,1,0
88539,333.333,4,2,0,25,1,0
88541,333.333,4,2,0,25,1,0
88543,333.333,4,2,0,25,1,0
88545,333.333,4,2,0,25,1,0
88547,333.333,4,2,0,25,1,0
88549,333.333,4,2,0,25,1,0
88551,333.333,4,2,0,25,1,0
88553,333.333,4,2,0,25,1,0
88555,333.333,4,2,0,25,1,0
88679,333.333,4,2,0,25,1,0
88681,333.333,4,2,0,25,1,0
88683,333.333,4,2,0,25,1,0
88685,333.333,4,2,0,25,1,0
88687,333.333,4,2,0,25,1,0
88689,333.333,4,2,0,25,1,0
88691,333.333,4,2,0,25,1,0
88693,333.333,4,2,0,25,1,0
88695,333.333,4,2,0,25,1,0
88697,333.333,4,2,0,25,1,0
88699,333.333,4,2,0,25,1,0
88701,333.333,4,2,0,25,1,0
88703,333.333,4,2,0,25,1,0
88705,333.333,4,2,0,25,1,0
88707,333.333,4,2,0,25,1,0
88709,333.333,4,2,0,25,1,0
88711,333.333,4,2,0,25,1,0
88713,333.333,4,2,0,25,1,0
88715,333.333,4,2,0,25,1,0
88717,333.333,4,2,0,25,1,0
88719,333.333,4,2,0,25,1,0
88721,333.333,4,2,0,25,1,0
88763,333.333,4,2,0,25,1,0
88765,333.333,4,2,0,25,1,0
88767,333.333,4,2,0,25,1,0
88769,333.333,4,2,0,25,1,0
88771,333.333,4,2,0,25,1,0
88773,333.333,4,2,0,25,1,0
88775,333.333,4,2,0,25,1,0
88777,333.333,4,2,0,25,1,0
88779,333.333,4,2,0,25,1,0
88781,333.333,4,2,0,25,1,0
88783,333.333,4,2,0,25,1,0
88785,333.333,4,2,0,25,1,0
88787,333.333,4,2,0,25,1,0
88789,333.333,4,2,0,25,1,0
88791,333.333,4,2,0,25,1,0
88793,333.333,4,2,0,25,1,0
88795,333.333,4,2,0,25,1,0
88797,333.333,4,2,0,25,1,0
88799,333.333,4,2,0,25,1,0
88801,333.333,4,2,0,25,1,0
88803,333.333,4,2,0,25,1,0
88805,333.333,4,2,0,25,1,0
88929,333.333,4,2,0,25,1,0
88931,333.333,4,2,0,25,1,0
88933,333.333,4,2,0,25,1,0
88935,333.333,4,2,0,25,1,0
88937,333.333,4,2,0,25,1,0
88939,333.333,4,2,0,25,1,0
88941,333.333,4,2,0,25,1,0
88943,333.333,4,2,0,25,1,0
88945,333.333,4,2,0,25,1,0
88947,333.333,4,2,0,25,1,0
88949,333.333,4,2,0,25,1,0
88951,333.333,4,2,0,25,1,0
88953,333.333,4,2,0,25,1,0
88955,333.333,4,2,0,25,1,0
88957,333.333,4,2,0,25,1,0
88959,333.333,4,2,0,25,1,0
88961,333.333,4,2,0,25,1,0
88963,333.333,4,2,0,25,1,0
88965,333.333,4,2,0,25,1,0
88967,333.333,4,2,0,25,1,0
88969,333.333,4,2,0,25,1,0
88971,333.333,4,2,0,25,1,0
89013,333.333,4,2,0,25,1,0
89015,333.333,4,2,0,25,1,0
89017,333.333,4,2,0,25,1,0
89019,333.333,4,2,0,25,1,0
89021,333.333,4,2,0,25,1,0
89023,333.333,4,2,0,25,1,0
89025,333.333,4,2,0,25,1,0
89027,333.333,4,2,0,25,1,0
89029,333.333,4,2,0,25,1,0
89031,333.333,4,2,0,25,1,0
89033,333.333,4,2,0,25,1,0
89035,333.333,4,2,0,25,1,0
89037,333.333,4,2,0,25,1,0
89039,333.333,4,2,0,25,1,0
89041,333.333,4,2,0,25,1,0
89043,333.333,4,2,0,25,1,0
89045,333.333,4,2,0,25,1,0
89047,333.333,4,2,0,25,1,0
89049,333.333,4,2,0,25,1,0
89051,333.333,4,2,0,25,1,0
89053,333.333,4,2,0,25,1,0
89055,333.333,4,2,0,25,1,0
89096,333.333,4,2,0,25,1,0
89098,333.333,4,2,0,25,1,0
89100,333.333,4,2,0,25,1,0
89102,333.333,4,2,0,25,1,0
89104,333.333,4,2,0,25,1,0
89106,333.333,4,2,0,25,1,0
89108,333.333,4,2,0,25,1,0
89110,333.333,4,2,0,25,1,0
89112,333.333,4,2,0,25,1,0
89114,333.333,4,2,0,25,1,0
89116,333.333,4,2,0,25,1,0
89118,333.333,4,2,0,25,1,0
89120,333.333,4,2,0,25,1,0
89122,333.333,4,2,0,25,1,0
89124,333.333,4,2,0,25,1,0
89126,333.333,4,2,0,25,1,0
89128,333.333,4,2,0,25,1,0
89130,333.333,4,2,0,25,1,0
89132,333.333,4,2,0,25,1,0
89134,333.333,4,2,0,25,1,0
89136,333.333,4,2,0,25,1,0
89138,333.333,4,2,0,25,1,0
89179,333.333,4,2,0,25,1,0
89181,333.333,4,2,0,25,1,0
89183,333.333,4,2,0,25,1,0
89185,333.333,4,2,0,25,1,0
89187,333.333,4,2,0,25,1,0
89189,333.333,4,2,0,25,1,0
89191,333.333,4,2,0,25,1,0
89193,333.333,4,2,0,25,1,0
89195,333.333,4,2,0,25,1,0
89197,333.333,4,2,0,25,1,0
89199,333.333,4,2,0,25,1,0
89201,333.333,4,2,0,25,1,0
89203,333.333,4,2,0,25,1,0
89205,333.333,4,2,0,25,1,0
89207,333.333,4,2,0,25,1,0
89209,333.333,4,2,0,25,1,0
89211,333.333,4,2,0,25,1,0
89213,333.333,4,2,0,25,1,0
89215,333.333,4,2,0,25,1,0
89217,333.333,4,2,0,25,1,0
89219,333.333,4,2,0,25,1,0
89221,333.333,4,2,0,25,1,0
89263,333.333,4,2,0,25,1,0
89265,333.333,4,2,0,25,1,0
89267,333.333,4,2,0,25,1,0
89269,333.333,4,2,0,25,1,0
89271,333.333,4,2,0,25,1,0
89273,333.333,4,2,0,25,1,0
89275,333.333,4,2,0,25,1,0
89277,333.333,4,2,0,25,1,0
89279,333.333,4,2,0,25,1,0
89281,333.333,4,2,0,25,1,0
89283,333.333,4,2,0,25,1,0
89285,333.333,4,2,0,25,1,0
89287,333.333,4,2,0,25,1,0
89289,333.333,4,2,0,25,1,0
89291,333.333,4,2,0,25,1,0
89293,333.333,4,2,0,25,1,0
89295,333.333,4,2,0,25,1,0
89297,333.333,4,2,0,25,1,0
89299,333.333,4,2,0,25,1,0
89301,333.333,4,2,0,25,1,0
89303,333.333,4,2,0,25,1,0
89305,333.333,4,2,0,25,1,0
89346,333.333,4,2,0,25,1,0
89348,333.333,4,2,0,25,1,0
89350,333.333,4,2,0,25,1,0
89352,333.333,4,2,0,25,1,0
89354,333.333,4,2,0,25,1,0
89356,333.333,4,2,0,25,1,0
89358,333.333,4,2,0,25,1,0
89360,333.333,4,2,0,25,1,0
89362,333.333,4,2,0,25,1,0
89364,333.333,4,2,0,25,1,0
89366,333.333,4,2,0,25,1,0
89368,333.333,4,2,0,25,1,0
89370,333.333,4,2,0,25,1,0
89372,333.333,4,2,0,25,1,0
89374,333.333,4,2,0,25,1,0
89376,333.333,4,2,0,25,1,0
89378,333.333,4,2,0,25,1,0
89380,333.333,4,2,0,25,1,0
89382,333.333,4,2,0,25,1,0
89384,333.333,4,2,0,25,1,0
89386,333.333,4,2,0,25,1,0
89388,333.333,4,2,0,25,1,0
89513,333.333,4,2,0,25,1,0
89515,333.333,4,2,0,25,1,0
89517,333.333,4,2,0,25,1,0
89519,333.333,4,2,0,25,1,0
89521,333.333,4,2,0,25,1,0
89523,333.333,4,2,0,25,1,0
89525,333.333,4,2,0,25,1,0
89527,333.333,4,2,0,25,1,0
89529,333.333,4,2,0,25,1,0
89531,333.333,4,2,0,25,1,0
89533,333.333,4,2,0,25,1,0
89535,333.333,4,2,0,25,1,0
89537,333.333,4,2,0,25,1,0
89539,333.333,4,2,0,25,1,0
89541,333.333,4,2,0,25,1,0
89543,333.333,4,2,0,25,1,0
89545,333.333,4,2,0,25,1,0
89547,333.333,4,2,0,25,1,0
89549,333.333,4,2,0,25,1,0
89551,333.333,4,2,0,25,1,0
89553,333.333,4,2,0,25,1,0
89555,333.333,4,2,0,25,1,0
89679,333.333,4,2,0,25,1,0
89681,333.333,4,2,0,25,1,0
89683,333.333,4,2,0,25,1,0
89685,333.333,4,2,0,25,1,0
89687,333.333,4,2,0,25,1,0
89689,333.333,4,2,0,25,1,0
89691,333.333,4,2,0,25,1,0
89693,333.333,4,2,0,25,1,0
89695,333.333,4,2,0,25,1,0
89697,333.333,4,2,0,25,1,0
89699,333.333,4,2,0,25,1,0
89701,333.333,4,2,0,25,1,0
89703,333.333,4,2,0,25,1,0
89705,333.333,4,2,0,25,1,0
89707,333.333,4,2,0,25,1,0
89709,333.333,4,2,0,25,1,0
89711,333.333,4,2,0,25,1,0
89713,333.333,4,2,0,25,1,0
89715,333.333,4,2,0,25,1,0
89717,333.333,4,2,0,25,1,0
89719,333.333,4,2,0,25,1,0
89721,333.333,4,2,0,25,1,0
89763,333.333,4,2,0,25,1,0
89765,333.333,4,2,0,25,1,0
89767,333.333,4,2,0,25,1,0
89769,333.333,4,2,0,25,1,0
89771,333.333,4,2,0,25,1,0
89773,333.333,4,2,0,25,1,0
89775,333.333,4,2,0,25,1,0
89777,333.333,4,2,0,25,1,0
89779,333.333,4,2,0,25,1,0
89781,333.333,4,2,0,25,1,0
89783,333.333,4,2,0,25,1,0
89785,333.333,4,2,0,25,1,0
89787,333.333,4,2,0,25,1,0
89789,333.333,4,2,0,25,1,0
89791,333.333,4,2,0,25,1,0
89793,333.333,4,2,0,25,1,0
89795,333.333,4,2,0,25,1,0
89797,333.333,4,2,0,25,1,0
89799,333.333,4,2,0,25,1,0
89801,333.333,4,2,0,25,1,0
89803,333.333,4,2,0,25,1,0
89805,333.333,4,2,0,25,1,0
89929,333.333,4,2,0,25,1,0
89931,333.333,4,2,0,25,1,0
89933,333.333,4,2,0,25,1,0
89935,333.333,4,2,0,25,1,0
89937,333.333,4,2,0,25,1,0
89939,333.333,4,2,0,25,1,0
89941,333.333,4,2,0,25,1,0
89943,333.333,4,2,0,25,1,0
89945,333.333,4,2,0,25,1,0
89947,333.333,4,2,0,25,1,0
89949,333.333,4,2,0,25,1,0
89951,333.333,4,2,0,25,1,0
89953,333.333,4,2,0,25,1,0
89955,333.333,4,2,0,25,1,0
89957,333.333,4,2,0,25,1,0
89959,333.333,4,2,0,25,1,0
89961,333.333,4,2,0,25,1,0
89963,333.333,4,2,0,25,1,0
89965,333.333,4,2,0,25,1,0
89967,333.333,4,2,0,25,1,0
89969,333.333,4,2,0,25,1,0
89971,333.333,4,2,0,25,1,0
90013,333.333,4,2,0,25,1,0
90015,333.333,4,2,0,25,1,0
90017,333.333,4,2,0,25,1,0
90019,333.333,4,2,0,25,1,0
90021,333.333,4,2,0,25,1,0
90023,333.333,4,2,0,25,1,0
90025,333.333,4,2,0,25,1,0
90027,333.333,4,2,0,25,1,0
90029,333.333,4,2,0,25,1,0
90031,333.333,4,2,0,25,1,0
90033,333.333,4,2,0,25,1,0
90035,333.333,4,2,0,25,1,0
90037,333.333,4,2,0,25,1,0
90039,333.333,4,2,0,25,1,0
90041,333.333,4,2,0,25,1,0
90043,333.333,4,2,0,25,1,0
90045,333.333,4,2,0,25,1,0
90047,333.333,4,2,0,25,1,0
90049,333.333,4,2,0,25,1,0
90051,333.333,4,2,0,25,1,0
90053,333.333,4,2,0,25,1,0
90055,333.333,4,2,0,25,1,0
90179,333.333,4,2,0,25,1,0
90181,333.333,4,2,0,25,1,0
90183,333.333,4,2,0,25,1,0
90185,333.333,4,2,0,25,1,0
90187,333.333,4,2,0,25,1,0
90189,333.333,4,2,0,25,1,0
90191,333.333,4,2,0,25,1,0
90193,333.333,4,2,0,25,1,0
90195,333.333,4,2,0,25,1,0
90197,333.333,4,2,0,25,1,0
90199,333.333,4,2,0,25,1,0
90201,333.333,4,2,0,25,1,0
90203,333.333,4,2,0,25,1,0
90205,333.333,4,2,0,25,1,0
90207,333.333,4,2,0,25,1,0
90209,333.333,4,2,0,25,1,0
90211,333.333,4,2,0,25,1,0
90213,333.333,4,2,0,25,1,0
90215,333.333,4,2,0,25,1,0
90217,333.333,4,2,0,25,1,0
90219,333.333,4,2,0,25,1,0
90221,333.333,4,2,0,25,1,0
90263,333.333,4,2,0,25,1,0
90265,333.333,4,2,0,25,1,0
90267,333.333,4,2,0,25,1,0
90269,333.333,4,2,0,25,1,0
90271,333.333,4,2,0,25,1,0
90273,333.333,4,2,0,25,1,0
90275,333.333,4,2,0,25,1,0
90277,333.333,4,2,0,25,1,0
90279,333.333,4,2,0,25,1,0
90281,333.333,4,2,0,25,1,0
90283,333.333,4,2,0,25,1,0
90285,333.333,4,2,0,25,1,0
90287,333.333,4,2,0,25,1,0
90289,333.333,4,2,0,25,1,0
90291,333.333,4,2,0,25,1,0
90293,333.333,4,2,0,25,1,0
90295,333.333,4,2,0,25,1,0
90297,333.333,4,2,0,25,1,0
90299,333.333,4,2,0,25,1,0
90301,333.333,4,2,0,25,1,0
90303,333.333,4,2,0,25,1,0
90305,333.333,4,2,0,25,1,0
90346,333.333,4,2,0,25,1,0
90348,333.333,4,2,0,25,1,0
90350,333.333,4,2,0,25,1,0
90352,333.333,4,2,0,25,1,0
90354,333.333,4,2,0,25,1,0
90356,333.333,4,2,0,25,1,0
90358,333.333,4,2,0,25,1,0
90360,333.333,4,2,0,25,1,0
90362,333.333,4,2,0,25,1,0
90364,333.333,4,2,0,25,1,0
90366,333.333,4,2,0,25,1,0
90368,333.333,4,2,0,25,1,0
90370,333.333,4,2,0,25,1,0
90372,333.333,4,2,0,25,1,0
90374,333.333,4,2,0,25,1,0
90376,333.333,4,2,0,25,1,0
90378,333.333,4,2,0,25,1,0
90380,333.333,4,2,0,25,1,0
90382,333.333,4,2,0,25,1,0
90384,333.333,4,2,0,25,1,0
90386,333.333,4,2,0,25,1,0
90388,333.333,4,2,0,25,1,0
90429,333.333,4,2,0,25,1,0
90431,333.333,4,2,0,25,1,0
90433,333.333,4,2,0,25,1,0
90435,333.333,4,2,0,25,1,0
90437,333.333,4,2,0,25,1,0
90439,333.333,4,2,0,25,1,0
90441,333.333,4,2,0,25,1,0
90443,333.333,4,2,0,25,1,0
90445,333.333,4,2,0,25,1,0
90447,333.333,4,2,0,25,1,0
90449,333.333,4,2,0,25,1,0
90451,333.333,4,2,0,25,1,0
90453,333.333,4,2,0,25,1,0
90455,333.333,4,2,0,25,1,0
90457,333.333,4,2,0,25,1,0
90459,333.333,4,2,0,25,1,0
90461,333.333,4,2,0,25,1,0
90463,333.333,4,2,0,25,1,0
90465,333.333,4,2,0,25,1,0
90467,333.333,4,2,0,25,1,0
90469,333.333,4,2,0,25,1,0
90471,333.333,4,2,0,25,1,0
90513,333.333,4,2,0,25,1,0
90515,333.333,4,2,0,25,1,0
90517,333.333,4,2,0,25,1,0
90519,333.333,4,2,0,25,1,0
90521,333.333,4,2,0,25,1,0
90523,333.333,4,2,0,25,1,0
90525,333.333,4,2,0,25,1,0
90527,333.333,4,2,0,25,1,0
90529,333.333,4,2,0,25,1,0
90531,333.333,4,2,0,25,1,0
90533,333.333,4,2,0,25,1,0
90535,333.333,4,2,0,25,1,0
90537,333.333,4,2,0,25,1,0
90539,333.333,4,2,0,25,1,0
90541,333.333,4,2,0,25,1,0
90543,333.333,4,2,0,25,1,0
90545,333.333,4,2,0,25,1,0
90547,333.333,4,2,0,25,1,0
90549,333.333,4,2,0,25,1,0
90551,333.333,4,2,0,25,1,0
90553,333.333,4,2,0,25,1,0
90555,333.333,4,2,0,25,1,0
90679,333.333,4,2,0,25,1,0
90681,333.333,4,2,0,25,1,0
90683,333.333,4,2,0,25,1,0
90685,333.333,4,2,0,25,1,0
90687,333.333,4,2,0,25,1,0
90689,333.333,4,2,0,25,1,0
90691,333.333,4,2,0,25,1,0
90693,333.333,4,2,0,25,1,0
90695,333.333,4,2,0,25,1,0
90697,333.333,4,2,0,25,1,0
90699,333.333,4,2,0,25,1,0
90701,333.333,4,2,0,25,1,0
90703,333.333,4,2,0,25,1,0
90705,333.333,4,2,0,25,1,0
90707,333.333,4,2,0,25,1,0
90709,333.333,4,2,0,25,1,0
90711,333.333,4,2,0,25,1,0
90713,333.333,4,2,0,25,1,0
90715,333.333,4,2,0,25,1,0
90717,333.333,4,2,0,25,1,0
90719,333.333,4,2,0,25,1,0
90721,333.333,4,2,0,25,1,0
90763,333.333,4,2,0,25,1,0
90765,333.333,4,2,0,25,1,0
90767,333.333,4,2,0,25,1,0
90769,333.333,4,2,0,25,1,0
90771,333.333,4,2,0,25,1,0
90773,333.333,4,2,0,25,1,0
90775,333.333,4,2,0,25,1,0
90777,333.333,4,2,0,25,1,0
90779,333.333,4,2,0,25,1,0
90781,333.333,4,2,0,25,1,0
90783,333.333,4,2,0,25,1,0
90785,333.333,4,2,0,25,1,0
90787,333.333,4,2,0,25,1,0
90789,333.333,4,2,0,25,1,0
90791,333.333,4,2,0,25,1,0
90793,333.333,4,2,0,25,1,0
90795,333.333,4,2,0,25,1,0
90797,333.333,4,2,0,25,1,0
90799,333.333,4,2,0,25,1,0
90801,333.333,4,2,0,25,1,0
90803,333.333,4,2,0,25,1,0
90805,333.333,4,2,0,25,1,0
90929,333.333,4,2,0,25,1,0
90931,333.333,4,2,0,25,1,0
90933,333.333,4,2,0,25,1,0
90935,333.333,4,2,0,25,1,0
90937,333.333,4,2,0,25,1,0
90939,333.333,4,2,0,25,1,0
90941,333.333,4,2,0,25,1,0
90943,333.333,4,2,0,25,1,0
90945,333.333,4,2,0,25,1,0
90947,333.333,4,2,0,25,1,0
90949,333.333,4,2,0,25,1,0
90951,333.333,4,2,0,25,1,0
90953,333.333,4,2,0,25,1,0
90955,333.333,4,2,0,25,1,0
90957,333.333,4,2,0,25,1,0
90959,333.333,4,2,0,25,1,0
90961,333.333,4,2,0,25,1,0
90963,333.333,4,2,0,25,1,0
90965,333.333,4,2,0,25,1,0
90967,333.333,4,2,0,25,1,0
90969,333.333,4,2,0,25,1,0
90971,333.333,4,2,0,25,1,0
91013,333.333,4,2,0,25,1,0
91015,333.333,4,2,0,25,1,0
91017,333.333,4,2,0,25,1,0
91019,333.333,4,2,0,25,1,0
91021,333.333,4,2,0,25,1,0
91023,333.333,4,2,0,25,1,0
91025,333.333,4,2,0,25,1,0
91027,333.333,4,2,0,25,1,0
91029,333.333,4,2,0,25,1,0
91031,333.333,4,2,0,25,1,0
91033,333.333,4,2,0,25,1,0
91035,333.333,4,2,0,25,1,0
91037,333.333,4,2,0,25,1,0
91039,333.333,4,2,0,25,1,0
91041,333.333,4,2,0,25,1,0
91043,333.333,4,2,0,25,1,0
91045,333.333,4,2,0,25,1,0
91047,333.333,4,2,0,25,1,0
91049,333.333,4,2,0,25,1,0
91051,333.333,4,2,0,25,1,0
91053,333.333,4,2,0,25,1,0
91055,333.333,4,2,0,25,1,0
91096,333.333,4,2,0,25,1,0
91098,333.333,4,2,0,25,1,0
91100,333.333,4,2,0,25,1,0
91102,333.333,4,2,0,25,1,0
91104,333.333,4,2,0,25,1,0
91106,333.333,4,2,0,25,1,0
91108,333.333,4,2,0,25,1,0
91110,333.333,4,2,0,25,1,0
91112,333.333,4,2,0,25,1,0
91114,333.333,4,2,0,25,1,0
91116,333.333,4,2,0,25,1,0
91118,333.333,4,2,0,25,1,0
91120,333.333,4,2,0,25,1,0
91122,333.333,4,2,0,25,1,0
91124,333.333,4,2,0,25,1,0
91126,333.333,4,2,0,25,1,0
91128,333.333,4,2,0,25,1,0
91130,333.333,4,2,0,25,1,0
91132,333.333,4,2,0,25,1,0
91134,333.333,4,2,0,25,1,0
91136,333.333,4,2,0,25,1,0
91138,333.333,4,2,0,25,1,0
91179,333.333,4,2,0,25,1,0
91181,333.333,4,2,0,25,1,0
91183,333.333,4,2,0,25,1,0
91185,333.333,4,2,0,25,1,0
91187,333.333,4,2,0,25,1,0
91189,333.333,4,2,0,25,1,0
91191,333.333,4,2,0,25,1,0
91193,333.333,4,2,0,25,1,0
91195,333.333,4,2,0,25,1,0
91197,333.333,4,2,0,25,1,0
91199,333.333,4,2,0,25,1,0
91201,333.333,4,2,0,25,1,0
91203,333.333,4,2,0,25,1,0
91205,333.333,4,2,0,25,1,0
91207,333.333,4,2,0,25,1,0
91209,333.333,4,2,0,25,1,0
91211,333.333,4,2,0,25,1,0
91213,333.333,4,2,0,25,1,0
91215,333.333,4,2,0,25,1,0
91217,333.333,4,2,0,25,1,0
91219,333.333,4,2,0,25,1,0
91221,333.333,4,2,0,25,1,0
91263,333.333,4,2,0,25,1,0
91265,333.333,4,2,0,25,1,0
91267,333.333,4,2,0,25,1,0
91269,333.333,4,2,0,25,1,0
91271,333.333,4,2,0,25,1,0
91273,333.333,4,2,0,25,1,0
91275,333.333,4,2,0,25,1,0
91277,333.333,4,2,0,25,1,0
91279,333.333,4,2,0,25,1,0
91281,333.333,4,2,0,25,1,0
91283,333.333,4,2,0,25,1,0
91285,333.333,4,2,0,25,1,0
91287,333.333,4,2,0,25,1,0
91289,333.333,4,2,0,25,1,0
91291,333.333,4,2,0,25,1,0
91293,333.333,4,2,0,25,1,0
91295,333.333,4,2,0,25,1,0
91297,333.333,4,2,0,25,1,0
91299,333.333,4,2,0,25,1,0
91301,333.333,4,2,0,25,1,0
91303,333.333,4,2,0,25,1,0
91305,333.333,4,2,0,25,1,0
91346,333.333,4,2,0,25,1,0
91348,333.333,4,2,0,25,1,0
91350,333.333,4,2,0,25,1,0
91352,333.333,4,2,0,25,1,0
91354,333.333,4,2,0,25,1,0
91356,333.333,4,2,0,25,1,0
91358,333.333,4,2,0,25,1,0
91360,333.333,4,2,0,25,1,0
91362,333.333,4,2,0,25,1,0
91364,333.333,4,2,0,25,1,0
91366,333.333,4,2,0,25,1,0
91368,333.333,4,2,0,25,1,0
91370,333.333,4,2,0,25,1,0
91372,333.333,4,2,0,25,1,0
91374,333.333,4,2,0,25,1,0
91376,333.333,4,2,0,25,1,0
91378,333.333,4,2,0,25,1,0
91380,333.333,4,2,0,25,1,0
91382,333.333,4,2,0,25,1,0
91384,333.333,4,2,0,25,1,0
91386,333.333,4,2,0,25,1,0
91388,333.333,4,2,0,25,1,0
91429,333.333,4,2,0,25,1,0
91431,333.333,4,2,0,25,1,0
91433,333.333,4,2,0,25,1,0
91435,333.333,4,2,0,25,1,0
91437,333.333,4,2,0,25,1,0
91439,333.333,4,2,0,25,1,0
91441,333.333,4,2,0,25,1,0
91443,333.333,4,2,0,25,1,0
91445,333.333,4,2,0,25,1,0
91447,333.333,4,2,0,25,1,0
91449,333.333,4,2,0,25,1,0
91451,333.333,4,2,0,25,1,0
91453,333.333,4,2,0,25,1,0
91455,333.333,4,2,0,25,1,0
91457,333.333,4,2,0,25,1,0
91459,333.333,4,2,0,25,1,0
91461,333.333,4,2,0,25,1,0
91463,333.333,4,2,0,25,1,0
91465,333.333,4,2,0,25,1,0
91467,333.333,4,2,0,25,1,0
91469,333.333,4,2,0,25,1,0
91471,333.333,4,2,0,25,1,0
91596,333.333,4,2,0,25,1,0
91598,333.333,4,2,0,25,1,0
91600,333.333,4,2,0,25,1,0
91602,333.333,4,2,0,25,1,0
91604,333.333,4,2,0,25,1,0
91606,333.333,4,2,0,25,1,0
91608,333.333,4,2,0,25,1,0
91610,333.333,4,2,0,25,1,0
91612,333.333,4,2,0,25,1,0
91614,333.333,4,2,0,25,1,0
91616,333.333,4,2,0,25,1,0
91618,333.333,4,2,0,25,1,0
91620,333.333,4,2,0,25,1,0
91622,333.333,4,2,0,25,1,0
91624,333.333,4,2,0,25,1,0
91626,333.333,4,2,0,25,1,0
91628,333.333,4,2,0,25,1,0
91630,333.333,4,2,0,25,1,0
91632,333.333,4,2,0,25,1,0
91634,333.333,4,2,0,25,1,0
91636,333.333,4,2,0,25,1,0
91638,333.333,4,2,0,25,1,0
91679,333.333,4,2,0,25,1,0
91681,333.333,4,2,0,25,1,0
91683,333.333,4,2,0,25,1,0
91685,333.333,4,2,0,25,1,0
91687,333.333,4,2,0,25,1,0
91689,333.333,4,2,0,25,1,0
91691,333.333,4,2,0,25,1,0
91693,333.333,4,2,0,25,1,0
91695,333.333,4,2,0,25,1,0
91697,333.333,4,2,0,25,1,0
91699,333.333,4,2,0,25,1,0
91701,333.333,4,2,0,25,1,0
91703,333.333,4,2,0,25,1,0
91705,333.333,4,2,0,25,1,0
91707,333.333,4,2,0,25,1,0
91709,333.333,4,2,0,25,1,0
91711,333.333,4,2,0,25,1,0
91713,333.333,4,2,0,25,1,0
91715,333.333,4,2,0,25,1,0
91717,333.333,4,2,0,25,1,0
91719,333.333,4,2,0,25,1,0
91721,333.333,4,2,0,25,1,0
91763,333.333,4,2,0,25,1,0
91765,333.333,4,2,0,25,1,0
91767,333.333,4,2,0,25,1,0
91769,333.333,4,2,0,25,1,0
91771,333.333,4,2,0,25,1,0
91773,333.333,4,2,0,25,1,0
91775,333.333,4,2,0,25,1,0
91777,333.333,4,2,0,25,1,0
91779,333.333,4,2,0,25,1,0
91781,333.333,4,2,0,25,1,0
91783,333.333,4,2,0,25,1,0
91785,333.333,4,2,0,25,1,0
91787,333.333,4,2,0,25,1,0
91789,333.333,4,2,0,25,1,0
91791,333.333,4,2,0,25,1,0
91793,333.333,4,2,0,25,1,0
91795,333.333,4,2,0,25,1,0
91797,333.333,4,2,0,25,1,0
91799,333.333,4,2,0,25,1,0
91801,333.333,4,2,0,25,1,0
91803,333.333,4,2,0,25,1,0
91805,333.333,4,2,0,25,1,0
91846,333.333,4,2,0,25,1,0
91848,333.333,4,2,0,25,1,0
91850,333.333,4,2,0,25,1,0
91852,333.333,4,2,0,25,1,0
91854,333.333,4,2,0,25,1,0
91856,333.333,4,2,0,25,1,0
91858,333.333,4,2,0,25,1,0
91860,333.333,4,2,0,25,1,0
91862,333.333,4,2,0,25,1,0
91864,333.333,4,2,0,25,1,0
91866,333.333,4,2,0,25,1,0
91868,333.333,4,2,0,25,1,0
91870,333.333,4,2,0,25,1,0
91872,333.333,4,2,0,25,1,0
91874,333.333,4,2,0,25,1,0
91876,333.333,4,2,0,25,1,0
91878,333.333,4,2,0,25,1,0
91880,333.333,4,2,0,25,1,0
91882,333.333,4,2,0,25,1,0
91884,333.333,4,2,0,25,1,0
91886,333.333,4,2,0,25,1,0
91888,333.333,4,2,0,25,1,0
92013,333.333,4,2,0,25,1,0
92015,333.333,4,2,0,25,1,0
92017,333.333,4,2,0,25,1,0
92019,333.333,4,2,0,25,1,0
92021,333.333,4,2,0,25,1,0
92023,333.333,4,2,0,25,1,0
92025,333.333,4,2,0,25,1,0
92027,333.333,4,2,0,25,1,0
92029,333.333,4,2,0,25,1,0
92031,333.333,4,2,0,25,1,0
92033,333.333,4,2,0,25,1,0
92035,333.333,4,2,0,25,1,0
92037,333.333,4,2,0,25,1,0
92039,333.333,4,2,0,25,1,0
92041,333.333,4,2,0,25,1,0
92043,333.333,4,2,0,25,1,0
92045,333.333,4,2,0,25,1,0
92047,333.333,4,2,0,25,1,0
92049,333.333,4,2,0,25,1,0
92051,333.333,4,2,0,25,1,0
92053,333.333,4,2,0,25,1,0
92055,333.333,4,2,0,25,1,0
92179,333.333,4,2,0,25,1,0
92181,333.333,4,2,0,25,1,0
92183,333.333,4,2,0,25,1,0
92185,333.333,4,2,0,25,1,0
92187,333.333,4,2,0,25,1,0
92189,333.333,4,2,0,25,1,0
92191,333.333,4,2,0,25,1,0
92193,333.333,4,2,0,25,1,0
92195,333.333,4,2,0,25,1,0
92197,333.333,4,2,0,25,1,0
92199,333.333,4,2,0,25,1,0
92201,333.333,4,2,0,25,1,0
92203,333.333,4,2,0,25,1,0
92205,333.333,4,2,0,25,1,0
92207,333.333,4,2,0,25,1,0
92209,333.333,4,2,0,25,1,0
92211,333.333,4,2,0,25,1,0
92213,333.333,4,2,0,25,1,0
92215,333.333,4,2,0,25,1,0
92217,333.333,4,2,0,25,1,0
92219,333.333,4,2,0,25,1,0
92221,333.333,4,2,0,25,1,0
92263,333.333,4,2,0,25,1,0
92265,333.333,4,2,0,25,1,0
92267,333.333,4,2,0,25,1,0
92269,333.333,4,2,0,25,1,0
92271,333.333,4,2,0,25,1,0
92273,333.333,4,2,0,25,1,0
92275,333.333,4,2,0,25,1,0
92277,333.333,4,2,0,25,1,0
92279,333.333,4,2,0,25,1,0
92281,333.333,4,2,0,25,1,0
92283,333.333,4,2,0,25,1,0
92285,333.333,4,2,0,25,1,0
92287,333.333,4,2,0,25,1,0
92289,333.333,4,2,0,25,1,0
92291,333.333,4,2,0,25,1,0
92293,333.333,4,2,0,25,1,0
92295,333.333,4,2,0,25,1,0
92297,333.333,4,2,0,25,1,0
92299,333.333,4,2,0,25,1,0
92301,333.333,4,2,0,25,1,0
92303,333.333,4,2,0,25,1,0
92305,333.333,4,2,0,25,1,0
92346,333.333,4,2,0,25,1,0
92348,333.333,4,2,0,25,1,0
92350,333.333,4,2,0,25,1,0
92352,333.333,4,2,0,25,1,0
92354,333.333,4,2,0,25,1,0
92356,333.333,4,2,0,25,1,0
92358,333.333,4,2,0,25,1,0
92360,333.333,4,2,0,25,1,0
92362,333.333,4,2,0,25,1,0
92364,333.333,4,2,0,25,1,0
92366,333.333,4,2,0,25,1,0
92368,333.333,4,2,0,25,1,0
92370,333.333,4,2,0,25,1,0
92372,333.333,4,2,0,25,1,0
92374,333.333,4,2,0,25,1,0
92376,333.333,4,2,0,25,1,0
92378,333.333,4,2,0,25,1,0
92380,333.333,4,2,0,25,1,0
92382,333.333,4,2,0,25,1,0
92384,333.333,4,2,0,25,1,0
92386,333.333,4,2,0,25,1,0
92388,333.333,4,2,0,25,1,0
92429,333.333,4,2,0,25,1,0
92431,333.333,4,2,0,25,1,0
92433,333.333,4,2,0,25,1,0
92435,333.333,4,2,0,25,1,0
92437,333.333,4,2,0,25,1,0
92439,333.333,4,2,0,25,1,0
92441,333.333,4,2,0,25,1,0
92443,333.333,4,2,0,25,1,0
92445,333.333,4,2,0,25,1,0
92447,333.333,4,2,0,25,1,0
92449,333.333,4,2,0,25,1,0
92451,333.333,4,2,0,25,1,0
92453,333.333,4,2,0,25,1,0
92455,333.333,4,2,0,25,1,0
92457,333.333,4,2,0,25,1,0
92459,333.333,4,2,0,25,1,0
92461,333.333,4,2,0,25,1,0
92463,333.333,4,2,0,25,1,0
92465,333.333,4,2,0,25,1,0
92467,333.333,4,2,0,25,1,0
92469,333.333,4,2,0,25,1,0
92471,333.333,4,2,0,25,1,0
92596,333.333,4,2,0,25,1,0
92598,333.333,4,2,0,25,1,0
92600,333.333,4,2,0,25,1,0
92602,333.333,4,2,0,25,1,0
92604,333.333,4,2,0,25,1,0
92606,333.333,4,2,0,25,1,0
92608,333.333,4,2,0,25,1,0
92610,333.333,4,2,0,25,1,0
92612,333.333,4,2,0,25,1,0
92614,333.333,4,2,0,25,1,0
92616,333.333,4,2,0,25,1,0
92618,333.333,4,2,0,25,1,0
92620,333.333,4,2,0,25,1,0
92622,333.333,4,2,0,25,1,0
92624,333.333,4,2,0,25,1,0
92626,333.333,4,2,0,25,1,0
92628,333.333,4,2,0,25,1,0
92630,333.333,4,2,0,25,1,0
92632,333.333,4,2,0,25,1,0
92634,333.333,4,2,0,25,1,0
92636,333.333,4,2,0,25,1,0
92638,333.333,4,2,0,25,1,0
92679,333.333,4,2,0,25,1,0
92681,333.333,4,2,0,25,1,0
92683,333.333,4,2,0,25,1,0
92685,333.333,4,2,0,25,1,0
92687,333.333,4,2,0,25,1,0
92689,333.333,4,2,0,25,1,0
92691,333.333,4,2,0,25,1,0
92693,333.333,4,2,0,25,1,0
92695,333.333,4,2,0,25,1,0
92697,333.333,4,2,0,25,1,0
92699,333.333,4,2,0,25,1,0
92701,333.333,4,2,0,25,1,0
92703,333.333,4,2,0,25,1,0
92705,333.333,4,2,0,25,1,0
92707,333.333,4,2,0,25,1,0
92709,333.333,4,2,0,25,1,0
92711,333.333,4,2,0,25,1,0
92713,333.333,4,2,0,25,1,0
92715,333.333,4,2,0,25,1,0
92717,333.333,4,2,0,25,1,0
92719,333.333,4,2,0,25,1,0
92721,333.333,4,2,0,25,1,0
92763,333.333,4,2,0,25,1,0
92765,333.333,4,2,0,25,1,0
92767,333.333,4,2,0,25,1,0
92769,333.333,4,2,0,25,1,0
92771,333.333,4,2,0,25,1,0
92773,333.333,4,2,0,25,1,0
92775,333.333,4,2,0,25,1,0
92777,333.333,4,2,0,25,1,0
92779,333.333,4,2,0,25,1,0
92781,333.333,4,2,0,25,1,0
92783,333.333,4,2,0,25,1,0
92785,333.333,4,2,0,25,1,0
92787,333.333,4,2,0,25,1,0
92789,333.333,4,2,0,25,1,0
92791,333.333,4,2,0,25,1,0
92793,333.333,4,2,0,25,1,0
92795,333.333,4,2,0,25,1,0
92797,333.333,4,2,0,25,1,0
92799,333.333,4,2,0,25,1,0
92801,333.333,4,2,0,25,1,0
92803,333.333,4,2,0,25,1,0
92805,333.333,4,2,0,25,1,0
92846,333.333,4,2,0,25,1,0
92848,333.333,4,2,0,25,1,0
92850,333.333,4,2,0,25,1,0
92852,333.333,4,2,0,25,1,0
92854,333.333,4,2,0,25,1,0
92856,333.333,4,2,0,25,1,0
92858,333.333,4,2,0,25,1,0
92860,333.333,4,2,0,25,1,0
92862,333.333,4,2,0,25,1,0
92864,333.333,4,2,0,25,1,0
92866,333.333,4,2,0,25,1,0
92868,333.333,4,2,0,25,1,0
92870,333.333,4,2,0,25,1,0
92872,333.333,4,2,0,25,1,0
92874,333.333,4,2,0,25,1,0
92876,333.333,4,2,0,25,1,0
92878,333.333,4,2,0,25,1,0
92880,333.333,4,2,0,25,1,0
92882,333.333,4,2,0,25,1,0
92884,333.333,4,2,0,25,1,0
92886,333.333,4,2,0,25,1,0
92888,333.333,4,2,0,25,1,0
93013,333.333,4,2,0,25,1,0
93015,333.333,4,2,0,25,1,0
93017,333.333,4,2,0,25,1,0
93019,333.333,4,2,0,25,1,0
93021,333.333,4,2,0,25,1,0
93023,333.333,4,2,0,25,1,0
93025,333.333,4,2,0,25,1,0
93027,333.333,4,2,0,25,1,0
93029,333.333,4,2,0,25,1,0
93031,333.333,4,2,0,25,1,0
93033,333.333,4,2,0,25,1,0
93035,333.333,4,2,0,25,1,0
93037,333.333,4,2,0,25,1,0
93039,333.333,4,2,0,25,1,0
93041,333.333,4,2,0,25,1,0
93043,333.333,4,2,0,25,1,0
93045,333.333,4,2,0,25,1,0
93047,333.333,4,2,0,25,1,0
93049,333.333,4,2,0,25,1,0
93051,333.333,4,2,0,25,1,0
93053,333.333,4,2,0,25,1,0
93055,333.333,4,2,0,25,1,0
93096,333.333,4,2,0,25,1,0
93098,333.333,4,2,0,25,1,0
93100,333.333,4,2,0,25,1,0
93102,333.333,4,2,0,25,1,0
93104,333.333,4,2,0,25,1,0
93106,333.333,4,2,0,25,1,0
93108,333.333,4,2,0,25,1,0
93110,333.333,4,2,0,25,1,0
93112,333.333,4,2,0,25,1,0
93114,333.333,4,2,0,25,1,0
93116,333.333,4,2,0,25,1,0
93118,333.333,4,2,0,25,1,0
93120,333.333,4,2,0,25,1,0
93122,333.333,4,2,0,25,1,0
93124,333.333,4,2,0,25,1,0
93126,333.333,4,2,0,25,1,0
93128,333.333,4,2,0,25,1,0
93130,333.333,4,2,0,25,1,0
93132,333.333,4,2,0,25,1,0
93134,333.333,4,2,0,25,1,0
93136,333.333,4,2,0,25,1,0
93138,333.333,4,2,0,25,1,0
93179,333.333,4,2,0,25,1,0
93181,333.333,4,2,0,25,1,0
93183,333.333,4,2,0,25,1,0
93185,333.333,4,2,0,25,1,0
93187,333.333,4,2,0,25,1,0
93189,333.333,4,2,0,25,1,0
93191,333.333,4,2,0,25,1,0
93193,333.333,4,2,0,25,1,0
93195,333.333,4,2,0,25,1,0
93197,333.333,4,2,0,25,1,0
93199,333.333,4,2,0,25,1,0
93201,333.333,4,2,0,25,1,0
93203,333.333,4,2,0,25,1,0
93205,333.333,4,2,0,25,1,0
93207,333.333,4,2,0,25,1,0
93209,333.333,4,2,0,25,1,0
93211,333.333,4,2,0,25,1,0
93213,333.333,4,2,0,25,1,0
93215,333.333,4,2,0,25,1,0
93217,333.333,4,2,0,25,1,0
93219,333.333,4,2,0,25,1,0
93221,333.333,4,2,0,25,1,0
93263,333.333,4,2,0,25,1,0
93265,333.333,4,2,0,25,1,0
93267,333.333,4,2,0,25,1,0
93269,333.333,4,2,0,25,1,0
93271,333.333,4,2,0,25,1,0
93273,333.333,4,2,0,25,1,0
93275,333.333,4,2,0,25,1,0
93277,333.333,4,2,0,25,1,0
93279,333.333,4,2,0,25,1,0
93281,333.333,4,2,0,25,1,0
93283,333.333,4,2,0,25,1,0
93285,333.333,4,2,0,25,1,0
93287,333.333,4,2,0,25,1,0
93289,333.333,4,2,0,25,1,0
93291,333.333,4,2,0,25,1,0
93293,333.333,4,2,0,25,1,0
93295,333.333,4,2,0,25,1,0
93297,333.333,4,2,0,25,1,0
93299,333.333,4,2,0,25,1,0
93301,333.333,4,2,0,25,1,0
93303,333.333,4,2,0,25,1,0
93305,333.333,4,2,0,25,1,0
93346,333.333,4,2,0,25,1,0
93348,333.333,4,2,0,25,1,0
93350,333.333,4,2,0,25,1,0
93352,333.333,4,2,0,25,1,0
93354,333.333,4,2,0,25,1,0
93356,333.333,4,2,0,25,1,0
93358,333.333,4,2,0,25,1,0
93360,333.333,4,2,0,25,1,0
93362,333.333,4,2,0,25,1,0
93364,333.333,4,2,0,25,1,0
93366,333.333,4,2,0,25,1,0
93368,333.333,4,2,0,25,1,0
93370,333.333,4,2,0,25,1,0
93372,333.333,4,2,0,25,1,0
93374,333.333,4,2,0,25,1,0
93376,333.333,4,2,0,25,1,0
93378,333.333,4,2,0,25,1,0
93380,333.333,4,2,0,25,1,0
93382,333.333,4,2,0,25,1,0
93384,333.333,4,2,0,25,1,0
93386,333.333,4,2,0,25,1,0
93388,333.333,4,2,0,25,1,0
93429,333.333,4,2,0,25,1,0
93431,333.333,4,2,0,25,1,0
93433,333.333,4,2,0,25,1,0
93435,333.333,4,2,0,25,1,0
93437,333.333,4,2,0,25,1,0
93439,333.333,4,2,0,25,1,0
93441,333.333,4,2,0,25,1,0
93443,333.333,4,2,0,25,1,0
93445,333.333,4,2,0,25,1,0
93447,333.333,4,2,0,25,1,0
93449,333.333,4,2,0,25,1,0
93451,333.333,4,2,0,25,1,0
93453,333.333,4,2,0,25,1,0
93455,333.333,4,2,0,25,1,0
93457,333.333,4,2,0,25,1,0
93459,333.333,4,2,0,25,1,0
93461,333.333,4,2,0,25,1,0
93463,333.333,4,2,0,25,1,0
93465,333.333,4,2,0,25,1,0
93467,333.333,4,2,0,25,1,0
93469,333.333,4,2,0,25,1,0
93471,333.333,4,2,0,25,1,0
93513,333.333,4,2,0,25,1,0
93515,333.333,4,2,0,25,1,0
93517,333.333,4,2,0,25,1,0
93519,333.333,4,2,0,25,1,0
93521,333.333,4,2,0,25,1,0
93523,333.333,4,2,0,25,1,0
93525,333.333,4,2,0,25,1,0
93527,333.333,4,2,0,25,1,0
93529,333.333,4,2,0,25,1,0
93531,333.333,4,2,0,25,1,0
93533,333.333,4,2,0,25,1,0
93535,333.333,4,2,0,25,1,0
93537,333.333,4,2,0,25,1,0
93539,333.333,4,2,0,25,1,0
93541,333.333,4,2,0,25,1,0
93543,333.333,4,2,0,25,1,0
93545,333.333,4,2,0,25,1,0
93547,333.333,4,2,0,25,1,0
93549,333.333,4,2,0,25,1,0
93551,333.333,4,2,0,25,1,0
93553,333.333,4,2,0,25,1,0
93555,333.333,4,2,0,25,1,0
93679,333.333,4,2,0,25,1,0
93681,333.333,4,2,0,25,1,0
93683,333.333,4,2,0,25,1,0
93685,333.333,4,2,0,25,1,0
93687,333.333,4,2,0,25,1,0
93689,333.333,4,2,0,25,1,0
93691,333.333,4,2,0,25,1,0
93693,333.333,4,2,0,25,1,0
93695,333.333,4,2,0,25,1,0
93697,333.333,4,2,0,25,1,0
93699,333.333,4,2,0,25,1,0
93701,333.333,4,2,0,25,1,0
93703,333.333,4,2,0,25,1,0
93705,333.333,4,2,0,25,1,0
93707,333.333,4,2,0,25,1,0
93709,333.333,4,2,0,25,1,0
93711,333.333,4,2,0,25,1,0
93713,333.333,4,2,0,25,1,0
93715,333.333,4,2,0,25,1,0
93717,333.333,4,2,0,25,1,0
93719,333.333,4,2,0,25,1,0
93721,333.333,4,2,0,25,1,0
93846,333.333,4,2,0,25,1,0
93848,333.333,4,2,0,25,1,0
93850,333.333,4,2,0,25,1,0
93852,333.333,4,2,0,25,1,0
93854,333.333,4,2,0,25,1,0
93856,333.333,4,2,0,25,1,0
93858,333.333,4,2,0,25,1,0
93860,333.333,4,2,0,25,1,0
93862,333.333,4,2,0,25,1,0
93864,333.333,4,2,0,25,1,0
93866,333.333,4,2,0,25,1,0
93868,333.333,4,2,0,25,1,0
93870,333.333,4,2,0,25,1,0
93872,333.333,4,2,0,25,1,0
93874,333.333,4,2,0,25,1,0
93876,333.333,4,2,0,25,1,0
93878,333.333,4,2,0,25,1,0
93880,333.333,4,2,0,25,1,0
93882,333.333,4,2,0,25,1,0
93884,333.333,4,2,0,25,1,0
93886,333.333,4,2,0,25,1,0
93888,333.333,4,2,0,25,1,0
93929,333.333,4,2,0,25,1,0
93931,333.333,4,2,0,25,1,0
93933,333.333,4,2,0,25,1,0
93935,333.333,4,2,0,25,1,0
93937,333.333,4,2,0,25,1,0
93939,333.333,4,2,0,25,1,0
93941,333.333,4,2,0,25,1,0
93943,333.333,4,2,0,25,1,0
93945,333.333,4,2,0,25,1,0
93947,333.333,4,2,0,25,1,0
93949,333.333,4,2,0,25,1,0
93951,333.333,4,2,0,25,1,0
93953,333.333,4,2,0,25,1,0
93955,333.333,4,2,0,25,1,0
93957,333.333,4,2,0,25,1,0
93959,333.333,4,2,0,25,1,0
93961,333.333,4,2,0,25,1,0
93963,333.333,4,2,0,25,1,0
93965,333.333,4,2,0,25,1,0
93967,333.333,4,2,0,25,1,0
93969,333.333,4,2,0,25,1,0
93971,333.333,4,2,0,25,1,0
94013,333.333,4,2,0,25,1,0
94015,333.333,4,2,0,25,1,0
94017,333.333,4,2,0,25,1,0
94019,333.333,4,2,0,25,1,0
94021,333.333,4,2,0,25,1,0
94023,333.333,4,2,0,25,1,0
94025,333.333,4,2,0,25,1,0
94027,333.333,4,2,0,25,1,0
94029,333.333,4,2,0,25,1,0
94031,333.333,4,2,0,25,1,0
94033,333.333,4,2,0,25,1,0
94035,333.333,4,2,0,25,1,0
94037,333.333,4,2,0,25,1,0
94039,333.333,4,2,0,25,1,0
94041,333.333,4,2,0,25,1,0
94043,333.333,4,2,0,25,1,0
94045,333.333,4,2,0,25,1,0
94047,333.333,4,2,0,25,1,0
94049,333.333,4,2,0,25,1,0
94051,333.333,4,2,0,25,1,0
94053,333.333,4,2,0,25,1,0
94055,333.333,4,2,0,25,1,0
94096,333.333,4,2,0,25,1,0
94098,333.333,4,2,0,25,1,0
94100,333.333,4,2,0,25,1,0
94102,333.333,4,2,0,25,1,0
94104,333.333,4,2,0,25,1,0
94106,333.333,4,2,0,25,1,0
94108,333.333,4,2,0,25,1,0
94110,333.333,4,2,0,25,1,0
94112,333.333,4,2,0,25,1,0
94114,333.333,4,2,0,25,1,0
94116,333.333,4,2,0,25,1,0
94118,333.333,4,2,0,25,1,0
94120,333.333,4,2,0,25,1,0
94122,333.333,4,2,0,25,1,0
94124,333.333,4,2,0,25,1,0
94126,333.333,4,2,0,25,1,0
94128,333.333,4,2,0,25,1,0
94130,333.333,4,2,0,25,1,0
94132,333.333,4,2,0,25,1,0
94134,333.333,4,2,0,25,1,0
94136,333.333,4,2,0,25,1,0
94138,333.333,4,2,0,25,1,0
94179,333.333,4,2,0,25,1,0
94181,333.333,4,2,0,25,1,0
94183,333.333,4,2,0,25,1,0
94185,333.333,4,2,0,25,1,0
94187,333.333,4,2,0,25,1,0
94189,333.333,4,2,0,25,1,0
94191,333.333,4,2,0,25,1,0
94193,333.333,4,2,0,25,1,0
94195,333.333,4,2,0,25,1,0
94197,333.333,4,2,0,25,1,0
94199,333.333,4,2,0,25,1,0
94201,333.333,4,2,0,25,1,0
94203,333.333,4,2,0,25,1,0
94205,333.333,4,2,0,25,1,0
94207,333.333,4,2,0,25,1,0
94209,333.333,4,2,0,25,1,0
94211,333.333,4,2,0,25,1,0
94213,333.333,4,2,0,25,1,0
94215,333.333,4,2,0,25,1,0
94217,333.333,4,2,0,25,1,0
94219,333.333,4,2,0,25,1,0
94221,333.333,4,2,0,25,1,0
94263,333.333,4,2,0,25,1,0
94265,333.333,4,2,0,25,1,0
94267,333.333,4,2,0,25,1,0
94269,333.333,4,2,0,25,1,0
94271,333.333,4,2,0,25,1,0
94273,333.333,4,2,0,25,1,0
94275,333.333,4,2,0,25,1,0
94277,333.333,4,2,0,25,1,0
94279,333.333,4,2,0,25,1,0
94281,333.333,4,2,0,25,1,0
94283,333.333,4,2,0,25,1,0
94285,333.333,4,2,0,25,1,0
94287,333.333,4,2,0,25,1,0
94289,333.333,4,2,0,25,1,0
94291,333.333,4,2,0,25,1,0
94293,333.333,4,2,0,25,1,0
94295,333.333,4,2,0,25,1,0
94297,333.333,4,2,0,25,1,0
94299,333.333,4,2,0,25,1,0
94301,333.333,4,2,0,25,1,0
94303,333.333,4,2,0,25,1,0
94305,333.333,4,2,0,25,1,0
94346,333.333,4,2,0,25,1,0
94348,333.333,4,2,0,25,1,0
94350,333.333,4,2,0,25,1,0
94352,333.333,4,2,0,25,1,0
94354,333.333,4,2,0,25,1,0
94356,333.333,4,2,0,25,1,0
94358,333.333,4,2,0,25,1,0
94360,333.333,4,2,0,25,1,0
94362,333.333,4,2,0,25,1,0
94364,333.333,4,2,0,25,1,0
94366,333.333,4,2,0,25,1,0
94368,333.333,4,2,0,25,1,0
94370,333.333,4,2,0,25,1,0
94372,333.333,4,2,0,25,1,0
94374,333.333,4,2,0,25,1,0
94376,333.333,4,2,0,25,1,0
94378,333.333,4,2,0,25,1,0
94380,333.333,4,2,0,25,1,0
94382,333.333,4,2,0,25,1,0
94384,333.333,4,2,0,25,1,0
94386,333.333,4,2,0,25,1,0
94388,333.333,4,2,0,25,1,0
94429,333.333,4,2,0,25,1,0
94431,333.333,4,2,0,25,1,0
94433,333.333,4,2,0,25,1,0
94435,333.333,4,2,0,25,1,0
94437,333.333,4,2,0,25,1,0
94439,333.333,4,2,0,25,1,0
94441,333.333,4,2,0,25,1,0
94443,333.333,4,2,0,25,1,0
94445,333.333,4,2,0,25,1,0
94447,333.333,4,2,0,25,1,0
94449,333.333,4,2,0,25,1,0
94451,333.333,4,2,0,25,1,0
94453,333.333,4,2,0,25,1,0
94455,333.333,4,2,0,25,1,0
94457,333.333,4,2,0,25,1,0
94459,333.333,4,2,0,25,1,0
94461,333.333,4,2,0,25,1,0
94463,333.333,4,2,0,25,1,0
94465,333.333,4,2,0,25,1,0
94467,333.333,4,2,0,25,1,0
94469,333.333,4,2,0,25,1,0
94471,333.333,4,2,0,25,1,0
94596,333.333,4,2,0,25,1,0
94598,333.333,4,2,0,25,1,0
94600,333.333,4,2,0,25,1,0
94602,333.333,4,2,0,25,1,0
94604,333.333,4,2,0,25,1,0
94606,333.333,4,2,0,25,1,0
94608,333.333,4,2,0,25,1,0
94610,333.333,4,2,0,25,1,0
94612,333.333,4,2,0,25,1,0
94614,333.333,4,2,0,25,1,0
94616,333.333,4,2,0,25,1,0
94618,333.333,4,2,0,25,1,0
94620,333.333,4,2,0,25,1,0
94622,333.333,4,2,0,25,1,0
94624,333.333,4,2,0,25,1,0
94626,333.333,4,2,0,25,1,0
94628,333.333,4,2,0,25,1,0
94630,333.333,4,2,0,25,1,0
94632,333.333,4,2,0,25,1,0
94634,333.333,4,2,0,25,1,0
94636,333.333,4,2,0,25,1,0
94638,333.333,4,2,0,25,1,0
94679,333.333,4,2,0,25,1,0
94681,333.333,4,2,0,25,1,0
94683,333.333,4,2,0,25,1,0
94685,333.333,4,2,0,25,1,0
94687,333.333,4,2,0,25,1,0
94689,333.333,4,2,0,25,1,0
94691,333.333,4,2,0,25,1,0
94693,333.333,4,2,0,25,1,0
94695,333.333,4,2,0,25,1,0
94697,333.333,4,2,0,25,1,0
94699,333.333,4,2,0,25,1,0
94701,333.333,4,2,0,25,1,0
94703,333.333,4,2,0,25,1,0
94705,333.333,4,2,0,25,1,0
94707,333.333,4,2,0,25,1,0
94709,333.333,4,2,0,25,1,0
94711,333.333,4,2,0,25,1,0
94713,333.333,4,2,0,25,1,0
94715,333.333,4,2,0,25,1,0
94717,333.333,4,2,0,25,1,0
94719,333.333,4,2,0,25,1,0
94721,333.333,4,2,0,25,1,0
94763,333.333,4,2,0,25,1,0
94765,333.333,4,2,0,25,1,0
94767,333.333,4,2,0,25,1,0
94769,333.333,4,2,0,25,1,0
94771,333.333,4,2,0,25,1,0
94773,333.333,4,2,0,25,1,0
94775,333.333,4,2,0,25,1,0
94777,333.333,4,2,0,25,1,0
94779,333.333,4,2,0,25,1,0
94781,333.333,4,2,0,25,1,0
94783,333.333,4,2,0,25,1,0
94785,333.333,4,2,0,25,1,0
94787,333.333,4,2,0,25,1,0
94789,333.333,4,2,0,25,1,0
94791,333.333,4,2,0,25,1,0
94793,333.333,4,2,0,25,1,0
94795,333.333,4,2,0,25,1,0
94797,333.333,4,2,0,25,1,0
94799,333.333,4,2,0,25,1,0
94801,333.333,4,2,0,25,1,0
94803,333.333,4,2,0,25,1,0
94805,333.333,4,2,0,25,1,0
94846,333.333,4,2,0,25,1,0
94848,333.333,4,2,0,25,1,0
94850,333.333,4,2,0,25,1,0
94852,333.333,4,2,0,25,1,0
94854,333.333,4,2,0,25,1,0
94856,333.333,4,2,0,25,1,0
94858,333.333,4,2,0,25,1,0
94860,333.333,4,2,0,25,1,0
94862,333.333,4,2,0,25,1,0
94864,333.333,4,2,0,25,1,0
94866,333.333,4,2,0,25,1,0
94868,333.333,4,2,0,25,1,0
94870,333.333,4,2,0,25,1,0
94872,333.333,4,2,0,25,1,0
94874,333.333,4,2,0,25,1,0
94876,333.333,4,2,0,25,1,0
94878,333.333,4,2,0,25,1,0
94880,333.333,4,2,0,25,1,0
94882,333.333,4,2,0,25,1,0
94884,333.333,4,2,0,25,1,0
94886,333.333,4,2,0,25,1,0
94888,333.333,4,2,0,25,1,0
94929,333.333,4,2,0,25,1,0
94931,333.333,4,2,0,25,1,0
94933,333.333,4,2,0,25,1,0
94935,333.333,4,2,0,25,1,0
94937,333.333,4,2,0,25,1,0
94939,333.333,4,2,0,25,1,0
94941,333.333,4,2,0,25,1,0
94943,333.333,4,2,0,25,1,0
94945,333.333,4,2,0,25,1,0
94947,333.333,4,2,0,25,1,0
94949,333.333,4,2,0,25,1,0
94951,333.333,4,2,0,25,1,0
94953,333.333,4,2,0,25,1,0
94955,333.333,4,2,0,25,1,0
94957,333.333,4,2,0,25,1,0
94959,333.333,4,2,0,25,1,0
94961,333.333,4,2,0,25,1,0
94963,333.333,4,2,0,25,1,0
94965,333.333,4,2,0,25,1,0
94967,333.333,4,2,0,25,1,0
94969,333.333,4,2,0,25,1,0
94971,333.333,4,2,0,25,1,0
95013,333.333,4,2,0,25,1,0
95015,333.333,4,2,0,25,1,0
95017,333.333,4,2,0,25,1,0
95019,333.333,4,2,0,25,1,0
95021,333.333,4,2,0,25,1,0
95023,333.333,4,2,0,25,1,0
95025,333.333,4,2,0,25,1,0
95027,333.333,4,2,0,25,1,0
95029,333.333,4,2,0,25,1,0
95031,333.333,4,2,0,25,1,0
95033,333.333,4,2,0,25,1,0
95035,333.333,4,2,0,25,1,0
95037,333.333,4,2,0,25,1,0
95039,333.333,4,2,0,25,1,0
95041,333.333,4,2,0,25,1,0
95043,333.333,4,2,0,25,1,0
95045,333.333,4,2,0,25,1,0
95047,333.333,4,2,0,25,1,0
95049,333.333,4,2,0,25,1,0
95051,333.333,4,2,0,25,1,0
95053,333.333,4,2,0,25,1,0
95055,333.333,4,2,0,25,1,0
95096,333.333,4,2,0,25,1,0
95098,333.333,4,2,0,25,1,0
95100,333.333,4,2,0,25,1,0
95102,333.333,4,2,0,25,1,0
95104,333.333,4,2,0,25,1,0
95106,333.333,4,2,0,25,1,0
95108,333.333,4,2,0,25,1,0
95110,333.333,4,2,0,25,1,0
95112,333.333,4,2,0,25,1,0
95114,333.333,4,2,0,25,1,0
95116,333.333,4,2,0,25,1,0
95118,333.333,4,2,0,25,1,0
95120,333.333,4,2,0,25,1,0
95122,333.333,4,2,0,25,1,0
95124,333.333,4,2,0,25,1,0
95126,333.333,4,2,0,25,1,0
95128,333.333,4,2,0,25,1,0
95130,333.333,4,2,0,25,1,0
95132,333.333,4,2,0,25,1,0
95134,333.333,4,2,0,25,1,0
95136,333.333,4,2,0,25,1,0
95138,333.333,4,2,0,25,1,0
95179,333.333,4,2,0,25,1,0
95181,333.333,4,2,0,25,1,0
95183,333.333,4,2,0,25,1,0
95185,333.333,4,2,0,25,1,0
95187,333.333,4,2,0,25,1,0
95189,333.333,4,2,0,25,1,0
95191,333.333,4,2,0,25,1,0
95193,333.333,4,2,0,25,1,0
95195,333.333,4,2,0,25,1,0
95197,333.333,4,2,0,25,1,0
95199,333.333,4,2,0,25,1,0
95201,333.333,4,2,0,25,1,0
95203,333.333,4,2,0,25,1,0
95205,333.333,4,2,0,25,1,0
95207,333.333,4,2,0,25,1,0
95209,333.333,4,2,0,25,1,0
95211,333.333,4,2,0,25,1,0
95213,333.333,4,2,0,25,1,0
95215,333.333,4,2,0,25,1,0
95217,333.333,4,2,0,25,1,0
95219,333.333,4,2,0,25,1,0
95221,333.333,4,2,0,25,1,0
95263,333.333,4,2,0,25,1,0
95265,333.333,4,2,0,25,1,0
95267,333.333,4,2,0,25,1,0
95269,333.333,4,2,0,25,1,0
95271,333.333,4,2,0,25,1,0
95273,333.333,4,2,0,25,1,0
95275,333.333,4,2,0,25,1,0
95277,333.333,4,2,0,25,1,0
95279,333.333,4,2,0,25,1,0
95281,333.333,4,2,0,25,1,0
95283,333.333,4,2,0,25,1,0
95285,333.333,4,2,0,25,1,0
95287,333.333,4,2,0,25,1,0
95289,333.333,4,2,0,25,1,0
95291,333.333,4,2,0,25,1,0
95293,333.333,4,2,0,25,1,0
95295,333.333,4,2,0,25,1,0
95297,333.333,4,2,0,25,1,0
95299,333.333,4,2,0,25,1,0
95301,333.333,4,2,0,25,1,0
95303,333.333,4,2,0,25,1,0
95305,333.333,4,2,0,25,1,0
95346,333.333,4,2,0,25,1,0
95348,333.333,4,2,0,25,1,0
95350,333.333,4,2,0,25,1,0
95352,333.333,4,2,0,25,1,0
95354,333.333,4,2,0,25,1,0
95356,333.333,4,2,0,25,1,0
95358,333.333,4,2,0,25,1,0
95360,333.333,4,2,0,25,1,0
95362,333.333,4,2,0,25,1,0
95364,333.333,4,2,0,25,1,0
95366,333.333,4,2,0,25,1,0
95368,333.333,4,2,0,25,1,0
95370,333.333,4,2,0,25,1,0
95372,333.333,4,2,0,25,1,0
95374,333.333,4,2,0,25,1,0
95376,333.333,4,2,0,25,1,0
95378,333.333,4,2,0,25,1,0
95380,333.333,4,2,0,25,1,0
95382,333.333,4,2,0,25,1,0
95384,333.333,4,2,0,25,1,0
95386,333.333,4,2,0,25,1,0
95388,333.333,4,2,0,25,1,0
95429,333.333,4,2,0,25,1,0
95431,333.333,4,2,0,25,1,0
95433,333.333,4,2,0,25,1,0
95435,333.333,4,2,0,25,1,0
95437,333.333,4,2,0,25,1,0
95439,333.333,4,2,0,25,1,0
95441,333.333,4,2,0,25,1,0
95443,333.333,4,2,0,25,1,0
95445,333.333,4,2,0,25,1,0
95447,333.333,4,2,0,25,1,0
95449,333.333,4,2,0,25,1,0
95451,333.333,4,2,0,25,1,0
95453,333.333,4,2,0,25,1,0
95455,333.333,4,2,0,25,1,0
95457,333.333,4,2,0,25,1,0
95459,333.333,4,2,0,25,1,0
95461,333.333,4,2,0,25,1,0
95463,333.333,4,2,0,25,1,0
95465,333.333,4,2,0,25,1,0
95467,333.333,4,2,0,25,1,0
95469,333.333,4,2,0,25,1,0
95471,333.333,4,2,0,25,1,0
95513,333.333333333333,4,2,0,25,1,0
95533,-21.7865,4,2,0,25,0,0
95537.2,-975.61,4,2,0,25,0,0
95554,-21.7865,4,2,0,25,0,0
95558.2,-975.61,4,2,0,25,0,0
95575,-21.7865,4,2,0,25,0,0
95579.2,-975.61,4,2,0,25,0,0
95596,-21.7865,4,2,0,25,0,0
95604.4,-975.61,4,2,0,25,0,0
95638,-21.7865,4,2,0,25,0,0
95646.2,-975.61,4,2,0,25,0,0
95679,-21.7865,4,2,0,25,0,0
95695.8,-975.61,4,2,0,25,0,0
95763,-21.7865,4,2,0,25,0,0
95779.6,-975.61,4,2,0,25,0,0
95846,-21.7865,4,2,0,25,0,0
95862.6,-975.61,4,2,0,25,0,0
95929,-21.7865,4,2,0,25,0,0
95945.8,-975.61,4,2,0,25,0,0
96013,-21.7865,4,2,0,25,0,0
96029.6,-975.61,4,2,0,25,0,0
96096,-21.7865,4,2,0,25,0,0
96112.8,-975.61,4,2,0,25,0,0
96180,333.333333333333,4,2,0,25,1,0
96180,-100,4,2,0,25,0,0
112179,-10.772,4,2,0,25,0,0
112184,-10.8812,4,2,0,25,0,0
112189,-10.9926,4,2,0,25,0,0
112194,-11.1062,4,2,0,25,0,0
112199,-11.2221,4,2,0,25,0,0
112204,-11.3404,4,2,0,25,0,0
112209,-11.461,4,2,0,25,0,0
112214,-11.5842,4,2,0,25,0,0
112219,-11.7099,4,2,0,25,0,0
112224,-11.8381,4,2,0,25,0,0
112229,-11.9691,4,2,0,25,0,0
112234,-12.1028,4,2,0,25,0,0
112239,-12.2392,4,2,0,25,0,0
112244,-12.3786,4,2,0,25,0,0
112249,-12.5209,4,2,0,25,0,0
112254,-12.6662,4,2,0,25,0,0
112259,-12.8146,4,2,0,25,0,0
112264,-12.9661,4,2,0,25,0,0
112269,-13.121,4,2,0,25,0,0
112274,-13.2792,4,2,0,25,0,0
112279,-13.4408,4,2,0,25,0,0
112284,-13.6059,4,2,0,25,0,0
112289,-13.7747,4,2,0,25,0,0
112294,-13.9472,4,2,0,25,0,0
112299,-14.1234,4,2,0,25,0,0
112304,-14.3037,4,2,0,25,0,0
112309,-14.4879,4,2,0,25,0,0
112314,-14.6763,4,2,0,25,0,0
112319,-14.869,4,2,0,25,0,0
112324,-15.066,4,2,0,25,0,0
112329,-15.2675,4,2,0,25,0,0
112334,-15.4736,4,2,0,25,0,0
112339,-15.6845,4,2,0,25,0,0
112344,-15.9003,4,2,0,25,0,0
112349,-16.1211,4,2,0,25,0,0
112354,-16.3471,4,2,0,25,0,0
112359,-16.5784,4,2,0,25,0,0
112364,-16.8153,4,2,0,25,0,0
112369,-17.0577,4,2,0,25,0,0
112374,-17.306,4,2,0,25,0,0
112379,-17.5602,4,2,0,25,0,0
112384,-17.8206,4,2,0,25,0,0
112389,-18.0874,4,2,0,25,0,0
112394,-18.3606,4,2,0,25,0,0
112399,-18.6407,4,2,0,25,0,0
112404,-18.9277,4,2,0,25,0,0
112409,-19.2218,4,2,0,25,0,0
112414,-19.5234,4,2,0,25,0,0
112419,-19.8325,4,2,0,25,0,0
112424,-20.1495,4,2,0,25,0,0
112429,-20.4746,4,2,0,25,0,0
112434,-20.8081,4,2,0,25,0,0
112439,-21.1503,4,2,0,25,0,0
112444,-21.5013,4,2,0,25,0,0
112449,-21.8615,4,2,0,25,0,0
112454,-22.2313,4,2,0,25,0,0
112459,-22.6108,4,2,0,25,0,0
112464,-23.0005,4,2,0,25,0,0
112469,-23.4007,4,2,0,25,0,0
112474,-23.8117,4,2,0,25,0,0
112479,-24.2339,4,2,0,25,0,0
112484,-24.6676,4,2,0,25,0,0
112489,-25.1134,4,2,0,25,0,0
112494,-25.5715,4,2,0,25,0,0
112499,-26.0424,4,2,0,25,0,0
112504,-26.5266,4,2,0,25,0,0
112509,-27.0245,4,2,0,25,0,0
112514,-27.5367,4,2,0,25,0,0
112519,-28.0635,4,2,0,25,0,0
112524,-28.6056,4,2,0,25,0,0
112529,-29.1634,4,2,0,25,0,0
112534,-29.7377,4,2,0,25,0,0
112539,-30.3289,4,2,0,25,0,0
112544,-30.9377,4,2,0,25,0,0
112549,-31.5646,4,2,0,25,0,0
112554,-32.2106,4,2,0,25,0,0
112559,-32.8761,4,2,0,25,0,0
112564,-33.562,4,2,0,25,0,0
112569,-34.2691,4,2,0,25,0,0
112574,-34.9981,4,2,0,25,0,0
112579,-35.7499,4,2,0,25,0,0
112584,-36.5253,4,2,0,25,0,0
112589,-37.3254,4,2,0,25,0,0
112594,-38.151,4,2,0,25,0,0
112599,-39.0032,4,2,0,25,0,0
112604,-39.883,4,2,0,25,0,0
112609,-40.7916,4,2,0,25,0,0
112614,-41.73,4,2,0,25,0,0
112619,-42.6996,4,2,0,25,0,0
112624,-43.7015,4,2,0,25,0,0
112629,-44.7372,4,2,0,25,0,0
112634,-45.808,4,2,0,25,0,0
112639,-46.9152,4,2,0,25,0,0
112644,-48.0607,4,2,0,25,0,0
112649,-49.246,4,2,0,25,0,0
112654,-50.4726,4,2,0,25,0,0
112659,-51.7421,4,2,0,25,0,0
112664,-53.0572,4,2,0,25,0,0
112669,-54.4186,4,2,0,25,0,0
112674,-55.8296,4,2,0,25,0,0
112679,-57.2916,4,2,0,25,0,0
112684,-58.8069,4,2,0,25,0,0
112689,-60.3781,4,2,0,25,0,0
112694,-62.0077,4,2,0,25,0,0
112699,-63.6985,4,2,0,25,0,0
112704,-65.4525,4,2,0,25,0,0
112709,-67.2733,4,2,0,25,0,0
112714,-69.1632,4,2,0,25,0,0
112719,-71.1264,4,2,0,25,0,0
112724,-73.1661,4,2,0,25,0,0
112729,-75.2846,4,2,0,25,0,0
112734,-77.4875,4,2,0,25,0,0
112739,-79.7769,4,2,0,25,0,0
112744,-82.1582,4,2,0,25,0,0
112749,-84.6354,4,2,0,25,0,0
112754,-87.2121,4,2,0,25,0,0
112759,-89.8945,4,2,0,25,0,0
112764,-92.6873,4,2,0,25,0,0
112769,-95.5947,4,2,0,25,0,0
112774,-98.6236,4,2,0,25,0,0
112779,-101.779,4,2,0,25,0,0
112784,-105.068,4,2,0,25,0,0
112789,-108.495,4,2,0,25,0,0
112794,-112.069,4,2,0,25,0,0
112799,-115.796,4,2,0,25,0,0
112804,-119.683,4,2,0,25,0,0
112809,-123.739,4,2,0,25,0,0
112814,-127.972,4,2,0,25,0,0
112819,-132.389,4,2,0,25,0,0
112824,-137,4,2,0,25,0,0
112829,-141.816,4,2,0,25,0,0
112834,-146.843,4,2,0,25,0,0
112839,-152.093,4,2,0,25,0,0
112844,-157.578,4,2,0,25,0,0
112849,-163.307,4,2,0,25,0,0
112854,-169.291,4,2,0,25,0,0
112859,-175.544,4,2,0,25,0,0
112864,-182.075,4,2,0,25,0,0
112869,-188.9,4,2,0,25,0,0
112874,-196.028,4,2,0,25,0,0
112879,-203.474,4,2,0,25,0,0
112884,-211.251,4,2,0,25,0,0
112889,-219.373,4,2,0,25,0,0
112894,-227.852,4,2,0,25,0,0
112899,-236.702,4,2,0,25,0,0
112904,-245.936,4,2,0,25,0,0
112909,-255.568,4,2,0,25,0,0
112914,-265.611,4,2,0,25,0,0
112919,-276.075,4,2,0,25,0,0
112924,-286.972,4,2,0,25,0,0
112929,-298.315,4,2,0,25,0,0
112934,-310.109,4,2,0,25,0,0
112939,-322.365,4,2,0,25,0,0
112944,-335.087,4,2,0,25,0,0
112949,-348.281,4,2,0,25,0,0
112954,-361.947,4,2,0,25,0,0
112959,-376.084,4,2,0,25,0,0
112964,-390.687,4,2,0,25,0,0
112969,-405.748,4,2,0,25,0,0
112974,-421.258,4,2,0,25,0,0
112979,-437.196,4,2,0,25,0,0
112984,-453.546,4,2,0,25,0,0
112989,-470.28,4,2,0,25,0,0
112994,-487.366,4,2,0,25,0,0
112999,-504.772,4,2,0,25,0,0
113004,-522.45,4,2,0,25,0,0
113009,-540.355,4,2,0,25,0,0
113014,-558.436,4,2,0,25,0,0
113019,-576.634,4,2,0,25,0,0
113024,-594.885,4,2,0,25,0,0
113029,-613.124,4,2,0,25,0,0
113034,-631.274,4,2,0,25,0,0
113039,-649.269,4,2,0,25,0,0
113044,-667.029,4,2,0,25,0,0
113049,-684.48,4,2,0,25,0,0
113054,-701.547,4,2,0,25,0,0
113059,-718.156,4,2,0,25,0,0
113064,-734.236,4,2,0,25,0,0
113069,-749.728,4,2,0,25,0,0
113074,-764.568,4,2,0,25,0,0
113079,-778.706,4,2,0,25,0,0
113084,-792.099,4,2,0,25,0,0
113089,-804.717,4,2,0,25,0,0
113094,-816.531,4,2,0,25,0,0
113099,-827.534,4,2,0,25,0,0
113104,-837.719,4,2,0,25,0,0
113109,-847.096,4,2,0,25,0,0
113114,-855.684,4,2,0,25,0,0
113119,-863.515,4,2,0,25,0,0
113124,-870.628,4,2,0,25,0,0
113129,-877.068,4,2,0,25,0,0
113134,-882.89,4,2,0,25,0,0
113139,-888.161,4,2,0,25,0,0
113144,-892.948,4,2,0,25,0,0
113149,-897.324,4,2,0,25,0,0
113154,-901.372,4,2,0,25,0,0
113159,-905.177,4,2,0,25,0,0
113164,-908.826,4,2,0,25,0,0
113169,-912.407,4,2,0,25,0,0
113174,-916.018,4,2,0,25,0,0
113179,-919.754,4,2,0,25,0,0
126846,-773.922,4,2,0,25,0,0
126853,-775.194,4,2,0,25,0,0
126859,-776.47,4,2,0,25,0,0
126866,-777.576,4,2,0,25,0,0
126873,-778.336,4,2,0,25,0,0
126879,-778.573,4,2,0,25,0,0
126886,-778.114,4,2,0,25,0,0
126893,-776.787,4,2,0,25,0,0
126899,-774.433,4,2,0,25,0,0
126906,-770.901,4,2,0,25,0,0
126913,-766.059,4,2,0,25,0,0
126919,-759.796,4,2,0,25,0,0
126926,-752.028,4,2,0,25,0,0
126933,-742.698,4,2,0,25,0,0
126939,-731.783,4,2,0,25,0,0
126946,-719.294,4,2,0,25,0,0
126953,-705.274,4,2,0,25,0,0
126959,-689.802,4,2,0,25,0,0
126966,-672.986,4,2,0,25,0,0
126973,-654.96,4,2,0,25,0,0
126979,-635.88,4,2,0,25,0,0
126986,-615.916,4,2,0,25,0,0
126993,-595.251,4,2,0,25,0,0
126999,-574.067,4,2,0,25,0,0
127006,-552.547,4,2,0,25,0,0
127013,-530.867,4,2,0,25,0,0
127019,-509.189,4,2,0,25,0,0
127026,-487.664,4,2,0,25,0,0
127033,-466.425,4,2,0,25,0,0
127039,-445.588,4,2,0,25,0,0
127046,-425.25,4,2,0,25,0,0
127053,-405.492,4,2,0,25,0,0
127059,-386.376,4,2,0,25,0,0
127066,-367.951,4,2,0,25,0,0
127073,-350.251,4,2,0,25,0,0
127079,-333.295,4,2,0,25,0,0
127086,-317.094,4,2,0,25,0,0
127093,-301.649,4,2,0,25,0,0
127099,-286.954,4,2,0,25,0,0
127106,-272.994,4,2,0,25,0,0
127113,-259.753,4,2,0,25,0,0
127119,-247.208,4,2,0,25,0,0
127126,-235.335,4,2,0,25,0,0
127133,-224.106,4,2,0,25,0,0
127139,-213.494,4,2,0,25,0,0
127146,-203.47,4,2,0,25,0,0
127153,-194.005,4,2,0,25,0,0
127159,-185.071,4,2,0,25,0,0
127166,-176.639,4,2,0,25,0,0
127173,-168.681,4,2,0,25,0,0
127180,-161.171,4,2,0,25,0,0
127186,-154.083,4,2,0,25,0,0
127193,-147.393,4,2,0,25,0,0
127200,-141.077,4,2,0,25,0,0
127206,-135.112,4,2,0,25,0,0
127213,-129.478,4,2,0,25,0,0
127220,-124.154,4,2,0,25,0,0
127226,-119.122,4,2,0,25,0,0
127233,-114.364,4,2,0,25,0,0
127240,-109.864,4,2,0,25,0,0
127246,-105.605,4,2,0,25,0,0
127253,-101.573,4,2,0,25,0,0
127260,-97.7535,4,2,0,25,0,0
127266,-94.1347,4,2,0,25,0,0
127273,-90.7039,4,2,0,25,0,0
127280,-87.45,4,2,0,25,0,0
127286,-84.3623,4,2,0,25,0,0
127293,-81.4309,4,2,0,25,0,0
127300,-78.6467,4,2,0,25,0,0
127306,-76.0008,4,2,0,25,0,0
127313,-73.4854,4,2,0,25,0,0
127320,-71.0927,4,2,0,25,0,0
127326,-68.8157,4,2,0,25,0,0
127333,-66.6479,4,2,0,25,0,0
127340,-64.5829,4,2,0,25,0,0
127346,-62.6151,4,2,0,25,0,0
127353,-60.7389,4,2,0,25,0,0
127360,-58.9494,4,2,0,25,0,0
127366,-57.2416,4,2,0,25,0,0
127373,-55.6113,4,2,0,25,0,0
127380,-54.0542,4,2,0,25,0,0
127386,-52.5663,4,2,0,25,0,0
127393,-51.144,4,2,0,25,0,0
127400,-49.7839,4,2,0,25,0,0
127406,-48.4827,4,2,0,25,0,0
127413,-47.2373,4,2,0,25,0,0
127420,-46.045,4,2,0,25,0,0
127426,-44.9029,4,2,0,25,0,0
127433,-43.8087,4,2,0,25,0,0
127440,-42.7598,4,2,0,25,0,0
127446,-41.7541,4,2,0,25,0,0
127453,-40.7895,4,2,0,25,0,0
127460,-39.8639,4,2,0,25,0,0
127466,-38.9754,4,2,0,25,0,0
127473,-38.1224,4,2,0,25,0,0
127480,-37.3032,4,2,0,25,0,0
127486,-36.5161,4,2,0,25,0,0
127493,-35.7598,4,2,0,25,0,0
127500,-35.0327,4,2,0,25,0,0
127506,-34.3335,4,2,0,25,0,0
127513,285.714285714286,4,2,0,25,1,0
127513,-117.647058823529,4,2,0,25,0,0
135227,-117.647,4,2,0,25,0,0
135235,-115.234,4,2,0,25,0,0
135242,-112.922,4,2,0,25,0,0
135250,-110.709,4,2,0,25,0,0
135257,-108.592,4,2,0,25,0,0
135265,-106.569,4,2,0,25,0,0
135273,-104.636,4,2,0,25,0,0
135280,-102.792,4,2,0,25,0,0
135288,-101.034,4,2,0,25,0,0
135296,-99.3588,4,2,0,25,0,0
135303,-97.7648,4,2,0,25,0,0
135311,-96.2492,4,2,0,25,0,0
135318,-94.8096,4,2,0,25,0,0
135326,-93.4439,4,2,0,25,0,0
135334,-92.1496,4,2,0,25,0,0
135341,-90.9249,4,2,0,25,0,0
135349,-89.7676,4,2,0,25,0,0
135356,-88.6758,4,2,0,25,0,0
135364,-87.6476,4,2,0,25,0,0
135372,-86.6813,4,2,0,25,0,0
135379,-85.7753,4,2,0,25,0,0
135387,-84.928,4,2,0,25,0,0
135394,-84.1379,4,2,0,25,0,0
135402,-83.4036,4,2,0,25,0,0
135410,-82.724,4,2,0,25,0,0
135417,-82.0978,4,2,0,25,0,0
135425,-81.5238,4,2,0,25,0,0
135433,-81.0011,4,2,0,25,0,0
135440,-80.5288,4,2,0,25,0,0
135448,-80.1061,4,2,0,25,0,0
135455,-79.7321,4,2,0,25,0,0
135463,-79.4065,4,2,0,25,0,0
135471,-79.1282,4,2,0,25,0,0
135478,-78.8972,4,2,0,25,0,0
135486,-78.7128,4,2,0,25,0,0
135493,-78.5748,4,2,0,25,0,0
135501,-78.4829,4,2,0,25,0,0
135509,-78.4371,4,2,0,25,0,0
135516,-78.4371,4,2,0,25,0,0
135524,-78.4829,4,2,0,25,0,0
135532,-78.5748,4,2,0,25,0,0
135539,-78.7128,4,2,0,25,0,0
135547,-78.8972,4,2,0,25,0,0
135554,-79.1282,4,2,0,25,0,0
135562,-79.4065,4,2,0,25,0,0
135570,-79.7321,4,2,0,25,0,0
135577,-80.1061,4,2,0,25,0,0
135585,-80.5288,4,2,0,25,0,0
135592,-81.0011,4,2,0,25,0,0
135600,-81.5238,4,2,0,25,0,0
135608,-82.0978,4,2,0,25,0,0
135615,-82.724,4,2,0,25,0,0
135623,-83.4036,4,2,0,25,0,0
135631,-84.1379,4,2,0,25,0,0
135638,-84.928,4,2,0,25,0,0
135646,-85.7753,4,2,0,25,0,0
135653,-86.6813,4,2,0,25,0,0
135661,-87.6476,4,2,0,25,0,0
135669,-88.6758,4,2,0,25,0,0
135676,-89.7676,4,2,0,25,0,0
135684,-90.9249,4,2,0,25,0,0
135691,-92.1496,4,2,0,25,0,0
135699,-93.4439,4,2,0,25,0,0
135707,-94.8096,4,2,0,25,0,0
135714,-96.2492,4,2,0,25,0,0
135722,-97.7648,4,2,0,25,0,0
135729,-99.3588,4,2,0,25,0,0
135737,-101.034,4,2,0,25,0,0
135745,-102.792,4,2,0,25,0,0
135752,-104.636,4,2,0,25,0,0
135760,-106.569,4,2,0,25,0,0
135768,-108.592,4,2,0,25,0,0
135775,-110.709,4,2,0,25,0,0
135783,-112.922,4,2,0,25,0,0
135790,-115.234,4,2,0,25,0,0
135798,-117.647,4,2,0,25,0,0
143227,-117.647,4,2,0,25,0,0
143235,-115.234,4,2,0,25,0,0
143242,-112.922,4,2,0,25,0,0
143250,-110.709,4,2,0,25,0,0
143257,-108.592,4,2,0,25,0,0
143265,-106.569,4,2,0,25,0,0
143273,-104.636,4,2,0,25,0,0
143280,-102.792,4,2,0,25,0,0
143288,-101.034,4,2,0,25,0,0
143296,-99.3588,4,2,0,25,0,0
143303,-97.7648,4,2,0,25,0,0
143311,-96.2492,4,2,0,25,0,0
143318,-94.8096,4,2,0,25,0,0
143326,-93.4439,4,2,0,25,0,0
143334,-92.1496,4,2,0,25,0,0
143341,-90.9249,4,2,0,25,0,0
143349,-89.7676,4,2,0,25,0,0
143356,-88.6758,4,2,0,25,0,0
143364,-87.6476,4,2,0,25,0,0
143372,-86.6813,4,2,0,25,0,0
143379,-85.7753,4,2,0,25,0,0
143387,-84.928,4,2,0,25,0,0
143394,-84.1379,4,2,0,25,0,0
143402,-83.4036,4,2,0,25,0,0
143410,-82.724,4,2,0,25,0,0
143417,-82.0978,4,2,0,25,0,0
143425,-81.5238,4,2,0,25,0,0
143433,-81.0011,4,2,0,25,0,0
143440,-80.5288,4,2,0,25,0,0
143448,-80.1061,4,2,0,25,0,0
143455,-79.7321,4,2,0,25,0,0
143463,-79.4065,4,2,0,25,0,0
143471,-79.1282,4,2,0,25,0,0
143478,-78.8972,4,2,0,25,0,0
143486,-78.7128,4,2,0,25,0,0
143493,-78.5748,4,2,0,25,0,0
143501,-78.4829,4,2,0,25,0,0
143509,-78.4371,4,2,0,25,0,0
143516,-78.4371,4,2,0,25,0,0
143524,-78.4829,4,2,0,25,0,0
143532,-78.5748,4,2,0,25,0,0
143539,-78.7128,4,2,0,25,0,0
143547,-78.8972,4,2,0,25,0,0
143554,-79.1282,4,2,0,25,0,0
143562,-79.4065,4,2,0,25,0,0
143570,-79.7321,4,2,0,25,0,0
143577,-80.1061,4,2,0,25,0,0
143585,-80.5288,4,2,0,25,0,0
143592,-81.0011,4,2,0,25,0,0
143600,-81.5238,4,2,0,25,0,0
143608,-82.0978,4,2,0,25,0,0
143615,-82.724,4,2,0,25,0,0
143623,-83.4036,4,2,0,25,0,0
143631,-84.1379,4,2,0,25,0,0
143638,-84.928,4,2,0,25,0,0
143646,-85.7753,4,2,0,25,0,0
143653,-86.6813,4,2,0,25,0,0
143661,-87.6476,4,2,0,25,0,0
143669,-88.6758,4,2,0,25,0,0
143676,-89.7676,4,2,0,25,0,0
143684,-90.9249,4,2,0,25,0,0
143691,-92.1496,4,2,0,25,0,0
143699,-93.4439,4,2,0,25,0,0
143707,-94.8096,4,2,0,25,0,0
143714,-96.2492,4,2,0,25,0,0
143722,-97.7648,4,2,0,25,0,0
143729,-99.3588,4,2,0,25,0,0
143737,-101.034,4,2,0,25,0,0
143745,-102.792,4,2,0,25,0,0
143752,-104.636,4,2,0,25,0,0
143760,-106.569,4,2,0,25,0,0
143768,-108.592,4,2,0,25,0,0
143775,-110.709,4,2,0,25,0,0
143783,-112.922,4,2,0,25,0,0
143790,-115.234,4,2,0,25,0,0
143798,-117.647,4,2,0,25,0,0
151227,-117.647,4,2,0,25,0,0
151235,-115.234,4,2,0,25,0,0
151242,-112.922,4,2,0,25,0,0
151250,-110.709,4,2,0,25,0,0
151257,-108.592,4,2,0,25,0,0
151265,-106.569,4,2,0,25,0,0
151273,-104.636,4,2,0,25,0,0
151280,-102.792,4,2,0,25,0,0
151288,-101.034,4,2,0,25,0,0
151296,-99.3588,4,2,0,25,0,0
151303,-97.7648,4,2,0,25,0,0
151311,-96.2492,4,2,0,25,0,0
151318,-94.8096,4,2,0,25,0,0
151326,-93.4439,4,2,0,25,0,0
151334,-92.1496,4,2,0,25,0,0
151341,-90.9249,4,2,0,25,0,0
151349,-89.7676,4,2,0,25,0,0
151356,-88.6758,4,2,0,25,0,0
151364,-87.6476,4,2,0,25,0,0
151372,-86.6813,4,2,0,25,0,0
151379,-85.7753,4,2,0,25,0,0
151387,-84.928,4,2,0,25,0,0
151394,-84.1379,4,2,0,25,0,0
151402,-83.4036,4,2,0,25,0,0
151410,-82.724,4,2,0,25,0,0
151417,-82.0978,4,2,0,25,0,0
151425,-81.5238,4,2,0,25,0,0
151433,-81.0011,4,2,0,25,0,0
151440,-80.5288,4,2,0,25,0,0
151448,-80.1061,4,2,0,25,0,0
151455,-79.7321,4,2,0,25,0,0
151463,-79.4065,4,2,0,25,0,0
151471,-79.1282,4,2,0,25,0,0
151478,-78.8972,4,2,0,25,0,0
151486,-78.7128,4,2,0,25,0,0
151493,-78.5748,4,2,0,25,0,0
151501,-78.4829,4,2,0,25,0,0
151509,-78.4371,4,2,0,25,0,0
151516,-78.4371,4,2,0,25,0,0
151524,-78.4829,4,2,0,25,0,0
151532,-78.5748,4,2,0,25,0,0
151539,-78.7128,4,2,0,25,0,0
151547,-78.8972,4,2,0,25,0,0
151554,-79.1282,4,2,0,25,0,0
151562,-79.4065,4,2,0,25,0,0
151570,-79.7321,4,2,0,25,0,0
151577,-80.1061,4,2,0,25,0,0
151585,-80.5288,4,2,0,25,0,0
151592,-81.0011,4,2,0,25,0,0
151600,-81.5238,4,2,0,25,0,0
151608,-82.0978,4,2,0,25,0,0
151615,-82.724,4,2,0,25,0,0
151623,-83.4036,4,2,0,25,0,0
151631,-84.1379,4,2,0,25,0,0
151638,-84.928,4,2,0,25,0,0
151646,-85.7753,4,2,0,25,0,0
151653,-86.6813,4,2,0,25,0,0
151661,-87.6476,4,2,0,25,0,0
151669,-88.6758,4,2,0,25,0,0
151676,-89.7676,4,2,0,25,0,0
151684,-90.9249,4,2,0,25,0,0
151691,-92.1496,4,2,0,25,0,0
151699,-93.4439,4,2,0,25,0,0
151707,-94.8096,4,2,0,25,0,0
151714,-96.2492,4,2,0,25,0,0
151722,-97.7648,4,2,0,25,0,0
151729,-99.3588,4,2,0,25,0,0
151737,-101.034,4,2,0,25,0,0
151745,-102.792,4,2,0,25,0,0
151752,-104.636,4,2,0,25,0,0
151760,-106.569,4,2,0,25,0,0
151768,-108.592,4,2,0,25,0,0
151775,-110.709,4,2,0,25,0,0
151783,-112.922,4,2,0,25,0,0
151790,-115.234,4,2,0,25,0,0
151798,-117.647,4,2,0,25,0,0
159513,0.6,4,2,0,25,1,0
159515,60000000,4,2,0,25,1,0
161334,285.714285714286,4,2,0,25,1,0
161334,-66.6666666666667,4,2,0,25,0,0

[HitObjects]
448,192,10,128,0,4010:0:0:0:0:
64,192,4010,128,0,8010:0:0:0:0:
320,192,8010,128,0,12010:0:0:0:0:
64,192,8510,1,0,0:0:0:0:
448,192,8885,1,0,0:0:0:0:
64,192,9260,1,0,0:0:0:0:
64,192,10135,1,0,0:0:0:0:
448,192,10260,1,0,0:0:0:0:
448,192,10385,1,0,0:0:0:0:
64,192,12010,128,0,20010:0:0:0:0:
192,192,12010,128,0,12510:0:0:0:0:
448,192,12510,128,0,12885:0:0:0:0:
320,192,12885,128,0,13260:0:0:0:0:
192,192,13260,128,0,13635:0:0:0:0:
320,192,13635,128,0,14010:0:0:0:0:
448,192,14010,128,0,14385:0:0:0:0:
320,192,14385,128,0,15135:0:0:0:0:
448,192,15135,128,0,15260:0:0:0:0:
192,192,15260,128,0,20010:0:0:0:0:
448,192,15510,128,0,16010:0:0:0:0:
320,192,15510,1,0,0:0:0:0:
320,192,16010,1,0,0:0:0:0:
448,192,16510,128,0,17010:0:0:0:0:
320,192,17010,1,0,0:0:0:0:
448,192,17510,128,0,18010:0:0:0:0:
320,192,18010,1,0,0:0:0:0:
448,192,18510,128,0,19010:0:0:0:0:
320,192,18885,1,0,0:0:0:0:
320,192,19260,1,0,0:0:0:0:
448,192,19510,128,0,20010:0:0:0:0:
320,192,19510,1,0,0:0:0:0:
320,192,19885,1,0,0:0:0:0:
320,192,20010,1,0,0:0:0:0:
192,192,20385,1,0,0:0:0:0:
448,192,20510,128,0,21010:0:0:0:0:
64,192,20510,1,0,0:0:0:0:
64,192,20885,1,0,0:0:0:0:
192,192,21010,1,0,0:0:0:0:
192,192,21385,1,0,0:0:0:0:
448,192,21510,128,0,22010:0:0:0:0:
64,192,21510,1,0,0:0:0:0:
64,192,21885,1,0,0:0:0:0:
192,192,22010,1,0,0:0:0:0:
192,192,22385,1,0,0:0:0:0:
448,192,22510,128,0,23010:0:0:0:0:
64,192,22510,1,0,0:0:0:0:
64,192,22885,1,0,0:0:0:0:
192,192,23010,1,0,0:0:0:0:
192,192,23385,1,0,0:0:0:0:
448,192,23510,128,0,24010:0:0:0:0:
64,192,23510,1,0,0:0:0:0:
64,192,23885,1,0,0:0:0:0:
192,192,24010,1,0,0:0:0:0:
192,192,24385,1,0,0:0:0:0:
448,192,24510,128,0,25010:0:0:0:0:
64,192,24510,1,0,0:0:0:0:
64,192,24885,1,0,0:0:0:0:
192,192,25010,1,0,0:0:0:0:
192,192,25385,1,0,0:0:0:0:
448,192,25510,128,0,26010:0:0:0:0:
64,192,25510,1,0,0:0:0:0:
64,192,25885,1,0,0:0:0:0:
192,192,26010,1,0,0:0:0:0:
192,192,26385,1,0,0:0:0:0:
448,192,26510,128,0,27010:0:0:0:0:
64,192,26510,1,0,0:0:0:0:
320,192,26760,1,0,0:0:0:0:
64,192,26885,1,0,0:0:0:0:
192,192,27010,1,0,0:0:0:0:
64,192,40180,5,0,0:0:0:0:
192,192,40180,1,0,0:0:0:0:
448,192,40180,1,0,0:0:0:0:
64,192,40430,1,0,0:0:0:0:
192,192,40430,1,0,0:0:0:0:
320,192,40430,1,0,0:0:0:0:
192,192,40680,1,0,0:0:0:0:
320,192,40680,1,0,0:0:0:0:
448,192,40680,1,0,0:0:0:0:
64,192,40930,1,0,0:0:0:0:
448,192,40930,1,0,0:0:0:0:
320,192,40930,1,0,0:0:0:0:
64,192,41180,1,0,0:0:0:0:
192,192,41180,1,0,0:0:0:0:
320,192,41180,1,0,0:0:0:0:
192,192,41430,1,0,0:0:0:0:
320,192,41430,1,0,0:0:0:0:
448,192,41430,1,0,0:0:0:0:
64,192,41680,1,0,0:0:0:0:
448,192,41680,1,0,0:0:0:0:
192,192,41680,1,0,0:0:0:0:
64,192,41930,1,0,0:0:0:0:
448,192,41930,1,0,0:0:0:0:
320,192,41930,1,0,0:0:0:0:
192,192,42055,1,0,0:0:0:0:
64,192,42055,1,0,0:0:0:0:
448,192,42055,1,0,0:0:0:0:
320,192,42180,1,0,0:0:0:0:
64,192,42180,1,0,0:0:0:0:
192,192,42180,1,0,0:0:0:0:
320,192,42430,1,0,0:0:0:0:
448,192,42430,1,0,0:0:0:0:
192,192,42430,1,0,0:0:0:0:
448,192,42680,1,0,0:0:0:0:
64,192,42680,1,0,0:0:0:0:
192,192,42680,1,0,0:0:0:0:
320,192,42930,1,0,0:0:0:0:
64,192,42930,1,0,0:0:0:0:
192,192,42930,1,0,0:0:0:0:
64,192,43180,1,0,0:0:0:0:
320,192,43180,1,0,0:0:0:0:
448,192,43180,1,0,0:0:0:0:
64,192,43430,1,0,0:0:0:0:
192,192,43430,1,0,0:0:0:0:
448,192,43430,1,0,0:0:0:0:
192,192,43555,1,0,0:0:0:0:
320,192,43555,1,0,0:0:0:0:
448,192,43555,1,0,0:0:0:0:
192,192,43805,1,0,0:0:0:0:
64,192,43805,1,0,0:0:0:0:
320,192,43867,1,0,0:0:0:0:
448,192,43867,1,0,0:0:0:0:
64,192,43930,1,0,0:0:0:0:
192,192,43930,1,0,0:0:0:0:
320,192,44055,1,0,0:0:0:0:
192,192,44055,1,0,0:0:0:0:
64,192,44055,1,0,0:0:0:0:
320,192,44180,1,0,0:0:0:0:
448,192,44180,1,0,0:0:0:0:
64,192,44180,1,0,0:0:0:0:
320,192,44430,1,0,0:0:0:0:
64,192,44430,1,0,0:0:0:0:
192,192,44430,1,0,0:0:0:0:
320,192,44680,1,0,0:0:0:0:
448,192,44680,1,0,0:0:0:0:
192,192,44680,1,0,0:0:0:0:
448,192,44930,1,0,0:0:0:0:
64,192,44930,1,0,0:0:0:0:
192,192,44930,1,0,0:0:0:0:
64,192,45180,1,0,0:0:0:0:
192,192,45180,1,0,0:0:0:0:
320,192,45180,1,0,0:0:0:0:
192,192,45430,1,0,0:0:0:0:
320,192,45430,1,0,0:0:0:0:
448,192,45430,1,0,0:0:0:0:
64,192,45680,1,0,0:0:0:0:
192,192,45680,1,0,0:0:0:0:
448,192,45680,1,0,0:0:0:0:
192,192,45930,1,0,0:0:0:0:
448,192,45930,1,0,0:0:0:0:
320,192,45930,1,0,0:0:0:0:
64,192,46055,1,0,0:0:0:0:
192,192,46055,1,0,0:0:0:0:
448,192,46055,1,0,0:0:0:0:
320,192,46180,1,0,0:0:0:0:
64,192,46180,1,0,0:0:0:0:
192,192,46180,1,0,0:0:0:0:
320,192,46430,1,0,0:0:0:0:
448,192,46430,1,0,0:0:0:0:
64,192,46430,1,0,0:0:0:0:
448,192,46680,1,0,0:0:0:0:
64,192,46680,1,0,0:0:0:0:
192,192,46680,1,0,0:0:0:0:
448,192,46930,1,0,0:0:0:0:
320,192,46930,1,0,0:0:0:0:
192,192,46930,1,0,0:0:0:0:
64,192,47180,1,0,0:0:0:0:
320,192,47180,1,0,0:0:0:0:
448,192,47180,1,0,0:0:0:0:
320,192,47367,1,0,0:0:0:0:
448,192,47367,1,0,0:0:0:0:
64,192,47430,1,0,0:0:0:0:
192,192,47430,1,0,0:0:0:0:
448,192,47523,1,0,0:0:0:0:
320,192,47555,1,0,0:0:0:0:
192,192,47586,1,0,0:0:0:0:
64,192,47617,1,0,0:0:0:0:
448,192,47648,1,0,0:0:0:0:
64,192,47680,1,0,0:0:0:0:
320,192,47680,1,0,0:0:0:0:
192,192,47680,1,0,0:0:0:0:
448,192,47742,1,0,0:0:0:0:
320,192,47742,1,0,0:0:0:0:
192,192,47805,1,0,0:0:0:0:
64,192,47805,1,0,0:0:0:0:
320,192,47930,128,0,48180:0:0:0:0:
192,192,48180,1,0,0:0:0:0:
64,192,48180,1,0,0:0:0:0:
448,192,48180,1,0,0:0:0:0:
320,192,48430,1,0,0:0:0:0:
448,192,48430,1,0,0:0:0:0:
64,192,48430,1,0,0:0:0:0:
320,192,48680,1,0,0:0:0:0:
64,192,48680,1,0,0:0:0:0:
192,192,48680,1,0,0:0:0:0:
448,192,48930,1,0,0:0:0:0:
320,192,48930,1,0,0:0:0:0:
64,192,48930,1,0,0:0:0:0:
192,192,49180,1,0,0:0:0:0:
320,192,49180,1,0,0:0:0:0:
448,192,49180,1,0,0:0:0:0:
64,192,49430,1,0,0:0:0:0:
192,192,49430,1,0,0:0:0:0:
320,192,49430,1,0,0:0:0:0:
64,192,49680,1,0,0:0:0:0:
320,192,49680,1,0,0:0:0:0:
448,192,49680,1,0,0:0:0:0:
192,192,49930,1,0,0:0:0:0:
448,192,49930,1,0,0:0:0:0:
320,192,49930,1,0,0:0:0:0:
192,192,50055,1,0,0:0:0:0:
64,192,50055,1,0,0:0:0:0:
320,192,50055,1,0,0:0:0:0:
448,192,50180,1,0,0:0:0:0:
64,192,50180,1,0,0:0:0:0:
192,192,50180,1,0,0:0:0:0:
320,192,50430,1,0,0:0:0:0:
448,192,50430,1,0,0:0:0:0:
192,192,50430,1,0,0:0:0:0:
320,192,50680,1,0,0:0:0:0:
64,192,50680,1,0,0:0:0:0:
192,192,50680,1,0,0:0:0:0:
448,192,50930,1,0,0:0:0:0:
64,192,50930,1,0,0:0:0:0:
192,192,50930,1,0,0:0:0:0:
192,192,51180,1,0,0:0:0:0:
320,192,51180,1,0,0:0:0:0:
448,192,51180,1,0,0:0:0:0:
64,192,51430,1,0,0:0:0:0:
320,192,51430,1,0,0:0:0:0:
448,192,51430,1,0,0:0:0:0:
448,192,51555,1,0,0:0:0:0:
192,192,51555,1,0,0:0:0:0:
320,192,51555,1,0,0:0:0:0:
320,192,51742,1,0,0:0:0:0:
192,192,51742,1,0,0:0:0:0:
64,192,51742,1,0,0:0:0:0:
64,192,51805,1,0,0:0:0:0:
320,192,51805,1,0,0:0:0:0:
192,192,51805,1,0,0:0:0:0:
192,192,51930,1,0,0:0:0:0:
448,192,51930,1,0,0:0:0:0:
320,192,51930,1,0,0:0:0:0:
192,192,52055,1,0,0:0:0:0:
64,192,52055,1,0,0:0:0:0:
448,192,52055,1,0,0:0:0:0:
320,192,52180,1,0,0:0:0:0:
448,192,52180,1,0,0:0:0:0:
64,192,52180,1,0,0:0:0:0:
448,192,52430,1,0,0:0:0:0:
64,192,52430,1,0,0:0:0:0:
192,192,52430,1,0,0:0:0:0:
320,192,52680,1,0,0:0:0:0:
448,192,52680,1,0,0:0:0:0:
192,192,52680,1,0,0:0:0:0:
320,192,52930,1,0,0:0:0:0:
64,192,52930,1,0,0:0:0:0:
192,192,52930,1,0,0:0:0:0:
64,192,53180,1,0,0:0:0:0:
320,192,53180,1,0,0:0:0:0:
448,192,53180,1,0,0:0:0:0:
64,192,53430,1,0,0:0:0:0:
192,192,53430,1,0,0:0:0:0:
320,192,53430,1,0,0:0:0:0:
64,192,53680,1,0,0:0:0:0:
320,192,53680,1,0,0:0:0:0:
448,192,53680,1,0,0:0:0:0:
192,192,53930,1,0,0:0:0:0:
448,192,53930,1,0,0:0:0:0:
320,192,53930,1,0,0:0:0:0:
320,192,54055,1,0,0:0:0:0:
448,192,54055,1,0,0:0:0:0:
64,192,54055,1,0,0:0:0:0:
448,192,54180,1,0,0:0:0:0:
64,192,54180,1,0,0:0:0:0:
192,192,54180,1,0,0:0:0:0:
320,192,54430,1,0,0:0:0:0:
448,192,54430,1,0,0:0:0:0:
64,192,54430,1,0,0:0:0:0:
320,192,54680,1,0,0:0:0:0:
64,192,54680,1,0,0:0:0:0:
192,192,54680,1,0,0:0:0:0:
448,192,54805,1,0,0:0:0:0:
320,192,54836,1,0,0:0:0:0:
192,192,54867,1,0,0:0:0:0:
64,192,54898,1,0,0:0:0:0:
448,192,54930,1,0,0:0:0:0:
320,192,54930,1,0,0:0:0:0:
192,192,55055,1,0,0:0:0:0:
64,192,55055,1,0,0:0:0:0:
448,192,55055,1,0,0:0:0:0:
64,192,55180,1,0,0:0:0:0:
192,192,55180,1,0,0:0:0:0:
320,192,55180,1,0,0:0:0:0:
448,192,55242,1,0,0:0:0:0:
192,192,55305,1,0,0:0:0:0:
448,192,55367,1,0,0:0:0:0:
64,192,55430,1,0,0:0:0:0:
192,192,55430,1,0,0:0:0:0:
320,192,55430,1,0,0:0:0:0:
448,192,55492,1,0,0:0:0:0:
64,192,55555,1,0,0:0:0:0:
320,192,55617,1,0,0:0:0:0:
192,192,55680,1,0,0:0:0:0:
448,192,55680,1,0,0:0:0:0:
64,192,55680,1,0,0:0:0:0:
320,192,55742,1,0,0:0:0:0:
192,192,55805,1,0,0:0:0:0:
448,192,55867,1,0,0:0:0:0:
192,192,55930,1,0,0:0:0:0:
64,192,55930,1,0,0:0:0:0:
448,192,55992,1,0,0:0:0:0:
320,192,55992,1,0,0:0:0:0:
64,192,56055,1,0,0:0:0:0:
192,192,56055,1,0,0:0:0:0:
320,192,56117,1,0,0:0:0:0:
448,192,56117,1,0,0:0:0:0:
64,192,56180,1,0,0:0:0:0:
192,192,56180,1,0,0:0:0:0:
320,192,56305,1,0,0:0:0:0:
64,192,56305,128,0,56430:0:0:0:0:
320,192,56430,1,0,0:0:0:0:
448,192,56430,1,0,0:0:0:0:
192,192,56430,1,0,0:0:0:0:
448,192,56555,128,0,56680:0:0:0:0:
64,192,56555,1,0,0:0:0:0:
320,192,56680,1,0,0:0:0:0:
64,192,56680,1,0,0:0:0:0:
192,192,56680,1,0,0:0:0:0:
448,192,56805,1,0,0:0:0:0:
192,192,56805,128,0,56930:0:0:0:0:
448,192,56930,1,0,0:0:0:0:
320,192,56930,1,0,0:0:0:0:
64,192,56930,1,0,0:0:0:0:
192,192,57055,1,0,0:0:0:0:
448,192,57055,128,0,57180:0:0:0:0:
64,192,57180,1,0,0:0:0:0:
192,192,57180,1,0,0:0:0:0:
320,192,57180,1,0,0:0:0:0:
448,192,57305,1,0,0:0:0:0:
320,192,57305,128,0,57430:0:0:0:0:
64,192,57430,1,0,0:0:0:0:
192,192,57430,1,0,0:0:0:0:
448,192,57430,1,0,0:0:0:0:
320,192,57555,1,0,0:0:0:0:
64,192,57555,128,0,57680:0:0:0:0:
192,192,57680,1,0,0:0:0:0:
320,192,57680,1,0,0:0:0:0:
448,192,57680,1,0,0:0:0:0:
192,192,57805,1,0,0:0:0:0:
320,192,57805,128,0,57930:0:0:0:0:
64,192,57930,1,0,0:0:0:0:
192,192,57930,1,0,0:0:0:0:
448,192,57930,1,0,0:0:0:0:
320,192,58055,1,0,0:0:0:0:
448,192,58055,128,0,58180:0:0:0:0:
320,192,58180,1,0,0:0:0:0:
64,192,58180,1,0,0:0:0:0:
192,192,58180,1,0,0:0:0:0:
448,192,58305,1,0,0:0:0:0:
64,192,58305,128,0,58430:0:0:0:0:
320,192,58430,1,0,0:0:0:0:
448,192,58430,1,0,0:0:0:0:
192,192,58430,1,0,0:0:0:0:
64,192,58555,1,0,0:0:0:0:
192,192,58555,128,0,58680:0:0:0:0:
320,192,58680,1,0,0:0:0:0:
448,192,58680,1,0,0:0:0:0:
64,192,58680,1,0,0:0:0:0:
192,192,58805,1,0,0:0:0:0:
448,192,58805,128,0,58930:0:0:0:0:
320,192,58930,1,0,0:0:0:0:
64,192,58930,1,0,0:0:0:0:
192,192,58930,1,0,0:0:0:0:
320,192,59055,1,0,0:0:0:0:
192,192,59055,128,0,59180:0:0:0:0:
64,192,59180,1,0,0:0:0:0:
320,192,59180,1,0,0:0:0:0:
448,192,59180,1,0,0:0:0:0:
192,192,59305,1,0,0:0:0:0:
448,192,59305,128,0,59430:0:0:0:0:
64,192,59430,1,0,0:0:0:0:
192,192,59430,1,0,0:0:0:0:
320,192,59430,1,0,0:0:0:0:
448,192,59555,1,0,0:0:0:0:
320,192,59555,128,0,59680:0:0:0:0:
64,192,59555,1,0,0:0:0:0:
192,192,59680,1,0,0:0:0:0:
320,192,59805,1,0,0:0:0:0:
64,192,59805,128,0,59930:0:0:0:0:
448,192,59805,1,0,0:0:0:0:
192,192,59867,1,0,0:0:0:0:
320,192,59930,1,0,0:0:0:0:
448,192,59930,1,0,0:0:0:0:
64,192,60055,1,0,0:0:0:0:
192,192,60055,128,0,60180:0:0:0:0:
320,192,60055,1,0,0:0:0:0:
320,192,60180,1,0,0:0:0:0:
64,192,60180,1,0,0:0:0:0:
448,192,60180,128,0,60305:0:0:0:0:
192,192,60305,1,0,0:0:0:0:
320,192,60305,128,0,60430:0:0:0:0:
448,192,60430,1,0,0:0:0:0:
64,192,60430,1,0,0:0:0:0:
192,192,60430,1,0,0:0:0:0:
320,192,60555,1,0,0:0:0:0:
64,192,60555,128,0,60680:0:0:0:0:
320,192,60680,1,0,0:0:0:0:
448,192,60680,1,0,0:0:0:0:
192,192,60680,1,0,0:0:0:0:
64,192,60805,1,0,0:0:0:0:
448,192,60805,128,0,60930:0:0:0:0:
320,192,60930,1,0,0:0:0:0:
64,192,60930,1,0,0:0:0:0:
192,192,60930,1,0,0:0:0:0:
320,192,61055,1,0,0:0:0:0:
192,192,61055,128,0,61180:0:0:0:0:
64,192,61180,1,0,0:0:0:0:
320,192,61180,1,0,0:0:0:0:
448,192,61180,1,0,0:0:0:0:
192,192,61305,1,0,0:0:0:0:
448,192,61305,128,0,61430:0:0:0:0:
64,192,61430,1,0,0:0:0:0:
192,192,61430,1,0,0:0:0:0:
320,192,61430,1,0,0:0:0:0:
64,192,61555,1,0,0:0:0:0:
192,192,61555,128,0,61680:0:0:0:0:
64,192,61680,1,0,0:0:0:0:
320,192,61680,1,0,0:0:0:0:
448,192,61680,1,0,0:0:0:0:
192,192,61805,1,0,0:0:0:0:
320,192,61805,128,0,61930:0:0:0:0:
64,192,61930,1,0,0:0:0:0:
192,192,61930,1,0,0:0:0:0:
448,192,61930,1,0,0:0:0:0:
320,192,62055,1,0,0:0:0:0:
64,192,62055,128,0,62180:0:0:0:0:
192,192,62055,1,0,0:0:0:0:
320,192,62180,1,0,0:0:0:0:
448,192,62180,1,0,0:0:0:0:
192,192,62180,1,0,0:0:0:0:
448,192,62305,1,0,0:0:0:0:
320,192,62305,128,0,62430:0:0:0:0:
448,192,62430,1,0,0:0:0:0:
64,192,62430,1,0,0:0:0:0:
192,192,62430,1,0,0:0:0:0:
320,192,62555,1,0,0:0:0:0:
64,192,62555,128,0,62680:0:0:0:0:
320,192,62680,1,0,0:0:0:0:
448,192,62680,1,0,0:0:0:0:
192,192,62680,1,0,0:0:0:0:
64,192,62805,1,0,0:0:0:0:
192,192,62805,128,0,62930:0:0:0:0:
448,192,62930,1,0,0:0:0:0:
320,192,62930,1,0,0:0:0:0:
64,192,62930,1,0,0:0:0:0:
192,192,63055,1,0,0:0:0:0:
448,192,63055,128,0,63180:0:0:0:0:
64,192,63180,1,0,0:0:0:0:
192,192,63180,1,0,0:0:0:0:
320,192,63180,1,0,0:0:0:0:
448,192,63305,1,0,0:0:0:0:
192,192,63305,128,0,63430:0:0:0:0:
320,192,63367,1,0,0:0:0:0:
64,192,63430,1,0,0:0:0:0:
448,192,63430,1,0,0:0:0:0:
320,192,63492,1,0,0:0:0:0:
192,192,63555,1,0,0:0:0:0:
448,192,63555,128,0,63680:0:0:0:0:
64,192,63586,1,0,0:0:0:0:
320,192,63617,1,0,0:0:0:0:
192,192,63648,1,0,0:0:0:0:
64,192,63680,1,0,0:0:0:0:
192,192,63711,1,0,0:0:0:0:
320,192,63742,1,0,0:0:0:0:
448,192,63773,1,0,0:0:0:0:
64,192,63805,128,0,63930:0:0:0:0:
192,192,63930,128,0,64180:0:0:0:0:
448,192,64180,1,0,0:0:0:0:
64,192,64180,1,0,0:0:0:0:
320,192,64180,1,0,0:0:0:0:
448,192,64305,1,0,0:0:0:0:
64,192,64305,128,0,64430:0:0:0:0:
320,192,64430,1,0,0:0:0:0:
448,192,64430,1,0,0:0:0:0:
192,192,64430,1,0,0:0:0:0:
64,192,64555,1,0,0:0:0:0:
192,192,64555,128,0,64680:0:0:0:0:
320,192,64680,1,0,0:0:0:0:
448,192,64680,1,0,0:0:0:0:
64,192,64680,1,0,0:0:0:0:
192,192,64805,1,0,0:0:0:0:
448,192,64805,128,0,64930:0:0:0:0:
320,192,64930,1,0,0:0:0:0:
64,192,64930,1,0,0:0:0:0:
192,192,64930,1,0,0:0:0:0:
448,192,65055,1,0,0:0:0:0:
64,192,65055,128,0,65180:0:0:0:0:
192,192,65180,1,0,0:0:0:0:
320,192,65180,1,0,0:0:0:0:
448,192,65180,1,0,0:0:0:0:
64,192,65305,1,0,0:0:0:0:
448,192,65305,128,0,65430:0:0:0:0:
64,192,65430,1,0,0:0:0:0:
192,192,65430,1,0,0:0:0:0:
320,192,65430,1,0,0:0:0:0:
320,192,65555,1,0,0:0:0:0:
192,192,65555,128,0,65680:0:0:0:0:
64,192,65680,1,0,0:0:0:0:
320,192,65680,1,0,0:0:0:0:
448,192,65680,1,0,0:0:0:0:
192,192,65805,1,0,0:0:0:0:
64,192,65805,128,0,65930:0:0:0:0:
192,192,65930,1,0,0:0:0:0:
448,192,65930,1,0,0:0:0:0:
320,192,65930,1,0,0:0:0:0:
64,192,66055,1,0,0:0:0:0:
320,192,66055,128,0,66180:0:0:0:0:
448,192,66055,1,0,0:0:0:0:
448,192,66180,1,0,0:0:0:0:
64,192,66180,1,0,0:0:0:0:
192,192,66180,1,0,0:0:0:0:
320,192,66305,1,0,0:0:0:0:
448,192,66305,128,0,66430:0:0:0:0:
320,192,66430,1,0,0:0:0:0:
64,192,66430,1,0,0:0:0:0:
192,192,66430,1,0,0:0:0:0:
448,192,66555,1,0,0:0:0:0:
64,192,66555,128,0,66680:0:0:0:0:
320,192,66680,1,0,0:0:0:0:
448,192,66680,1,0,0:0:0:0:
192,192,66680,1,0,0:0:0:0:
192,192,66805,1,0,0:0:0:0:
320,192,66805,128,0,66930:0:0:0:0:
448,192,66930,1,0,0:0:0:0:
64,192,66930,1,0,0:0:0:0:
192,192,66930,1,0,0:0:0:0:
320,192,67055,1,0,0:0:0:0:
64,192,67055,128,0,67180:0:0:0:0:
192,192,67180,1,0,0:0:0:0:
320,192,67180,1,0,0:0:0:0:
448,192,67180,1,0,0:0:0:0:
64,192,67305,1,0,0:0:0:0:
192,192,67305,128,0,67430:0:0:0:0:
64,192,67430,1,0,0:0:0:0:
320,192,67430,1,0,0:0:0:0:
448,192,67430,1,0,0:0:0:0:
192,192,67555,1,0,0:0:0:0:
448,192,67555,128,0,67680:0:0:0:0:
64,192,67555,1,0,0:0:0:0:
320,192,67742,1,0,0:0:0:0:
192,192,67742,1,0,0:0:0:0:
64,192,67742,1,0,0:0:0:0:
192,192,67805,128,0,67930:0:0:0:0:
64,192,67805,1,0,0:0:0:0:
320,192,67805,1,0,0:0:0:0:
64,192,67930,1,0,0:0:0:0:
448,192,67930,1,0,0:0:0:0:
320,192,67930,1,0,0:0:0:0:
192,192,68055,1,0,0:0:0:0:
64,192,68055,128,0,68180:0:0:0:0:
320,192,68180,1,0,0:0:0:0:
192,192,68180,1,0,0:0:0:0:
448,192,68180,128,0,68305:0:0:0:0:
192,192,68305,1,0,0:0:0:0:
320,192,68305,128,0,68430:0:0:0:0:
448,192,68430,1,0,0:0:0:0:
64,192,68430,1,0,0:0:0:0:
192,192,68430,1,0,0:0:0:0:
320,192,68555,1,0,0:0:0:0:
448,192,68555,128,0,68680:0:0:0:0:
320,192,68680,1,0,0:0:0:0:
64,192,68680,1,0,0:0:0:0:
192,192,68680,1,0,0:0:0:0:
448,192,68805,1,0,0:0:0:0:
192,192,68805,128,0,68930:0:0:0:0:
448,192,68930,1,0,0:0:0:0:
320,192,68930,1,0,0:0:0:0:
64,192,68930,1,0,0:0:0:0:
192,192,69055,1,0,0:0:0:0:
448,192,69055,128,0,69180:0:0:0:0:
64,192,69180,1,0,0:0:0:0:
192,192,69180,1,0,0:0:0:0:
320,192,69180,1,0,0:0:0:0:
64,192,69305,1,0,0:0:0:0:
192,192,69305,128,0,69430:0:0:0:0:
64,192,69430,1,0,0:0:0:0:
320,192,69430,1,0,0:0:0:0:
448,192,69430,1,0,0:0:0:0:
192,192,69555,1,0,0:0:0:0:
320,192,69555,128,0,69680:0:0:0:0:
64,192,69680,1,0,0:0:0:0:
192,192,69680,1,0,0:0:0:0:
448,192,69680,1,0,0:0:0:0:
320,192,69805,1,0,0:0:0:0:
64,192,69805,128,0,69930:0:0:0:0:
192,192,69930,1,0,0:0:0:0:
448,192,69930,1,0,0:0:0:0:
320,192,69930,1,0,0:0:0:0:
64,192,70055,1,0,0:0:0:0:
192,192,70055,128,0,70180:0:0:0:0:
448,192,70055,1,0,0:0:0:0:
320,192,70180,1,0,0:0:0:0:
448,192,70180,1,0,0:0:0:0:
64,192,70180,1,0,0:0:0:0:
320,192,70305,1,0,0:0:0:0:
64,192,70305,128,0,70430:0:0:0:0:
320,192,70430,1,0,0:0:0:0:
448,192,70430,1,0,0:0:0:0:
192,192,70430,1,0,0:0:0:0:
192,192,70555,1,0,0:0:0:0:
448,192,70555,128,0,70680:0:0:0:0:
320,192,70680,1,0,0:0:0:0:
64,192,70680,1,0,0:0:0:0:
192,192,70680,1,0,0:0:0:0:
320,192,70805,128,0,70930:0:0:0:0:
192,192,70867,1,0,0:0:0:0:
64,192,70867,1,0,0:0:0:0:
448,192,70867,1,0,0:0:0:0:
448,192,70930,1,0,0:0:0:0:
64,192,70930,1,0,0:0:0:0:
192,192,70930,1,0,0:0:0:0:
320,192,71055,1,0,0:0:0:0:
64,192,71055,128,0,71180:0:0:0:0:
192,192,71055,1,0,0:0:0:0:
192,192,71180,1,0,0:0:0:0:
320,192,71180,1,0,0:0:0:0:
448,192,71180,1,0,0:0:0:0:
64,192,71242,1,0,0:0:0:0:
192,192,71305,128,0,71430:0:0:0:0:
320,192,71305,1,0,0:0:0:0:
64,192,71367,1,0,0:0:0:0:
448,192,71430,1,0,0:0:0:0:
320,192,71430,128,0,71555:0:0:0:0:
192,192,71492,1,0,0:0:0:0:
448,192,71555,128,0,71680:0:0:0:0:
64,192,71555,1,0,0:0:0:0:
320,192,71617,1,0,0:0:0:0:
64,192,71680,1,0,0:0:0:0:
192,192,71680,128,0,71805:0:0:0:0:
320,192,71742,1,0,0:0:0:0:
448,192,71805,1,0,0:0:0:0:
64,192,71805,128,0,71930:0:0:0:0:
192,192,71867,1,0,0:0:0:0:
448,192,71930,1,0,0:0:0:0:
320,192,71930,128,0,72055:0:0:0:0:
64,192,71992,1,0,0:0:0:0:
192,192,72055,128,0,72180:0:0:0:0:
448,192,72055,1,0,0:0:0:0:
320,192,72117,1,0,0:0:0:0:
448,192,72180,1,0,0:0:0:0:
64,192,72180,1,0,0:0:0:0:
448,192,72430,1,0,0:0:0:0:
64,192,72492,1,0,0:0:0:0:
448,192,72555,1,0,0:0:0:0:
64,192,72617,1,0,0:0:0:0:
320,192,72680,1,0,0:0:0:0:
448,192,72680,1,0,0:0:0:0:
64,192,72930,1,0,0:0:0:0:
448,192,72992,1,0,0:0:0:0:
64,192,73055,1,0,0:0:0:0:
448,192,73117,1,0,0:0:0:0:
192,192,73180,1,0,0:0:0:0:
64,192,73180,1,0,0:0:0:0:
192,192,73367,1,0,0:0:0:0:
320,192,73367,1,0,0:0:0:0:
320,192,73555,1,0,0:0:0:0:
448,192,73555,1,0,0:0:0:0:
448,192,73680,1,0,0:0:0:0:
320,192,73680,1,0,0:0:0:0:
320,192,73867,1,0,0:0:0:0:
192,192,73867,1,0,0:0:0:0:
192,192,74055,1,0,0:0:0:0:
64,192,74055,1,0,0:0:0:0:
192,192,74180,1,0,0:0:0:0:
64,192,74180,1,0,0:0:0:0:
448,192,74430,1,0,0:0:0:0:
64,192,74471,1,0,0:0:0:0:
448,192,74513,1,0,0:0:0:0:
64,192,74555,1,0,0:0:0:0:
448,192,74596,1,0,0:0:0:0:
64,192,74638,1,0,0:0:0:0:
320,192,74680,1,0,0:0:0:0:
448,192,74680,1,0,0:0:0:0:
64,192,74930,1,0,0:0:0:0:
448,192,74992,1,0,0:0:0:0:
64,192,75055,1,0,0:0:0:0:
448,192,75117,1,0,0:0:0:0:
192,192,75180,1,0,0:0:0:0:
64,192,75180,1,0,0:0:0:0:
192,192,75367,1,0,0:0:0:0:
320,192,75367,1,0,0:0:0:0:
320,192,75555,1,0,0:0:0:0:
448,192,75555,1,0,0:0:0:0:
448,192,75680,1,0,0:0:0:0:
320,192,75680,1,0,0:0:0:0:
192,192,75742,1,0,0:0:0:0:
64,192,75805,1,0,0:0:0:0:
320,192,75867,1,0,0:0:0:0:
192,192,75867,1,0,0:0:0:0:
448,192,75930,1,0,0:0:0:0:
320,192,75992,1,0,0:0:0:0:
192,192,76055,1,0,0:0:0:0:
64,192,76055,1,0,0:0:0:0:
448,192,76117,1,0,0:0:0:0:
320,192,76180,1,0,0:0:0:0:
192,192,76180,1,0,0:0:0:0:
64,192,76180,1,0,0:0:0:0:
320,192,76367,1,0,0:0:0:0:
192,192,76367,1,0,0:0:0:0:
64,192,76367,1,0,0:0:0:0:
192,192,76555,1,0,0:0:0:0:
64,192,76555,1,0,0:0:0:0:
448,192,76555,1,0,0:0:0:0:
448,192,76617,1,0,0:0:0:0:
192,192,76617,1,0,0:0:0:0:
64,192,76617,1,0,0:0:0:0:
448,192,76680,1,0,0:0:0:0:
192,192,76680,1,0,0:0:0:0:
64,192,76680,1,0,0:0:0:0:
192,192,76867,1,0,0:0:0:0:
64,192,76867,1,0,0:0:0:0:
448,192,76867,1,0,0:0:0:0:
448,192,77055,1,0,0:0:0:0:
320,192,77055,1,0,0:0:0:0:
192,192,77055,1,0,0:0:0:0:
320,192,77117,1,0,0:0:0:0:
192,192,77117,1,0,0:0:0:0:
448,192,77117,1,0,0:0:0:0:
192,192,77180,1,0,0:0:0:0:
320,192,77180,1,0,0:0:0:0:
448,192,77180,1,0,0:0:0:0:
448,192,77367,1,0,0:0:0:0:
320,192,77367,1,0,0:0:0:0:
192,192,77367,1,0,0:0:0:0:
192,192,77555,1,0,0:0:0:0:
320,192,77555,1,0,0:0:0:0:
64,192,77555,1,0,0:0:0:0:
192,192,77617,1,0,0:0:0:0:
320,192,77617,1,0,0:0:0:0:
64,192,77617,1,0,0:0:0:0:
192,192,77680,1,0,0:0:0:0:
320,192,77680,1,0,0:0:0:0:
64,192,77680,1,0,0:0:0:0:
320,192,77867,1,0,0:0:0:0:
192,192,77867,1,0,0:0:0:0:
64,192,77867,1,0,0:0:0:0:
320,192,78055,1,0,0:0:0:0:
448,192,78055,1,0,0:0:0:0:
320,192,78117,1,0,0:0:0:0:
448,192,78117,1,0,0:0:0:0:
320,192,78180,1,0,0:0:0:0:
448,192,78180,1,0,0:0:0:0:
192,192,78242,1,0,0:0:0:0:
64,192,78242,1,0,0:0:0:0:
448,192,78305,1,0,0:0:0:0:
320,192,78305,1,0,0:0:0:0:
192,192,78367,1,0,0:0:0:0:
64,192,78367,1,0,0:0:0:0:
192,192,78430,1,0,0:0:0:0:
64,192,78430,1,0,0:0:0:0:
320,192,78492,1,0,0:0:0:0:
448,192,78492,1,0,0:0:0:0:
448,192,78555,1,0,0:0:0:0:
320,192,78555,1,0,0:0:0:0:
192,192,78617,1,0,0:0:0:0:
64,192,78617,1,0,0:0:0:0:
64,192,78680,1,0,0:0:0:0:
192,192,78680,1,0,0:0:0:0:
192,192,78742,1,0,0:0:0:0:
64,192,78742,1,0,0:0:0:0:
320,192,78805,1,0,0:0:0:0:
448,192,78805,1,0,0:0:0:0:
448,192,78867,1,0,0:0:0:0:
320,192,78867,1,0,0:0:0:0:
192,192,78930,1,0,0:0:0:0:
64,192,78930,1,0,0:0:0:0:
320,192,78992,1,0,0:0:0:0:
448,192,78992,1,0,0:0:0:0:
192,192,79055,1,0,0:0:0:0:
64,192,79055,1,0,0:0:0:0:
320,192,79117,1,0,0:0:0:0:
448,192,79117,1,0,0:0:0:0:
192,192,79180,1,0,0:0:0:0:
64,192,79180,1,0,0:0:0:0:
320,192,79211,1,0,0:0:0:0:
448,192,79242,1,0,0:0:0:0:
64,192,79242,1,0,0:0:0:0:
192,192,79273,1,0,0:0:0:0:
320,192,79305,1,0,0:0:0:0:
448,192,79305,1,0,0:0:0:0:
192,192,79336,1,0,0:0:0:0:
64,192,79367,1,0,0:0:0:0:
320,192,79367,1,0,0:0:0:0:
448,192,79398,1,0,0:0:0:0:
192,192,79430,1,0,0:0:0:0:
64,192,79430,1,0,0:0:0:0:
320,192,79461,1,0,0:0:0:0:
448,192,79492,1,0,0:0:0:0:
64,192,79492,1,0,0:0:0:0:
192,192,79523,1,0,0:0:0:0:
448,192,79555,1,0,0:0:0:0:
320,192,79555,1,0,0:0:0:0:
64,192,79586,1,0,0:0:0:0:
192,192,79617,1,0,0:0:0:0:
320,192,79617,1,0,0:0:0:0:
448,192,79648,1,0,0:0:0:0:
192,192,79680,1,0,0:0:0:0:
64,192,79680,1,0,0:0:0:0:
320,192,79711,1,0,0:0:0:0:
448,192,79742,1,0,0:0:0:0:
64,192,79742,1,0,0:0:0:0:
192,192,79773,1,0,0:0:0:0:
320,192,79805,1,0,0:0:0:0:
448,192,79805,1,0,0:0:0:0:
192,192,79836,1,0,0:0:0:0:
64,192,79867,1,0,0:0:0:0:
448,192,79867,1,0,0:0:0:0:
320,192,79898,1,0,0:0:0:0:
192,192,79930,1,0,0:0:0:0:
64,192,79930,1,0,0:0:0:0:
448,192,79961,1,0,0:0:0:0:
320,192,79992,1,0,0:0:0:0:
64,192,79992,1,0,0:0:0:0:
192,192,80023,1,0,0:0:0:0:
320,192,80055,1,0,0:0:0:0:
448,192,80055,1,0,0:0:0:0:
64,192,80086,1,0,0:0:0:0:
192,192,80117,1,0,0:0:0:0:
320,192,80117,1,0,0:0:0:0:
448,192,80148,1,0,0:0:0:0:
192,192,80180,1,0,0:0:0:0:
64,192,80180,1,0,0:0:0:0:
320,192,80263,1,0,0:0:0:0:
448,192,80346,1,0,0:0:0:0:
320,192,80430,1,0,0:0:0:0:
192,192,80513,1,0,0:0:0:0:
64,192,80513,1,0,0:0:0:0:
448,192,80513,1,0,0:0:0:0:
320,192,80596,1,0,0:0:0:0:
192,192,80680,1,0,0:0:0:0:
64,192,80763,1,0,0:0:0:0:
192,192,80846,1,0,0:0:0:0:
320,192,80846,1,0,0:0:0:0:
448,192,80846,1,0,0:0:0:0:
64,192,80930,1,0,0:0:0:0:
320,192,81013,1,0,0:0:0:0:
448,192,81096,1,0,0:0:0:0:
320,192,81180,1,0,0:0:0:0:
192,192,81180,1,0,0:0:0:0:
64,192,81180,1,0,0:0:0:0:
448,192,81263,1,0,0:0:0:0:
192,192,81346,1,0,0:0:0:0:
64,192,81430,1,0,0:0:0:0:
192,192,81513,1,0,0:0:0:0:
320,192,81513,1,0,0:0:0:0:
448,192,81513,1,0,0:0:0:0:
64,192,81596,1,0,0:0:0:0:
320,192,81680,1,0,0:0:0:0:
448,192,81763,1,0,0:0:0:0:
64,192,81763,1,0,0:0:0:0:
192,192,81763,1,0,0:0:0:0:
320,192,81846,1,0,0:0:0:0:
192,192,81846,1,0,0:0:0:0:
64,192,81846,1,0,0:0:0:0:
448,192,81930,1,0,0:0:0:0:
192,192,82013,1,0,0:0:0:0:
64,192,82013,1,0,0:0:0:0:
320,192,82096,1,0,0:0:0:0:
192,192,82180,1,0,0:0:0:0:
64,192,82180,1,0,0:0:0:0:
448,192,82180,1,0,0:0:0:0:
320,192,82263,1,0,0:0:0:0:
192,192,82346,1,0,0:0:0:0:
64,192,82430,1,0,0:0:0:0:
192,192,82513,1,0,0:0:0:0:
320,192,82513,1,0,0:0:0:0:
448,192,82513,1,0,0:0:0:0:
64,192,82596,1,0,0:0:0:0:
320,192,82680,1,0,0:0:0:0:
448,192,82763,1,0,0:0:0:0:
320,192,82846,1,0,0:0:0:0:
192,192,82846,1,0,0:0:0:0:
64,192,82846,1,0,0:0:0:0:
448,192,82930,1,0,0:0:0:0:
192,192,83013,1,0,0:0:0:0:
64,192,83096,1,0,0:0:0:0:
192,192,83180,1,0,0:0:0:0:
320,192,83180,1,0,0:0:0:0:
448,192,83180,1,0,0:0:0:0:
64,192,83263,1,0,0:0:0:0:
320,192,83346,1,0,0:0:0:0:
192,192,83430,1,0,0:0:0:0:
64,192,83513,1,0,0:0:0:0:
320,192,83513,1,0,0:0:0:0:
448,192,83513,1,0,0:0:0:0:
192,192,83596,1,0,0:0:0:0:
320,192,83680,1,0,0:0:0:0:
448,192,83763,1,0,0:0:0:0:
192,192,83763,1,0,0:0:0:0:
64,192,83763,1,0,0:0:0:0:
192,192,83846,1,0,0:0:0:0:
64,192,83846,1,0,0:0:0:0:
448,192,83930,1,0,0:0:0:0:
320,192,83930,1,0,0:0:0:0:
192,192,84013,1,0,0:0:0:0:
64,192,84013,1,0,0:0:0:0:
320,192,84096,1,0,0:0:0:0:
448,192,84096,1,0,0:0:0:0:
192,192,84180,1,0,0:0:0:0:
64,192,84180,1,0,0:0:0:0:
320,192,84263,1,0,0:0:0:0:
448,192,84346,1,0,0:0:0:0:
192,192,84430,1,0,0:0:0:0:
64,192,84513,1,0,0:0:0:0:
320,192,84513,1,0,0:0:0:0:
448,192,84513,1,0,0:0:0:0:
192,192,84596,1,0,0:0:0:0:
448,192,84680,1,0,0:0:0:0:
320,192,84763,1,0,0:0:0:0:
192,192,84846,1,0,0:0:0:0:
448,192,84846,1,0,0:0:0:0:
64,192,84846,1,0,0:0:0:0:
320,192,84930,1,0,0:0:0:0:
64,192,85013,1,0,0:0:0:0:
192,192,85096,1,0,0:0:0:0:
64,192,85180,1,0,0:0:0:0:
320,192,85180,1,0,0:0:0:0:
448,192,85180,1,0,0:0:0:0:
192,192,85263,1,0,0:0:0:0:
64,192,85346,1,0,0:0:0:0:
448,192,85430,1,0,0:0:0:0:
320,192,85513,1,0,0:0:0:0:
192,192,85513,1,0,0:0:0:0:
64,192,85513,1,0,0:0:0:0:
448,192,85596,1,0,0:0:0:0:
192,192,85680,1,0,0:0:0:0:
64,192,85763,1,0,0:0:0:0:
320,192,85763,1,0,0:0:0:0:
448,192,85763,1,0,0:0:0:0:
320,192,85846,1,0,0:0:0:0:
448,192,85846,1,0,0:0:0:0:
192,192,85846,1,0,0:0:0:0:
64,192,85930,1,0,0:0:0:0:
320,192,86013,1,0,0:0:0:0:
448,192,86013,1,0,0:0:0:0:
192,192,86096,1,0,0:0:0:0:
64,192,86180,1,0,0:0:0:0:
320,192,86180,1,0,0:0:0:0:
448,192,86180,1,0,0:0:0:0:
192,192,86263,1,0,0:0:0:0:
320,192,86346,1,0,0:0:0:0:
448,192,86430,1,0,0:0:0:0:
320,192,86513,1,0,0:0:0:0:
192,192,86513,1,0,0:0:0:0:
64,192,86513,1,0,0:0:0:0:
448,192,86596,1,0,0:0:0:0:
64,192,86680,1,0,0:0:0:0:
192,192,86763,1,0,0:0:0:0:
320,192,86846,1,0,0:0:0:0:
448,192,86846,1,0,0:0:0:0:
64,192,86846,1,0,0:0:0:0:
192,192,86930,1,0,0:0:0:0:
448,192,87013,1,0,0:0:0:0:
320,192,87096,1,0,0:0:0:0:
192,192,87180,1,0,0:0:0:0:
64,192,87180,1,0,0:0:0:0:
448,192,87180,1,0,0:0:0:0:
320,192,87263,1,0,0:0:0:0:
192,192,87263,1,0,0:0:0:0:
64,192,87346,1,0,0:0:0:0:
448,192,87346,1,0,0:0:0:0:
320,192,87429,1,0,0:0:0:0:
192,192,87429,1,0,0:0:0:0:
64,192,87513,1,0,0:0:0:0:
448,192,87513,1,0,0:0:0:0:
192,192,87554,1,0,0:0:0:0:
320,192,87596,1,0,0:0:0:0:
448,192,87638,1,0,0:0:0:0:
192,192,87679,1,0,0:0:0:0:
64,192,87679,1,0,0:0:0:0:
192,192,87763,1,0,0:0:0:0:
64,192,87763,1,0,0:0:0:0:
448,192,87846,128,0,88179:0:0:0:0:
320,192,87846,1,0,0:0:0:0:
192,192,87888,1,0,0:0:0:0:
64,192,87929,1,0,0:0:0:0:
320,192,88013,1,0,0:0:0:0:
192,192,88054,1,0,0:0:0:0:
64,192,88096,1,0,0:0:0:0:
192,192,88138,1,0,0:0:0:0:
64,192,88179,1,0,0:0:0:0:
320,192,88179,128,0,88346:0:0:0:0:
192,192,88263,1,0,0:0:0:0:
448,192,88346,128,0,88429:0:0:0:0:
320,192,88429,1,0,0:0:0:0:
64,192,88513,1,0,0:0:0:0:
448,192,88513,1,0,0:0:0:0:
192,192,88513,128,0,88596:0:0:0:0:
320,192,88596,1,0,0:0:0:0:
64,192,88679,128,0,88763:0:0:0:0:
192,192,88763,128,0,88846:0:0:0:0:
64,192,88846,1,0,0:0:0:0:
320,192,88846,1,0,0:0:0:0:
448,192,88846,1,0,0:0:0:0:
192,192,88929,128,0,89013:0:0:0:0:
448,192,89013,128,0,89096:0:0:0:0:
320,192,89096,128,0,89179:0:0:0:0:
192,192,89179,1,0,0:0:0:0:
64,192,89179,1,0,0:0:0:0:
448,192,89179,128,0,89263:0:0:0:0:
320,192,89263,128,0,89346:0:0:0:0:
64,192,89346,128,0,89429:0:0:0:0:
320,192,89429,1,0,0:0:0:0:
448,192,89513,1,0,0:0:0:0:
64,192,89513,1,0,0:0:0:0:
192,192,89513,128,0,89596:0:0:0:0:
320,192,89596,1,0,0:0:0:0:
448,192,89679,128,0,89763:0:0:0:0:
320,192,89763,1,0,0:0:0:0:
192,192,89763,1,0,0:0:0:0:
64,192,89763,128,0,89846:0:0:0:0:
192,192,89846,1,0,0:0:0:0:
320,192,89846,1,0,0:0:0:0:
448,192,89846,1,0,0:0:0:0:
64,192,89929,128,0,90013:0:0:0:0:
448,192,90013,1,0,0:0:0:0:
192,192,90013,128,0,90096:0:0:0:0:
320,192,90096,1,0,0:0:0:0:
192,192,90179,1,0,0:0:0:0:
64,192,90179,1,0,0:0:0:0:
448,192,90179,128,0,90263:0:0:0:0:
320,192,90263,128,0,90346:0:0:0:0:
64,192,90346,128,0,90429:0:0:0:0:
448,192,90429,128,0,90513:0:0:0:0:
320,192,90513,1,0,0:0:0:0:
64,192,90513,1,0,0:0:0:0:
192,192,90513,128,0,90596:0:0:0:0:
448,192,90596,1,0,0:0:0:0:
320,192,90679,128,0,90763:0:0:0:0:
64,192,90763,128,0,90846:0:0:0:0:
192,192,90846,1,0,0:0:0:0:
320,192,90846,1,0,0:0:0:0:
448,192,90846,1,0,0:0:0:0:
64,192,90929,128,0,91013:0:0:0:0:
192,192,91013,128,0,91096:0:0:0:0:
448,192,91096,128,0,91179:0:0:0:0:
192,192,91179,1,0,0:0:0:0:
64,192,91179,1,0,0:0:0:0:
320,192,91179,128,0,91263:0:0:0:0:
448,192,91263,128,0,91346:0:0:0:0:
320,192,91346,128,0,91429:0:0:0:0:
64,192,91429,128,0,91513:0:0:0:0:
320,192,91513,1,0,0:0:0:0:
448,192,91513,1,0,0:0:0:0:
192,192,91513,1,0,0:0:0:0:
64,192,91596,128,0,91679:0:0:0:0:
192,192,91679,128,0,91763:0:0:0:0:
448,192,91763,128,0,91846:0:0:0:0:
192,192,91846,1,0,0:0:0:0:
64,192,91846,128,0,91929:0:0:0:0:
320,192,91929,1,0,0:0:0:0:
448,192,91929,1,0,0:0:0:0:
192,192,92013,1,0,0:0:0:0:
64,192,92013,128,0,92096:0:0:0:0:
320,192,92096,1,0,0:0:0:0:
448,192,92096,1,0,0:0:0:0:
64,192,92179,1,0,0:0:0:0:
192,192,92179,128,0,92263:0:0:0:0:
320,192,92263,128,0,92346:0:0:0:0:
192,192,92346,128,0,92429:0:0:0:0:
64,192,92429,128,0,92513:0:0:0:0:
320,192,92513,1,0,0:0:0:0:
448,192,92513,1,0,0:0:0:0:
192,192,92513,1,0,0:0:0:0:
64,192,92596,128,0,92679:0:0:0:0:
320,192,92679,128,0,92763:0:0:0:0:
448,192,92763,128,0,92846:0:0:0:0:
192,192,92846,1,0,0:0:0:0:
64,192,92846,1,0,0:0:0:0:
320,192,92846,128,0,92929:0:0:0:0:
448,192,92929,1,0,0:0:0:0:
192,192,93013,128,0,93096:0:0:0:0:
64,192,93096,128,0,93179:0:0:0:0:
192,192,93179,1,0,0:0:0:0:
448,192,93179,1,0,0:0:0:0:
320,192,93179,128,0,93263:0:0:0:0:
64,192,93263,128,0,93346:0:0:0:0:
448,192,93346,128,0,93429:0:0:0:0:
320,192,93429,128,0,93513:0:0:0:0:
192,192,93513,1,0,0:0:0:0:
64,192,93513,1,0,0:0:0:0:
448,192,93513,128,0,93596:0:0:0:0:
320,192,93596,1,0,0:0:0:0:
64,192,93679,128,0,93763:0:0:0:0:
192,192,93763,1,0,0:0:0:0:
448,192,93763,1,0,0:0:0:0:
320,192,93763,1,0,0:0:0:0:
64,192,93846,1,0,0:0:0:0:
448,192,93846,1,0,0:0:0:0:
320,192,93846,128,0,93929:0:0:0:0:
192,192,93929,128,0,94013:0:0:0:0:
64,192,94013,1,0,0:0:0:0:
448,192,94013,128,0,94096:0:0:0:0:
320,192,94096,128,0,94179:0:0:0:0:
192,192,94179,1,0,0:0:0:0:
64,192,94179,1,0,0:0:0:0:
448,192,94179,128,0,94263:0:0:0:0:
320,192,94263,128,0,94346:0:0:0:0:
64,192,94346,128,0,94429:0:0:0:0:
192,192,94429,128,0,94513:0:0:0:0:
320,192,94513,1,0,0:0:0:0:
448,192,94513,1,0,0:0:0:0:
64,192,94513,1,0,0:0:0:0:
192,192,94596,128,0,94679:0:0:0:0:
448,192,94679,128,0,94763:0:0:0:0:
320,192,94763,128,0,94846:0:0:0:0:
64,192,94846,1,0,0:0:0:0:
448,192,94846,1,0,0:0:0:0:
192,192,94846,128,0,94929:0:0:0:0:
320,192,94929,128,0,95013:0:0:0:0:
64,192,95013,128,0,95096:0:0:0:0:
448,192,95096,128,0,95179:0:0:0:0:
192,192,95179,1,0,0:0:0:0:
64,192,95179,1,0,0:0:0:0:
320,192,95179,128,0,95263:0:0:0:0:
448,192,95263,128,0,95346:0:0:0:0:
64,192,95346,128,0,95429:0:0:0:0:
320,192,95429,128,0,95513:0:0:0:0:
192,192,95513,1,0,0:0:0:0:
448,192,95513,1,0,0:0:0:0:
64,192,95513,1,0,0:0:0:0:
320,192,95533,1,0,0:0:0:0:
192,192,95554,1,0,0:0:0:0:
64,192,95575,1,0,0:0:0:0:
320,192,95596,1,0,0:0:0:0:
448,192,95638,1,0,0:0:0:0:
64,192,95679,1,0,0:0:0:0:
192,192,95679,1,0,0:0:0:0:
192,192,95763,1,0,0:0:0:0:
64,192,95763,1,0,0:0:0:0:
320,192,95846,1,0,0:0:0:0:
448,192,95846,1,0,0:0:0:0:
448,192,95929,1,0,0:0:0:0:
320,192,95929,1,0,0:0:0:0:
192,192,96013,1,0,0:0:0:0:
64,192,96013,1,0,0:0:0:0:
64,192,96096,1,0,0:0:0:0:
192,192,96096,1,0,0:0:0:0:
320,192,96180,1,0,0:0:0:0:
448,192,96180,1,0,0:0:0:0:
64,192,96180,1,0,0:0:0:0:
192,192,96263,1,0,0:0:0:0:
64,192,96346,1,0,0:0:0:0:
320,192,96430,1,0,0:0:0:0:
192,192,96513,1,0,0:0:0:0:
64,192,96513,1,0,0:0:0:0:
448,192,96513,1,0,0:0:0:0:
320,192,96596,1,0,0:0:0:0:
192,192,96680,1,0,0:0:0:0:
448,192,96763,1,0,0:0:0:0:
320,192,96846,1,0,0:0:0:0:
192,192,96846,1,0,0:0:0:0:
64,192,96846,1,0,0:0:0:0:
448,192,96930,128,0,97013:0:0:0:0:
64,192,97013,128,0,97096:0:0:0:0:
192,192,97096,128,0,97180:0:0:0:0:
320,192,97180,128,0,97263:0:0:0:0:
448,192,97180,1,0,0:0:0:0:
64,192,97180,1,0,0:0:0:0:
192,192,97263,1,0,0:0:0:0:
64,192,97346,1,0,0:0:0:0:
320,192,97430,1,0,0:0:0:0:
448,192,97513,128,0,97596:0:0:0:0:
192,192,97513,1,0,0:0:0:0:
64,192,97513,1,0,0:0:0:0:
320,192,97596,128,0,97680:0:0:0:0:
192,192,97680,1,0,0:0:0:0:
64,192,97763,128,0,97846:0:0:0:0:
448,192,97763,1,0,0:0:0:0:
192,192,97846,1,0,0:0:0:0:
320,192,97846,1,0,0:0:0:0:
448,192,97846,1,0,0:0:0:0:
64,192,97930,1,0,0:0:0:0:
448,192,98013,128,0,98096:0:0:0:0:
320,192,98013,1,0,0:0:0:0:
192,192,98096,1,0,0:0:0:0:
320,192,98180,1,0,0:0:0:0:
64,192,98180,1,0,0:0:0:0:
448,192,98180,1,0,0:0:0:0:
192,192,98263,128,0,98346:0:0:0:0:
64,192,98346,1,0,0:0:0:0:
320,192,98430,128,0,98513:0:0:0:0:
192,192,98513,1,0,0:0:0:0:
64,192,98513,1,0,0:0:0:0:
448,192,98513,1,0,0:0:0:0:
320,192,98596,128,0,98680:0:0:0:0:
64,192,98680,1,0,0:0:0:0:
192,192,98763,1,0,0:0:0:0:
320,192,98846,1,0,0:0:0:0:
448,192,98846,1,0,0:0:0:0:
64,192,98846,1,0,0:0:0:0:
192,192,98930,128,0,99013:0:0:0:0:
448,192,99013,128,0,99096:0:0:0:0:
64,192,99096,128,0,99180:0:0:0:0:
192,192,99180,1,0,0:0:0:0:
320,192,99180,128,0,99263:0:0:0:0:
448,192,99180,1,0,0:0:0:0:
64,192,99263,1,0,0:0:0:0:
448,192,99346,1,0,0:0:0:0:
64,192,99430,128,0,99513:0:0:0:0:
192,192,99513,1,0,0:0:0:0:
320,192,99513,1,0,0:0:0:0:
448,192,99513,1,0,0:0:0:0:
64,192,99596,1,0,0:0:0:0:
192,192,99680,128,0,99763:0:0:0:0:
320,192,99763,1,0,0:0:0:0:
448,192,99846,1,0,0:0:0:0:
64,192,99846,1,0,0:0:0:0:
192,192,99846,1,0,0:0:0:0:
320,192,99930,128,0,100013:0:0:0:0:
448,192,99930,1,0,0:0:0:0:
64,192,100013,1,0,0:0:0:0:
192,192,100013,1,0,0:0:0:0:
448,192,100096,1,0,0:0:0:0:
320,192,100096,1,0,0:0:0:0:
320,192,100180,128,0,100263:0:0:0:0:
192,192,100180,1,0,0:0:0:0:
64,192,100180,1,0,0:0:0:0:
448,192,100263,128,0,100346:0:0:0:0:
64,192,100346,1,0,0:0:0:0:
192,192,100430,128,0,100513:0:0:0:0:
64,192,100513,1,0,0:0:0:0:
320,192,100513,1,0,0:0:0:0:
448,192,100513,1,0,0:0:0:0:
192,192,100596,1,0,0:0:0:0:
64,192,100680,1,0,0:0:0:0:
320,192,100763,1,0,0:0:0:0:
192,192,100846,1,0,0:0:0:0:
64,192,100846,1,0,0:0:0:0:
448,192,100846,1,0,0:0:0:0:
320,192,100930,1,0,0:0:0:0:
448,192,101013,1,0,0:0:0:0:
64,192,101096,1,0,0:0:0:0:
192,192,101180,1,0,0:0:0:0:
320,192,101180,1,0,0:0:0:0:
448,192,101180,1,0,0:0:0:0:
64,192,101263,1,0,0:0:0:0:
192,192,101346,1,0,0:0:0:0:
448,192,101430,1,0,0:0:0:0:
320,192,101513,1,0,0:0:0:0:
192,192,101513,1,0,0:0:0:0:
64,192,101513,1,0,0:0:0:0:
448,192,101596,1,0,0:0:0:0:
192,192,101680,1,0,0:0:0:0:
64,192,101763,1,0,0:0:0:0:
320,192,101763,1,0,0:0:0:0:
192,192,101846,1,0,0:0:0:0:
320,192,101846,1,0,0:0:0:0:
448,192,101846,1,0,0:0:0:0:
64,192,101930,128,0,102013:0:0:0:0:
192,192,102013,128,0,102096:0:0:0:0:
448,192,102013,1,0,0:0:0:0:
320,192,102096,128,0,102180:0:0:0:0:
192,192,102180,1,0,0:0:0:0:
64,192,102180,1,0,0:0:0:0:
448,192,102180,1,0,0:0:0:0:
320,192,102263,1,0,0:0:0:0:
448,192,102346,128,0,102430:0:0:0:0:
320,192,102430,1,0,0:0:0:0:
192,192,102513,1,0,0:0:0:0:
64,192,102513,1,0,0:0:0:0:
448,192,102513,1,0,0:0:0:0:
320,192,102596,1,0,0:0:0:0:
192,192,102680,1,0,0:0:0:0:
64,192,102763,1,0,0:0:0:0:
320,192,102846,1,0,0:0:0:0:
192,192,102846,1,0,0:0:0:0:
448,192,102846,1,0,0:0:0:0:
64,192,102930,1,0,0:0:0:0:
192,192,103013,1,0,0:0:0:0:
320,192,103096,1,0,0:0:0:0:
64,192,103180,1,0,0:0:0:0:
192,192,103180,1,0,0:0:0:0:
448,192,103180,1,0,0:0:0:0:
320,192,103263,1,0,0:0:0:0:
192,192,103263,1,0,0:0:0:0:
448,192,103346,1,0,0:0:0:0:
64,192,103346,1,0,0:0:0:0:
320,192,103429,1,0,0:0:0:0:
192,192,103429,1,0,0:0:0:0:
64,192,103513,128,0,103596:0:0:0:0:
448,192,103513,1,0,0:0:0:0:
192,192,103554,1,0,0:0:0:0:
320,192,103596,1,0,0:0:0:0:
448,192,103638,1,0,0:0:0:0:
192,192,103679,128,0,103763:0:0:0:0:
320,192,103763,128,0,103846:0:0:0:0:
448,192,103846,1,0,0:0:0:0:
64,192,103846,1,0,0:0:0:0:
320,192,103888,1,0,0:0:0:0:
192,192,103929,128,0,104013:0:0:0:0:
64,192,103971,1,0,0:0:0:0:
320,192,104013,1,0,0:0:0:0:
448,192,104054,1,0,0:0:0:0:
64,192,104096,128,0,104179:0:0:0:0:
192,192,104138,1,0,0:0:0:0:
320,192,104179,1,0,0:0:0:0:
448,192,104179,1,0,0:0:0:0:
192,192,104263,1,0,0:0:0:0:
64,192,104346,1,0,0:0:0:0:
192,192,104429,128,0,104513:0:0:0:0:
320,192,104513,1,0,0:0:0:0:
448,192,104513,1,0,0:0:0:0:
64,192,104513,1,0,0:0:0:0:
192,192,104596,1,0,0:0:0:0:
320,192,104679,1,0,0:0:0:0:
64,192,104763,128,0,104846:0:0:0:0:
320,192,104846,128,0,104929:0:0:0:0:
192,192,104846,1,0,0:0:0:0:
448,192,104846,1,0,0:0:0:0:
64,192,104929,128,0,105013:0:0:0:0:
448,192,105013,128,0,105096:0:0:0:0:
320,192,105096,128,0,105179:0:0:0:0:
64,192,105179,128,0,105263:0:0:0:0:
192,192,105179,1,0,0:0:0:0:
448,192,105179,1,0,0:0:0:0:
320,192,105263,128,0,105346:0:0:0:0:
448,192,105346,128,0,105429:0:0:0:0:
192,192,105429,1,0,0:0:0:0:
448,192,105513,1,0,0:0:0:0:
320,192,105513,1,0,0:0:0:0:
64,192,105513,1,0,0:0:0:0:
192,192,105596,1,0,0:0:0:0:
320,192,105679,128,0,105763:0:0:0:0:
64,192,105763,1,0,0:0:0:0:
448,192,105763,1,0,0:0:0:0:
192,192,105846,1,0,0:0:0:0:
448,192,105846,1,0,0:0:0:0:
320,192,105846,1,0,0:0:0:0:
64,192,105929,128,0,106013:0:0:0:0:
192,192,106013,1,0,0:0:0:0:
320,192,106013,1,0,0:0:0:0:
64,192,106096,1,0,0:0:0:0:
448,192,106179,128,0,106263:0:0:0:0:
320,192,106179,1,0,0:0:0:0:
192,192,106179,1,0,0:0:0:0:
64,192,106263,1,0,0:0:0:0:
192,192,106346,1,0,0:0:0:0:
320,192,106429,128,0,106513:0:0:0:0:
192,192,106513,1,0,0:0:0:0:
64,192,106513,1,0,0:0:0:0:
448,192,106513,1,0,0:0:0:0:
320,192,106596,1,0,0:0:0:0:
192,192,106679,128,0,106763:0:0:0:0:
64,192,106763,1,0,0:0:0:0:
320,192,106846,1,0,0:0:0:0:
448,192,106846,1,0,0:0:0:0:
192,192,106846,1,0,0:0:0:0:
64,192,106929,128,0,107013:0:0:0:0:
320,192,107013,1,0,0:0:0:0:
448,192,107096,1,0,0:0:0:0:
320,192,107179,128,0,107263:0:0:0:0:
192,192,107179,1,0,0:0:0:0:
64,192,107179,1,0,0:0:0:0:
448,192,107263,1,0,0:0:0:0:
64,192,107346,1,0,0:0:0:0:
192,192,107429,128,0,107513:0:0:0:0:
320,192,107513,1,0,0:0:0:0:
448,192,107513,1,0,0:0:0:0:
64,192,107513,1,0,0:0:0:0:
192,192,107596,1,0,0:0:0:0:
448,192,107679,1,0,0:0:0:0:
320,192,107763,1,0,0:0:0:0:
192,192,107846,1,0,0:0:0:0:
64,192,107846,1,0,0:0:0:0:
448,192,107846,1,0,0:0:0:0:
320,192,107929,1,0,0:0:0:0:
192,192,107929,1,0,0:0:0:0:
64,192,108013,128,0,108096:0:0:0:0:
448,192,108013,1,0,0:0:0:0:
192,192,108096,128,0,108179:0:0:0:0:
320,192,108096,1,0,0:0:0:0:
448,192,108179,128,0,108263:0:0:0:0:
320,192,108179,1,0,0:0:0:0:
64,192,108179,1,0,0:0:0:0:
192,192,108263,1,0,0:0:0:0:
320,192,108346,1,0,0:0:0:0:
192,192,108429,1,0,0:0:0:0:
320,192,108513,128,0,108596:0:0:0:0:
64,192,108513,1,0,0:0:0:0:
448,192,108513,1,0,0:0:0:0:
192,192,108596,128,0,108679:0:0:0:0:
64,192,108679,128,0,108763:0:0:0:0:
320,192,108763,1,0,0:0:0:0:
448,192,108846,1,0,0:0:0:0:
192,192,108846,1,0,0:0:0:0:
64,192,108846,1,0,0:0:0:0:
320,192,108929,1,0,0:0:0:0:
192,192,109013,128,0,109096:0:0:0:0:
320,192,109096,128,0,109179:0:0:0:0:
64,192,109179,1,0,0:0:0:0:
192,192,109179,1,0,0:0:0:0:
448,192,109179,1,0,0:0:0:0:
320,192,109263,128,0,109346:0:0:0:0:
192,192,109346,1,0,0:0:0:0:
64,192,109429,128,0,109513:0:0:0:0:
192,192,109513,1,0,0:0:0:0:
320,192,109513,1,0,0:0:0:0:
448,192,109513,1,0,0:0:0:0:
64,192,109596,1,0,0:0:0:0:
320,192,109679,128,0,109763:0:0:0:0:
192,192,109763,1,0,0:0:0:0:
448,192,109763,1,0,0:0:0:0:
64,192,109846,1,0,0:0:0:0:
320,192,109846,1,0,0:0:0:0:
448,192,109846,1,0,0:0:0:0:
192,192,109929,128,0,110013:0:0:0:0:
64,192,110013,128,0,110096:0:0:0:0:
448,192,110013,1,0,0:0:0:0:
192,192,110096,1,0,0:0:0:0:
448,192,110179,128,0,110263:0:0:0:0:
320,192,110179,1,0,0:0:0:0:
64,192,110179,1,0,0:0:0:0:
192,192,110263,128,0,110346:0:0:0:0:
320,192,110346,128,0,110429:0:0:0:0:
64,192,110429,128,0,110513:0:0:0:0:
320,192,110513,1,0,0:0:0:0:
192,192,110513,128,0,110596:0:0:0:0:
448,192,110513,1,0,0:0:0:0:
64,192,110596,128,0,110679:0:0:0:0:
448,192,110679,128,0,110763:0:0:0:0:
192,192,110763,128,0,110846:0:0:0:0:
320,192,110846,128,0,110929:0:0:0:0:
64,192,110846,1,0,0:0:0:0:
448,192,110846,1,0,0:0:0:0:
192,192,110929,128,0,111013:0:0:0:0:
64,192,111013,128,0,111096:0:0:0:0:
448,192,111096,128,0,111179:0:0:0:0:
320,192,111179,128,0,111263:0:0:0:0:
64,192,111179,1,0,0:0:0:0:
448,192,111263,128,0,111346:0:0:0:0:
192,192,111263,1,0,0:0:0:0:
64,192,111346,128,0,111429:0:0:0:0:
320,192,111346,1,0,0:0:0:0:
192,192,111429,128,0,111513:0:0:0:0:
448,192,111429,1,0,0:0:0:0:
320,192,111513,128,0,111596:0:0:0:0:
64,192,111513,1,0,0:0:0:0:
192,192,111554,1,0,0:0:0:0:
448,192,111596,128,0,111679:0:0:0:0:
64,192,111638,1,0,0:0:0:0:
192,192,111679,128,0,111763:0:0:0:0:
320,192,111721,1,0,0:0:0:0:
448,192,111763,128,0,111846:0:0:0:0:
64,192,111804,1,0,0:0:0:0:
320,192,111846,128,0,111929:0:0:0:0:
192,192,111846,1,0,0:0:0:0:
64,192,111929,128,0,112013:0:0:0:0:
448,192,111929,1,0,0:0:0:0:
320,192,112013,128,0,112096:0:0:0:0:
192,192,112013,1,0,0:0:0:0:
64,192,112096,128,0,112179:0:0:0:0:
448,192,112096,1,0,0:0:0:0:
320,192,112179,1,0,0:0:0:0:
192,192,112179,1,0,0:0:0:0:
448,192,127513,5,0,0:0:0:0:
320,192,127513,1,0,0:0:0:0:
192,192,127584,1,0,0:0:0:0:
64,192,127655,1,0,0:0:0:0:
448,192,127727,1,0,0:0:0:0:
320,192,127798,1,0,0:0:0:0:
192,192,127798,1,0,0:0:0:0:
64,192,127870,1,0,0:0:0:0:
192,192,127941,1,0,0:0:0:0:
320,192,128013,1,0,0:0:0:0:
448,192,128084,1,0,0:0:0:0:
64,192,128084,1,0,0:0:0:0:
320,192,128155,1,0,0:0:0:0:
192,192,128227,1,0,0:0:0:0:
64,192,128298,1,0,0:0:0:0:
320,192,128370,1,0,0:0:0:0:
448,192,128370,1,0,0:0:0:0:
192,192,128441,1,0,0:0:0:0:
64,192,128513,1,0,0:0:0:0:
448,192,128513,1,0,0:0:0:0:
320,192,128584,1,0,0:0:0:0:
192,192,128655,1,0,0:0:0:0:
64,192,128727,1,0,0:0:0:0:
192,192,128798,1,0,0:0:0:0:
448,192,128798,1,0,0:0:0:0:
320,192,128870,1,0,0:0:0:0:
192,192,128941,1,0,0:0:0:0:
64,192,129013,1,0,0:0:0:0:
320,192,129084,1,0,0:0:0:0:
448,192,129084,1,0,0:0:0:0:
64,192,129155,1,0,0:0:0:0:
192,192,129227,1,0,0:0:0:0:
320,192,129298,1,0,0:0:0:0:
448,192,129370,1,0,0:0:0:0:
64,192,129370,1,0,0:0:0:0:
192,192,129441,1,0,0:0:0:0:
320,192,129513,1,0,0:0:0:0:
448,192,129513,1,0,0:0:0:0:
192,192,129584,1,0,0:0:0:0:
64,192,129655,1,0,0:0:0:0:
320,192,129727,1,0,0:0:0:0:
448,192,129798,1,0,0:0:0:0:
192,192,129798,1,0,0:0:0:0:
64,192,129870,1,0,0:0:0:0:
192,192,129941,1,0,0:0:0:0:
320,192,130013,1,0,0:0:0:0:
448,192,130084,1,0,0:0:0:0:
64,192,130084,1,0,0:0:0:0:
192,192,130155,1,0,0:0:0:0:
320,192,130227,1,0,0:0:0:0:
64,192,130298,1,0,0:0:0:0:
192,192,130370,1,0,0:0:0:0:
448,192,130370,1,0,0:0:0:0:
320,192,130441,1,0,0:0:0:0:
192,192,130513,1,0,0:0:0:0:
64,192,130513,1,0,0:0:0:0:
448,192,130584,1,0,0:0:0:0:
320,192,130655,1,0,0:0:0:0:
192,192,130727,1,0,0:0:0:0:
64,192,130798,1,0,0:0:0:0:
448,192,130798,1,0,0:0:0:0:
320,192,130870,1,0,0:0:0:0:
64,192,130941,1,0,0:0:0:0:
448,192,131013,1,0,0:0:0:0:
192,192,131084,1,0,0:0:0:0:
64,192,131084,1,0,0:0:0:0:
320,192,131155,1,0,0:0:0:0:
448,192,131227,1,0,0:0:0:0:
64,192,131298,1,0,0:0:0:0:
192,192,131370,1,0,0:0:0:0:
320,192,131370,1,0,0:0:0:0:
448,192,131441,1,0,0:0:0:0:
192,192,131513,1,0,0:0:0:0:
64,192,131513,128,0,131584:0:0:0:0:
448,192,131584,128,0,131655:0:0:0:0:
320,192,131655,128,0,131727:0:0:0:0:
192,192,131727,128,0,131798:0:0:0:0:
448,192,131798,1,0,0:0:0:0:
64,192,131798,128,0,131870:0:0:0:0:
192,192,131870,128,0,131941:0:0:0:0:
64,192,131941,128,0,132013:0:0:0:0:
320,192,132013,128,0,132084:0:0:0:0:
448,192,132084,1,0,0:0:0:0:
192,192,132084,128,0,132155:0:0:0:0:
64,192,132155,128,0,132227:0:0:0:0:
320,192,132227,128,0,132298:0:0:0:0:
448,192,132298,128,0,132370:0:0:0:0:
64,192,132370,1,0,0:0:0:0:
192,192,132370,128,0,132441:0:0:0:0:
320,192,132441,1,0,0:0:0:0:
448,192,132513,1,0,0:0:0:0:
64,192,132513,1,0,0:0:0:0:
320,192,132584,1,0,0:0:0:0:
192,192,132655,1,0,0:0:0:0:
64,192,132727,1,0,0:0:0:0:
320,192,132798,1,0,0:0:0:0:
448,192,132798,1,0,0:0:0:0:
64,192,132870,1,0,0:0:0:0:
192,192,132941,1,0,0:0:0:0:
448,192,133013,1,0,0:0:0:0:
320,192,133084,1,0,0:0:0:0:
64,192,133084,1,0,0:0:0:0:
192,192,133155,1,0,0:0:0:0:
448,192,133227,1,0,0:0:0:0:
64,192,133298,1,0,0:0:0:0:
320,192,133370,1,0,0:0:0:0:
192,192,133370,1,0,0:0:0:0:
448,192,133441,1,0,0:0:0:0:
64,192,133513,1,0,0:0:0:0:
320,192,133513,128,0,133584:0:0:0:0:
192,192,133584,128,0,133655:0:0:0:0:
448,192,133655,128,0,133727:0:0:0:0:
320,192,133727,128,0,133798:0:0:0:0:
64,192,133798,1,0,0:0:0:0:
192,192,133798,128,0,133870:0:0:0:0:
320,192,133870,128,0,133941:0:0:0:0:
448,192,133941,128,0,134013:0:0:0:0:
64,192,134013,128,0,134084:0:0:0:0:
320,192,134084,1,0,0:0:0:0:
192,192,134084,128,0,134155:0:0:0:0:
448,192,134155,128,0,134227:0:0:0:0:
64,192,134227,128,0,134298:0:0:0:0:
192,192,134298,128,0,134370:0:0:0:0:
64,192,134370,1,0,0:0:0:0:
448,192,134370,128,0,134441:0:0:0:0:
320,192,134441,1,0,0:0:0:0:
192,192,134513,1,0,0:0:0:0:
448,192,134513,1,0,0:0:0:0:
320,192,134584,1,0,0:0:0:0:
64,192,134655,1,0,0:0:0:0:
192,192,134727,1,0,0:0:0:0:
320,192,134798,1,0,0:0:0:0:
448,192,134798,1,0,0:0:0:0:
64,192,134870,1,0,0:0:0:0:
192,192,134941,1,0,0:0:0:0:
320,192,135013,1,0,0:0:0:0:
448,192,135084,1,0,0:0:0:0:
64,192,135084,1,0,0:0:0:0:
320,192,135155,1,0,0:0:0:0:
64,192,135227,1,0,0:0:0:0:
192,192,135227,1,0,0:0:0:0:
320,192,135263,1,0,0:0:0:0:
448,192,135298,1,0,0:0:0:0:
64,192,135334,1,0,0:0:0:0:
192,192,135370,1,0,0:0:0:0:
320,192,135441,1,0,0:0:0:0:
448,192,135513,1,0,0:0:0:0:
64,192,135513,1,0,0:0:0:0:
192,192,135584,1,0,0:0:0:0:
320,192,135655,1,0,0:0:0:0:
64,192,135727,1,0,0:0:0:0:
192,192,135798,1,0,0:0:0:0:
448,192,135798,1,0,0:0:0:0:
320,192,135870,1,0,0:0:0:0:
64,192,135941,1,0,0:0:0:0:
448,192,136013,1,0,0:0:0:0:
192,192,136084,1,0,0:0:0:0:
64,192,136084,1,0,0:0:0:0:
448,192,136155,1,0,0:0:0:0:
320,192,136227,1,0,0:0:0:0:
64,192,136298,1,0,0:0:0:0:
192,192,136370,1,0,0:0:0:0:
448,192,136370,1,0,0:0:0:0:
320,192,136441,1,0,0:0:0:0:
192,192,136513,1,0,0:0:0:0:
64,192,136513,1,0,0:0:0:0:
448,192,136584,1,0,0:0:0:0:
320,192,136655,1,0,0:0:0:0:
64,192,136727,1,0,0:0:0:0:
192,192,136798,1,0,0:0:0:0:
448,192,136798,1,0,0:0:0:0:
320,192,136870,1,0,0:0:0:0:
64,192,136941,1,0,0:0:0:0:
448,192,137013,1,0,0:0:0:0:
192,192,137084,1,0,0:0:0:0:
64,192,137084,1,0,0:0:0:0:
320,192,137155,1,0,0:0:0:0:
448,192,137227,1,0,0:0:0:0:
192,192,137298,1,0,0:0:0:0:
64,192,137370,1,0,0:0:0:0:
448,192,137370,1,0,0:0:0:0:
320,192,137441,1,0,0:0:0:0:
192,192,137513,1,0,0:0:0:0:
64,192,137513,1,0,0:0:0:0:
448,192,137584,1,0,0:0:0:0:
64,192,137655,1,0,0:0:0:0:
320,192,137727,1,0,0:0:0:0:
192,192,137798,1,0,0:0:0:0:
448,192,137798,1,0,0:0:0:0:
64,192,137870,1,0,0:0:0:0:
320,192,137941,1,0,0:0:0:0:
192,192,138013,1,0,0:0:0:0:
448,192,138084,1,0,0:0:0:0:
320,192,138084,1,0,0:0:0:0:
64,192,138155,1,0,0:0:0:0:
192,192,138227,1,0,0:0:0:0:
448,192,138298,1,0,0:0:0:0:
320,192,138370,1,0,0:0:0:0:
64,192,138370,1,0,0:0:0:0:
192,192,138441,1,0,0:0:0:0:
64,192,138513,1,0,0:0:0:0:
448,192,138513,1,0,0:0:0:0:
320,192,138584,1,0,0:0:0:0:
192,192,138655,1,0,0:0:0:0:
320,192,138727,1,0,0:0:0:0:
448,192,138798,1,0,0:0:0:0:
64,192,138798,1,0,0:0:0:0:
192,192,138870,1,0,0:0:0:0:
64,192,138941,1,0,0:0:0:0:
448,192,139013,1,0,0:0:0:0:
320,192,139084,1,0,0:0:0:0:
192,192,139084,1,0,0:0:0:0:
64,192,139155,1,0,0:0:0:0:
320,192,139227,1,0,0:0:0:0:
448,192,139298,1,0,0:0:0:0:
192,192,139370,1,0,0:0:0:0:
64,192,139370,1,0,0:0:0:0:
320,192,139441,1,0,0:0:0:0:
448,192,139513,1,0,0:0:0:0:
64,192,139513,128,0,139584:0:0:0:0:
192,192,139584,128,0,139655:0:0:0:0:
320,192,139655,128,0,139727:0:0:0:0:
448,192,139727,128,0,139798:0:0:0:0:
192,192,139798,1,0,0:0:0:0:
64,192,139798,128,0,139870:0:0:0:0:
448,192,139870,128,0,139941:0:0:0:0:
64,192,139941,128,0,140013:0:0:0:0:
320,192,140013,128,0,140084:0:0:0:0:
448,192,140084,1,0,0:0:0:0:
192,192,140084,128,0,140155:0:0:0:0:
320,192,140155,128,0,140227:0:0:0:0:
64,192,140227,128,0,140298:0:0:0:0:
192,192,140298,128,0,140370:0:0:0:0:
448,192,140370,1,0,0:0:0:0:
320,192,140370,128,0,140441:0:0:0:0:
64,192,140441,1,0,0:0:0:0:
448,192,140513,1,0,0:0:0:0:
192,192,140513,1,0,0:0:0:0:
320,192,140584,1,0,0:0:0:0:
192,192,140655,1,0,0:0:0:0:
64,192,140727,1,0,0:0:0:0:
320,192,140798,1,0,0:0:0:0:
448,192,140798,1,0,0:0:0:0:
64,192,140870,1,0,0:0:0:0:
448,192,140941,1,0,0:0:0:0:
320,192,141013,1,0,0:0:0:0:
192,192,141084,1,0,0:0:0:0:
64,192,141084,1,0,0:0:0:0:
448,192,141155,1,0,0:0:0:0:
64,192,141227,1,0,0:0:0:0:
320,192,141298,1,0,0:0:0:0:
192,192,141370,1,0,0:0:0:0:
64,192,141370,1,0,0:0:0:0:
448,192,141441,1,0,0:0:0:0:
192,192,141513,1,0,0:0:0:0:
320,192,141513,128,0,141584:0:0:0:0:
64,192,141584,128,0,141655:0:0:0:0:
192,192,141655,128,0,141727:0:0:0:0:
320,192,141727,128,0,141798:0:0:0:0:
64,192,141798,1,0,0:0:0:0:
448,192,141798,128,0,141870:0:0:0:0:
192,192,141870,128,0,141941:0:0:0:0:
448,192,141941,128,0,142013:0:0:0:0:
320,192,142013,128,0,142084:0:0:0:0:
64,192,142084,1,0,0:0:0:0:
192,192,142084,128,0,142155:0:0:0:0:
448,192,142155,128,0,142227:0:0:0:0:
320,192,142227,128,0,142298:0:0:0:0:
64,192,142298,128,0,142370:0:0:0:0:
448,192,142370,1,0,0:0:0:0:
192,192,142370,128,0,142441:0:0:0:0:
320,192,142441,1,0,0:0:0:0:
448,192,142513,1,0,0:0:0:0:
64,192,142513,1,0,0:0:0:0:
192,192,142584,1,0,0:0:0:0:
320,192,142655,1,0,0:0:0:0:
64,192,142727,1,0,0:0:0:0:
448,192,142798,1,0,0:0:0:0:
320,192,142798,1,0,0:0:0:0:
192,192,142870,1,0,0:0:0:0:
64,192,142941,1,0,0:0:0:0:
448,192,143013,1,0,0:0:0:0:
64,192,143084,1,0,0:0:0:0:
192,192,143084,1,0,0:0:0:0:
320,192,143155,1,0,0:0:0:0:
64,192,143227,1,0,0:0:0:0:
192,192,143263,1,0,0:0:0:0:
320,192,143298,1,0,0:0:0:0:
448,192,143334,1,0,0:0:0:0:
192,192,143370,1,0,0:0:0:0:
64,192,143370,1,0,0:0:0:0:
320,192,143441,1,0,0:0:0:0:
448,192,143441,1,0,0:0:0:0:
64,192,143513,128,0,143584:0:0:0:0:
192,192,143513,128,0,143584:0:0:0:0:
320,192,143584,128,0,143655:0:0:0:0:
448,192,143655,128,0,143727:0:0:0:0:
64,192,143727,128,0,143798:0:0:0:0:
192,192,143798,128,0,143870:0:0:0:0:
320,192,143798,128,0,143870:0:0:0:0:
448,192,143870,128,0,143941:0:0:0:0:
320,192,143941,128,0,144013:0:0:0:0:
192,192,144013,128,0,144084:0:0:0:0:
64,192,144084,128,0,144155:0:0:0:0:
448,192,144084,128,0,144155:0:0:0:0:
192,192,144155,128,0,144227:0:0:0:0:
320,192,144227,128,0,144298:0:0:0:0:
448,192,144298,128,0,144370:0:0:0:0:
192,192,144370,128,0,144441:0:0:0:0:
64,192,144370,128,0,144441:0:0:0:0:
320,192,144441,128,0,144513:0:0:0:0:
448,192,144513,128,0,144584:0:0:0:0:
64,192,144513,128,0,144584:0:0:0:0:
192,192,144584,128,0,144655:0:0:0:0:
320,192,144655,128,0,144727:0:0:0:0:
448,192,144727,128,0,144798:0:0:0:0:
320,192,144798,128,0,144870:0:0:0:0:
64,192,144798,128,0,144870:0:0:0:0:
192,192,144870,128,0,144941:0:0:0:0:
320,192,144941,128,0,145013:0:0:0:0:
448,192,145013,128,0,145084:0:0:0:0:
192,192,145084,128,0,145155:0:0:0:0:
64,192,145084,128,0,145155:0:0:0:0:
448,192,145155,128,0,145227:0:0:0:0:
320,192,145227,128,0,145298:0:0:0:0:
192,192,145298,128,0,145370:0:0:0:0:
64,192,145370,128,0,145441:0:0:0:0:
448,192,145370,128,0,145441:0:0:0:0:
320,192,145441,128,0,145513:0:0:0:0:
192,192,145513,128,0,145584:0:0:0:0:
64,192,145513,128,0,145584:0:0:0:0:
320,192,145584,128,0,145655:0:0:0:0:
448,192,145655,128,0,145727:0:0:0:0:
192,192,145727,128,0,145798:0:0:0:0:
64,192,145798,128,0,145870:0:0:0:0:
320,192,145798,128,0,145870:0:0:0:0:
448,192,145870,128,0,145941:0:0:0:0:
320,192,145941,128,0,146013:0:0:0:0:
192,192,146013,128,0,146084:0:0:0:0:
64,192,146084,128,0,146155:0:0:0:0:
448,192,146084,128,0,146155:0:0:0:0:
320,192,146155,128,0,146227:0:0:0:0:
192,192,146227,128,0,146298:0:0:0:0:
448,192,146298,128,0,146370:0:0:0:0:
320,192,146370,128,0,146441:0:0:0:0:
64,192,146370,128,0,146441:0:0:0:0:
192,192,146441,128,0,146513:0:0:0:0:
320,192,146513,128,0,146584:0:0:0:0:
448,192,146513,128,0,146584:0:0:0:0:
64,192,146584,128,0,146655:0:0:0:0:
192,192,146655,128,0,146727:0:0:0:0:
320,192,146727,128,0,146798:0:0:0:0:
448,192,146798,128,0,146870:0:0:0:0:
64,192,146798,128,0,146870:0:0:0:0:
192,192,146870,128,0,146941:0:0:0:0:
448,192,146941,128,0,147013:0:0:0:0:
64,192,147013,128,0,147084:0:0:0:0:
320,192,147084,128,0,147155:0:0:0:0:
448,192,147084,128,0,147155:0:0:0:0:
192,192,147155,128,0,147227:0:0:0:0:
64,192,147227,128,0,147298:0:0:0:0:
448,192,147298,128,0,147370:0:0:0:0:
320,192,147370,128,0,147441:0:0:0:0:
192,192,147370,128,0,147513:0:0:0:0:
64,192,147441,128,0,147584:0:0:0:0:
320,192,147513,128,0,147584:0:0:0:0:
448,192,147513,128,0,147655:0:0:0:0:
192,192,147584,128,0,147727:0:0:0:0:
64,192,147655,128,0,147798:0:0:0:0:
320,192,147727,128,0,147870:0:0:0:0:
192,192,147798,128,0,147870:0:0:0:0:
448,192,147798,128,0,147941:0:0:0:0:
64,192,147870,128,0,148013:0:0:0:0:
192,192,147941,128,0,148084:0:0:0:0:
448,192,148013,128,0,148155:0:0:0:0:
64,192,148084,128,0,148155:0:0:0:0:
320,192,148084,128,0,148155:0:0:0:0:
192,192,148155,128,0,148298:0:0:0:0:
320,192,148227,128,0,148370:0:0:0:0:
64,192,148298,128,0,148441:0:0:0:0:
448,192,148370,128,0,148441:0:0:0:0:
192,192,148370,128,0,148513:0:0:0:0:
320,192,148441,128,0,148584:0:0:0:0:
64,192,148513,128,0,148584:0:0:0:0:
448,192,148513,128,0,148655:0:0:0:0:
192,192,148584,128,0,148655:0:0:0:0:
320,192,148655,128,0,148727:0:0:0:0:
448,192,148727,128,0,148798:0:0:0:0:
192,192,148798,128,0,148870:0:0:0:0:
64,192,148798,128,0,148870:0:0:0:0:
448,192,148870,128,0,148941:0:0:0:0:
320,192,148941,128,0,149013:0:0:0:0:
64,192,149013,128,0,149084:0:0:0:0:
192,192,149084,128,0,149155:0:0:0:0:
448,192,149084,128,0,149155:0:0:0:0:
320,192,149155,128,0,149227:0:0:0:0:
64,192,149227,128,0,149298:0:0:0:0:
448,192,149298,128,0,149370:0:0:0:0:
192,192,149370,128,0,149441:0:0:0:0:
320,192,149370,128,0,149441:0:0:0:0:
64,192,149441,128,0,149513:0:0:0:0:
448,192,149513,128,0,149655:0:0:0:0:
192,192,149513,128,0,149584:0:0:0:0:
320,192,149584,128,0,149727:0:0:0:0:
64,192,149655,128,0,149798:0:0:0:0:
192,192,149727,128,0,149870:0:0:0:0:
448,192,149798,128,0,149870:0:0:0:0:
320,192,149798,128,0,149941:0:0:0:0:
64,192,149870,128,0,150013:0:0:0:0:
192,192,149941,128,0,150084:0:0:0:0:
448,192,150013,128,0,150155:0:0:0:0:
64,192,150084,128,0,150155:0:0:0:0:
320,192,150084,128,0,150227:0:0:0:0:
192,192,150155,128,0,150298:0:0:0:0:
448,192,150227,128,0,150370:0:0:0:0:
320,192,150298,128,0,150441:0:0:0:0:
192,192,150370,128,0,150441:0:0:0:0:
64,192,150370,128,0,150513:0:0:0:0:
448,192,150441,128,0,150513:0:0:0:0:
320,192,150513,128,0,150584:0:0:0:0:
192,192,150513,128,0,150584:0:0:0:0:
64,192,150584,128,0,150655:0:0:0:0:
448,192,150655,128,0,150727:0:0:0:0:
320,192,150727,128,0,150798:0:0:0:0:
192,192,150798,128,0,150870:0:0:0:0:
64,192,150798,128,0,150870:0:0:0:0:
448,192,150870,128,0,150941:0:0:0:0:
320,192,150941,128,0,151013:0:0:0:0:
192,192,151013,128,0,151084:0:0:0:0:
64,192,151084,128,0,151155:0:0:0:0:
448,192,151084,128,0,151155:0:0:0:0:
192,192,151155,128,0,151227:0:0:0:0:
448,192,151227,128,0,151298:0:0:0:0:
320,192,151227,128,0,151298:0:0:0:0:
192,192,151263,128,0,151334:0:0:0:0:
64,192,151298,128,0,151370:0:0:0:0:
448,192,151334,128,0,151405:0:0:0:0:
320,192,151370,128,0,151441:0:0:0:0:
192,192,151441,128,0,151513:0:0:0:0:
64,192,151513,128,0,151655:0:0:0:0:
448,192,151513,128,0,151655:0:0:0:0:
320,192,151584,128,0,151727:0:0:0:0:
192,192,151655,128,0,151798:0:0:0:0:
448,192,151727,128,0,151870:0:0:0:0:
320,192,151798,128,0,151941:0:0:0:0:
64,192,151798,128,0,151941:0:0:0:0:
192,192,151870,128,0,152013:0:0:0:0:
448,192,151941,128,0,152013:0:0:0:0:
64,192,152013,128,0,152084:0:0:0:0:
320,192,152084,128,0,152227:0:0:0:0:
448,192,152084,128,0,152227:0:0:0:0:
64,192,152155,128,0,152298:0:0:0:0:
192,192,152227,128,0,152370:0:0:0:0:
448,192,152298,128,0,152441:0:0:0:0:
320,192,152370,128,0,152441:0:0:0:0:
64,192,152370,128,0,152513:0:0:0:0:
192,192,152441,128,0,152584:0:0:0:0:
320,192,152513,128,0,152655:0:0:0:0:
448,192,152513,128,0,152655:0:0:0:0:
64,192,152584,128,0,152727:0:0:0:0:
192,192,152655,128,0,152798:0:0:0:0:
448,192,152727,128,0,152870:0:0:0:0:
320,192,152798,128,0,152941:0:0:0:0:
64,192,152798,128,0,152941:0:0:0:0:
192,192,152870,128,0,153013:0:0:0:0:
448,192,152941,128,0,153013:0:0:0:0:
64,192,153013,128,0,153155:0:0:0:0:
320,192,153084,128,0,153227:0:0:0:0:
448,192,153084,128,0,153227:0:0:0:0:
192,192,153155,128,0,153298:0:0:0:0:
64,192,153227,128,0,153298:0:0:0:0:
320,192,153298,128,0,153441:0:0:0:0:
448,192,153370,128,0,153441:0:0:0:0:
64,192,153370,128,0,153513:0:0:0:0:
192,192,153441,128,0,153584:0:0:0:0:
320,192,153513,128,0,153655:0:0:0:0:
448,192,153513,128,0,153584:0:0:0:0:
64,192,153584,128,0,153727:0:0:0:0:
448,192,153655,128,0,153798:0:0:0:0:
192,192,153727,128,0,153870:0:0:0:0:
320,192,153798,128,0,153941:0:0:0:0:
64,192,153798,128,0,153941:0:0:0:0:
448,192,153870,128,0,154013:0:0:0:0:
192,192,153941,128,0,154013:0:0:0:0:
320,192,154013,128,0,154155:0:0:0:0:
192,192,154084,128,0,154227:0:0:0:0:
64,192,154084,128,0,154227:0:0:0:0:
448,192,154155,128,0,154298:0:0:0:0:
320,192,154227,128,0,154370:0:0:0:0:
64,192,154298,128,0,154441:0:0:0:0:
192,192,154370,128,0,154513:0:0:0:0:
448,192,154370,128,0,154441:0:0:0:0:
320,192,154441,128,0,154584:0:0:0:0:
448,192,154513,128,0,154655:0:0:0:0:
64,192,154513,128,0,154655:0:0:0:0:
192,192,154584,128,0,154655:0:0:0:0:
320,192,154655,128,0,154798:0:0:0:0:
192,192,154727,128,0,154870:0:0:0:0:
448,192,154798,128,0,154870:0:0:0:0:
64,192,154798,128,0,154941:0:0:0:0:
320,192,154870,128,0,155013:0:0:0:0:
448,192,154941,128,0,155084:0:0:0:0:
64,192,155013,128,0,155155:0:0:0:0:
192,192,155084,128,0,155155:0:0:0:0:
320,192,155084,128,0,155227:0:0:0:0:
448,192,155155,128,0,155298:0:0:0:0:
192,192,155227,128,0,155370:0:0:0:0:
64,192,155298,128,0,155441:0:0:0:0:
320,192,155370,128,0,155513:0:0:0:0:
448,192,155370,128,0,155441:0:0:0:0:
192,192,155441,128,0,155584:0:0:0:0:
64,192,155513,128,0,155655:0:0:0:0:
448,192,155513,128,0,155727:0:0:0:0:
320,192,155584,128,0,155727:0:0:0:0:
192,192,155655,128,0,155941:0:0:0:0:
64,192,155727,128,0,155798:0:0:0:0:
320,192,155798,128,0,156013:0:0:0:0:
448,192,155798,128,0,155870:0:0:0:0:
64,192,155870,128,0,156013:0:0:0:0:
448,192,155941,128,0,156155:0:0:0:0:
192,192,156013,128,0,156084:0:0:0:0:
320,192,156084,128,0,156227:0:0:0:0:
64,192,156084,128,0,156298:0:0:0:0:
192,192,156155,128,0,156298:0:0:0:0:
448,192,156227,128,0,156370:0:0:0:0:
320,192,156298,128,0,156441:0:0:0:0:
64,192,156370,128,0,156441:0:0:0:0:
192,192,156370,128,0,156513:0:0:0:0:
448,192,156441,128,0,156655:0:0:0:0:
64,192,156513,128,0,156727:0:0:0:0:
320,192,156513,128,0,156584:0:0:0:0:
192,192,156584,128,0,156727:0:0:0:0:
320,192,156655,128,0,156798:0:0:0:0:
448,192,156727,128,0,156798:0:0:0:0:
192,192,156798,128,0,156941:0:0:0:0:
64,192,156798,128,0,156870:0:0:0:0:
448,192,156870,128,0,157013:0:0:0:0:
64,192,156941,128,0,157084:0:0:0:0:
192,192,157013,128,0,157155:0:0:0:0:
320,192,157084,128,0,157227:0:0:0:0:
448,192,157084,128,0,157155:0:0:0:0:
64,192,157155,128,0,157298:0:0:0:0:
448,192,157227,128,0,157298:0:0:0:0:
192,192,157298,128,0,157441:0:0:0:0:
320,192,157370,128,0,157441:0:0:0:0:
448,192,157370,128,0,157513:0:0:0:0:
64,192,157441,128,0,157584:0:0:0:0:
192,192,157513,128,0,157655:0:0:0:0:
320,192,157513,128,0,157584:0:0:0:0:
448,192,157584,128,0,157727:0:0:0:0:
320,192,157655,128,0,157798:0:0:0:0:
192,192,157727,128,0,157941:0:0:0:0:
64,192,157798,128,0,157870:0:0:0:0:
448,192,157798,128,0,158013:0:0:0:0:
320,192,157870,128,0,158013:0:0:0:0:
64,192,157941,128,0,158084:0:0:0:0:
192,192,158013,128,0,158155:0:0:0:0:
320,192,158084,128,0,158298:0:0:0:0:
448,192,158084,128,0,158227:0:0:0:0:
64,192,158155,128,0,158298:0:0:0:0:
192,192,158227,128,0,158370:0:0:0:0:
448,192,158298,128,0,158441:0:0:0:0:
320,192,158370,128,0,158513:0:0:0:0:
64,192,158370,128,0,158441:0:0:0:0:
192,192,158441,128,0,158584:0:0:0:0:
64,192,158513,128,0,158727:0:0:0:0:
448,192,158513,128,0,158655:0:0:0:0:
320,192,158584,128,0,158798:0:0:0:0:
192,192,158655,128,0,158727:0:0:0:0:
448,192,158727,128,0,158870:0:0:0:0:
64,192,158798,128,0,158941:0:0:0:0:
192,192,158798,128,0,159013:0:0:0:0:
320,192,158870,128,0,159084:0:0:0:0:
448,192,158941,128,0,159013:0:0:0:0:
64,192,159013,128,0,159155:0:0:0:0:
192,192,159084,128,0,159227:0:0:0:0:
448,192,159084,128,0,159155:0:0:0:0:
320,192,159155,128,0,159298:0:0:0:0:
64,192,159227,128,0,159513:0:0:0:0:
448,192,159227,128,0,159370:0:0:0:0:
192,192,159298,128,0,159513:0:0:0:0:
320,192,159370,128,0,159513:0:0:0:0:
448,192,159441,128,0,161370:0:0:0:0:
