osu file format v14

[General]
AudioFilename: audio.mp3
AudioLeadIn: 0
PreviewTime: 78247
Countdown: 0
SampleSet: Normal
StackLeniency: 0.7
Mode: 3
LetterboxInBreaks: 0
SpecialStyle: 0
WidescreenStoryboard: 1

[Editor]
DistanceSpacing: 4
BeatDivisor: 4
GridSize: 32
TimelineZoom: 2.399998

[Metadata]
Title:theyaremanycolors
TitleUnicode:theyaremanycolors
Artist:Frums
ArtistUnicode:Frums
Creator:_Stan
Version:overflow
Source:BOFU2017 - LEGENDA EST A MYTH -
Tags:featured artist fa the bms of fighters ultimate 2017 they are many colors electronic instrumental video game experimental psytrance psycore tamc -noname- tyrcs [emiria] victorica_db mappers' guild mg semicolon
BeatmapID:4076294
BeatmapSetID:1909163

[Difficulty]
HPDrainRate:8.6
CircleSize:7
OverallDifficulty:8.6
ApproachRate:5
SliderMultiplier:1.4
SliderTickRate:1

[Events]
//Background and Video events
0,0,"bg.png",0,0
//Break Periods
2,28283,32873
//Storyboard Layer 0 (Background)
//Storyboard Layer 1 (Fail)
//Storyboard Layer 2 (Pass)
//Storyboard Layer 3 (Foreground)
//Storyboard Layer 4 (Overlay)
//Storyboard Sound Samples

[TimingPoints]
73,250,4,1,1,20,1,0
73,-100,4,1,1,20,0,0
39573,333.333333333333,4,1,1,20,1,0
39573,-75.187969924812,4,1,1,20,0,0
40239,250,4,1,1,20,1,0
40239,-100,4,1,1,20,0,0
80239,333.333333333333,6,1,1,20,1,0
80239,-75.187969924812,6,1,1,20,0,1
112238,-75.187969924812,6,1,1,20,0,0
120238,326.086956521739,4,1,1,20,1,0
120238,-76.9230769230769,4,1,1,20,0,0
121216,319.148936170213,6,1,1,20,1,8
121216,-78.7401574803149,6,1,1,20,0,8
122173,312.5,6,1,1,20,1,0
122173,-80,6,1,1,20,0,0
123110,306.122448979592,6,1,1,20,1,8
123110,-81.9672131147541,6,1,1,20,0,8
124028,300,6,1,1,20,1,0
124028,-83.3333333333333,6,1,1,20,0,0
124928,295.566502463054,6,1,1,20,1,8
124928,-84.7457627118644,6,1,1,20,0,8
125814,291.26213592233,6,1,1,20,1,0
125814,-86.2068965517241,6,1,1,20,0,0
126687,288.461538461538,6,1,1,20,1,8
126687,-86.9565217391304,6,1,1,20,0,8
127552,285.714285714286,7,1,1,20,1,0
127552,-87.719298245614,7,1,1,20,0,0

[HitObjects]
36,192,73,5,0,0:0:0:0:
475,192,4073,1,0,0:0:0:0:
256,192,8073,1,0,0:0:0:0:
36,192,8573,1,0,0:0:0:0:
182,192,8573,1,0,0:0:0:0:
475,192,8948,1,0,0:0:0:0:
402,192,8968,1,0,0:0:0:0:
36,192,9323,1,0,0:0:0:0:
182,192,9323,1,0,0:0:0:0:
36,192,10198,1,0,0:0:0:0:
182,192,10198,1,0,0:0:0:0:
475,192,10323,1,0,0:0:0:0:
402,192,10343,1,0,0:0:0:0:
475,192,10448,1,0,0:0:0:0:
402,192,10468,1,0,0:0:0:0:
329,192,12073,1,0,0:0:0:0:
475,192,12073,1,0,0:0:0:0:
36,192,12198,1,0,0:0:0:0:
109,192,12573,1,0,0:0:0:0:
182,192,12948,1,0,0:0:0:0:
256,192,13323,1,0,0:0:0:0:
329,192,13698,1,0,0:0:0:0:
402,192,14073,1,0,0:0:0:0:
475,192,14448,1,0,0:0:0:0:
36,192,14948,1,0,0:0:0:0:
402,192,15198,1,0,0:0:0:0:
256,192,15323,1,0,0:0:0:15:snare.wav
36,192,15948,1,0,0:0:0:0:
36,192,16073,1,0,0:0:0:0:
402,192,16573,1,0,0:0:0:15:snare.wav
256,192,16604,1,0,0:0:0:0:
36,192,16948,1,0,0:0:0:0:
36,192,17073,1,0,0:0:0:0:
36,192,17323,1,0,0:0:0:0:
402,192,17573,1,0,0:0:0:15:snare.wav
256,192,17604,1,0,0:0:0:0:
36,192,18073,1,0,0:0:0:0:
402,192,18573,1,0,0:0:0:15:snare.wav
256,192,18604,1,0,0:0:0:0:
36,192,18948,1,0,0:0:0:0:
36,192,19323,1,0,0:0:0:0:
402,192,19573,1,0,0:0:0:15:snare.wav
329,192,19588,1,0,0:0:0:0:
256,192,19604,1,0,0:0:0:0:
36,192,19948,1,0,0:0:0:0:
36,192,20073,1,0,0:0:0:0:
475,192,20073,1,0,0:0:0:0:
329,192,20573,1,0,0:0:0:15:snare.wav
256,192,20588,1,0,0:0:0:0:
182,192,20604,1,0,0:0:0:0:
36,192,20948,1,0,0:0:0:0:
36,192,21073,1,0,0:0:0:0:
36,192,21323,1,0,0:0:0:0:
256,192,21573,1,0,0:0:0:15:snare.wav
182,192,21588,1,0,0:0:0:0:
109,192,21604,1,0,0:0:0:0:
475,192,22073,1,0,0:0:0:0:
36,192,22573,1,0,0:0:0:15:snare.wav
109,192,22588,1,0,0:0:0:0:
182,192,22604,1,0,0:0:0:0:
475,192,22948,1,0,0:0:0:0:
475,192,23073,1,0,0:0:0:0:
475,192,23323,1,0,0:0:0:0:
109,192,23573,1,0,0:0:0:15:snare.wav
182,192,23588,1,0,0:0:0:0:
256,192,23604,1,0,0:0:0:0:
475,192,24073,1,0,0:0:0:0:
256,192,24088,1,0,0:0:0:0:
36,192,24104,1,0,0:0:0:0:
182,192,24573,1,0,0:0:0:15:snare.wav
475,192,24573,1,0,0:0:0:0:
256,192,24588,1,0,0:0:0:0:
329,192,24604,1,0,0:0:0:0:
36,192,24673,1,0,0:0:0:0:
475,192,24773,1,0,0:0:0:0:
36,192,24873,1,0,0:0:0:0:
475,192,24973,1,0,0:0:0:0:
36,192,25073,1,0,0:0:0:0:
256,192,25073,1,0,0:0:0:0:
475,192,25173,1,0,0:0:0:0:
36,192,25273,1,0,0:0:0:0:
475,192,25373,1,0,0:0:0:0:
36,192,25473,1,0,0:0:0:0:
256,192,25573,1,0,0:0:0:15:snare.wav
329,192,25588,1,0,0:0:0:0:
402,192,25604,1,0,0:0:0:0:
36,192,25948,1,0,0:0:0:0:
36,192,26073,1,0,0:0:0:0:
329,192,26573,1,0,0:0:0:15:snare.wav
402,192,26588,1,0,0:0:0:0:
475,192,26604,1,0,0:0:0:0:
36,192,26948,1,0,0:0:0:0:
36,192,27323,1,0,0:0:0:0:
475,192,27573,1,0,0:0:0:15:snare.wav
402,192,27588,1,0,0:0:0:0:
329,192,27604,1,0,0:0:0:0:
36,192,27698,1,0,0:0:0:0:
109,192,27739,1,0,0:0:0:0:
182,192,27781,1,0,0:0:0:0:
475,192,27823,1,0,0:0:0:0:
402,192,27864,1,0,0:0:0:0:
329,192,27906,1,0,0:0:0:0:
256,192,27948,1,0,0:0:0:0:
182,192,27989,1,0,0:0:0:0:
109,192,28031,1,0,0:0:0:0:
36,192,28073,1,0,0:0:0:0:
475,192,28073,1,0,0:0:0:0:
109,192,34073,5,0,0:0:0:0:
256,192,34073,1,0,0:0:0:0:
256,192,37073,1,0,0:0:0:0:
402,192,37073,1,0,0:0:0:0:
182,192,39573,1,0,0:0:0:0:
329,192,39573,1,0,0:0:0:0:
36,192,40239,1,0,0:0:0:35:kick_s.wav
109,192,40239,1,0,0:0:0:30:snare.wav
182,192,40239,1,0,0:0:0:50:cymbal.wav
256,192,40239,1,0,0:0:0:0:
329,192,40239,1,0,0:0:0:0:
402,192,40239,1,0,0:0:0:0:
475,192,40239,1,0,0:0:0:0:
109,192,40364,1,0,0:0:0:0:
182,192,40364,1,0,0:0:0:0:
36,192,40489,1,0,0:0:0:35:kick_s.wav
109,192,40489,1,0,0:0:0:0:
256,192,40489,1,0,0:0:0:0:
329,192,40489,1,0,0:0:0:0:
402,192,40489,1,0,0:0:0:0:
475,192,40489,1,0,0:0:0:0:
182,192,40614,1,0,0:0:0:0:
256,192,40614,1,0,0:0:0:0:
36,192,40739,1,0,0:0:0:35:kick_s.wav
109,192,40739,1,0,0:0:0:0:
182,192,40739,1,0,0:0:0:0:
329,192,40739,1,0,0:0:0:0:
402,192,40739,1,0,0:0:0:0:
475,192,40739,1,0,0:0:0:0:
256,192,40864,1,0,0:0:0:0:
329,192,40864,1,0,0:0:0:0:
36,192,40989,1,0,0:0:0:35:kick_s.wav
109,192,40989,1,0,0:0:0:0:
182,192,40989,1,0,0:0:0:0:
256,192,40989,1,0,0:0:0:0:
402,192,40989,1,0,0:0:0:0:
475,192,40989,1,0,0:0:0:0:
329,192,41114,1,0,0:0:0:0:
402,192,41114,1,0,0:0:0:0:
36,192,41239,1,0,0:0:0:35:kick_s.wav
109,192,41239,1,0,0:0:0:30:snare.wav
182,192,41239,1,0,0:0:0:0:
256,192,41239,1,0,0:0:0:0:
329,192,41239,1,0,0:0:0:0:
475,192,41239,1,0,0:0:0:0:
109,192,41364,1,0,0:0:0:0:
182,192,41364,1,0,0:0:0:0:
36,192,41489,1,0,0:0:0:35:kick_s.wav
109,192,41489,1,0,0:0:0:0:
256,192,41489,1,0,0:0:0:0:
329,192,41489,1,0,0:0:0:0:
402,192,41489,1,0,0:0:0:0:
475,192,41489,1,0,0:0:0:0:
182,192,41614,1,0,0:0:0:0:
256,192,41614,1,0,0:0:0:0:
36,192,41739,1,0,0:0:0:35:kick_s.wav
109,192,41739,1,0,0:0:0:0:
182,192,41739,1,0,0:0:0:0:
329,192,41739,1,0,0:0:0:0:
402,192,41739,1,0,0:0:0:0:
475,192,41739,1,0,0:0:0:0:
256,192,41864,1,0,0:0:0:0:
329,192,41864,1,0,0:0:0:0:
36,192,41989,1,0,0:0:0:35:kick_s.wav
109,192,41989,1,0,0:0:0:0:
182,192,41989,1,0,0:0:0:0:
256,192,41989,1,0,0:0:0:0:
402,192,41989,1,0,0:0:0:0:
475,192,41989,1,0,0:0:0:0:
36,192,42114,1,0,0:0:0:35:kick_s.wav
109,192,42114,1,0,0:0:0:0:
182,192,42114,1,0,0:0:0:0:
256,192,42114,1,0,0:0:0:0:
402,192,42114,1,0,0:0:0:0:
475,192,42114,1,0,0:0:0:0:
36,192,42239,1,0,0:0:0:35:kick_s.wav
109,192,42239,1,0,0:0:0:30:snare.wav
182,192,42239,1,0,0:0:0:0:
256,192,42239,1,0,0:0:0:0:
329,192,42239,1,0,0:0:0:0:
402,192,42239,1,0,0:0:0:0:
475,192,42239,1,0,0:0:0:0:
109,192,42364,1,0,0:0:0:0:
329,192,42364,1,0,0:0:0:0:
36,192,42489,1,0,0:0:0:35:kick_s.wav
182,192,42489,1,0,0:0:0:0:
256,192,42489,1,0,0:0:0:0:
329,192,42489,1,0,0:0:0:0:
402,192,42489,1,0,0:0:0:0:
475,192,42489,1,0,0:0:0:0:
182,192,42614,1,0,0:0:0:0:
402,192,42614,1,0,0:0:0:0:
36,192,42739,1,0,0:0:0:35:kick_s.wav
109,192,42739,1,0,0:0:0:0:
182,192,42739,1,0,0:0:0:0:
256,192,42739,1,0,0:0:0:0:
329,192,42739,1,0,0:0:0:0:
475,192,42739,1,0,0:0:0:0:
109,192,42864,1,0,0:0:0:0:
329,192,42864,1,0,0:0:0:0:
36,192,42989,1,0,0:0:0:35:kick_s.wav
182,192,42989,1,0,0:0:0:0:
256,192,42989,1,0,0:0:0:0:
329,192,42989,1,0,0:0:0:0:
402,192,42989,1,0,0:0:0:0:
475,192,42989,1,0,0:0:0:0:
182,192,43114,1,0,0:0:0:0:
402,192,43114,1,0,0:0:0:0:
36,192,43239,1,0,0:0:0:35:kick_s.wav
109,192,43239,1,0,0:0:0:30:snare.wav
182,192,43239,1,0,0:0:0:0:
256,192,43239,1,0,0:0:0:0:
329,192,43239,1,0,0:0:0:0:
475,192,43239,1,0,0:0:0:0:
109,192,43364,1,0,0:0:0:0:
329,192,43364,1,0,0:0:0:0:
36,192,43489,1,0,0:0:0:35:kick_s.wav
182,192,43489,1,0,0:0:0:0:
256,192,43489,1,0,0:0:0:0:
329,192,43489,1,0,0:0:0:0:
402,192,43489,1,0,0:0:0:0:
475,192,43489,1,0,0:0:0:0:
36,192,43614,1,0,0:0:0:35:kick_s.wav
182,192,43614,1,0,0:0:0:0:
256,192,43614,1,0,0:0:0:0:
329,192,43614,1,0,0:0:0:0:
402,192,43614,1,0,0:0:0:0:
475,192,43614,1,0,0:0:0:0:
109,192,43739,1,0,0:0:0:0:
256,192,43864,1,0,0:0:0:35:kick_s.wav
329,192,43864,1,0,0:0:0:0:
402,192,43864,1,0,0:0:0:0:
475,192,43864,1,0,0:0:0:0:
36,192,43926,1,0,0:0:0:35:kick_s.wav
109,192,43926,1,0,0:0:0:0:
182,192,43926,1,0,0:0:0:0:
256,192,43989,1,0,0:0:0:35:kick_s.wav
329,192,43989,1,0,0:0:0:0:
402,192,43989,1,0,0:0:0:0:
475,192,43989,1,0,0:0:0:0:
36,192,44114,1,0,0:0:0:35:kick_s.wav
109,192,44114,1,0,0:0:0:0:
182,192,44114,1,0,0:0:0:0:
256,192,44114,1,0,0:0:0:0:
36,192,44239,1,0,0:0:0:35:kick_s.wav
109,192,44239,1,0,0:0:0:30:snare.wav
182,192,44239,1,0,0:0:0:0:
256,192,44239,1,0,0:0:0:0:
329,192,44239,1,0,0:0:0:0:
402,192,44239,1,0,0:0:0:0:
475,192,44239,1,0,0:0:0:0:
329,192,44364,1,0,0:0:0:0:
402,192,44364,1,0,0:0:0:0:
36,192,44489,1,0,0:0:0:35:kick_s.wav
109,192,44489,1,0,0:0:0:0:
182,192,44489,1,0,0:0:0:0:
256,192,44489,1,0,0:0:0:0:
402,192,44489,1,0,0:0:0:0:
475,192,44489,1,0,0:0:0:0:
256,192,44614,1,0,0:0:0:0:
329,192,44614,1,0,0:0:0:0:
36,192,44739,1,0,0:0:0:35:kick_s.wav
109,192,44739,1,0,0:0:0:0:
182,192,44739,1,0,0:0:0:0:
329,192,44739,1,0,0:0:0:0:
402,192,44739,1,0,0:0:0:0:
475,192,44739,1,0,0:0:0:0:
182,192,44864,1,0,0:0:0:0:
256,192,44864,1,0,0:0:0:0:
36,192,44989,1,0,0:0:0:35:kick_s.wav
109,192,44989,1,0,0:0:0:0:
256,192,44989,1,0,0:0:0:0:
329,192,44989,1,0,0:0:0:0:
402,192,44989,1,0,0:0:0:0:
475,192,44989,1,0,0:0:0:0:
109,192,45114,1,0,0:0:0:0:
182,192,45114,1,0,0:0:0:0:
36,192,45239,1,0,0:0:0:35:kick_s.wav
182,192,45239,1,0,0:0:0:30:snare.wav
256,192,45239,1,0,0:0:0:0:
329,192,45239,1,0,0:0:0:0:
402,192,45239,1,0,0:0:0:0:
475,192,45239,1,0,0:0:0:0:
329,192,45364,1,0,0:0:0:0:
402,192,45364,1,0,0:0:0:0:
36,192,45489,1,0,0:0:0:35:kick_s.wav
109,192,45489,1,0,0:0:0:0:
182,192,45489,1,0,0:0:0:0:
256,192,45489,1,0,0:0:0:0:
402,192,45489,1,0,0:0:0:0:
475,192,45489,1,0,0:0:0:0:
256,192,45614,1,0,0:0:0:0:
329,192,45614,1,0,0:0:0:0:
36,192,45739,1,0,0:0:0:35:kick_s.wav
109,192,45739,1,0,0:0:0:0:
182,192,45739,1,0,0:0:0:0:
329,192,45739,1,0,0:0:0:0:
402,192,45739,1,0,0:0:0:0:
475,192,45739,1,0,0:0:0:0:
182,192,45864,1,0,0:0:0:0:
256,192,45864,1,0,0:0:0:0:
36,192,45989,1,0,0:0:0:35:kick_s.wav
109,192,45989,1,0,0:0:0:0:
256,192,45989,1,0,0:0:0:0:
329,192,45989,1,0,0:0:0:0:
402,192,45989,1,0,0:0:0:0:
475,192,45989,1,0,0:0:0:0:
36,192,46114,1,0,0:0:0:35:kick_s.wav
109,192,46114,1,0,0:0:0:0:
256,192,46114,1,0,0:0:0:0:
329,192,46114,1,0,0:0:0:0:
402,192,46114,1,0,0:0:0:0:
475,192,46114,1,0,0:0:0:0:
36,192,46239,1,0,0:0:0:35:kick_s.wav
109,192,46239,1,0,0:0:0:30:snare.wav
182,192,46239,1,0,0:0:0:0:
256,192,46239,1,0,0:0:0:0:
329,192,46239,1,0,0:0:0:0:
402,192,46239,1,0,0:0:0:0:
475,192,46239,1,0,0:0:0:0:
182,192,46364,1,0,0:0:0:0:
402,192,46364,1,0,0:0:0:0:
36,192,46489,1,0,0:0:0:35:kick_s.wav
109,192,46489,1,0,0:0:0:0:
182,192,46489,1,0,0:0:0:0:
256,192,46489,1,0,0:0:0:0:
329,192,46489,1,0,0:0:0:0:
475,192,46489,1,0,0:0:0:0:
109,192,46614,1,0,0:0:0:0:
329,192,46614,1,0,0:0:0:0:
36,192,46739,1,0,0:0:0:35:kick_s.wav
182,192,46739,1,0,0:0:0:0:
256,192,46739,1,0,0:0:0:0:
329,192,46739,1,0,0:0:0:0:
402,192,46739,1,0,0:0:0:0:
475,192,46739,1,0,0:0:0:0:
182,192,46864,1,0,0:0:0:0:
402,192,46864,1,0,0:0:0:0:
36,192,46989,1,0,0:0:0:35:kick_s.wav
109,192,46989,1,0,0:0:0:0:
182,192,46989,1,0,0:0:0:0:
256,192,46989,1,0,0:0:0:0:
329,192,46989,1,0,0:0:0:0:
475,192,46989,1,0,0:0:0:0:
109,192,47114,1,0,0:0:0:0:
329,192,47114,1,0,0:0:0:0:
36,192,47239,1,0,0:0:0:35:kick_s.wav
182,192,47239,1,0,0:0:0:30:snare.wav
256,192,47239,1,0,0:0:0:0:
329,192,47239,1,0,0:0:0:0:
402,192,47239,1,0,0:0:0:0:
475,192,47239,1,0,0:0:0:0:
109,192,47364,1,0,0:0:0:0:
256,192,47426,1,0,0:0:0:35:kick_s.wav
329,192,47426,1,0,0:0:0:0:
402,192,47426,1,0,0:0:0:0:
475,192,47426,1,0,0:0:0:0:
36,192,47489,1,0,0:0:0:35:kick_s.wav
182,192,47489,1,0,0:0:0:0:
256,192,47489,1,0,0:0:0:0:
329,192,47489,1,0,0:0:0:0:
402,192,47489,1,0,0:0:0:0:
475,192,47489,1,0,0:0:0:0:
182,192,47614,1,0,0:0:0:35:kick_s.wav
109,192,47655,1,0,0:0:0:0:
36,192,47697,1,0,0:0:0:0:
256,192,47739,1,0,0:0:0:35:kick_s.wav
329,192,47739,1,0,0:0:0:0:
402,192,47739,1,0,0:0:0:0:
475,192,47739,1,0,0:0:0:0:
36,192,47801,1,0,0:0:0:35:kick_s.wav
109,192,47801,1,0,0:0:0:0:
182,192,47801,1,0,0:0:0:0:
256,192,47864,1,0,0:0:0:35:kick_s.wav
329,192,47864,1,0,0:0:0:0:
402,192,47864,1,0,0:0:0:0:
475,192,47864,1,0,0:0:0:0:
36,192,47989,1,0,0:0:0:35:kick_s.wav
329,192,48016,1,0,0:0:0:0:
109,192,48044,1,0,0:0:0:0:
402,192,48072,1,0,0:0:0:0:
182,192,48100,1,0,0:0:0:0:
475,192,48127,1,0,0:0:0:0:
256,192,48155,1,0,0:0:0:0:
36,192,48239,1,0,0:0:0:35:kick_s.wav
109,192,48239,1,0,0:0:0:30:snare.wav
182,192,48239,1,0,0:0:0:0:
256,192,48239,1,0,0:0:0:0:
329,192,48239,1,0,0:0:0:0:
402,192,48239,1,0,0:0:0:0:
475,192,48239,1,0,0:0:0:0:
36,192,48364,1,0,0:0:0:0:
182,192,48364,1,0,0:0:0:0:
36,192,48489,1,0,0:0:0:35:kick_s.wav
109,192,48489,1,0,0:0:0:0:
256,192,48489,1,0,0:0:0:0:
329,192,48489,1,0,0:0:0:0:
402,192,48489,1,0,0:0:0:0:
475,192,48489,1,0,0:0:0:0:
182,192,48614,1,0,0:0:0:0:
329,192,48614,1,0,0:0:0:0:
36,192,48739,1,0,0:0:0:35:kick_s.wav
109,192,48739,1,0,0:0:0:0:
256,192,48739,1,0,0:0:0:0:
329,192,48739,1,0,0:0:0:0:
402,192,48739,1,0,0:0:0:0:
475,192,48739,1,0,0:0:0:0:
109,192,48864,1,0,0:0:0:0:
256,192,48864,1,0,0:0:0:0:
36,192,48989,1,0,0:0:0:35:kick_s.wav
109,192,48989,1,0,0:0:0:0:
182,192,48989,1,0,0:0:0:0:
329,192,48989,1,0,0:0:0:0:
402,192,48989,1,0,0:0:0:0:
475,192,48989,1,0,0:0:0:0:
256,192,49114,1,0,0:0:0:0:
402,192,49114,1,0,0:0:0:0:
36,192,49239,1,0,0:0:0:35:kick_s.wav
109,192,49239,1,0,0:0:0:30:snare.wav
182,192,49239,1,0,0:0:0:0:
329,192,49239,1,0,0:0:0:0:
402,192,49239,1,0,0:0:0:0:
475,192,49239,1,0,0:0:0:0:
182,192,49364,1,0,0:0:0:0:
329,192,49364,1,0,0:0:0:0:
36,192,49489,1,0,0:0:0:35:kick_s.wav
109,192,49489,1,0,0:0:0:0:
182,192,49489,1,0,0:0:0:0:
256,192,49489,1,0,0:0:0:0:
402,192,49489,1,0,0:0:0:0:
475,192,49489,1,0,0:0:0:0:
329,192,49614,1,0,0:0:0:0:
475,192,49614,1,0,0:0:0:0:
36,192,49739,1,0,0:0:0:35:kick_s.wav
109,192,49739,1,0,0:0:0:0:
182,192,49739,1,0,0:0:0:0:
256,192,49739,1,0,0:0:0:0:
402,192,49739,1,0,0:0:0:0:
475,192,49739,1,0,0:0:0:0:
182,192,49864,1,0,0:0:0:0:
329,192,49864,1,0,0:0:0:0:
36,192,49989,1,0,0:0:0:35:kick_s.wav
109,192,49989,1,0,0:0:0:0:
182,192,49989,1,0,0:0:0:0:
256,192,49989,1,0,0:0:0:0:
402,192,49989,1,0,0:0:0:0:
475,192,49989,1,0,0:0:0:0:
36,192,50114,1,0,0:0:0:35:kick_s.wav
109,192,50114,1,0,0:0:0:0:
182,192,50114,1,0,0:0:0:0:
256,192,50114,1,0,0:0:0:0:
402,192,50114,1,0,0:0:0:0:
475,192,50114,1,0,0:0:0:0:
36,192,50239,1,0,0:0:0:35:kick_s.wav
109,192,50239,1,0,0:0:0:30:snare.wav
182,192,50239,1,0,0:0:0:0:
256,192,50239,1,0,0:0:0:0:
329,192,50239,1,0,0:0:0:0:
402,192,50239,1,0,0:0:0:0:
475,192,50239,1,0,0:0:0:0:
329,192,50364,1,0,0:0:0:0:
402,192,50364,1,0,0:0:0:0:
36,192,50489,1,0,0:0:0:35:kick_s.wav
109,192,50489,1,0,0:0:0:0:
182,192,50489,1,0,0:0:0:0:
256,192,50489,1,0,0:0:0:0:
402,192,50489,1,0,0:0:0:0:
475,192,50489,1,0,0:0:0:0:
256,192,50614,1,0,0:0:0:0:
329,192,50614,1,0,0:0:0:0:
36,192,50739,1,0,0:0:0:35:kick_s.wav
109,192,50739,1,0,0:0:0:0:
182,192,50739,1,0,0:0:0:0:
329,192,50739,1,0,0:0:0:0:
402,192,50739,1,0,0:0:0:0:
475,192,50739,1,0,0:0:0:0:
182,192,50864,1,0,0:0:0:0:
256,192,50864,1,0,0:0:0:0:
36,192,50989,1,0,0:0:0:35:kick_s.wav
109,192,50989,1,0,0:0:0:0:
256,192,50989,1,0,0:0:0:0:
329,192,50989,1,0,0:0:0:0:
402,192,50989,1,0,0:0:0:0:
475,192,50989,1,0,0:0:0:0:
109,192,51114,1,0,0:0:0:0:
182,192,51114,1,0,0:0:0:0:
36,192,51239,1,0,0:0:0:35:kick_s.wav
182,192,51239,1,0,0:0:0:30:snare.wav
256,192,51239,1,0,0:0:0:0:
329,192,51239,1,0,0:0:0:0:
402,192,51239,1,0,0:0:0:0:
475,192,51239,1,0,0:0:0:0:
109,192,51364,1,0,0:0:0:0:
402,192,51364,1,0,0:0:0:0:
36,192,51489,1,0,0:0:0:35:kick_s.wav
109,192,51489,1,0,0:0:0:0:
182,192,51489,1,0,0:0:0:0:
256,192,51489,1,0,0:0:0:0:
329,192,51489,1,0,0:0:0:0:
475,192,51489,1,0,0:0:0:0:
36,192,51614,1,0,0:0:0:35:kick_s.wav
109,192,51614,1,0,0:0:0:0:
182,192,51614,1,0,0:0:0:0:
256,192,51614,1,0,0:0:0:0:
329,192,51614,1,0,0:0:0:0:
475,192,51614,1,0,0:0:0:0:
402,192,51739,1,0,0:0:0:0:
36,192,51801,1,0,0:0:0:35:kick_s.wav
109,192,51801,1,0,0:0:0:0:
182,192,51801,1,0,0:0:0:0:
256,192,51801,1,0,0:0:0:0:
36,192,51864,1,0,0:0:0:35:kick_s.wav
109,192,51864,1,0,0:0:0:0:
182,192,51864,1,0,0:0:0:0:
256,192,51864,1,0,0:0:0:0:
329,192,51864,1,0,0:0:0:0:
475,192,51864,1,0,0:0:0:0:
36,192,51989,1,0,0:0:0:35:kick_s.wav
182,192,51989,1,0,0:0:0:0:
256,192,51989,1,0,0:0:0:0:
329,192,51989,1,0,0:0:0:0:
402,192,51989,1,0,0:0:0:0:
475,192,51989,1,0,0:0:0:0:
36,192,52114,1,0,0:0:0:35:kick_s.wav
182,192,52114,1,0,0:0:0:0:
256,192,52114,1,0,0:0:0:0:
329,192,52114,1,0,0:0:0:0:
402,192,52114,1,0,0:0:0:0:
475,192,52114,1,0,0:0:0:0:
36,192,52239,1,0,0:0:0:35:kick_s.wav
109,192,52239,1,0,0:0:0:30:snare.wav
182,192,52239,1,0,0:0:0:0:
256,192,52239,1,0,0:0:0:0:
329,192,52239,1,0,0:0:0:0:
402,192,52239,1,0,0:0:0:0:
475,192,52239,1,0,0:0:0:0:
329,192,52364,1,0,0:0:0:0:
475,192,52364,1,0,0:0:0:0:
36,192,52489,1,0,0:0:0:35:kick_s.wav
109,192,52489,1,0,0:0:0:0:
182,192,52489,1,0,0:0:0:0:
256,192,52489,1,0,0:0:0:0:
402,192,52489,1,0,0:0:0:0:
475,192,52489,1,0,0:0:0:0:
182,192,52614,1,0,0:0:0:0:
329,192,52614,1,0,0:0:0:0:
36,192,52739,1,0,0:0:0:35:kick_s.wav
109,192,52739,1,0,0:0:0:0:
182,192,52739,1,0,0:0:0:0:
256,192,52739,1,0,0:0:0:0:
402,192,52739,1,0,0:0:0:0:
475,192,52739,1,0,0:0:0:0:
256,192,52864,1,0,0:0:0:0:
402,192,52864,1,0,0:0:0:0:
36,192,52989,1,0,0:0:0:35:kick_s.wav
109,192,52989,1,0,0:0:0:0:
182,192,52989,1,0,0:0:0:0:
329,192,52989,1,0,0:0:0:0:
402,192,52989,1,0,0:0:0:0:
475,192,52989,1,0,0:0:0:0:
109,192,53114,1,0,0:0:0:0:
256,192,53114,1,0,0:0:0:0:
36,192,53239,1,0,0:0:0:35:kick_s.wav
109,192,53239,1,0,0:0:0:30:snare.wav
182,192,53239,1,0,0:0:0:0:
329,192,53239,1,0,0:0:0:0:
402,192,53239,1,0,0:0:0:0:
475,192,53239,1,0,0:0:0:0:
182,192,53364,1,0,0:0:0:0:
329,192,53364,1,0,0:0:0:0:
36,192,53489,1,0,0:0:0:35:kick_s.wav
109,192,53489,1,0,0:0:0:0:
256,192,53489,1,0,0:0:0:0:
329,192,53489,1,0,0:0:0:0:
402,192,53489,1,0,0:0:0:0:
475,192,53489,1,0,0:0:0:0:
36,192,53614,1,0,0:0:0:0:
182,192,53614,1,0,0:0:0:0:
36,192,53739,1,0,0:0:0:35:kick_s.wav
109,192,53739,1,0,0:0:0:0:
256,192,53739,1,0,0:0:0:0:
329,192,53739,1,0,0:0:0:0:
402,192,53739,1,0,0:0:0:0:
475,192,53739,1,0,0:0:0:0:
182,192,53864,1,0,0:0:0:0:
329,192,53864,1,0,0:0:0:0:
36,192,53989,1,0,0:0:0:35:kick_s.wav
109,192,53989,1,0,0:0:0:0:
182,192,53989,1,0,0:0:0:0:
256,192,53989,1,0,0:0:0:0:
402,192,53989,1,0,0:0:0:0:
475,192,53989,1,0,0:0:0:0:
36,192,54114,1,0,0:0:0:35:kick_s.wav
109,192,54114,1,0,0:0:0:0:
182,192,54114,1,0,0:0:0:0:
256,192,54114,1,0,0:0:0:0:
402,192,54114,1,0,0:0:0:0:
475,192,54114,1,0,0:0:0:0:
36,192,54239,1,0,0:0:0:35:kick_s.wav
109,192,54239,1,0,0:0:0:30:snare.wav
182,192,54239,1,0,0:0:0:0:
256,192,54239,1,0,0:0:0:0:
329,192,54239,1,0,0:0:0:0:
402,192,54239,1,0,0:0:0:0:
475,192,54239,1,0,0:0:0:0:
109,192,54364,1,0,0:0:0:0:
329,192,54364,1,0,0:0:0:0:
36,192,54489,1,0,0:0:0:35:kick_s.wav
182,192,54489,1,0,0:0:0:0:
256,192,54489,1,0,0:0:0:0:
329,192,54489,1,0,0:0:0:0:
402,192,54489,1,0,0:0:0:0:
475,192,54489,1,0,0:0:0:0:
182,192,54614,1,0,0:0:0:0:
402,192,54614,1,0,0:0:0:0:
36,192,54739,1,0,0:0:0:35:kick_s.wav
109,192,54739,1,0,0:0:0:0:
256,192,54739,1,0,0:0:0:0:
329,192,54739,1,0,0:0:0:0:
402,192,54739,1,0,0:0:0:0:
475,192,54739,1,0,0:0:0:0:
256,192,54864,1,0,0:0:0:0:
36,192,54926,1,0,0:0:0:35:kick_s.wav
475,192,54926,1,0,0:0:0:0:
109,192,54957,1,0,0:0:0:0:
402,192,54957,1,0,0:0:0:0:
182,192,54989,1,0,0:0:0:35:kick_s.wav
329,192,54989,1,0,0:0:0:0:
36,192,55114,1,0,0:0:0:35:kick_s.wav
109,192,55114,1,0,0:0:0:0:
256,192,55114,1,0,0:0:0:0:
402,192,55114,1,0,0:0:0:0:
475,192,55114,1,0,0:0:0:0:
36,192,55239,1,0,0:0:0:35:kick_s.wav
109,192,55239,1,0,0:0:0:30:snare.wav
182,192,55239,1,0,0:0:0:0:
329,192,55239,1,0,0:0:0:0:
256,192,55301,1,0,0:0:0:35:kick_s.wav
402,192,55301,1,0,0:0:0:0:
475,192,55301,1,0,0:0:0:0:
36,192,55364,1,0,0:0:0:35:kick_s.wav
109,192,55364,1,0,0:0:0:0:
329,192,55364,1,0,0:0:0:0:
182,192,55426,1,0,0:0:0:35:kick_s.wav
402,192,55426,1,0,0:0:0:0:
475,192,55426,1,0,0:0:0:0:
36,192,55489,1,0,0:0:0:35:kick_s.wav
109,192,55489,1,0,0:0:0:0:
256,192,55489,1,0,0:0:0:0:
329,192,55551,1,0,0:0:0:0:
475,192,55551,1,0,0:0:0:0:
36,192,55614,1,0,0:0:0:35:kick_s.wav
109,192,55634,1,0,0:0:0:0:
182,192,55655,1,0,0:0:0:0:
256,192,55676,1,0,0:0:0:0:
329,192,55697,1,0,0:0:0:0:
402,192,55718,1,0,0:0:0:0:
36,192,55739,1,0,0:0:0:35:kick_s.wav
475,192,55739,1,0,0:0:0:0:
182,192,55801,1,0,0:0:0:0:
256,192,55801,1,0,0:0:0:0:
109,192,55864,1,0,0:0:0:35:kick_s.wav
402,192,55864,1,0,0:0:0:0:
475,192,55864,1,0,0:0:0:0:
256,192,55926,1,0,0:0:0:0:
329,192,55926,1,0,0:0:0:0:
36,192,55989,1,0,0:0:0:35:kick_s.wav
182,192,55989,1,0,0:0:0:0:
475,192,55989,1,0,0:0:0:0:
402,192,56030,1,0,0:0:0:0:
329,192,56072,1,0,0:0:0:0:
256,192,56114,1,0,0:0:0:0:
182,192,56155,1,0,0:0:0:0:
109,192,56197,1,0,0:0:0:0:
36,192,56239,1,0,0:0:0:35:kick_s.wav
256,192,56239,1,0,0:0:0:30:snare.wav
329,192,56239,1,0,0:0:0:50:cymbal.wav
402,192,56239,1,0,0:0:0:0:
475,192,56239,1,0,0:0:0:0:
182,192,56364,1,0,0:0:0:0:
329,192,56364,1,0,0:0:0:0:
402,192,56364,1,0,0:0:0:0:
109,192,56364,1,0,0:0:0:0:
36,192,56489,1,0,0:0:0:35:kick_s.wav
109,192,56489,1,0,0:0:0:30:kick_h.wav
182,192,56489,1,0,0:0:0:0:
256,192,56489,1,0,0:0:0:0:
329,192,56489,1,0,0:0:0:0:
402,192,56489,1,0,0:0:0:0:
475,192,56489,1,0,0:0:0:0:
256,192,56614,1,0,0:0:0:0:
329,192,56655,1,0,0:0:0:0:
402,192,56697,1,0,0:0:0:0:
36,192,56739,1,0,0:0:0:35:kick_s.wav
109,192,56739,1,0,0:0:0:0:
182,192,56739,1,0,0:0:0:0:
475,192,56739,1,0,0:0:0:0:
36,192,56864,1,0,0:0:0:30:kick_h.wav
109,192,56864,1,0,0:0:0:0:
182,192,56864,1,0,0:0:0:0:
256,192,56864,1,0,0:0:0:0:
329,192,56864,1,0,0:0:0:0:
402,192,56864,1,0,0:0:0:0:
475,192,56864,1,0,0:0:0:0:
256,192,56989,1,0,0:0:0:35:kick_s.wav
329,192,56989,1,0,0:0:0:0:
402,192,56989,1,0,0:0:0:0:
475,192,56989,1,0,0:0:0:0:
109,192,57114,1,0,0:0:0:0:
256,192,57155,1,0,0:0:0:0:
402,192,57197,1,0,0:0:0:0:
36,192,57239,1,0,0:0:0:35:kick_s.wav
182,192,57239,1,0,0:0:0:30:snare.wav
329,192,57239,1,0,0:0:0:0:
475,192,57239,1,0,0:0:0:0:
36,192,57364,1,0,0:0:0:0:
182,192,57364,1,0,0:0:0:0:
329,192,57364,1,0,0:0:0:0:
402,192,57364,1,0,0:0:0:0:
36,192,57489,1,0,0:0:0:35:kick_s.wav
109,192,57489,1,0,0:0:0:30:kick_h.wav
182,192,57489,1,0,0:0:0:0:
256,192,57489,1,0,0:0:0:0:
329,192,57489,1,0,0:0:0:0:
402,192,57489,1,0,0:0:0:0:
475,192,57489,1,0,0:0:0:0:
256,192,57614,1,0,0:0:0:0:
182,192,57655,1,0,0:0:0:0:
109,192,57697,1,0,0:0:0:0:
36,192,57739,1,0,0:0:0:35:kick_s.wav
329,192,57739,1,0,0:0:0:0:
402,192,57739,1,0,0:0:0:0:
475,192,57739,1,0,0:0:0:0:
36,192,57864,1,0,0:0:0:30:kick_h.wav
109,192,57864,1,0,0:0:0:0:
182,192,57864,1,0,0:0:0:0:
256,192,57864,1,0,0:0:0:0:
329,192,57864,1,0,0:0:0:0:
402,192,57864,1,0,0:0:0:0:
475,192,57864,1,0,0:0:0:0:
109,192,57989,1,0,0:0:0:35:kick_s.wav
182,192,57989,1,0,0:0:0:0:
256,192,57989,1,0,0:0:0:0:
402,192,57989,1,0,0:0:0:0:
109,192,58114,1,0,0:0:0:35:kick_s.wav
182,192,58114,1,0,0:0:0:0:
256,192,58114,1,0,0:0:0:0:
402,192,58114,1,0,0:0:0:0:
36,192,58239,1,0,0:0:0:35:kick_s.wav
256,192,58239,1,0,0:0:0:30:snare.wav
329,192,58239,1,0,0:0:0:0:
402,192,58239,1,0,0:0:0:0:
475,192,58239,1,0,0:0:0:0:
109,192,58364,1,0,0:0:0:0:
182,192,58364,1,0,0:0:0:0:
329,192,58364,1,0,0:0:0:0:
475,192,58364,1,0,0:0:0:0:
36,192,58489,1,0,0:0:0:35:kick_s.wav
109,192,58489,1,0,0:0:0:30:kick_h.wav
182,192,58489,1,0,0:0:0:0:
256,192,58489,1,0,0:0:0:0:
329,192,58489,1,0,0:0:0:0:
402,192,58489,1,0,0:0:0:0:
475,192,58489,1,0,0:0:0:0:
256,192,58614,1,0,0:0:0:0:
182,192,58655,1,0,0:0:0:0:
109,192,58697,1,0,0:0:0:0:
36,192,58739,1,0,0:0:0:35:kick_s.wav
329,192,58739,1,0,0:0:0:0:
402,192,58739,1,0,0:0:0:0:
475,192,58739,1,0,0:0:0:0:
36,192,58864,1,0,0:0:0:30:kick_h.wav
109,192,58864,1,0,0:0:0:0:
182,192,58864,1,0,0:0:0:0:
256,192,58864,1,0,0:0:0:0:
329,192,58864,1,0,0:0:0:0:
402,192,58864,1,0,0:0:0:0:
475,192,58864,1,0,0:0:0:0:
36,192,58989,1,0,0:0:0:35:kick_s.wav
109,192,58989,1,0,0:0:0:0:
182,192,58989,1,0,0:0:0:0:
256,192,58989,1,0,0:0:0:0:
402,192,59114,1,0,0:0:0:35:kick_s.wav
256,192,59155,1,0,0:0:0:0:
109,192,59197,1,0,0:0:0:0:
36,192,59239,1,0,0:0:0:35:kick_s.wav
182,192,59239,1,0,0:0:0:30:snare.wav
329,192,59239,1,0,0:0:0:0:
475,192,59239,1,0,0:0:0:0:
182,192,59364,1,0,0:0:0:0:
329,192,59364,1,0,0:0:0:0:
475,192,59364,1,0,0:0:0:0:
109,192,59364,1,0,0:0:0:0:
36,192,59489,1,0,0:0:0:35:kick_s.wav
109,192,59489,1,0,0:0:0:30:kick_h.wav
182,192,59489,1,0,0:0:0:0:
256,192,59489,1,0,0:0:0:0:
329,192,59489,1,0,0:0:0:0:
402,192,59489,1,0,0:0:0:0:
475,192,59489,1,0,0:0:0:0:
109,192,59614,1,0,0:0:0:35:kick_s.wav
182,192,59614,1,0,0:0:0:0:
329,192,59614,1,0,0:0:0:0:
402,192,59614,1,0,0:0:0:0:
256,192,59739,1,0,0:0:0:0:
36,192,59864,1,0,0:0:0:35:kick_s.wav
182,192,59864,1,0,0:0:0:30:kick_h.wav
329,192,59864,1,0,0:0:0:0:
475,192,59864,1,0,0:0:0:0:
109,192,59926,1,0,0:0:0:35:kick_s.wav
256,192,59926,1,0,0:0:0:0:
402,192,59926,1,0,0:0:0:0:
36,192,59989,1,0,0:0:0:35:kick_s.wav
182,192,59989,1,0,0:0:0:0:
329,192,59989,1,0,0:0:0:0:
475,192,59989,1,0,0:0:0:0:
109,192,60114,1,0,0:0:0:35:kick_s.wav
256,192,60114,1,0,0:0:0:0:
329,192,60114,1,0,0:0:0:0:
402,192,60114,1,0,0:0:0:0:
36,192,60239,1,0,0:0:0:35:kick_s.wav
182,192,60239,1,0,0:0:0:30:snare.wav
256,192,60239,1,0,0:0:0:0:
329,192,60239,1,0,0:0:0:0:
475,192,60239,1,0,0:0:0:0:
109,192,60364,1,0,0:0:0:0:
182,192,60364,1,0,0:0:0:0:
256,192,60364,1,0,0:0:0:0:
402,192,60364,1,0,0:0:0:0:
36,192,60489,1,0,0:0:0:35:kick_s.wav
109,192,60489,1,0,0:0:0:30:kick_h.wav
182,192,60489,1,0,0:0:0:0:
256,192,60489,1,0,0:0:0:0:
329,192,60489,1,0,0:0:0:0:
402,192,60489,1,0,0:0:0:0:
475,192,60489,1,0,0:0:0:0:
329,192,60614,1,0,0:0:0:0:
256,192,60655,1,0,0:0:0:0:
182,192,60697,1,0,0:0:0:0:
36,192,60739,1,0,0:0:0:35:kick_s.wav
109,192,60739,1,0,0:0:0:0:
402,192,60739,1,0,0:0:0:0:
475,192,60739,1,0,0:0:0:0:
36,192,60864,1,0,0:0:0:30:kick_h.wav
109,192,60864,1,0,0:0:0:0:
182,192,60864,1,0,0:0:0:0:
256,192,60864,1,0,0:0:0:0:
329,192,60864,1,0,0:0:0:0:
402,192,60864,1,0,0:0:0:0:
475,192,60864,1,0,0:0:0:0:
36,192,60989,1,0,0:0:0:35:kick_s.wav
182,192,60989,1,0,0:0:0:0:
329,192,60989,1,0,0:0:0:0:
475,192,60989,1,0,0:0:0:0:
109,192,61114,1,0,0:0:0:0:
256,192,61155,1,0,0:0:0:0:
402,192,61197,1,0,0:0:0:0:
36,192,61239,1,0,0:0:0:35:kick_s.wav
182,192,61239,1,0,0:0:0:30:snare.wav
329,192,61239,1,0,0:0:0:0:
475,192,61239,1,0,0:0:0:0:
109,192,61364,1,0,0:0:0:0:
256,192,61364,1,0,0:0:0:0:
329,192,61364,1,0,0:0:0:0:
402,192,61364,1,0,0:0:0:0:
36,192,61489,1,0,0:0:0:35:kick_s.wav
109,192,61489,1,0,0:0:0:30:kick_h.wav
182,192,61489,1,0,0:0:0:0:
256,192,61489,1,0,0:0:0:0:
329,192,61489,1,0,0:0:0:0:
402,192,61489,1,0,0:0:0:0:
475,192,61489,1,0,0:0:0:0:
182,192,61614,1,0,0:0:0:0:
256,192,61655,1,0,0:0:0:0:
329,192,61697,1,0,0:0:0:0:
36,192,61739,1,0,0:0:0:35:kick_s.wav
109,192,61739,1,0,0:0:0:0:
402,192,61739,1,0,0:0:0:0:
475,192,61739,1,0,0:0:0:0:
36,192,61864,1,0,0:0:0:30:kick_h.wav
109,192,61864,1,0,0:0:0:0:
182,192,61864,1,0,0:0:0:0:
256,192,61864,1,0,0:0:0:0:
329,192,61864,1,0,0:0:0:0:
402,192,61864,1,0,0:0:0:0:
475,192,61864,1,0,0:0:0:0:
36,192,61989,1,0,0:0:0:35:kick_s.wav
182,192,61989,1,0,0:0:0:0:
256,192,61989,1,0,0:0:0:0:
329,192,61989,1,0,0:0:0:0:
182,192,62114,1,0,0:0:0:35:kick_s.wav
256,192,62114,1,0,0:0:0:0:
329,192,62114,1,0,0:0:0:0:
475,192,62114,1,0,0:0:0:0:
36,192,62239,1,0,0:0:0:35:kick_s.wav
109,192,62239,1,0,0:0:0:30:snare.wav
256,192,62239,1,0,0:0:0:0:
402,192,62239,1,0,0:0:0:0:
475,192,62239,1,0,0:0:0:0:
109,192,62364,1,0,0:0:0:0:
182,192,62364,1,0,0:0:0:0:
329,192,62364,1,0,0:0:0:0:
402,192,62364,1,0,0:0:0:0:
36,192,62489,1,0,0:0:0:35:kick_s.wav
109,192,62489,1,0,0:0:0:30:kick_h.wav
182,192,62489,1,0,0:0:0:0:
256,192,62489,1,0,0:0:0:0:
329,192,62489,1,0,0:0:0:0:
402,192,62489,1,0,0:0:0:0:
475,192,62489,1,0,0:0:0:0:
256,192,62614,1,0,0:0:0:0:
329,192,62655,1,0,0:0:0:0:
402,192,62697,1,0,0:0:0:0:
36,192,62739,1,0,0:0:0:35:kick_s.wav
109,192,62739,1,0,0:0:0:0:
182,192,62739,1,0,0:0:0:0:
475,192,62739,1,0,0:0:0:0:
36,192,62864,1,0,0:0:0:30:kick_h.wav
109,192,62864,1,0,0:0:0:0:
182,192,62864,1,0,0:0:0:0:
256,192,62864,1,0,0:0:0:0:
329,192,62864,1,0,0:0:0:0:
402,192,62864,1,0,0:0:0:0:
475,192,62864,1,0,0:0:0:0:
256,192,62989,1,0,0:0:0:35:kick_s.wav
329,192,62989,1,0,0:0:0:0:
402,192,62989,1,0,0:0:0:0:
475,192,62989,1,0,0:0:0:0:
36,192,63114,1,0,0:0:0:35:kick_s.wav
109,192,63114,1,0,0:0:0:0:
182,192,63114,1,0,0:0:0:0:
256,192,63114,1,0,0:0:0:0:
36,192,63239,1,0,0:0:0:35:kick_s.wav
182,192,63239,1,0,0:0:0:30:snare.wav
329,192,63239,1,0,0:0:0:0:
402,192,63239,1,0,0:0:0:0:
475,192,63239,1,0,0:0:0:0:
109,192,63364,1,0,0:0:0:0:
256,192,63364,1,0,0:0:0:0:
329,192,63426,1,0,0:0:0:35:kick_s.wav
402,192,63426,1,0,0:0:0:0:
475,192,63426,1,0,0:0:0:0:
36,192,63489,1,0,0:0:0:35:kick_s.wav
109,192,63489,1,0,0:0:0:30:kick_h.wav
182,192,63489,1,0,0:0:0:0:
256,192,63551,1,0,0:0:0:0:
402,192,63551,1,0,0:0:0:0:
36,192,63614,1,0,0:0:0:35:kick_s.wav
109,192,63645,1,0,0:0:0:0:
182,192,63676,1,0,0:0:0:0:
256,192,63707,1,0,0:0:0:0:
329,192,63739,1,0,0:0:0:35:kick_s.wav
402,192,63739,1,0,0:0:0:0:
475,192,63739,1,0,0:0:0:0:
36,192,63801,1,0,0:0:0:35:kick_s.wav
109,192,63801,1,0,0:0:0:0:
182,192,63801,1,0,0:0:0:0:
329,192,63864,1,0,0:0:0:35:kick_s.wav
402,192,63864,1,0,0:0:0:0:
475,192,63864,1,0,0:0:0:0:
256,192,63926,1,0,0:0:0:0:
36,192,63989,1,0,0:0:0:35:kick_s.wav
109,192,63989,1,0,0:0:0:0:
182,192,63989,1,0,0:0:0:0:
475,192,63989,1,0,0:0:0:0:
402,192,64030,1,0,0:0:0:0:
329,192,64072,1,0,0:0:0:0:
256,192,64114,1,0,0:0:0:0:
182,192,64155,1,0,0:0:0:0:
109,192,64197,1,0,0:0:0:0:
36,192,64239,1,0,0:0:0:35:kick_s.wav
256,192,64239,1,0,0:0:0:30:snare.wav
329,192,64239,1,0,0:0:0:50:cymbal.wav
402,192,64239,1,0,0:0:0:0:
475,192,64239,1,0,0:0:0:0:
182,192,64364,1,0,0:0:0:0:
329,192,64364,1,0,0:0:0:0:
402,192,64364,1,0,0:0:0:0:
475,192,64364,1,0,0:0:0:0:
36,192,64489,1,0,0:0:0:35:kick_s.wav
109,192,64489,1,0,0:0:0:30:kick_h.wav
182,192,64489,1,0,0:0:0:0:
256,192,64489,1,0,0:0:0:0:
329,192,64489,1,0,0:0:0:0:
402,192,64489,1,0,0:0:0:0:
475,192,64489,1,0,0:0:0:0:
109,192,64614,1,0,0:0:0:0:
256,192,64655,1,0,0:0:0:0:
182,192,64697,1,0,0:0:0:0:
36,192,64739,1,0,0:0:0:35:kick_s.wav
329,192,64739,1,0,0:0:0:0:
402,192,64739,1,0,0:0:0:0:
475,192,64739,1,0,0:0:0:0:
36,192,64864,1,0,0:0:0:30:kick_h.wav
109,192,64864,1,0,0:0:0:0:
182,192,64864,1,0,0:0:0:0:
256,192,64864,1,0,0:0:0:0:
329,192,64864,1,0,0:0:0:0:
402,192,64864,1,0,0:0:0:0:
475,192,64864,1,0,0:0:0:0:
36,192,64989,1,0,0:0:0:35:kick_s.wav
109,192,64989,1,0,0:0:0:0:
182,192,64989,1,0,0:0:0:0:
329,192,64989,1,0,0:0:0:0:
402,192,65114,1,0,0:0:0:0:
256,192,65155,1,0,0:0:0:0:
329,192,65197,1,0,0:0:0:0:
36,192,65239,1,0,0:0:0:35:kick_s.wav
109,192,65239,1,0,0:0:0:30:snare.wav
182,192,65239,1,0,0:0:0:0:
475,192,65239,1,0,0:0:0:0:
36,192,65364,1,0,0:0:0:0:
109,192,65364,1,0,0:0:0:0:
182,192,65364,1,0,0:0:0:0:
329,192,65364,1,0,0:0:0:0:
36,192,65489,1,0,0:0:0:35:kick_s.wav
109,192,65489,1,0,0:0:0:30:kick_h.wav
182,192,65489,1,0,0:0:0:0:
256,192,65489,1,0,0:0:0:0:
329,192,65489,1,0,0:0:0:0:
402,192,65489,1,0,0:0:0:0:
475,192,65489,1,0,0:0:0:0:
256,192,65614,1,0,0:0:0:0:
402,192,65655,1,0,0:0:0:0:
182,192,65697,1,0,0:0:0:0:
36,192,65739,1,0,0:0:0:35:kick_s.wav
109,192,65739,1,0,0:0:0:0:
329,192,65739,1,0,0:0:0:0:
475,192,65739,1,0,0:0:0:0:
36,192,65864,1,0,0:0:0:30:kick_h.wav
109,192,65864,1,0,0:0:0:0:
182,192,65864,1,0,0:0:0:0:
256,192,65864,1,0,0:0:0:0:
329,192,65864,1,0,0:0:0:0:
402,192,65864,1,0,0:0:0:0:
475,192,65864,1,0,0:0:0:0:
36,192,65989,1,0,0:0:0:35:kick_s.wav
256,192,65989,1,0,0:0:0:0:
329,192,65989,1,0,0:0:0:0:
402,192,65989,1,0,0:0:0:0:
109,192,66114,1,0,0:0:0:35:kick_s.wav
182,192,66114,1,0,0:0:0:0:
256,192,66114,1,0,0:0:0:0:
475,192,66114,1,0,0:0:0:0:
109,192,66239,1,0,0:0:0:35:kick_s.wav
182,192,66239,1,0,0:0:0:30:snare.wav
256,192,66239,1,0,0:0:0:0:
329,192,66239,1,0,0:0:0:0:
402,192,66239,1,0,0:0:0:0:
36,192,66364,1,0,0:0:0:0:
182,192,66364,1,0,0:0:0:0:
329,192,66364,1,0,0:0:0:0:
475,192,66364,1,0,0:0:0:0:
36,192,66489,1,0,0:0:0:35:kick_s.wav
109,192,66489,1,0,0:0:0:30:kick_h.wav
182,192,66489,1,0,0:0:0:0:
256,192,66489,1,0,0:0:0:0:
329,192,66489,1,0,0:0:0:0:
402,192,66489,1,0,0:0:0:0:
475,192,66489,1,0,0:0:0:0:
256,192,66614,1,0,0:0:0:0:
109,192,66655,1,0,0:0:0:0:
329,192,66697,1,0,0:0:0:0:
36,192,66739,1,0,0:0:0:35:kick_s.wav
182,192,66739,1,0,0:0:0:0:
402,192,66739,1,0,0:0:0:0:
475,192,66739,1,0,0:0:0:0:
36,192,66864,1,0,0:0:0:30:kick_h.wav
109,192,66864,1,0,0:0:0:0:
182,192,66864,1,0,0:0:0:0:
256,192,66864,1,0,0:0:0:0:
329,192,66864,1,0,0:0:0:0:
402,192,66864,1,0,0:0:0:0:
475,192,66864,1,0,0:0:0:0:
109,192,66989,1,0,0:0:0:35:kick_s.wav
182,192,66989,1,0,0:0:0:0:
329,192,66989,1,0,0:0:0:0:
402,192,66989,1,0,0:0:0:0:
109,192,67114,1,0,0:0:0:0:
182,192,67114,1,0,0:0:0:0:
329,192,67114,1,0,0:0:0:0:
402,192,67114,1,0,0:0:0:0:
36,192,67239,1,0,0:0:0:35:kick_s.wav
109,192,67239,1,0,0:0:0:30:snare.wav
256,192,67239,1,0,0:0:0:0:
402,192,67239,1,0,0:0:0:0:
475,192,67239,1,0,0:0:0:0:
182,192,67364,1,0,0:0:0:0:
329,192,67405,1,0,0:0:0:0:
182,192,67447,1,0,0:0:0:0:
36,192,67489,1,0,0:0:0:35:kick_s.wav
109,192,67489,1,0,0:0:0:30:kick_h.wav
256,192,67489,1,0,0:0:0:0:
402,192,67489,1,0,0:0:0:0:
475,192,67489,1,0,0:0:0:0:
182,192,67614,1,0,0:0:0:35:kick_s.wav
329,192,67614,1,0,0:0:0:0:
402,192,67614,1,0,0:0:0:0:
475,192,67614,1,0,0:0:0:0:
36,192,67676,1,0,0:0:0:30:kick_h.wav
109,192,67676,1,0,0:0:0:0:
256,192,67676,1,0,0:0:0:0:
256,192,67801,1,0,0:0:0:35:kick_s.wav
402,192,67801,1,0,0:0:0:0:
475,192,67801,1,0,0:0:0:0:
36,192,67864,1,0,0:0:0:30:kick_h.wav
109,192,67864,1,0,0:0:0:0:
182,192,67864,1,0,0:0:0:0:
329,192,67864,1,0,0:0:0:0:
256,192,67989,1,0,0:0:0:35:kick_s.wav
329,192,67989,1,0,0:0:0:0:
402,192,67989,1,0,0:0:0:0:
475,192,67989,1,0,0:0:0:0:
36,192,68114,1,0,0:0:0:35:kick_s.wav
109,192,68114,1,0,0:0:0:0:
182,192,68114,1,0,0:0:0:0:
256,192,68114,1,0,0:0:0:0:
36,192,68239,1,0,0:0:0:35:kick_s.wav
329,192,68239,1,0,0:0:0:30:snare.wav
402,192,68239,1,0,0:0:0:0:
475,192,68239,1,0,0:0:0:0:
109,192,68280,1,0,0:0:0:0:
182,192,68322,1,0,0:0:0:0:
256,192,68364,1,0,0:0:0:0:
329,192,68405,1,0,0:0:0:0:
402,192,68447,1,0,0:0:0:0:
36,192,68489,1,0,0:0:0:35:kick_s.wav
109,192,68489,1,0,0:0:0:30:kick_h.wav
182,192,68489,1,0,0:0:0:0:
256,192,68489,1,0,0:0:0:0:
475,192,68489,1,0,0:0:0:0:
329,192,68614,1,0,0:0:0:0:
402,192,68614,1,0,0:0:0:0:
182,192,68655,1,0,0:0:0:0:
109,192,68697,1,0,0:0:0:0:
36,192,68739,1,0,0:0:0:35:kick_s.wav
256,192,68739,1,0,0:0:0:0:
402,192,68739,1,0,0:0:0:0:
475,192,68739,1,0,0:0:0:0:
109,192,68864,1,0,0:0:0:30:kick_h.wav
182,192,68864,1,0,0:0:0:0:
329,192,68905,1,0,0:0:0:0:
402,192,68947,1,0,0:0:0:0:
36,192,68989,1,0,0:0:0:35:kick_s.wav
109,192,68989,1,0,0:0:0:0:
256,192,68989,1,0,0:0:0:0:
475,192,68989,1,0,0:0:0:0:
182,192,69114,1,0,0:0:0:0:
402,192,69114,1,0,0:0:0:0:
329,192,69155,1,0,0:0:0:0:
256,192,69197,1,0,0:0:0:0:
36,192,69239,1,0,0:0:0:35:kick_s.wav
109,192,69239,1,0,0:0:0:30:snare.wav
182,192,69239,1,0,0:0:0:0:
475,192,69239,1,0,0:0:0:0:
402,192,69280,1,0,0:0:0:0:
329,192,69322,1,0,0:0:0:0:
256,192,69364,1,0,0:0:0:0:
182,192,69405,1,0,0:0:0:0:
109,192,69447,1,0,0:0:0:0:
36,192,69489,1,0,0:0:0:35:kick_s.wav
256,192,69489,1,0,0:0:0:30:kick_h.wav
329,192,69489,1,0,0:0:0:0:
402,192,69489,1,0,0:0:0:0:
475,192,69489,1,0,0:0:0:0:
109,192,69614,1,0,0:0:0:0:
182,192,69614,1,0,0:0:0:0:
329,192,69655,1,0,0:0:0:0:
402,192,69697,1,0,0:0:0:0:
36,192,69739,1,0,0:0:0:35:kick_s.wav
109,192,69739,1,0,0:0:0:0:
256,192,69739,1,0,0:0:0:0:
475,192,69739,1,0,0:0:0:0:
329,192,69864,1,0,0:0:0:30:kick_h.wav
402,192,69864,1,0,0:0:0:0:
182,192,69905,1,0,0:0:0:0:
109,192,69947,1,0,0:0:0:0:
36,192,69989,1,0,0:0:0:35:kick_s.wav
256,192,69989,1,0,0:0:0:0:
402,192,69989,1,0,0:0:0:0:
475,192,69989,1,0,0:0:0:0:
109,192,70114,1,0,0:0:0:35:kick_s.wav
182,192,70114,1,0,0:0:0:0:
329,192,70114,1,0,0:0:0:0:
402,192,70114,1,0,0:0:0:0:
36,192,70239,1,0,0:0:0:35:kick_s.wav
109,192,70239,1,0,0:0:0:30:snare.wav
256,192,70239,1,0,0:0:0:0:
329,192,70239,1,0,0:0:0:0:
475,192,70280,1,0,0:0:0:0:
182,192,70322,1,0,0:0:0:0:
402,192,70364,1,0,0:0:0:0:
109,192,70405,1,0,0:0:0:0:
329,192,70447,1,0,0:0:0:0:
36,192,70489,1,0,0:0:0:35:kick_s.wav
182,192,70489,1,0,0:0:0:30:kick_h.wav
256,192,70489,1,0,0:0:0:0:
402,192,70489,1,0,0:0:0:0:
475,192,70489,1,0,0:0:0:0:
109,192,70614,1,0,0:0:0:0:
329,192,70614,1,0,0:0:0:0:
402,192,70655,1,0,0:0:0:0:
475,192,70697,1,0,0:0:0:0:
36,192,70739,1,0,0:0:0:35:kick_s.wav
109,192,70739,1,0,0:0:0:0:
182,192,70739,1,0,0:0:0:0:
256,192,70739,1,0,0:0:0:0:
329,192,70864,1,0,0:0:0:30:kick_h.wav
402,192,70864,1,0,0:0:0:0:
36,192,70926,1,0,0:0:0:35:kick_s.wav
109,192,70926,1,0,0:0:0:0:
182,192,70926,1,0,0:0:0:0:
256,192,70989,1,0,0:0:0:35:kick_s.wav
329,192,70989,1,0,0:0:0:0:
402,192,70989,1,0,0:0:0:0:
475,192,70989,1,0,0:0:0:0:
36,192,71114,1,0,0:0:0:35:kick_s.wav
109,192,71114,1,0,0:0:0:0:
182,192,71114,1,0,0:0:0:0:
256,192,71114,1,0,0:0:0:0:
36,192,71239,1,0,0:0:0:35:kick_s.wav
329,192,71239,1,0,0:0:0:30:snare.wav
402,192,71239,1,0,0:0:0:0:
475,192,71239,1,0,0:0:0:0:
109,192,71301,1,0,0:0:0:35:kick_s.wav
182,192,71301,1,0,0:0:0:0:
256,192,71301,1,0,0:0:0:0:
329,192,71364,1,0,0:0:0:35:kick_s.wav
402,192,71364,1,0,0:0:0:0:
475,192,71364,1,0,0:0:0:0:
36,192,71426,1,0,0:0:0:35:kick_s.wav
109,192,71426,1,0,0:0:0:0:
182,192,71426,1,0,0:0:0:0:
256,192,71489,1,0,0:0:0:35:kick_s.wav
329,192,71489,1,0,0:0:0:0:
402,192,71489,1,0,0:0:0:0:
109,192,71551,1,0,0:0:0:0:
475,192,71551,1,0,0:0:0:0:
182,192,71614,1,0,0:0:0:35:kick_s.wav
256,192,71614,1,0,0:0:0:0:
329,192,71614,1,0,0:0:0:0:
36,192,71676,1,0,0:0:0:0:
402,192,71676,1,0,0:0:0:0:
109,192,71739,1,0,0:0:0:35:kick_s.wav
182,192,71739,1,0,0:0:0:0:
256,192,71739,1,0,0:0:0:0:
329,192,71801,1,0,0:0:0:0:
475,192,71801,1,0,0:0:0:0:
36,192,71864,1,0,0:0:0:35:kick_s.wav
109,192,71864,1,0,0:0:0:0:
182,192,71864,1,0,0:0:0:0:
256,192,71926,1,0,0:0:0:0:
402,192,71926,1,0,0:0:0:0:
36,192,71989,1,0,0:0:0:35:kick_s.wav
329,192,71989,1,0,0:0:0:0:
109,192,72030,1,0,0:0:0:0:
475,192,72051,1,0,0:0:0:0:
182,192,72072,1,0,0:0:0:0:
256,192,72114,1,0,0:0:0:0:
329,192,72155,1,0,0:0:0:0:
402,192,72197,1,0,0:0:0:0:
36,192,72239,1,0,0:0:0:35:kick_s.wav
109,192,72239,1,0,0:0:0:30:kick_h.wav
182,192,72239,1,0,0:0:0:50:cymbal.wav
256,192,72239,1,0,0:0:0:0:
475,192,72239,1,0,0:0:0:0:
109,192,72489,1,0,0:0:0:30:snare.wav
329,192,72489,1,0,0:0:0:0:
182,192,72551,1,0,0:0:0:30:snare.wav
402,192,72551,1,0,0:0:0:0:
109,192,72614,1,0,0:0:0:30:snare.wav
329,192,72614,1,0,0:0:0:0:
182,192,72676,1,0,0:0:0:30:snare.wav
402,192,72676,1,0,0:0:0:0:
36,192,72739,1,0,0:0:0:35:kick_s.wav
109,192,72739,1,0,0:0:0:30:kick_h.wav
256,192,72739,1,0,0:0:0:0:
329,192,72739,1,0,0:0:0:0:
475,192,72739,1,0,0:0:0:0:
329,192,72989,1,0,0:0:0:30:snare.wav
402,192,72989,1,0,0:0:0:0:
109,192,73051,1,0,0:0:0:30:snare.wav
182,192,73051,1,0,0:0:0:0:
329,192,73114,1,0,0:0:0:30:snare.wav
402,192,73114,1,0,0:0:0:0:
109,192,73176,1,0,0:0:0:30:snare.wav
182,192,73176,1,0,0:0:0:0:
36,192,73239,1,0,0:0:0:35:kick_s.wav
256,192,73239,1,0,0:0:0:30:kick_h.wav
329,192,73239,1,0,0:0:0:0:
402,192,73239,1,0,0:0:0:0:
475,192,73239,1,0,0:0:0:0:
182,192,73364,1,0,0:0:0:0:
36,192,73426,1,0,0:0:0:35:kick_s.wav
109,192,73426,1,0,0:0:0:30:kick_h.wav
329,192,73426,1,0,0:0:0:0:
402,192,73426,1,0,0:0:0:0:
475,192,73426,1,0,0:0:0:0:
182,192,73551,1,0,0:0:0:0:
36,192,73614,1,0,0:0:0:35:kick_s.wav
109,192,73614,1,0,0:0:0:30:kick_h.wav
329,192,73614,1,0,0:0:0:0:
402,192,73614,1,0,0:0:0:0:
475,192,73614,1,0,0:0:0:0:
36,192,73739,1,0,0:0:0:35:kick_s.wav
182,192,73739,1,0,0:0:0:30:kick_h.wav
329,192,73739,1,0,0:0:0:0:
402,192,73739,1,0,0:0:0:0:
475,192,73739,1,0,0:0:0:0:
109,192,73822,1,0,0:0:0:30:snare.wav
256,192,73822,1,0,0:0:0:0:
36,192,73905,1,0,0:0:0:35:kick_s.wav
182,192,73905,1,0,0:0:0:30:kick_h.wav
329,192,73905,1,0,0:0:0:0:
402,192,73905,1,0,0:0:0:0:
475,192,73905,1,0,0:0:0:0:
256,192,73989,1,0,0:0:0:30:snare.wav
36,192,74072,1,0,0:0:0:35:kick_s.wav
109,192,74072,1,0,0:0:0:30:kick_h.wav
182,192,74072,1,0,0:0:0:0:
329,192,74072,1,0,0:0:0:0:
475,192,74072,1,0,0:0:0:0:
256,192,74155,1,0,0:0:0:30:snare.wav
402,192,74155,1,0,0:0:0:0:
36,192,74239,1,0,0:0:0:35:kick_s.wav
109,192,74239,1,0,0:0:0:30:kick_h.wav
182,192,74239,1,0,0:0:0:50:cymbal.wav
329,192,74239,1,0,0:0:0:0:
475,192,74239,1,0,0:0:0:0:
256,192,74489,1,0,0:0:0:30:snare.wav
475,192,74489,1,0,0:0:0:0:
109,192,74530,1,0,0:0:0:30:snare.wav
402,192,74530,1,0,0:0:0:0:
36,192,74572,1,0,0:0:0:30:snare.wav
329,192,74572,1,0,0:0:0:0:
182,192,74614,1,0,0:0:0:30:snare.wav
475,192,74614,1,0,0:0:0:0:
109,192,74655,1,0,0:0:0:30:snare.wav
402,192,74655,1,0,0:0:0:0:
36,192,74697,1,0,0:0:0:30:snare.wav
256,192,74697,1,0,0:0:0:0:
182,192,74739,1,0,0:0:0:35:kick_s.wav
329,192,74739,1,0,0:0:0:30:kick_h.wav
475,192,74739,1,0,0:0:0:0:
402,192,74739,1,0,0:0:0:0:
36,192,74989,1,0,0:0:0:30:snare.wav
329,192,74989,1,0,0:0:0:0:
109,192,75020,1,0,0:0:0:30:snare.wav
402,192,75020,1,0,0:0:0:0:
182,192,75051,1,0,0:0:0:30:snare.wav
475,192,75051,1,0,0:0:0:0:
256,192,75082,1,0,0:0:0:30:snare.wav
36,192,75114,1,0,0:0:0:30:snare.wav
329,192,75114,1,0,0:0:0:0:
109,192,75145,1,0,0:0:0:30:snare.wav
402,192,75145,1,0,0:0:0:0:
182,192,75176,1,0,0:0:0:30:snare.wav
475,192,75176,1,0,0:0:0:0:
256,192,75207,1,0,0:0:0:30:snare.wav
36,192,75239,1,0,0:0:0:35:kick_s.wav
109,192,75239,1,0,0:0:0:30:kick_h.wav
329,192,75239,1,0,0:0:0:0:
402,192,75239,1,0,0:0:0:0:
256,192,75364,1,0,0:0:0:0:
36,192,75426,1,0,0:0:0:35:kick_s.wav
109,192,75426,1,0,0:0:0:30:kick_h.wav
182,192,75426,1,0,0:0:0:0:
402,192,75426,1,0,0:0:0:0:
475,192,75426,1,0,0:0:0:0:
329,192,75551,1,0,0:0:0:0:
36,192,75614,1,0,0:0:0:35:kick_s.wav
109,192,75614,1,0,0:0:0:30:kick_h.wav
182,192,75614,1,0,0:0:0:0:
256,192,75614,1,0,0:0:0:0:
475,192,75614,1,0,0:0:0:0:
36,192,75739,1,0,0:0:0:35:kick_s.wav
109,192,75739,1,0,0:0:0:30:kick_h.wav
182,192,75739,1,0,0:0:0:0:
329,192,75739,1,0,0:0:0:0:
475,192,75739,1,0,0:0:0:0:
256,192,75822,1,0,0:0:0:30:snare.wav
402,192,75822,1,0,0:0:0:0:
36,192,75905,1,0,0:0:0:35:kick_s.wav
109,192,75905,1,0,0:0:0:30:kick_h.wav
182,192,75905,1,0,0:0:0:0:
329,192,75905,1,0,0:0:0:0:
475,192,75905,1,0,0:0:0:0:
256,192,75989,1,0,0:0:0:30:snare.wav
36,192,76072,1,0,0:0:0:35:kick_s.wav
182,192,76072,1,0,0:0:0:30:kick_h.wav
329,192,76072,1,0,0:0:0:0:
402,192,76072,1,0,0:0:0:0:
475,192,76072,1,0,0:0:0:0:
109,192,76155,1,0,0:0:0:30:snare.wav
256,192,76155,1,0,0:0:0:0:
36,192,76239,1,0,0:0:0:35:kick_s.wav
182,192,76239,1,0,0:0:0:50:cymbal.wav
329,192,76239,1,0,0:0:0:0:
402,192,76239,1,0,0:0:0:0:
475,192,76239,1,0,0:0:0:0:
36,192,76426,1,0,0:0:0:35:kick_s.wav
182,192,76426,1,0,0:0:0:0:
329,192,76426,1,0,0:0:0:0:
402,192,76426,1,0,0:0:0:0:
475,192,76426,1,0,0:0:0:0:
109,192,76614,1,0,0:0:0:30:kick_h.wav
329,192,76614,1,0,0:0:0:0:
475,192,76614,1,0,0:0:0:0:
182,192,76676,1,0,0:0:0:30:kick_h.wav
402,192,76676,1,0,0:0:0:0:
36,192,76739,1,0,0:0:0:35:kick_s.wav
109,192,76739,1,0,0:0:0:0:
256,192,76739,1,0,0:0:0:0:
329,192,76739,1,0,0:0:0:0:
475,192,76739,1,0,0:0:0:0:
36,192,76926,1,0,0:0:0:35:kick_s.wav
109,192,76926,1,0,0:0:0:0:
256,192,76926,1,0,0:0:0:0:
329,192,76926,1,0,0:0:0:0:
475,192,76926,1,0,0:0:0:0:
36,192,77114,1,0,0:0:0:30:kick_h.wav
256,192,77114,1,0,0:0:0:0:
402,192,77114,1,0,0:0:0:0:
109,192,77176,1,0,0:0:0:30:kick_h.wav
329,192,77176,1,0,0:0:0:0:
36,192,77239,1,0,0:0:0:35:kick_s.wav
182,192,77239,1,0,0:0:0:0:
256,192,77239,1,0,0:0:0:0:
402,192,77239,1,0,0:0:0:0:
475,192,77239,1,0,0:0:0:0:
36,192,77405,1,0,0:0:0:35:kick_s.wav
182,192,77405,1,0,0:0:0:0:
256,192,77405,1,0,0:0:0:0:
402,192,77405,1,0,0:0:0:0:
475,192,77405,1,0,0:0:0:0:
109,192,77572,1,0,0:0:0:30:kick_h.wav
182,192,77572,1,0,0:0:0:0:
329,192,77572,1,0,0:0:0:0:
402,192,77655,1,0,0:0:0:30:kick_h.wav
475,192,77655,1,0,0:0:0:0:
36,192,77739,1,0,0:0:0:35:kick_s.wav
109,192,77739,1,0,0:0:0:0:
182,192,77739,1,0,0:0:0:0:
256,192,77739,1,0,0:0:0:0:
329,192,77739,1,0,0:0:0:0:
36,192,77905,1,0,0:0:0:35:kick_s.wav
109,192,77905,1,0,0:0:0:0:
182,192,77905,1,0,0:0:0:0:
256,192,77905,1,0,0:0:0:0:
329,192,77905,1,0,0:0:0:0:
182,192,78072,1,0,0:0:0:30:kick_h.wav
329,192,78072,1,0,0:0:0:0:
402,192,78072,1,0,0:0:0:0:
36,192,78155,1,0,0:0:0:30:kick_h.wav
109,192,78155,1,0,0:0:0:0:
182,192,78239,1,0,0:0:0:35:kick_s.wav
402,192,78239,1,0,0:0:0:0:
475,192,78239,1,0,0:0:0:0:
36,192,78322,1,0,0:0:0:35:kick_s.wav
256,192,78322,1,0,0:0:0:0:
329,192,78322,1,0,0:0:0:0:
109,192,78405,1,0,0:0:0:35:kick_s.wav
182,192,78405,1,0,0:0:0:0:
475,192,78405,1,0,0:0:0:0:
36,192,78489,1,0,0:0:0:35:kick_s.wav
329,192,78489,1,0,0:0:0:0:
402,192,78489,1,0,0:0:0:0:
182,192,78572,1,0,0:0:0:35:kick_s.wav
256,192,78572,1,0,0:0:0:0:
475,192,78572,1,0,0:0:0:0:
36,192,78655,1,0,0:0:0:35:kick_s.wav
109,192,78655,1,0,0:0:0:0:
329,192,78655,1,0,0:0:0:0:
182,192,78739,1,0,0:0:0:35:kick_s.wav
256,192,78739,1,0,0:0:0:0:
475,192,78739,1,0,0:0:0:0:
36,192,78822,1,0,0:0:0:35:kick_s.wav
329,192,78822,1,0,0:0:0:0:
402,192,78822,1,0,0:0:0:0:
109,192,78905,1,0,0:0:0:35:kick_s.wav
182,192,78905,1,0,0:0:0:0:
475,192,78905,1,0,0:0:0:0:
36,192,78989,1,0,0:0:0:35:kick_s.wav
256,192,78989,1,0,0:0:0:0:
329,192,78989,1,0,0:0:0:0:
109,192,79072,1,0,0:0:0:35:kick_s.wav
402,192,79072,1,0,0:0:0:0:
475,192,79072,1,0,0:0:0:0:
36,192,79155,1,0,0:0:0:35:kick_s.wav
182,192,79155,1,0,0:0:0:0:
256,192,79155,1,0,0:0:0:0:
329,192,79239,1,0,0:0:0:35:kick_s.wav
475,192,79239,1,0,0:0:0:0:
109,192,79280,1,0,0:0:0:30:kick_h.wav
256,192,79322,1,0,0:0:0:35:kick_s.wav
402,192,79322,1,0,0:0:0:0:
36,192,79364,1,0,0:0:0:30:kick_h.wav
182,192,79405,1,0,0:0:0:35:kick_s.wav
329,192,79405,1,0,0:0:0:0:
475,192,79447,1,0,0:0:0:30:kick_h.wav
109,192,79489,1,0,0:0:0:35:kick_s.wav
256,192,79489,1,0,0:0:0:0:
402,192,79530,1,0,0:0:0:30:kick_h.wav
36,192,79572,1,0,0:0:0:35:kick_s.wav
182,192,79572,1,0,0:0:0:0:
329,192,79614,1,0,0:0:0:30:kick_h.wav
109,192,79655,1,0,0:0:0:35:kick_s.wav
475,192,79655,1,0,0:0:0:0:
256,192,79697,1,0,0:0:0:30:kick_h.wav
36,192,79739,1,0,0:0:0:35:kick_s.wav
402,192,79739,1,0,0:0:0:0:
182,192,79780,1,0,0:0:0:30:kick_h.wav
329,192,79822,1,0,0:0:0:35:kick_s.wav
475,192,79822,1,0,0:0:0:0:
109,192,79864,1,0,0:0:0:30:kick_h.wav
256,192,79905,1,0,0:0:0:35:kick_s.wav
402,192,79905,1,0,0:0:0:0:
36,192,79947,1,0,0:0:0:30:kick_h.wav
182,192,79989,1,0,0:0:0:35:kick_s.wav
329,192,79989,1,0,0:0:0:0:
475,192,80030,1,0,0:0:0:30:kick_h.wav
109,192,80072,1,0,0:0:0:35:kick_s.wav
256,192,80072,1,0,0:0:0:0:
402,192,80114,1,0,0:0:0:30:kick_h.wav
36,192,80155,1,0,0:0:0:35:kick_s.wav
182,192,80155,1,0,0:0:0:0:
329,192,80197,1,0,0:0:0:30:kick_h.wav
109,192,80239,1,0,0:0:0:35:kick_s.wav
256,192,80239,1,0,0:0:0:30:snare.wav
402,192,80239,1,0,0:0:0:50:cymbal.wav
475,192,80239,1,0,0:0:0:0:
36,192,80322,1,0,0:0:0:0:
182,192,80322,1,0,0:0:0:0:
109,192,80405,1,0,0:0:0:0:
329,192,80405,1,0,0:0:0:0:
402,192,80405,1,0,0:0:0:0:
36,192,80489,1,0,0:0:0:0:
256,192,80489,1,0,0:0:0:0:
109,192,80572,1,0,0:0:0:35:kick_s.wav
182,192,80572,1,0,0:0:0:30:kick_h.wav
402,192,80572,1,0,0:0:0:0:
475,192,80572,1,0,0:0:0:0:
256,192,80655,1,0,0:0:0:0:
329,192,80655,1,0,0:0:0:0:
36,192,80739,1,0,0:0:0:0:
109,192,80739,1,0,0:0:0:0:
402,192,80739,1,0,0:0:0:0:
182,192,80822,1,0,0:0:0:0:
475,192,80822,1,0,0:0:0:0:
36,192,80905,1,0,0:0:0:35:kick_s.wav
109,192,80905,1,0,0:0:0:0:
256,192,80905,1,0,0:0:0:0:
329,192,80905,1,0,0:0:0:0:
402,192,80989,1,0,0:0:0:0:
475,192,80989,1,0,0:0:0:0:
109,192,81072,1,0,0:0:0:0:
182,192,81072,1,0,0:0:0:0:
329,192,81072,1,0,0:0:0:0:
256,192,81155,1,0,0:0:0:0:
475,192,81155,1,0,0:0:0:0:
36,192,81239,1,0,0:0:0:35:kick_s.wav
109,192,81239,1,0,0:0:0:30:kick_h.wav
329,192,81239,1,0,0:0:0:0:
402,192,81239,1,0,0:0:0:0:
182,192,81322,1,0,0:0:0:0:
256,192,81322,1,0,0:0:0:0:
109,192,81405,1,0,0:0:0:0:
402,192,81405,1,0,0:0:0:0:
475,192,81405,1,0,0:0:0:0:
36,192,81489,1,0,0:0:0:0:
329,192,81489,1,0,0:0:0:0:
182,192,81572,1,0,0:0:0:35:kick_s.wav
256,192,81572,1,0,0:0:0:0:
402,192,81572,1,0,0:0:0:0:
475,192,81572,1,0,0:0:0:0:
36,192,81655,1,0,0:0:0:30:kick_h.wav
109,192,81655,1,0,0:0:0:0:
329,192,81655,1,0,0:0:0:0:
256,192,81739,1,0,0:0:0:0:
36,192,81822,1,0,0:0:0:35:kick_s.wav
109,192,81822,1,0,0:0:0:0:
329,192,81822,1,0,0:0:0:0:
182,192,81905,1,0,0:0:0:35:kick_s.wav
256,192,81905,1,0,0:0:0:30:kick_h.wav
402,192,81905,1,0,0:0:0:0:
475,192,81905,1,0,0:0:0:0:
36,192,81989,1,0,0:0:0:0:
109,192,82072,1,0,0:0:0:35:kick_s.wav
182,192,82072,1,0,0:0:0:0:
329,192,82072,1,0,0:0:0:0:
402,192,82072,1,0,0:0:0:0:
475,192,82155,1,0,0:0:0:0:
36,192,82239,1,0,0:0:0:35:kick_s.wav
109,192,82239,1,0,0:0:0:30:snare.wav
256,192,82239,1,0,0:0:0:0:
329,192,82239,1,0,0:0:0:0:
182,192,82322,1,0,0:0:0:0:
402,192,82322,1,0,0:0:0:0:
36,192,82405,1,0,0:0:0:0:
256,192,82405,1,0,0:0:0:0:
475,192,82405,1,0,0:0:0:0:
109,192,82489,1,0,0:0:0:0:
329,192,82489,1,0,0:0:0:0:
182,192,82572,1,0,0:0:0:35:kick_s.wav
256,192,82572,1,0,0:0:0:30:kick_h.wav
402,192,82572,1,0,0:0:0:0:
475,192,82572,1,0,0:0:0:0:
109,192,82655,1,0,0:0:0:0:
329,192,82655,1,0,0:0:0:0:
36,192,82739,1,0,0:0:0:0:
256,192,82739,1,0,0:0:0:0:
475,192,82739,1,0,0:0:0:0:
182,192,82822,1,0,0:0:0:0:
402,192,82822,1,0,0:0:0:0:
36,192,82905,1,0,0:0:0:35:kick_s.wav
109,192,82905,1,0,0:0:0:0:
256,192,82905,1,0,0:0:0:0:
329,192,82905,1,0,0:0:0:0:
182,192,82989,1,0,0:0:0:0:
402,192,82989,1,0,0:0:0:0:
36,192,83072,1,0,0:0:0:0:
256,192,83072,1,0,0:0:0:0:
475,192,83072,1,0,0:0:0:0:
109,192,83155,1,0,0:0:0:0:
329,192,83155,1,0,0:0:0:0:
182,192,83239,1,0,0:0:0:35:kick_s.wav
256,192,83239,1,0,0:0:0:30:kick_h.wav
402,192,83239,1,0,0:0:0:0:
475,192,83239,1,0,0:0:0:0:
109,192,83322,1,0,0:0:0:0:
329,192,83322,1,0,0:0:0:0:
36,192,83405,1,0,0:0:0:0:
256,192,83405,1,0,0:0:0:0:
475,192,83405,1,0,0:0:0:0:
182,192,83489,1,0,0:0:0:0:
402,192,83489,1,0,0:0:0:0:
36,192,83572,1,0,0:0:0:35:kick_s.wav
109,192,83572,1,0,0:0:0:0:
256,192,83572,1,0,0:0:0:0:
329,192,83572,1,0,0:0:0:0:
182,192,83655,1,0,0:0:0:30:kick_h.wav
402,192,83655,1,0,0:0:0:0:
475,192,83655,1,0,0:0:0:0:
329,192,83739,1,0,0:0:0:0:
36,192,83822,1,0,0:0:0:35:kick_s.wav
109,192,83822,1,0,0:0:0:0:
256,192,83822,1,0,0:0:0:0:
182,192,83905,1,0,0:0:0:35:kick_s.wav
402,192,83905,1,0,0:0:0:30:kick_h.wav
475,192,83905,1,0,0:0:0:0:
36,192,83989,1,0,0:0:0:35:kick_s.wav
109,192,83989,1,0,0:0:0:0:
329,192,83989,1,0,0:0:0:0:
256,192,84072,1,0,0:0:0:35:kick_s.wav
402,192,84072,1,0,0:0:0:0:
475,192,84072,1,0,0:0:0:0:
109,192,84155,1,0,0:0:0:35:kick_s.wav
182,192,84155,1,0,0:0:0:0:
329,192,84155,1,0,0:0:0:0:
36,192,84239,1,0,0:0:0:35:kick_s.wav
256,192,84239,1,0,0:0:0:30:snare.wav
402,192,84239,1,0,0:0:0:0:
475,192,84239,1,0,0:0:0:0:
109,192,84322,1,0,0:0:0:0:
329,192,84322,1,0,0:0:0:0:
182,192,84405,1,0,0:0:0:0:
402,192,84405,1,0,0:0:0:0:
475,192,84405,1,0,0:0:0:0:
36,192,84489,1,0,0:0:0:0:
256,192,84489,1,0,0:0:0:0:
109,192,84572,1,0,0:0:0:35:kick_s.wav
329,192,84572,1,0,0:0:0:30:kick_h.wav
402,192,84572,1,0,0:0:0:0:
475,192,84572,1,0,0:0:0:0:
182,192,84655,1,0,0:0:0:0:
36,192,84739,1,0,0:0:0:0:
256,192,84739,1,0,0:0:0:0:
475,192,84739,1,0,0:0:0:0:
329,192,84822,1,0,0:0:0:0:
36,192,84905,1,0,0:0:0:35:kick_s.wav
109,192,84905,1,0,0:0:0:0:
182,192,84905,1,0,0:0:0:0:
402,192,84905,1,0,0:0:0:0:
329,192,84989,1,0,0:0:0:0:
36,192,85072,1,0,0:0:0:0:
256,192,85072,1,0,0:0:0:0:
475,192,85072,1,0,0:0:0:0:
182,192,85155,1,0,0:0:0:0:
109,192,85239,1,0,0:0:0:35:kick_s.wav
329,192,85239,1,0,0:0:0:30:kick_h.wav
402,192,85239,1,0,0:0:0:0:
475,192,85239,1,0,0:0:0:0:
182,192,85322,1,0,0:0:0:0:
36,192,85405,1,0,0:0:0:0:
256,192,85405,1,0,0:0:0:0:
475,192,85405,1,0,0:0:0:0:
329,192,85489,1,0,0:0:0:0:
36,192,85572,1,0,0:0:0:35:kick_s.wav
109,192,85572,1,0,0:0:0:0:
182,192,85572,1,0,0:0:0:0:
402,192,85572,1,0,0:0:0:0:
256,192,85655,1,0,0:0:0:30:kick_h.wav
329,192,85655,1,0,0:0:0:0:
475,192,85655,1,0,0:0:0:0:
109,192,85739,1,0,0:0:0:0:
256,192,85822,1,0,0:0:0:35:kick_s.wav
329,192,85822,1,0,0:0:0:0:
475,192,85822,1,0,0:0:0:0:
36,192,85905,1,0,0:0:0:35:kick_s.wav
109,192,85905,1,0,0:0:0:30:kick_h.wav
182,192,85905,1,0,0:0:0:0:
402,192,85905,1,0,0:0:0:0:
329,192,85989,1,0,0:0:0:0:
109,192,86072,1,0,0:0:0:35:kick_s.wav
182,192,86072,1,0,0:0:0:0:
256,192,86072,1,0,0:0:0:0:
475,192,86072,1,0,0:0:0:0:
402,192,86155,1,0,0:0:0:0:
36,192,86239,1,0,0:0:0:35:kick_s.wav
182,192,86239,1,0,0:0:0:30:snare.wav
256,192,86239,1,0,0:0:0:0:
329,192,86239,1,0,0:0:0:0:
109,192,86322,1,0,0:0:0:0:
402,192,86322,1,0,0:0:0:0:
182,192,86405,1,0,0:0:0:0:
256,192,86405,1,0,0:0:0:0:
475,192,86405,1,0,0:0:0:0:
36,192,86489,1,0,0:0:0:0:
329,192,86489,1,0,0:0:0:0:
109,192,86572,1,0,0:0:0:35:kick_s.wav
182,192,86572,1,0,0:0:0:30:kick_h.wav
402,192,86572,1,0,0:0:0:0:
475,192,86572,1,0,0:0:0:0:
36,192,86655,1,0,0:0:0:0:
256,192,86655,1,0,0:0:0:0:
182,192,86739,1,0,0:0:0:0:
329,192,86739,1,0,0:0:0:0:
402,192,86739,1,0,0:0:0:0:
36,192,86822,1,0,0:0:0:0:
109,192,86822,1,0,0:0:0:0:
182,192,86905,1,0,0:0:0:35:kick_s.wav
256,192,86905,1,0,0:0:0:0:
329,192,86905,1,0,0:0:0:0:
475,192,86905,1,0,0:0:0:0:
109,192,86989,1,0,0:0:0:0:
402,192,86989,1,0,0:0:0:0:
36,192,87072,1,0,0:0:0:0:
256,192,87072,1,0,0:0:0:0:
329,192,87072,1,0,0:0:0:0:
182,192,87155,1,0,0:0:0:0:
475,192,87155,1,0,0:0:0:0:
36,192,87239,1,0,0:0:0:35:kick_s.wav
109,192,87239,1,0,0:0:0:30:kick_h.wav
256,192,87239,1,0,0:0:0:0:
329,192,87239,1,0,0:0:0:0:
182,192,87322,1,0,0:0:0:35:kick_s.wav
402,192,87322,1,0,0:0:0:0:
475,192,87322,1,0,0:0:0:0:
36,192,87405,1,0,0:0:0:35:kick_s.wav
109,192,87405,1,0,0:0:0:0:
329,192,87405,1,0,0:0:0:0:
182,192,87488,1,0,0:0:0:35:kick_s.wav
402,192,87488,1,0,0:0:0:0:
475,192,87488,1,0,0:0:0:0:
36,192,87572,1,0,0:0:0:35:kick_s.wav
256,192,87572,1,0,0:0:0:0:
109,192,87613,1,0,0:0:0:0:
329,192,87613,1,0,0:0:0:0:
182,192,87655,1,0,0:0:0:0:
402,192,87655,1,0,0:0:0:0:
475,192,87697,1,0,0:0:0:0:
256,192,87697,1,0,0:0:0:0:
36,192,87738,1,0,0:0:0:35:kick_s.wav
109,192,87738,1,0,0:0:0:0:
329,192,87738,1,0,0:0:0:0:
182,192,87822,1,0,0:0:0:35:kick_s.wav
402,192,87822,1,0,0:0:0:0:
475,192,87822,1,0,0:0:0:0:
36,192,87905,1,0,0:0:0:35:kick_s.wav
256,192,87905,1,0,0:0:0:30:kick_h.wav
109,192,87947,1,0,0:0:0:0:
329,192,87947,1,0,0:0:0:0:
182,192,87988,1,0,0:0:0:0:
402,192,87988,1,0,0:0:0:0:
36,192,88072,1,0,0:0:0:35:kick_s.wav
475,192,88072,1,0,0:0:0:0:
402,192,88100,1,0,0:0:0:0:
329,192,88127,1,0,0:0:0:0:
256,192,88155,1,0,0:0:0:0:
182,192,88183,1,0,0:0:0:0:
109,192,88211,1,0,0:0:0:0:
36,192,88238,1,0,0:0:0:35:kick_s.wav
402,192,88238,1,0,0:0:0:30:snare.wav
475,192,88238,1,0,0:0:0:50:cymbal.wav
256,192,88322,1,0,0:0:0:0:
329,192,88322,1,0,0:0:0:0:
109,192,88405,1,0,0:0:0:0:
182,192,88405,1,0,0:0:0:0:
475,192,88405,1,0,0:0:0:0:
36,192,88488,1,0,0:0:0:0:
329,192,88488,1,0,0:0:0:0:
109,192,88572,1,0,0:0:0:35:kick_s.wav
182,192,88572,1,0,0:0:0:30:kick_h.wav
402,192,88572,1,0,0:0:0:0:
475,192,88572,1,0,0:0:0:0:
256,192,88655,1,0,0:0:0:0:
329,192,88655,1,0,0:0:0:0:
36,192,88738,1,0,0:0:0:0:
109,192,88738,1,0,0:0:0:0:
402,192,88738,1,0,0:0:0:0:
182,192,88822,1,0,0:0:0:0:
329,192,88822,1,0,0:0:0:0:
36,192,88905,1,0,0:0:0:35:kick_s.wav
109,192,88905,1,0,0:0:0:0:
402,192,88905,1,0,0:0:0:0:
475,192,88905,1,0,0:0:0:0:
182,192,88988,1,0,0:0:0:0:
256,192,88988,1,0,0:0:0:0:
36,192,89072,1,0,0:0:0:0:
329,192,89072,1,0,0:0:0:0:
402,192,89072,1,0,0:0:0:0:
182,192,89155,1,0,0:0:0:0:
475,192,89155,1,0,0:0:0:0:
36,192,89238,1,0,0:0:0:35:kick_s.wav
109,192,89238,1,0,0:0:0:30:kick_h.wav
329,192,89238,1,0,0:0:0:0:
402,192,89238,1,0,0:0:0:0:
182,192,89322,1,0,0:0:0:0:
256,192,89322,1,0,0:0:0:0:
109,192,89405,1,0,0:0:0:0:
402,192,89405,1,0,0:0:0:0:
475,192,89405,1,0,0:0:0:0:
182,192,89488,1,0,0:0:0:0:
329,192,89488,1,0,0:0:0:0:
36,192,89572,1,0,0:0:0:35:kick_s.wav
109,192,89572,1,0,0:0:0:0:
402,192,89572,1,0,0:0:0:0:
475,192,89572,1,0,0:0:0:0:
182,192,89655,1,0,0:0:0:30:kick_h.wav
256,192,89655,1,0,0:0:0:0:
329,192,89655,1,0,0:0:0:0:
36,192,89738,1,0,0:0:0:0:
182,192,89822,1,0,0:0:0:35:kick_s.wav
256,192,89822,1,0,0:0:0:0:
329,192,89822,1,0,0:0:0:0:
36,192,89905,1,0,0:0:0:35:kick_s.wav
109,192,89905,1,0,0:0:0:30:kick_h.wav
402,192,89905,1,0,0:0:0:0:
475,192,89905,1,0,0:0:0:0:
256,192,89988,1,0,0:0:0:0:
36,192,90072,1,0,0:0:0:35:kick_s.wav
109,192,90072,1,0,0:0:0:0:
402,192,90072,1,0,0:0:0:0:
475,192,90072,1,0,0:0:0:0:
256,192,90155,1,0,0:0:0:0:
36,192,90238,1,0,0:0:0:35:kick_s.wav
182,192,90238,1,0,0:0:0:30:snare.wav
329,192,90238,1,0,0:0:0:0:
475,192,90238,1,0,0:0:0:0:
109,192,90322,1,0,0:0:0:0:
402,192,90322,1,0,0:0:0:0:
182,192,90405,1,0,0:0:0:0:
256,192,90405,1,0,0:0:0:0:
475,192,90405,1,0,0:0:0:0:
36,192,90488,1,0,0:0:0:0:
329,192,90488,1,0,0:0:0:0:
109,192,90572,1,0,0:0:0:35:kick_s.wav
182,192,90572,1,0,0:0:0:30:kick_h.wav
256,192,90572,1,0,0:0:0:0:
402,192,90572,1,0,0:0:0:0:
329,192,90655,1,0,0:0:0:0:
475,192,90655,1,0,0:0:0:0:
36,192,90738,1,0,0:0:0:0:
109,192,90738,1,0,0:0:0:0:
182,192,90738,1,0,0:0:0:0:
256,192,90822,1,0,0:0:0:0:
402,192,90822,1,0,0:0:0:0:
36,192,90905,1,0,0:0:0:35:kick_s.wav
182,192,90905,1,0,0:0:0:0:
329,192,90905,1,0,0:0:0:0:
475,192,90905,1,0,0:0:0:0:
109,192,90988,1,0,0:0:0:0:
402,192,90988,1,0,0:0:0:0:
36,192,91072,1,0,0:0:0:0:
256,192,91072,1,0,0:0:0:0:
329,192,91072,1,0,0:0:0:0:
182,192,91155,1,0,0:0:0:0:
475,192,91155,1,0,0:0:0:0:
109,192,91238,1,0,0:0:0:35:kick_s.wav
256,192,91238,1,0,0:0:0:30:kick_h.wav
329,192,91238,1,0,0:0:0:0:
402,192,91238,1,0,0:0:0:0:
36,192,91322,1,0,0:0:0:0:
182,192,91322,1,0,0:0:0:0:
329,192,91405,1,0,0:0:0:0:
402,192,91405,1,0,0:0:0:0:
475,192,91405,1,0,0:0:0:0:
109,192,91488,1,0,0:0:0:0:
256,192,91488,1,0,0:0:0:0:
36,192,91572,1,0,0:0:0:35:kick_s.wav
182,192,91572,1,0,0:0:0:0:
402,192,91572,1,0,0:0:0:0:
475,192,91572,1,0,0:0:0:0:
109,192,91655,1,0,0:0:0:30:kick_h.wav
256,192,91655,1,0,0:0:0:0:
329,192,91655,1,0,0:0:0:0:
402,192,91738,1,0,0:0:0:0:
36,192,91822,1,0,0:0:0:35:kick_s.wav
182,192,91822,1,0,0:0:0:0:
475,192,91822,1,0,0:0:0:0:
256,192,91905,1,0,0:0:0:35:kick_s.wav
329,192,91905,1,0,0:0:0:30:kick_h.wav
402,192,91905,1,0,0:0:0:0:
36,192,91988,1,0,0:0:0:35:kick_s.wav
109,192,91988,1,0,0:0:0:0:
182,192,91988,1,0,0:0:0:0:
329,192,92072,1,0,0:0:0:35:kick_s.wav
402,192,92072,1,0,0:0:0:0:
475,192,92072,1,0,0:0:0:0:
109,192,92155,1,0,0:0:0:35:kick_s.wav
182,192,92155,1,0,0:0:0:0:
256,192,92155,1,0,0:0:0:0:
36,192,92238,1,0,0:0:0:35:kick_s.wav
329,192,92238,1,0,0:0:0:30:snare.wav
402,192,92238,1,0,0:0:0:0:
475,192,92238,1,0,0:0:0:0:
109,192,92322,1,0,0:0:0:0:
182,192,92322,1,0,0:0:0:0:
256,192,92405,1,0,0:0:0:0:
402,192,92405,1,0,0:0:0:0:
475,192,92405,1,0,0:0:0:0:
109,192,92488,1,0,0:0:0:0:
329,192,92488,1,0,0:0:0:0:
36,192,92572,1,0,0:0:0:35:kick_s.wav
182,192,92572,1,0,0:0:0:30:kick_h.wav
256,192,92572,1,0,0:0:0:0:
475,192,92572,1,0,0:0:0:0:
109,192,92655,1,0,0:0:0:0:
329,192,92655,1,0,0:0:0:0:
182,192,92738,1,0,0:0:0:0:
402,192,92738,1,0,0:0:0:0:
475,192,92738,1,0,0:0:0:0:
36,192,92822,1,0,0:0:0:0:
329,192,92822,1,0,0:0:0:0:
109,192,92905,1,0,0:0:0:35:kick_s.wav
182,192,92905,1,0,0:0:0:0:
256,192,92905,1,0,0:0:0:0:
475,192,92905,1,0,0:0:0:0:
329,192,92988,1,0,0:0:0:0:
402,192,92988,1,0,0:0:0:0:
36,192,93072,1,0,0:0:0:0:
109,192,93072,1,0,0:0:0:0:
256,192,93072,1,0,0:0:0:0:
182,192,93155,1,0,0:0:0:0:
402,192,93155,1,0,0:0:0:0:
36,192,93238,1,0,0:0:0:35:kick_s.wav
256,192,93238,1,0,0:0:0:30:kick_h.wav
329,192,93238,1,0,0:0:0:0:
475,192,93238,1,0,0:0:0:0:
182,192,93322,1,0,0:0:0:0:
402,192,93322,1,0,0:0:0:0:
36,192,93405,1,0,0:0:0:0:
109,192,93405,1,0,0:0:0:0:
329,192,93405,1,0,0:0:0:0:
182,192,93488,1,0,0:0:0:0:
256,192,93488,1,0,0:0:0:0:
36,192,93572,1,0,0:0:0:35:kick_s.wav
329,192,93572,1,0,0:0:0:0:
402,192,93572,1,0,0:0:0:0:
475,192,93572,1,0,0:0:0:0:
109,192,93655,1,0,0:0:0:30:kick_h.wav
182,192,93655,1,0,0:0:0:0:
256,192,93655,1,0,0:0:0:0:
402,192,93738,1,0,0:0:0:0:
109,192,93822,1,0,0:0:0:35:kick_s.wav
182,192,93822,1,0,0:0:0:0:
256,192,93822,1,0,0:0:0:0:
36,192,93905,1,0,0:0:0:35:kick_s.wav
329,192,93905,1,0,0:0:0:30:kick_h.wav
402,192,93905,1,0,0:0:0:0:
475,192,93905,1,0,0:0:0:0:
182,192,93988,1,0,0:0:0:0:
36,192,94072,1,0,0:0:0:35:kick_s.wav
256,192,94072,1,0,0:0:0:0:
329,192,94072,1,0,0:0:0:0:
402,192,94072,1,0,0:0:0:0:
109,192,94155,1,0,0:0:0:0:
182,192,94238,1,0,0:0:0:35:kick_s.wav
256,192,94238,1,0,0:0:0:30:snare.wav
329,192,94238,1,0,0:0:0:0:
475,192,94238,1,0,0:0:0:0:
36,192,94322,1,0,0:0:0:0:
402,192,94322,1,0,0:0:0:0:
109,192,94405,1,0,0:0:0:0:
182,192,94405,1,0,0:0:0:0:
329,192,94405,1,0,0:0:0:0:
256,192,94488,1,0,0:0:0:0:
475,192,94488,1,0,0:0:0:0:
36,192,94572,1,0,0:0:0:35:kick_s.wav
109,192,94572,1,0,0:0:0:30:kick_h.wav
329,192,94572,1,0,0:0:0:0:
402,192,94572,1,0,0:0:0:0:
182,192,94655,1,0,0:0:0:0:
475,192,94655,1,0,0:0:0:0:
36,192,94738,1,0,0:0:0:0:
256,192,94738,1,0,0:0:0:0:
329,192,94738,1,0,0:0:0:0:
109,192,94822,1,0,0:0:0:0:
402,192,94822,1,0,0:0:0:0:
36,192,94905,1,0,0:0:0:35:kick_s.wav
182,192,94905,1,0,0:0:0:0:
256,192,94905,1,0,0:0:0:0:
329,192,94905,1,0,0:0:0:0:
109,192,94988,1,0,0:0:0:0:
475,192,94988,1,0,0:0:0:0:
182,192,95072,1,0,0:0:0:0:
329,192,95072,1,0,0:0:0:0:
402,192,95072,1,0,0:0:0:0:
36,192,95155,1,0,0:0:0:0:
256,192,95155,1,0,0:0:0:0:
329,192,95238,1,0,0:0:0:35:kick_s.wav
402,192,95238,1,0,0:0:0:30:kick_h.wav
475,192,95238,1,0,0:0:0:0:
36,192,95322,1,0,0:0:0:35:kick_s.wav
109,192,95322,1,0,0:0:0:0:
182,192,95322,1,0,0:0:0:0:
256,192,95405,1,0,0:0:0:35:kick_s.wav
402,192,95405,1,0,0:0:0:0:
475,192,95405,1,0,0:0:0:0:
36,192,95488,1,0,0:0:0:35:kick_s.wav
109,192,95488,1,0,0:0:0:0:
329,192,95488,1,0,0:0:0:0:
182,192,95572,1,0,0:0:0:35:kick_s.wav
475,192,95572,1,0,0:0:0:0:
402,192,95613,1,0,0:0:0:0:
109,192,95655,1,0,0:0:0:0:
329,192,95655,1,0,0:0:0:0:
256,192,95697,1,0,0:0:0:0:
36,192,95738,1,0,0:0:0:35:kick_s.wav
182,192,95738,1,0,0:0:0:0:
475,192,95738,1,0,0:0:0:0:
109,192,95822,1,0,0:0:0:35:kick_s.wav
329,192,95822,1,0,0:0:0:0:
402,192,95822,1,0,0:0:0:0:
256,192,95905,1,0,0:0:0:35:kick_s.wav
475,192,95905,1,0,0:0:0:30:kick_h.wav
36,192,95933,1,0,0:0:0:0:
329,192,95961,1,0,0:0:0:0:
109,192,95988,1,0,0:0:0:0:
402,192,96016,1,0,0:0:0:0:
182,192,96044,1,0,0:0:0:0:
475,192,96072,1,0,0:0:0:35:kick_s.wav
256,192,96100,1,0,0:0:0:0:
36,192,96127,1,0,0:0:0:0:
329,192,96155,1,0,0:0:0:0:
109,192,96183,1,0,0:0:0:0:
402,192,96211,1,0,0:0:0:0:
182,192,96238,1,0,0:0:0:35:kick_s.wav
256,192,96238,1,0,0:0:0:30:snare.wav
475,192,96238,1,0,0:0:0:50:cymbal.wav
36,192,96322,1,0,0:0:0:0:
109,192,96322,1,0,0:0:0:0:
182,192,96405,1,0,0:0:0:0:
256,192,96405,1,0,0:0:0:0:
402,192,96405,1,0,0:0:0:0:
36,192,96488,1,0,0:0:0:0:
109,192,96488,1,0,0:0:0:0:
256,192,96572,1,0,0:0:0:35:kick_s.wav
329,192,96572,1,0,0:0:0:30:kick_h.wav
402,192,96572,1,0,0:0:0:0:
475,192,96572,1,0,0:0:0:0:
109,192,96655,1,0,0:0:0:0:
182,192,96655,1,0,0:0:0:0:
256,192,96738,1,0,0:0:0:0:
329,192,96738,1,0,0:0:0:0:
475,192,96738,1,0,0:0:0:0:
109,192,96822,1,0,0:0:0:0:
182,192,96822,1,0,0:0:0:0:
36,192,96905,1,0,0:0:0:35:kick_s.wav
329,192,96905,1,0,0:0:0:0:
402,192,96905,1,0,0:0:0:0:
475,192,96905,1,0,0:0:0:0:
182,192,96988,1,0,0:0:0:0:
256,192,96988,1,0,0:0:0:0:
36,192,97072,1,0,0:0:0:0:
329,192,97072,1,0,0:0:0:0:
402,192,97072,1,0,0:0:0:0:
182,192,97155,1,0,0:0:0:0:
256,192,97155,1,0,0:0:0:0:
36,192,97238,1,0,0:0:0:35:kick_s.wav
109,192,97238,1,0,0:0:0:30:kick_h.wav
402,192,97238,1,0,0:0:0:0:
475,192,97238,1,0,0:0:0:0:
256,192,97322,1,0,0:0:0:0:
329,192,97322,1,0,0:0:0:0:
109,192,97405,1,0,0:0:0:0:
402,192,97405,1,0,0:0:0:0:
475,192,97405,1,0,0:0:0:0:
256,192,97488,1,0,0:0:0:0:
329,192,97488,1,0,0:0:0:0:
36,192,97572,1,0,0:0:0:35:kick_s.wav
109,192,97572,1,0,0:0:0:0:
182,192,97572,1,0,0:0:0:0:
475,192,97572,1,0,0:0:0:0:
256,192,97655,1,0,0:0:0:30:kick_h.wav
329,192,97655,1,0,0:0:0:0:
402,192,97655,1,0,0:0:0:0:
109,192,97738,1,0,0:0:0:0:
256,192,97822,1,0,0:0:0:35:kick_s.wav
329,192,97822,1,0,0:0:0:0:
402,192,97822,1,0,0:0:0:0:
36,192,97905,1,0,0:0:0:35:kick_s.wav
109,192,97905,1,0,0:0:0:30:kick_h.wav
182,192,97905,1,0,0:0:0:0:
475,192,97905,1,0,0:0:0:0:
329,192,97988,1,0,0:0:0:0:
109,192,98072,1,0,0:0:0:35:kick_s.wav
182,192,98072,1,0,0:0:0:0:
256,192,98072,1,0,0:0:0:0:
475,192,98072,1,0,0:0:0:0:
402,192,98155,1,0,0:0:0:35:kick_s.wav
36,192,98238,1,0,0:0:0:35:kick_s.wav
182,192,98238,1,0,0:0:0:30:snare.wav
256,192,98238,1,0,0:0:0:0:
329,192,98238,1,0,0:0:0:0:
402,192,98322,1,0,0:0:0:0:
475,192,98322,1,0,0:0:0:0:
109,192,98405,1,0,0:0:0:0:
256,192,98405,1,0,0:0:0:0:
329,192,98405,1,0,0:0:0:0:
402,192,98488,1,0,0:0:0:0:
475,192,98488,1,0,0:0:0:0:
36,192,98572,1,0,0:0:0:35:kick_s.wav
109,192,98572,1,0,0:0:0:30:kick_h.wav
182,192,98572,1,0,0:0:0:0:
256,192,98572,1,0,0:0:0:0:
329,192,98655,1,0,0:0:0:0:
402,192,98655,1,0,0:0:0:0:
36,192,98738,1,0,0:0:0:0:
182,192,98738,1,0,0:0:0:0:
256,192,98738,1,0,0:0:0:0:
329,192,98822,1,0,0:0:0:0:
402,192,98822,1,0,0:0:0:0:
36,192,98905,1,0,0:0:0:35:kick_s.wav
109,192,98905,1,0,0:0:0:0:
182,192,98905,1,0,0:0:0:0:
475,192,98905,1,0,0:0:0:0:
256,192,98988,1,0,0:0:0:0:
329,192,98988,1,0,0:0:0:0:
109,192,99072,1,0,0:0:0:0:
182,192,99072,1,0,0:0:0:0:
475,192,99072,1,0,0:0:0:0:
256,192,99155,1,0,0:0:0:0:
329,192,99155,1,0,0:0:0:0:
36,192,99238,1,0,0:0:0:35:kick_s.wav
109,192,99238,1,0,0:0:0:30:kick_h.wav
402,192,99238,1,0,0:0:0:0:
475,192,99238,1,0,0:0:0:0:
182,192,99322,1,0,0:0:0:0:
256,192,99322,1,0,0:0:0:0:
36,192,99405,1,0,0:0:0:0:
109,192,99405,1,0,0:0:0:0:
402,192,99405,1,0,0:0:0:0:
182,192,99488,1,0,0:0:0:0:
256,192,99488,1,0,0:0:0:0:
36,192,99572,1,0,0:0:0:35:kick_s.wav
329,192,99572,1,0,0:0:0:0:
402,192,99572,1,0,0:0:0:0:
475,192,99572,1,0,0:0:0:0:
109,192,99655,1,0,0:0:0:30:kick_h.wav
182,192,99655,1,0,0:0:0:0:
256,192,99738,1,0,0:0:0:0:
329,192,99738,1,0,0:0:0:0:
475,192,99738,1,0,0:0:0:0:
36,192,99822,1,0,0:0:0:35:kick_s.wav
109,192,99822,1,0,0:0:0:0:
182,192,99822,1,0,0:0:0:0:
256,192,99905,1,0,0:0:0:35:kick_s.wav
402,192,99905,1,0,0:0:0:30:kick_h.wav
475,192,99905,1,0,0:0:0:0:
36,192,99988,1,0,0:0:0:35:kick_s.wav
109,192,99988,1,0,0:0:0:0:
329,192,99988,1,0,0:0:0:0:
182,192,100072,1,0,0:0:0:35:kick_s.wav
402,192,100072,1,0,0:0:0:0:
475,192,100072,1,0,0:0:0:0:
36,192,100155,1,0,0:0:0:35:kick_s.wav
109,192,100155,1,0,0:0:0:0:
256,192,100155,1,0,0:0:0:0:
182,192,100238,1,0,0:0:0:35:kick_s.wav
329,192,100238,1,0,0:0:0:30:snare.wav
402,192,100238,1,0,0:0:0:0:
475,192,100238,1,0,0:0:0:0:
36,192,100322,1,0,0:0:0:0:
256,192,100322,1,0,0:0:0:0:
182,192,100405,1,0,0:0:0:0:
329,192,100405,1,0,0:0:0:0:
402,192,100405,1,0,0:0:0:0:
109,192,100488,1,0,0:0:0:0:
475,192,100488,1,0,0:0:0:0:
36,192,100572,1,0,0:0:0:35:kick_s.wav
182,192,100572,1,0,0:0:0:30:kick_h.wav
256,192,100572,1,0,0:0:0:0:
402,192,100572,1,0,0:0:0:0:
109,192,100655,1,0,0:0:0:0:
329,192,100655,1,0,0:0:0:0:
256,192,100738,1,0,0:0:0:0:
402,192,100738,1,0,0:0:0:0:
475,192,100738,1,0,0:0:0:0:
36,192,100822,1,0,0:0:0:0:
182,192,100822,1,0,0:0:0:0:
109,192,100905,1,0,0:0:0:35:kick_s.wav
256,192,100905,1,0,0:0:0:0:
329,192,100905,1,0,0:0:0:0:
475,192,100905,1,0,0:0:0:0:
182,192,100988,1,0,0:0:0:0:
402,192,100988,1,0,0:0:0:0:
36,192,101072,1,0,0:0:0:0:
329,192,101072,1,0,0:0:0:0:
475,192,101072,1,0,0:0:0:0:
109,192,101155,1,0,0:0:0:0:
256,192,101155,1,0,0:0:0:0:
36,192,101238,1,0,0:0:0:35:kick_s.wav
182,192,101238,1,0,0:0:0:30:kick_h.wav
329,192,101238,1,0,0:0:0:0:
402,192,101238,1,0,0:0:0:0:
256,192,101322,1,0,0:0:0:0:
475,192,101322,1,0,0:0:0:0:
36,192,101405,1,0,0:0:0:0:
109,192,101405,1,0,0:0:0:0:
402,192,101405,1,0,0:0:0:0:
182,192,101488,1,0,0:0:0:0:
329,192,101488,1,0,0:0:0:0:
109,192,101572,1,0,0:0:0:35:kick_s.wav
256,192,101572,1,0,0:0:0:0:
402,192,101572,1,0,0:0:0:0:
475,192,101572,1,0,0:0:0:0:
36,192,101655,1,0,0:0:0:30:kick_h.wav
182,192,101655,1,0,0:0:0:0:
329,192,101655,1,0,0:0:0:0:
475,192,101738,1,0,0:0:0:0:
36,192,101822,1,0,0:0:0:35:kick_s.wav
182,192,101822,1,0,0:0:0:0:
329,192,101822,1,0,0:0:0:0:
109,192,101905,1,0,0:0:0:35:kick_s.wav
256,192,101905,1,0,0:0:0:30:kick_h.wav
402,192,101905,1,0,0:0:0:0:
475,192,101905,1,0,0:0:0:0:
329,192,101988,1,0,0:0:0:0:
36,192,102072,1,0,0:0:0:35:kick_s.wav
109,192,102072,1,0,0:0:0:0:
256,192,102072,1,0,0:0:0:0:
402,192,102072,1,0,0:0:0:0:
475,192,102155,1,0,0:0:0:0:
36,192,102238,1,0,0:0:0:35:kick_s.wav
109,192,102238,1,0,0:0:0:30:snare.wav
182,192,102238,1,0,0:0:0:0:
329,192,102238,1,0,0:0:0:0:
256,192,102322,1,0,0:0:0:0:
475,192,102322,1,0,0:0:0:0:
109,192,102405,1,0,0:0:0:0:
182,192,102405,1,0,0:0:0:0:
329,192,102405,1,0,0:0:0:0:
36,192,102488,1,0,0:0:0:0:
402,192,102488,1,0,0:0:0:0:
109,192,102572,1,0,0:0:0:35:kick_s.wav
256,192,102572,1,0,0:0:0:30:kick_h.wav
329,192,102572,1,0,0:0:0:0:
475,192,102572,1,0,0:0:0:0:
182,192,102655,1,0,0:0:0:0:
402,192,102655,1,0,0:0:0:0:
36,192,102738,1,0,0:0:0:0:
109,192,102738,1,0,0:0:0:0:
256,192,102738,1,0,0:0:0:0:
329,192,102822,1,0,0:0:0:0:
475,192,102822,1,0,0:0:0:0:
36,192,102905,1,0,0:0:0:35:kick_s.wav
182,192,102905,1,0,0:0:0:0:
256,192,102905,1,0,0:0:0:0:
402,192,102905,1,0,0:0:0:0:
109,192,102988,1,0,0:0:0:0:
329,192,102988,1,0,0:0:0:0:
36,192,103072,1,0,0:0:0:0:
182,192,103072,1,0,0:0:0:0:
475,192,103072,1,0,0:0:0:0:
256,192,103155,1,0,0:0:0:0:
402,192,103155,1,0,0:0:0:0:
36,192,103238,1,0,0:0:0:35:kick_s.wav
109,192,103238,1,0,0:0:0:30:kick_h.wav
182,192,103238,1,0,0:0:0:0:
475,192,103238,1,0,0:0:0:0:
256,192,103322,1,0,0:0:0:35:kick_s.wav
329,192,103322,1,0,0:0:0:0:
402,192,103322,1,0,0:0:0:0:
36,192,103405,1,0,0:0:0:35:kick_s.wav
109,192,103405,1,0,0:0:0:0:
475,192,103405,1,0,0:0:0:0:
182,192,103488,1,0,0:0:0:35:kick_s.wav
256,192,103488,1,0,0:0:0:0:
329,192,103488,1,0,0:0:0:0:
36,192,103572,1,0,0:0:0:35:kick_s.wav
475,192,103572,1,0,0:0:0:0:
109,192,103613,1,0,0:0:0:0:
402,192,103613,1,0,0:0:0:0:
182,192,103655,1,0,0:0:0:0:
329,192,103655,1,0,0:0:0:0:
256,192,103697,1,0,0:0:0:0:
36,192,103738,1,0,0:0:0:35:kick_s.wav
109,192,103738,1,0,0:0:0:0:
402,192,103738,1,0,0:0:0:0:
475,192,103738,1,0,0:0:0:0:
182,192,103822,1,0,0:0:0:35:kick_s.wav
256,192,103822,1,0,0:0:0:0:
329,192,103822,1,0,0:0:0:0:
36,192,103905,1,0,0:0:0:35:kick_s.wav
475,192,103905,1,0,0:0:0:30:kick_h.wav
109,192,103947,1,0,0:0:0:0:
402,192,103947,1,0,0:0:0:0:
182,192,103988,1,0,0:0:0:0:
329,192,103988,1,0,0:0:0:0:
36,192,104072,1,0,0:0:0:35:kick_s.wav
475,192,104072,1,0,0:0:0:0:
402,192,104100,1,0,0:0:0:0:
329,192,104127,1,0,0:0:0:0:
256,192,104155,1,0,0:0:0:0:
182,192,104183,1,0,0:0:0:0:
109,192,104211,1,0,0:0:0:0:
36,192,104238,1,0,0:0:0:35:kick_s.wav
402,192,104238,1,0,0:0:0:30:snare.wav
475,192,104238,1,0,0:0:0:0:
256,192,104322,1,0,0:0:0:0:
329,192,104322,1,0,0:0:0:0:
109,192,104405,1,0,0:0:0:0:
182,192,104405,1,0,0:0:0:0:
402,192,104405,1,0,0:0:0:0:
256,192,104488,1,0,0:0:0:0:
475,192,104488,1,0,0:0:0:0:
36,192,104572,1,0,0:0:0:35:kick_s.wav
109,192,104572,1,0,0:0:0:30:kick_h.wav
329,192,104572,1,0,0:0:0:0:
402,192,104572,1,0,0:0:0:0:
182,192,104655,1,0,0:0:0:0:
256,192,104655,1,0,0:0:0:0:
109,192,104738,1,0,0:0:0:0:
329,192,104738,1,0,0:0:0:0:
475,192,104738,1,0,0:0:0:0:
182,192,104822,1,0,0:0:0:0:
402,192,104822,1,0,0:0:0:0:
36,192,104905,1,0,0:0:0:35:kick_s.wav
256,192,104905,1,0,0:0:0:0:
329,192,104905,1,0,0:0:0:0:
475,192,104905,1,0,0:0:0:0:
109,192,104988,1,0,0:0:0:0:
182,192,104988,1,0,0:0:0:0:
36,192,105072,1,0,0:0:0:0:
256,192,105072,1,0,0:0:0:0:
402,192,105072,1,0,0:0:0:0:
109,192,105155,1,0,0:0:0:0:
329,192,105155,1,0,0:0:0:0:
182,192,105238,1,0,0:0:0:35:kick_s.wav
256,192,105238,1,0,0:0:0:30:kick_h.wav
402,192,105238,1,0,0:0:0:0:
475,192,105238,1,0,0:0:0:0:
36,192,105322,1,0,0:0:0:0:
109,192,105322,1,0,0:0:0:0:
182,192,105405,1,0,0:0:0:0:
329,192,105405,1,0,0:0:0:0:
475,192,105405,1,0,0:0:0:0:
36,192,105488,1,0,0:0:0:0:
256,192,105488,1,0,0:0:0:0:
109,192,105572,1,0,0:0:0:35:kick_s.wav
182,192,105572,1,0,0:0:0:0:
402,192,105572,1,0,0:0:0:0:
475,192,105572,1,0,0:0:0:0:
36,192,105655,1,0,0:0:0:30:kick_h.wav
256,192,105655,1,0,0:0:0:0:
329,192,105655,1,0,0:0:0:0:
402,192,105738,1,0,0:0:0:0:
36,192,105822,1,0,0:0:0:35:kick_s.wav
256,192,105822,1,0,0:0:0:0:
329,192,105822,1,0,0:0:0:0:
109,192,105905,1,0,0:0:0:35:kick_s.wav
182,192,105905,1,0,0:0:0:30:kick_h.wav
402,192,105905,1,0,0:0:0:0:
475,192,105905,1,0,0:0:0:0:
256,192,105988,1,0,0:0:0:0:
36,192,106072,1,0,0:0:0:35:kick_s.wav
109,192,106072,1,0,0:0:0:0:
329,192,106072,1,0,0:0:0:0:
402,192,106072,1,0,0:0:0:0:
182,192,106155,1,0,0:0:0:35:kick_s.wav
36,192,106238,1,0,0:0:0:35:kick_s.wav
256,192,106238,1,0,0:0:0:30:snare.wav
329,192,106238,1,0,0:0:0:0:
475,192,106238,1,0,0:0:0:0:
182,192,106322,1,0,0:0:0:0:
402,192,106322,1,0,0:0:0:0:
109,192,106405,1,0,0:0:0:0:
256,192,106405,1,0,0:0:0:0:
329,192,106405,1,0,0:0:0:0:
182,192,106488,1,0,0:0:0:0:
475,192,106488,1,0,0:0:0:0:
36,192,106572,1,0,0:0:0:35:kick_s.wav
109,192,106572,1,0,0:0:0:30:kick_h.wav
329,192,106572,1,0,0:0:0:0:
402,192,106572,1,0,0:0:0:0:
256,192,106655,1,0,0:0:0:0:
475,192,106655,1,0,0:0:0:0:
182,192,106738,1,0,0:0:0:0:
329,192,106738,1,0,0:0:0:0:
402,192,106738,1,0,0:0:0:0:
36,192,106822,1,0,0:0:0:0:
256,192,106822,1,0,0:0:0:0:
109,192,106905,1,0,0:0:0:35:kick_s.wav
182,192,106905,1,0,0:0:0:0:
402,192,106905,1,0,0:0:0:0:
475,192,106905,1,0,0:0:0:0:
36,192,106988,1,0,0:0:0:0:
329,192,106988,1,0,0:0:0:0:
256,192,107072,1,0,0:0:0:0:
402,192,107072,1,0,0:0:0:0:
475,192,107072,1,0,0:0:0:0:
109,192,107155,1,0,0:0:0:0:
329,192,107155,1,0,0:0:0:0:
36,192,107238,1,0,0:0:0:35:kick_s.wav
182,192,107238,1,0,0:0:0:30:kick_h.wav
256,192,107238,1,0,0:0:0:0:
475,192,107238,1,0,0:0:0:0:
109,192,107322,1,0,0:0:0:0:
402,192,107322,1,0,0:0:0:0:
36,192,107405,1,0,0:0:0:0:
256,192,107405,1,0,0:0:0:0:
329,192,107405,1,0,0:0:0:0:
182,192,107488,1,0,0:0:0:0:
475,192,107488,1,0,0:0:0:0:
36,192,107572,1,0,0:0:0:35:kick_s.wav
109,192,107572,1,0,0:0:0:0:
329,192,107572,1,0,0:0:0:0:
402,192,107572,1,0,0:0:0:0:
182,192,107655,1,0,0:0:0:30:kick_h.wav
256,192,107655,1,0,0:0:0:0:
475,192,107655,1,0,0:0:0:0:
402,192,107738,1,0,0:0:0:0:
36,192,107822,1,0,0:0:0:35:kick_s.wav
109,192,107822,1,0,0:0:0:0:
256,192,107822,1,0,0:0:0:0:
182,192,107905,1,0,0:0:0:35:kick_s.wav
402,192,107905,1,0,0:0:0:30:kick_h.wav
475,192,107905,1,0,0:0:0:0:
36,192,107988,1,0,0:0:0:35:kick_s.wav
109,192,107988,1,0,0:0:0:0:
329,192,107988,1,0,0:0:0:0:
182,192,108072,1,0,0:0:0:35:kick_s.wav
402,192,108072,1,0,0:0:0:0:
475,192,108072,1,0,0:0:0:0:
36,192,108155,1,0,0:0:0:35:kick_s.wav
109,192,108155,1,0,0:0:0:0:
256,192,108155,1,0,0:0:0:0:
182,192,108238,1,0,0:0:0:35:kick_s.wav
329,192,108238,1,0,0:0:0:30:snare.wav
402,192,108238,1,0,0:0:0:0:
475,192,108238,1,0,0:0:0:0:
109,192,108322,1,0,0:0:0:0:
256,192,108322,1,0,0:0:0:0:
36,192,108405,1,0,0:0:0:0:
329,192,108405,1,0,0:0:0:0:
475,192,108405,1,0,0:0:0:0:
109,192,108488,1,0,0:0:0:0:
182,192,108488,1,0,0:0:0:0:
36,192,108572,1,0,0:0:0:35:kick_s.wav
256,192,108572,1,0,0:0:0:30:kick_h.wav
402,192,108572,1,0,0:0:0:0:
475,192,108572,1,0,0:0:0:0:
182,192,108655,1,0,0:0:0:0:
329,192,108655,1,0,0:0:0:0:
36,192,108738,1,0,0:0:0:0:
109,192,108738,1,0,0:0:0:0:
402,192,108738,1,0,0:0:0:0:
182,192,108822,1,0,0:0:0:0:
256,192,108822,1,0,0:0:0:0:
36,192,108905,1,0,0:0:0:35:kick_s.wav
109,192,108905,1,0,0:0:0:0:
329,192,108905,1,0,0:0:0:0:
475,192,108905,1,0,0:0:0:0:
256,192,108988,1,0,0:0:0:0:
402,192,108988,1,0,0:0:0:0:
109,192,109072,1,0,0:0:0:0:
182,192,109072,1,0,0:0:0:0:
475,192,109072,1,0,0:0:0:0:
256,192,109155,1,0,0:0:0:0:
329,192,109155,1,0,0:0:0:0:
36,192,109238,1,0,0:0:0:35:kick_s.wav
109,192,109238,1,0,0:0:0:30:kick_h.wav
182,192,109238,1,0,0:0:0:0:
402,192,109238,1,0,0:0:0:0:
329,192,109322,1,0,0:0:0:0:
475,192,109322,1,0,0:0:0:0:
36,192,109405,1,0,0:0:0:0:
109,192,109405,1,0,0:0:0:0:
256,192,109405,1,0,0:0:0:0:
329,192,109488,1,0,0:0:0:0:
402,192,109488,1,0,0:0:0:0:
36,192,109572,1,0,0:0:0:35:kick_s.wav
182,192,109572,1,0,0:0:0:0:
256,192,109572,1,0,0:0:0:0:
475,192,109572,1,0,0:0:0:0:
109,192,109655,1,0,0:0:0:30:kick_h.wav
329,192,109655,1,0,0:0:0:0:
402,192,109655,1,0,0:0:0:0:
182,192,109738,1,0,0:0:0:0:
109,192,109822,1,0,0:0:0:35:kick_s.wav
329,192,109822,1,0,0:0:0:0:
402,192,109822,1,0,0:0:0:0:
36,192,109905,1,0,0:0:0:35:kick_s.wav
182,192,109905,1,0,0:0:0:30:kick_h.wav
256,192,109905,1,0,0:0:0:0:
475,192,109905,1,0,0:0:0:0:
402,192,109988,1,0,0:0:0:0:
36,192,110072,1,0,0:0:0:35:kick_s.wav
109,192,110072,1,0,0:0:0:0:
256,192,110072,1,0,0:0:0:0:
329,192,110072,1,0,0:0:0:0:
475,192,110155,1,0,0:0:0:35:kick_s.wav
109,192,110238,1,0,0:0:0:35:kick_s.wav
182,192,110238,1,0,0:0:0:30:snare.wav
329,192,110238,1,0,0:0:0:0:
402,192,110238,1,0,0:0:0:0:
36,192,110322,1,0,0:0:0:0:
256,192,110322,1,0,0:0:0:0:
182,192,110405,1,0,0:0:0:0:
402,192,110405,1,0,0:0:0:0:
475,192,110405,1,0,0:0:0:0:
109,192,110488,1,0,0:0:0:0:
329,192,110488,1,0,0:0:0:0:
36,192,110572,1,0,0:0:0:35:kick_s.wav
182,192,110572,1,0,0:0:0:30:kick_h.wav
256,192,110572,1,0,0:0:0:0:
475,192,110572,1,0,0:0:0:0:
109,192,110655,1,0,0:0:0:0:
329,192,110655,1,0,0:0:0:0:
36,192,110738,1,0,0:0:0:0:
182,192,110738,1,0,0:0:0:0:
402,192,110738,1,0,0:0:0:0:
256,192,110822,1,0,0:0:0:0:
475,192,110822,1,0,0:0:0:0:
109,192,110905,1,0,0:0:0:35:kick_s.wav
182,192,110905,1,0,0:0:0:0:
329,192,110905,1,0,0:0:0:0:
402,192,110905,1,0,0:0:0:0:
36,192,110988,1,0,0:0:0:0:
256,192,110988,1,0,0:0:0:0:
182,192,111072,1,0,0:0:0:0:
402,192,111072,1,0,0:0:0:0:
475,192,111072,1,0,0:0:0:0:
109,192,111155,1,0,0:0:0:0:
329,192,111155,1,0,0:0:0:0:
36,192,111238,1,0,0:0:0:35:kick_s.wav
182,192,111238,1,0,0:0:0:30:kick_h.wav
475,192,111238,1,0,0:0:0:0:
256,192,111322,1,0,0:0:0:35:kick_s.wav
329,192,111322,1,0,0:0:0:0:
402,192,111322,1,0,0:0:0:0:
36,192,111405,1,0,0:0:0:35:kick_s.wav
109,192,111405,1,0,0:0:0:0:
475,192,111405,1,0,0:0:0:0:
182,192,111488,1,0,0:0:0:35:kick_s.wav
256,192,111488,1,0,0:0:0:0:
329,192,111488,1,0,0:0:0:0:
36,192,111572,1,0,0:0:0:35:kick_s.wav
475,192,111572,1,0,0:0:0:0:
109,192,111613,1,0,0:0:0:0:
402,192,111613,1,0,0:0:0:0:
182,192,111655,1,0,0:0:0:0:
329,192,111655,1,0,0:0:0:0:
256,192,111697,1,0,0:0:0:0:
36,192,111738,1,0,0:0:0:35:kick_s.wav
109,192,111738,1,0,0:0:0:0:
402,192,111738,1,0,0:0:0:0:
475,192,111738,1,0,0:0:0:0:
182,192,111822,1,0,0:0:0:35:kick_s.wav
256,192,111822,1,0,0:0:0:0:
329,192,111822,1,0,0:0:0:0:
36,192,111905,1,0,0:0:0:35:kick_s.wav
475,192,111905,1,0,0:0:0:30:kick_h.wav
402,192,111933,1,0,0:0:0:0:
329,192,111961,1,0,0:0:0:0:
256,192,111988,1,0,0:0:0:0:
182,192,112016,1,0,0:0:0:0:
109,192,112044,1,0,0:0:0:0:
402,192,112072,1,0,0:0:0:0:
329,192,112100,1,0,0:0:0:0:
256,192,112127,1,0,0:0:0:0:
182,192,112155,1,0,0:0:0:0:
109,192,112183,1,0,0:0:0:0:
36,192,112211,1,0,0:0:0:0:
475,192,112238,1,0,0:0:0:35:kick_s.wav
256,192,112280,1,0,0:0:0:0:
402,192,112322,1,0,0:0:0:0:
182,192,112363,1,0,0:0:0:0:
329,192,112405,1,0,0:0:0:0:
109,192,112447,1,0,0:0:0:0:
256,192,112488,1,0,0:0:0:0:
36,192,112530,1,0,0:0:0:0:
182,192,112572,1,0,0:0:0:0:
329,192,112613,1,0,0:0:0:0:
475,192,112655,1,0,0:0:0:0:
256,192,112738,1,0,0:0:0:0:
475,192,112822,1,0,0:0:0:0:
182,192,112905,1,0,0:0:0:0:
475,192,112988,1,0,0:0:0:0:
109,192,113072,1,0,0:0:0:0:
475,192,113155,1,0,0:0:0:0:
36,192,113238,1,0,0:0:0:0:
475,192,113322,1,0,0:0:0:0:
109,192,113405,1,0,0:0:0:0:
475,192,113488,1,0,0:0:0:0:
182,192,113572,1,0,0:0:0:0:
475,192,113655,1,0,0:0:0:0:
256,192,113738,1,0,0:0:0:0:
475,192,113822,1,0,0:0:0:0:
36,192,113905,1,0,0:0:0:0:
475,192,113988,1,0,0:0:0:0:
109,192,114072,1,0,0:0:0:0:
475,192,114155,1,0,0:0:0:0:
182,192,114238,1,0,0:0:0:0:
36,192,114322,1,0,0:0:0:0:
256,192,114405,1,0,0:0:0:0:
36,192,114488,1,0,0:0:0:0:
329,192,114572,1,0,0:0:0:0:
36,192,114655,1,0,0:0:0:0:
402,192,114738,1,0,0:0:0:0:
36,192,114822,1,0,0:0:0:0:
475,192,114905,1,0,0:0:0:0:
36,192,114988,1,0,0:0:0:0:
256,192,115072,1,0,0:0:0:0:
36,192,115155,1,0,0:0:0:0:
329,192,115238,1,0,0:0:0:0:
36,192,115322,1,0,0:0:0:0:
402,192,115405,1,0,0:0:0:0:
36,192,115488,1,0,0:0:0:0:
475,192,115572,1,0,0:0:0:0:
36,192,115655,1,0,0:0:0:0:
402,192,115738,1,0,0:0:0:0:
36,192,115822,1,0,0:0:0:0:
329,192,115905,1,0,0:0:0:0:
36,192,115988,1,0,0:0:0:0:
256,192,116072,1,0,0:0:0:0:
36,192,116155,1,0,0:0:0:0:
182,192,116238,1,0,0:0:0:0:
475,192,116238,1,0,0:0:0:0:
402,192,116286,1,0,0:0:0:0:
36,192,116322,1,0,0:0:0:0:
329,192,116334,1,0,0:0:0:0:
256,192,116381,1,0,0:0:0:0:
475,192,116405,1,0,0:0:0:0:
182,192,116429,1,0,0:0:0:0:
109,192,116477,1,0,0:0:0:0:
329,192,116488,1,0,0:0:0:0:
36,192,116524,1,0,0:0:0:0:
402,192,116572,1,0,0:0:0:0:
256,192,116655,1,0,0:0:0:0:
329,192,116738,1,0,0:0:0:0:
182,192,116822,1,0,0:0:0:0:
256,192,116905,1,0,0:0:0:0:
109,192,116988,1,0,0:0:0:0:
182,192,117072,1,0,0:0:0:0:
36,192,117155,1,0,0:0:0:0:
475,192,117238,1,0,0:0:0:0:
329,192,117322,1,0,0:0:0:0:
402,192,117405,1,0,0:0:0:0:
256,192,117488,1,0,0:0:0:0:
329,192,117572,1,0,0:0:0:0:
182,192,117655,1,0,0:0:0:0:
256,192,117738,1,0,0:0:0:0:
109,192,117822,1,0,0:0:0:0:
182,192,117905,1,0,0:0:0:0:
36,192,117988,1,0,0:0:0:0:
182,192,118072,1,0,0:0:0:0:
329,192,118155,1,0,0:0:0:0:
475,192,118238,1,0,0:0:0:0:
182,192,118322,1,0,0:0:0:0:
109,192,118405,1,0,0:0:0:0:
36,192,118488,1,0,0:0:0:0:
109,192,118572,1,0,0:0:0:0:
256,192,118655,1,0,0:0:0:0:
182,192,118738,1,0,0:0:0:0:
109,192,118822,1,0,0:0:0:0:
182,192,118905,1,0,0:0:0:0:
329,192,118988,1,0,0:0:0:0:
256,192,119072,1,0,0:0:0:0:
182,192,119155,1,0,0:0:0:0:
256,192,119238,1,0,0:0:0:0:
402,192,119322,1,0,0:0:0:0:
329,192,119405,1,0,0:0:0:0:
256,192,119488,1,0,0:0:0:0:
329,192,119572,1,0,0:0:0:0:
475,192,119655,1,0,0:0:0:0:
402,192,119738,1,0,0:0:0:0:
329,192,119822,1,0,0:0:0:0:
256,192,119905,1,0,0:0:0:0:
182,192,119988,1,0,0:0:0:0:
109,192,120072,1,0,0:0:0:0:
36,192,120155,1,0,0:0:0:0:
256,192,120238,1,0,0:0:0:35:kick_s.wav
329,192,120238,1,0,0:0:0:50:cymbal.wav
402,192,120238,1,0,0:0:0:0:
475,192,120238,1,0,0:0:0:0:
109,192,120319,1,0,0:0:0:0:
329,192,120401,1,0,0:0:0:0:
182,192,120482,1,0,0:0:0:0:
402,192,120564,1,0,0:0:0:0:
256,192,120645,1,0,0:0:0:0:
36,192,120727,1,0,0:0:0:35:kick_s.wav
109,192,120727,1,0,0:0:0:0:
475,192,120727,1,0,0:0:0:0:
329,192,120808,1,0,0:0:0:0:
182,192,120890,1,0,0:0:0:0:
402,192,120971,1,0,0:0:0:0:
256,192,121053,1,0,0:0:0:0:
109,192,121134,1,0,0:0:0:0:
329,192,121216,1,0,0:0:0:0:
475,192,121216,1,0,0:0:0:0:
36,192,121295,1,0,0:0:0:0:
182,192,121295,1,0,0:0:0:0:
256,192,121375,1,0,0:0:0:0:
402,192,121375,1,0,0:0:0:0:
109,192,121455,1,0,0:0:0:0:
475,192,121455,1,0,0:0:0:0:
182,192,121535,1,0,0:0:0:0:
329,192,121535,1,0,0:0:0:0:
36,192,121614,1,0,0:0:0:0:
402,192,121614,1,0,0:0:0:0:
109,192,121694,1,0,0:0:0:0:
256,192,121694,1,0,0:0:0:0:
329,192,121774,1,0,0:0:0:0:
475,192,121774,1,0,0:0:0:0:
36,192,121854,1,0,0:0:0:0:
182,192,121854,1,0,0:0:0:0:
256,192,121934,1,0,0:0:0:0:
402,192,121934,1,0,0:0:0:0:
109,192,122013,1,0,0:0:0:0:
475,192,122013,1,0,0:0:0:0:
182,192,122093,1,0,0:0:0:0:
329,192,122093,1,0,0:0:0:0:
36,192,122173,1,0,0:0:0:0:
402,192,122173,1,0,0:0:0:0:
109,192,122251,1,0,0:0:0:0:
256,192,122251,1,0,0:0:0:0:
329,192,122329,1,0,0:0:0:0:
475,192,122329,1,0,0:0:0:0:
36,192,122407,1,0,0:0:0:0:
182,192,122407,1,0,0:0:0:0:
256,192,122485,1,0,0:0:0:0:
402,192,122485,1,0,0:0:0:0:
109,192,122563,1,0,0:0:0:0:
475,192,122563,1,0,0:0:0:0:
182,192,122641,1,0,0:0:0:0:
329,192,122641,1,0,0:0:0:0:
36,192,122719,1,0,0:0:0:0:
402,192,122719,1,0,0:0:0:0:
109,192,122798,1,0,0:0:0:0:
256,192,122798,1,0,0:0:0:0:
329,192,122876,1,0,0:0:0:0:
475,192,122876,1,0,0:0:0:0:
36,192,122954,1,0,0:0:0:0:
182,192,122954,1,0,0:0:0:0:
256,192,123032,1,0,0:0:0:0:
402,192,123032,1,0,0:0:0:0:
109,192,123110,1,0,0:0:0:0:
475,192,123110,1,0,0:0:0:0:
182,192,123186,1,0,0:0:0:0:
329,192,123186,1,0,0:0:0:0:
36,192,123263,1,0,0:0:0:0:
402,192,123263,1,0,0:0:0:0:
109,192,123339,1,0,0:0:0:0:
256,192,123339,1,0,0:0:0:0:
329,192,123416,1,0,0:0:0:0:
475,192,123416,1,0,0:0:0:0:
36,192,123492,1,0,0:0:0:0:
182,192,123492,1,0,0:0:0:0:
256,192,123569,1,0,0:0:0:0:
402,192,123569,1,0,0:0:0:0:
109,192,123645,1,0,0:0:0:0:
475,192,123645,1,0,0:0:0:0:
182,192,123722,1,0,0:0:0:0:
329,192,123722,1,0,0:0:0:0:
36,192,123798,1,0,0:0:0:0:
402,192,123798,1,0,0:0:0:0:
109,192,123875,1,0,0:0:0:0:
256,192,123875,1,0,0:0:0:0:
329,192,123951,1,0,0:0:0:0:
475,192,123951,1,0,0:0:0:0:
182,192,124028,1,0,0:0:0:0:
36,192,124065,1,0,0:0:0:0:
402,192,124103,1,0,0:0:0:0:
256,192,124140,1,0,0:0:0:0:
109,192,124178,1,0,0:0:0:0:
475,192,124215,1,0,0:0:0:0:
329,192,124253,1,0,0:0:0:0:
182,192,124290,1,0,0:0:0:0:
36,192,124328,1,0,0:0:0:0:
402,192,124365,1,0,0:0:0:0:
256,192,124403,1,0,0:0:0:0:
109,192,124440,1,0,0:0:0:0:
475,192,124478,1,0,0:0:0:0:
329,192,124515,1,0,0:0:0:0:
182,192,124553,1,0,0:0:0:0:
36,192,124590,1,0,0:0:0:0:
402,192,124628,1,0,0:0:0:0:
256,192,124665,1,0,0:0:0:0:
109,192,124703,1,0,0:0:0:0:
475,192,124740,1,0,0:0:0:0:
329,192,124778,1,0,0:0:0:0:
182,192,124815,1,0,0:0:0:0:
36,192,124853,1,0,0:0:0:0:
402,192,124890,1,0,0:0:0:0:
109,192,124928,1,0,0:0:0:0:
182,192,124964,1,0,0:0:0:0:
256,192,125001,1,0,0:0:0:0:
329,192,125038,1,0,0:0:0:0:
475,192,125075,1,0,0:0:0:0:
36,192,125112,1,0,0:0:0:0:
109,192,125149,1,0,0:0:0:0:
182,192,125186,1,0,0:0:0:0:
402,192,125223,1,0,0:0:0:0:
329,192,125260,1,0,0:0:0:0:
256,192,125297,1,0,0:0:0:0:
182,192,125334,1,0,0:0:0:0:
36,192,125371,1,0,0:0:0:0:
475,192,125408,1,0,0:0:0:0:
402,192,125445,1,0,0:0:0:0:
329,192,125482,1,0,0:0:0:0:
109,192,125519,1,0,0:0:0:0:
182,192,125556,1,0,0:0:0:0:
256,192,125593,1,0,0:0:0:0:
329,192,125629,1,0,0:0:0:0:
475,192,125666,1,0,0:0:0:0:
36,192,125703,1,0,0:0:0:0:
109,192,125740,1,0,0:0:0:0:
182,192,125777,1,0,0:0:0:0:
329,192,125814,1,0,0:0:0:0:
402,192,125850,1,0,0:0:0:0:
475,192,125886,1,0,0:0:0:0:
182,192,125923,1,0,0:0:0:0:
256,192,125959,1,0,0:0:0:0:
329,192,125996,1,0,0:0:0:0:
36,192,126032,1,0,0:0:0:0:
109,192,126068,1,0,0:0:0:0:
182,192,126105,1,0,0:0:0:0:
475,192,126141,1,0,0:0:0:0:
402,192,126178,1,0,0:0:0:0:
329,192,126214,1,0,0:0:0:0:
256,192,126250,1,0,0:0:0:0:
182,192,126287,1,0,0:0:0:0:
109,192,126323,1,0,0:0:0:0:
36,192,126360,1,0,0:0:0:0:
329,192,126396,1,0,0:0:0:0:
402,192,126432,1,0,0:0:0:0:
475,192,126469,1,0,0:0:0:0:
182,192,126505,1,0,0:0:0:0:
256,192,126542,1,0,0:0:0:0:
329,192,126578,1,0,0:0:0:0:
36,192,126614,1,0,0:0:0:0:
109,192,126651,1,0,0:0:0:0:
182,192,126687,1,0,0:0:0:0:
256,192,126723,1,0,0:0:0:0:
475,192,126759,1,0,0:0:0:0:
402,192,126783,1,0,0:0:0:0:
329,192,126807,1,0,0:0:0:0:
182,192,126831,1,0,0:0:0:0:
109,192,126855,1,0,0:0:0:0:
36,192,126879,1,0,0:0:0:0:
256,192,126903,1,0,0:0:0:0:
329,192,126939,1,0,0:0:0:0:
402,192,126975,1,0,0:0:0:0:
475,192,126975,1,0,0:0:0:0:
182,192,127011,1,0,0:0:0:0:
36,192,127047,1,0,0:0:0:0:
109,192,127047,1,0,0:0:0:0:
256,192,127083,1,0,0:0:0:0:
402,192,127119,1,0,0:0:0:0:
475,192,127119,1,0,0:0:0:0:
329,192,127155,1,0,0:0:0:0:
36,192,127191,1,0,0:0:0:0:
109,192,127191,1,0,0:0:0:0:
182,192,127227,1,0,0:0:0:0:
256,192,127263,1,0,0:0:0:0:
402,192,127263,1,0,0:0:0:0:
475,192,127263,1,0,0:0:0:0:
36,192,127336,1,0,0:0:0:0:
182,192,127336,1,0,0:0:0:0:
329,192,127336,1,0,0:0:0:0:
109,192,127408,1,0,0:0:0:0:
256,192,127408,1,0,0:0:0:0:
475,192,127408,1,0,0:0:0:0:
182,192,127480,1,0,0:0:0:0:
329,192,127480,1,0,0:0:0:0:
402,192,127480,1,0,0:0:0:0:
36,192,127552,1,0,0:0:0:35:kick_s.wav
109,192,127552,1,0,0:0:0:50:cymbal.wav
256,192,127552,1,0,0:0:0:0:
475,192,127552,1,0,0:0:0:0:
329,192,127623,1,0,0:0:0:0:
109,192,127694,1,0,0:0:0:30:snare.wav
329,192,127766,1,0,0:0:0:0:
36,192,127837,1,0,0:0:0:35:kick_s.wav
182,192,127837,1,0,0:0:0:0:
402,192,127837,1,0,0:0:0:0:
475,192,127837,1,0,0:0:0:0:
329,192,127909,1,0,0:0:0:0:
109,192,127980,1,0,0:0:0:30:snare.wav
329,192,128052,1,0,0:0:0:0:
36,192,128123,1,0,0:0:0:35:kick_s.wav
182,192,128123,1,0,0:0:0:0:
402,192,128123,1,0,0:0:0:0:
475,192,128123,1,0,0:0:0:0:
329,192,128194,1,0,0:0:0:0:
109,192,128266,1,0,0:0:0:30:snare.wav
329,192,128337,1,0,0:0:0:0:
36,192,128409,1,0,0:0:0:35:kick_s.wav
182,192,128409,1,0,0:0:0:0:
256,192,128409,1,0,0:0:0:0:
475,192,128409,1,0,0:0:0:0:
109,192,128480,1,0,0:0:0:0:
402,192,128480,1,0,0:0:0:0:
36,192,128552,1,0,0:0:0:35:kick_s.wav
256,192,128552,1,0,0:0:0:0:
329,192,128552,1,0,0:0:0:0:
475,192,128552,1,0,0:0:0:0:
182,192,128623,1,0,0:0:0:0:
402,192,128694,1,0,0:0:0:30:snare.wav
182,192,128766,1,0,0:0:0:0:
36,192,128837,1,0,0:0:0:35:kick_s.wav
109,192,128837,1,0,0:0:0:0:
329,192,128837,1,0,0:0:0:0:
475,192,128837,1,0,0:0:0:0:
182,192,128909,1,0,0:0:0:0:
402,192,128980,1,0,0:0:0:30:snare.wav
182,192,129052,1,0,0:0:0:0:
36,192,129123,1,0,0:0:0:35:kick_s.wav
109,192,129123,1,0,0:0:0:0:
329,192,129123,1,0,0:0:0:0:
475,192,129123,1,0,0:0:0:0:
182,192,129194,1,0,0:0:0:0:
402,192,129266,1,0,0:0:0:30:snare.wav
182,192,129337,1,0,0:0:0:0:
36,192,129409,1,0,0:0:0:35:kick_s.wav
256,192,129409,1,0,0:0:0:0:
402,192,129409,1,0,0:0:0:0:
475,192,129409,1,0,0:0:0:0:
109,192,129480,1,0,0:0:0:0:
329,192,129480,1,0,0:0:0:0:
36,192,129552,1,0,0:0:0:35:kick_s.wav
182,192,129552,1,0,0:0:0:0:
256,192,129552,1,0,0:0:0:0:
475,192,129552,1,0,0:0:0:0:
402,192,129623,1,0,0:0:0:0:
182,192,129694,1,0,0:0:0:30:snare.wav
402,192,129766,1,0,0:0:0:0:
36,192,129837,1,0,0:0:0:35:kick_s.wav
109,192,129837,1,0,0:0:0:0:
256,192,129837,1,0,0:0:0:0:
329,192,129837,1,0,0:0:0:0:
402,192,129909,1,0,0:0:0:0:
182,192,129980,1,0,0:0:0:30:snare.wav
402,192,130052,1,0,0:0:0:0:
36,192,130123,1,0,0:0:0:35:kick_s.wav
109,192,130123,1,0,0:0:0:0:
256,192,130123,1,0,0:0:0:0:
329,192,130123,1,0,0:0:0:0:
402,192,130194,1,0,0:0:0:0:
182,192,130266,1,0,0:0:0:30:snare.wav
402,192,130337,1,0,0:0:0:0:
36,192,130409,1,0,0:0:0:35:kick_s.wav
109,192,130409,1,0,0:0:0:0:
256,192,130409,1,0,0:0:0:0:
475,192,130409,1,0,0:0:0:0:
182,192,130480,1,0,0:0:0:0:
329,192,130480,1,0,0:0:0:0:
36,192,130552,1,0,0:0:0:35:kick_s.wav
256,192,130552,1,0,0:0:0:0:
402,192,130552,1,0,0:0:0:0:
475,192,130552,1,0,0:0:0:0:
109,192,130623,1,0,0:0:0:0:
329,192,130694,1,0,0:0:0:30:snare.wav
109,192,130766,1,0,0:0:0:0:
182,192,130837,1,0,0:0:0:35:kick_s.wav
256,192,130837,1,0,0:0:0:0:
402,192,130837,1,0,0:0:0:0:
475,192,130837,1,0,0:0:0:0:
109,192,130909,1,0,0:0:0:0:
329,192,130980,1,0,0:0:0:30:snare.wav
109,192,131052,1,0,0:0:0:0:
182,192,131123,1,0,0:0:0:35:kick_s.wav
256,192,131123,1,0,0:0:0:0:
402,192,131123,1,0,0:0:0:0:
475,192,131123,1,0,0:0:0:0:
109,192,131194,1,0,0:0:0:0:
329,192,131266,1,0,0:0:0:30:snare.wav
36,192,131337,1,0,0:0:0:35:kick_s.wav
109,192,131337,1,0,0:0:0:0:
182,192,131337,1,0,0:0:0:0:
256,192,131409,1,0,0:0:0:35:kick_s.wav
329,192,131409,1,0,0:0:0:0:
402,192,131409,1,0,0:0:0:0:
475,192,131409,1,0,0:0:0:0:
36,192,131480,1,0,0:0:0:0:
182,192,131480,1,0,0:0:0:0:
256,192,131552,1,0,0:0:0:35:kick_s.wav
329,192,131552,1,0,0:0:0:0:
402,192,131552,1,0,0:0:0:0:
475,192,131552,1,0,0:0:0:0:
36,192,131623,1,0,0:0:0:0:
109,192,131623,1,0,0:0:0:0:
182,192,131694,1,0,0:0:0:30:snare.wav
256,192,131694,1,0,0:0:0:0:
329,192,131766,1,0,0:0:0:0:
402,192,131766,1,0,0:0:0:0:
36,192,131837,1,0,0:0:0:35:kick_s.wav
109,192,131837,1,0,0:0:0:0:
182,192,131837,1,0,0:0:0:0:
256,192,131837,1,0,0:0:0:0:
402,192,131909,1,0,0:0:0:0:
475,192,131909,1,0,0:0:0:0:
256,192,131980,1,0,0:0:0:30:snare.wav
329,192,131980,1,0,0:0:0:0:
109,192,132052,1,0,0:0:0:0:
182,192,132052,1,0,0:0:0:0:
36,192,132123,1,0,0:0:0:35:kick_s.wav
329,192,132123,1,0,0:0:0:0:
402,192,132123,1,0,0:0:0:0:
475,192,132123,1,0,0:0:0:0:
182,192,132194,1,0,0:0:0:0:
256,192,132194,1,0,0:0:0:0:
109,192,132266,1,0,0:0:0:30:snare.wav
402,192,132266,1,0,0:0:0:0:
256,192,132337,1,0,0:0:0:0:
329,192,132337,1,0,0:0:0:0:
475,192,132409,1,0,0:0:0:35:kick_s.wav
109,192,132409,1,0,0:0:0:0:
36,192,132409,1,0,0:0:0:0:
182,192,132409,1,0,0:0:0:0:
256,192,132480,1,0,0:0:0:0:
402,192,132480,1,0,0:0:0:0:
36,192,132552,1,0,0:0:0:35:kick_s.wav
182,192,132552,1,0,0:0:0:0:
329,192,132552,1,0,0:0:0:0:
475,192,132552,1,0,0:0:0:0:
109,192,132623,1,0,0:0:0:0:
256,192,132694,1,0,0:0:0:30:snare.wav
109,192,132766,1,0,0:0:0:0:
182,192,132837,1,0,0:0:0:35:kick_s.wav
329,192,132837,1,0,0:0:0:0:
402,192,132837,1,0,0:0:0:0:
475,192,132837,1,0,0:0:0:0:
109,192,132909,1,0,0:0:0:0:
256,192,132980,1,0,0:0:0:30:snare.wav
109,192,133052,1,0,0:0:0:0:
182,192,133123,1,0,0:0:0:35:kick_s.wav
329,192,133123,1,0,0:0:0:0:
402,192,133123,1,0,0:0:0:0:
475,192,133123,1,0,0:0:0:0:
109,192,133194,1,0,0:0:0:0:
256,192,133266,1,0,0:0:0:30:snare.wav
109,192,133337,1,0,0:0:0:0:
36,192,133409,1,0,0:0:0:35:kick_s.wav
256,192,133409,1,0,0:0:0:0:
402,192,133409,1,0,0:0:0:0:
475,192,133409,1,0,0:0:0:0:
182,192,133480,1,0,0:0:0:0:
329,192,133480,1,0,0:0:0:0:
36,192,133552,1,0,0:0:0:35:kick_s.wav
109,192,133552,1,0,0:0:0:0:
256,192,133552,1,0,0:0:0:0:
475,192,133552,1,0,0:0:0:0:
402,192,133623,1,0,0:0:0:0:
256,192,133694,1,0,0:0:0:30:snare.wav
402,192,133766,1,0,0:0:0:0:
36,192,133837,1,0,0:0:0:35:kick_s.wav
109,192,133837,1,0,0:0:0:0:
182,192,133837,1,0,0:0:0:0:
329,192,133837,1,0,0:0:0:0:
402,192,133909,1,0,0:0:0:0:
256,192,133980,1,0,0:0:0:30:snare.wav
402,192,134052,1,0,0:0:0:0:
36,192,134123,1,0,0:0:0:35:kick_s.wav
109,192,134123,1,0,0:0:0:0:
182,192,134123,1,0,0:0:0:0:
329,192,134123,1,0,0:0:0:0:
402,192,134194,1,0,0:0:0:0:
256,192,134266,1,0,0:0:0:30:snare.wav
402,192,134337,1,0,0:0:0:0:
36,192,134409,1,0,0:0:0:35:kick_s.wav
109,192,134409,1,0,0:0:0:0:
256,192,134409,1,0,0:0:0:0:
329,192,134409,1,0,0:0:0:0:
182,192,134480,1,0,0:0:0:0:
475,192,134480,1,0,0:0:0:0:
36,192,134552,1,0,0:0:0:35:kick_s.wav
329,192,134552,1,0,0:0:0:0:
402,192,134552,1,0,0:0:0:0:
109,192,134587,1,0,0:0:0:0:
182,192,134623,1,0,0:0:0:0:
475,192,134623,1,0,0:0:0:0:
256,192,134659,1,0,0:0:0:0:
36,192,134694,1,0,0:0:0:30:snare.wav
329,192,134694,1,0,0:0:0:0:
402,192,134730,1,0,0:0:0:0:
182,192,134766,1,0,0:0:0:0:
475,192,134766,1,0,0:0:0:0:
36,192,134837,1,0,0:0:0:35:kick_s.wav
109,192,134837,1,0,0:0:0:0:
329,192,134837,1,0,0:0:0:0:
256,192,134873,1,0,0:0:0:0:
182,192,134909,1,0,0:0:0:0:
475,192,134909,1,0,0:0:0:0:
36,192,134980,1,0,0:0:0:30:snare.wav
402,192,134980,1,0,0:0:0:0:
109,192,135052,1,0,0:0:0:0:
329,192,135052,1,0,0:0:0:0:
182,192,135123,1,0,0:0:0:35:kick_s.wav
475,192,135123,1,0,0:0:0:0:
256,192,135159,1,0,0:0:0:0:
36,192,135194,1,0,0:0:0:35:kick_s.wav
329,192,135194,1,0,0:0:0:0:
402,192,135230,1,0,0:0:0:0:
182,192,135266,1,0,0:0:0:35:kick_s.wav
475,192,135266,1,0,0:0:0:30:snare.wav
109,192,135302,1,0,0:0:0:0:
36,192,135337,1,0,0:0:0:35:kick_s.wav
329,192,135337,1,0,0:0:0:0:
256,192,135373,1,0,0:0:0:0:
182,192,135409,1,0,0:0:0:35:kick_s.wav
402,192,135409,1,0,0:0:0:0:
475,192,135409,1,0,0:0:0:0:
36,192,135480,1,0,0:0:0:35:kick_s.wav
109,192,135480,1,0,0:0:0:0:
329,192,135480,1,0,0:0:0:0:
182,192,135552,1,0,0:0:0:35:kick_s.wav
256,192,135552,1,0,0:0:0:0:
402,192,135552,1,0,0:0:0:0:
475,192,135552,1,0,0:0:0:0:
36,192,135623,1,0,0:0:0:0:
182,192,135694,1,0,0:0:0:30:snare.wav
329,192,135694,1,0,0:0:0:0:
36,192,135766,1,0,0:0:0:0:
109,192,135766,1,0,0:0:0:0:
256,192,135837,1,0,0:0:0:35:kick_s.wav
329,192,135837,1,0,0:0:0:0:
402,192,135837,1,0,0:0:0:0:
475,192,135837,1,0,0:0:0:0:
109,192,135909,1,0,0:0:0:0:
256,192,135980,1,0,0:0:0:30:snare.wav
402,192,135980,1,0,0:0:0:0:
109,192,136052,1,0,0:0:0:0:
182,192,136052,1,0,0:0:0:0:
36,192,136123,1,0,0:0:0:35:kick_s.wav
329,192,136123,1,0,0:0:0:0:
402,192,136123,1,0,0:0:0:0:
475,192,136123,1,0,0:0:0:0:
182,192,136194,1,0,0:0:0:0:
329,192,136266,1,0,0:0:0:30:snare.wav
475,192,136266,1,0,0:0:0:0:
182,192,136337,1,0,0:0:0:0:
256,192,136337,1,0,0:0:0:0:
36,192,136409,1,0,0:0:0:35:kick_s.wav
109,192,136409,1,0,0:0:0:0:
402,192,136409,1,0,0:0:0:0:
475,192,136409,1,0,0:0:0:0:
182,192,136480,1,0,0:0:0:0:
329,192,136480,1,0,0:0:0:0:
36,192,136552,1,0,0:0:0:35:kick_s.wav
109,192,136552,1,0,0:0:0:0:
256,192,136552,1,0,0:0:0:0:
402,192,136552,1,0,0:0:0:0:
475,192,136623,1,0,0:0:0:0:
182,192,136694,1,0,0:0:0:30:snare.wav
329,192,136694,1,0,0:0:0:0:
402,192,136766,1,0,0:0:0:0:
475,192,136766,1,0,0:0:0:0:
36,192,136837,1,0,0:0:0:35:kick_s.wav
109,192,136837,1,0,0:0:0:0:
182,192,136837,1,0,0:0:0:0:
256,192,136837,1,0,0:0:0:0:
402,192,136909,1,0,0:0:0:0:
109,192,136980,1,0,0:0:0:30:snare.wav
256,192,136980,1,0,0:0:0:0:
329,192,137052,1,0,0:0:0:0:
402,192,137052,1,0,0:0:0:0:
36,192,137123,1,0,0:0:0:35:kick_s.wav
109,192,137123,1,0,0:0:0:0:
182,192,137123,1,0,0:0:0:0:
475,192,137123,1,0,0:0:0:0:
329,192,137194,1,0,0:0:0:0:
36,192,137266,1,0,0:0:0:30:snare.wav
182,192,137266,1,0,0:0:0:0:
256,192,137337,1,0,0:0:0:0:
329,192,137337,1,0,0:0:0:0:
36,192,137409,1,0,0:0:0:35:kick_s.wav
109,192,137409,1,0,0:0:0:0:
402,192,137409,1,0,0:0:0:0:
475,192,137409,1,0,0:0:0:0:
182,192,137480,1,0,0:0:0:0:
256,192,137480,1,0,0:0:0:0:
36,192,137552,1,0,0:0:0:35:kick_s.wav
329,192,137552,1,0,0:0:0:0:
402,192,137552,1,0,0:0:0:0:
475,192,137552,1,0,0:0:0:0:
109,192,137623,1,0,0:0:0:0:
182,192,137694,1,0,0:0:0:30:snare.wav
329,192,137694,1,0,0:0:0:0:
109,192,137766,1,0,0:0:0:0:
256,192,137766,1,0,0:0:0:0:
36,192,137837,1,0,0:0:0:35:kick_s.wav
329,192,137837,1,0,0:0:0:0:
402,192,137837,1,0,0:0:0:0:
475,192,137837,1,0,0:0:0:0:
182,192,137909,1,0,0:0:0:0:
256,192,137980,1,0,0:0:0:30:snare.wav
402,192,137980,1,0,0:0:0:0:
182,192,138052,1,0,0:0:0:0:
329,192,138052,1,0,0:0:0:0:
36,192,138123,1,0,0:0:0:35:kick_s.wav
109,192,138123,1,0,0:0:0:0:
402,192,138123,1,0,0:0:0:0:
475,192,138123,1,0,0:0:0:0:
256,192,138194,1,0,0:0:0:0:
329,192,138266,1,0,0:0:0:30:snare.wav
475,192,138266,1,0,0:0:0:0:
256,192,138337,1,0,0:0:0:0:
402,192,138337,1,0,0:0:0:0:
36,192,138409,1,0,0:0:0:35:kick_s.wav
109,192,138409,1,0,0:0:0:0:
182,192,138409,1,0,0:0:0:0:
475,192,138409,1,0,0:0:0:0:
256,192,138480,1,0,0:0:0:0:
329,192,138480,1,0,0:0:0:0:
36,192,138552,1,0,0:0:0:35:kick_s.wav
109,192,138552,1,0,0:0:0:0:
182,192,138552,1,0,0:0:0:0:
475,192,138552,1,0,0:0:0:0:
402,192,138623,1,0,0:0:0:0:
182,192,138694,1,0,0:0:0:30:snare.wav
329,192,138694,1,0,0:0:0:0:
256,192,138766,1,0,0:0:0:0:
402,192,138766,1,0,0:0:0:0:
36,192,138837,1,0,0:0:0:35:kick_s.wav
109,192,138837,1,0,0:0:0:0:
182,192,138837,1,0,0:0:0:0:
475,192,138837,1,0,0:0:0:0:
329,192,138909,1,0,0:0:0:0:
109,192,138980,1,0,0:0:0:30:snare.wav
256,192,138980,1,0,0:0:0:0:
182,192,139052,1,0,0:0:0:0:
329,192,139052,1,0,0:0:0:0:
36,192,139123,1,0,0:0:0:35:kick_s.wav
109,192,139123,1,0,0:0:0:0:
402,192,139123,1,0,0:0:0:0:
475,192,139123,1,0,0:0:0:0:
256,192,139194,1,0,0:0:0:0:
36,192,139266,1,0,0:0:0:30:snare.wav
182,192,139266,1,0,0:0:0:0:
109,192,139337,1,0,0:0:0:35:kick_s.wav
329,192,139337,1,0,0:0:0:0:
402,192,139337,1,0,0:0:0:0:
36,192,139409,1,0,0:0:0:35:kick_s.wav
182,192,139409,1,0,0:0:0:0:
256,192,139409,1,0,0:0:0:0:
475,192,139409,1,0,0:0:0:0:
329,192,139480,1,0,0:0:0:0:
402,192,139480,1,0,0:0:0:0:
36,192,139552,1,0,0:0:0:35:kick_s.wav
109,192,139552,1,0,0:0:0:0:
182,192,139552,1,0,0:0:0:0:
475,192,139552,1,0,0:0:0:0:
256,192,139623,1,0,0:0:0:0:
402,192,139623,1,0,0:0:0:0:
109,192,139694,1,0,0:0:0:30:snare.wav
329,192,139694,1,0,0:0:0:0:
182,192,139766,1,0,0:0:0:0:
256,192,139766,1,0,0:0:0:0:
36,192,139837,1,0,0:0:0:35:kick_s.wav
329,192,139837,1,0,0:0:0:0:
402,192,139837,1,0,0:0:0:0:
475,192,139837,1,0,0:0:0:0:
109,192,139909,1,0,0:0:0:0:
256,192,139909,1,0,0:0:0:0:
182,192,139980,1,0,0:0:0:30:snare.wav
402,192,139980,1,0,0:0:0:0:
256,192,140052,1,0,0:0:0:0:
329,192,140052,1,0,0:0:0:0:
36,192,140123,1,0,0:0:0:35:kick_s.wav
109,192,140123,1,0,0:0:0:0:
182,192,140123,1,0,0:0:0:0:
475,192,140123,1,0,0:0:0:0:
329,192,140194,1,0,0:0:0:0:
402,192,140194,1,0,0:0:0:0:
109,192,140266,1,0,0:0:0:30:snare.wav
182,192,140266,1,0,0:0:0:0:
256,192,140337,1,0,0:0:0:0:
329,192,140337,1,0,0:0:0:0:
36,192,140409,1,0,0:0:0:35:kick_s.wav
402,192,140409,1,0,0:0:0:30:kick_h.wav
475,192,140409,1,0,0:0:0:0:
109,192,140432,1,0,0:0:0:0:
182,192,140456,1,0,0:0:0:0:
256,192,140480,1,0,0:0:0:0:
36,192,140552,1,0,0:0:0:35:kick_s.wav
402,192,140552,1,0,0:0:0:30:kick_h.wav
475,192,140552,1,0,0:0:0:0:
109,192,140575,1,0,0:0:0:0:
182,192,140599,1,0,0:0:0:0:
256,192,140623,1,0,0:0:0:0:
329,192,140694,1,0,0:0:0:30:snare.wav
475,192,140694,1,0,0:0:0:0:
182,192,140766,1,0,0:0:0:0:
36,192,140837,1,0,0:0:0:35:kick_s.wav
109,192,140837,1,0,0:0:0:0:
256,192,140837,1,0,0:0:0:0:
475,192,140909,1,0,0:0:0:30:kick_h.wav
402,192,140932,1,0,0:0:0:0:
329,192,140956,1,0,0:0:0:0:
36,192,140980,1,0,0:0:0:30:snare.wav
182,192,140980,1,0,0:0:0:0:
256,192,141052,1,0,0:0:0:0:
36,192,141123,1,0,0:0:0:35:kick_s.wav
329,192,141123,1,0,0:0:0:30:kick_h.wav
475,192,141123,1,0,0:0:0:0:
109,192,141147,1,0,0:0:0:0:
182,192,141171,1,0,0:0:0:0:
402,192,141194,1,0,0:0:0:0:
256,192,141266,1,0,0:0:0:30:snare.wav
329,192,141337,1,0,0:0:0:30:kick_h.wav
402,192,141361,1,0,0:0:0:0:
475,192,141385,1,0,0:0:0:0:
36,192,141409,1,0,0:0:0:35:kick_s.wav
109,192,141409,1,0,0:0:0:0:
182,192,141409,1,0,0:0:0:0:
329,192,141480,1,0,0:0:0:30:kick_h.wav
402,192,141504,1,0,0:0:0:0:
475,192,141528,1,0,0:0:0:0:
36,192,141552,1,0,0:0:0:35:kick_s.wav
109,192,141552,1,0,0:0:0:0:
182,192,141552,1,0,0:0:0:0:
256,192,141623,1,0,0:0:0:0:
329,192,141623,1,0,0:0:0:0:
109,192,141694,1,0,0:0:0:30:snare.wav
402,192,141694,1,0,0:0:0:0:
182,192,141766,1,0,0:0:0:0:
256,192,141766,1,0,0:0:0:0:
36,192,141837,1,0,0:0:0:35:kick_s.wav
109,192,141837,1,0,0:0:0:30:kick_h.wav
475,192,141837,1,0,0:0:0:0:
402,192,141861,1,0,0:0:0:0:
329,192,141885,1,0,0:0:0:0:
182,192,141909,1,0,0:0:0:0:
36,192,141980,1,0,0:0:0:30:snare.wav
256,192,141980,1,0,0:0:0:0:
329,192,142052,1,0,0:0:0:0:
475,192,142052,1,0,0:0:0:0:
109,192,142123,1,0,0:0:0:35:kick_s.wav
182,192,142123,1,0,0:0:0:0:
402,192,142123,1,0,0:0:0:0:
36,192,142194,1,0,0:0:0:0:
256,192,142194,1,0,0:0:0:0:
109,192,142266,1,0,0:0:0:30:snare.wav
329,192,142266,1,0,0:0:0:0:
182,192,142337,1,0,0:0:0:0:
475,192,142337,1,0,0:0:0:0:
36,192,142409,1,0,0:0:0:35:kick_s.wav
109,192,142409,1,0,0:0:0:30:kick_h.wav
256,192,142409,1,0,0:0:0:0:
329,192,142432,1,0,0:0:0:0:
402,192,142456,1,0,0:0:0:0:
475,192,142480,1,0,0:0:0:0:
36,192,142552,1,0,0:0:0:35:kick_s.wav
109,192,142552,1,0,0:0:0:30:kick_h.wav
256,192,142552,1,0,0:0:0:0:
402,192,142587,1,0,0:0:0:30:kick_h.wav
182,192,142623,1,0,0:0:0:30:kick_h.wav
329,192,142659,1,0,0:0:0:30:kick_h.wav
109,192,142694,1,0,0:0:0:30:snare.wav
475,192,142694,1,0,0:0:0:0:
36,192,142766,1,0,0:0:0:0:
256,192,142766,1,0,0:0:0:0:
182,192,142837,1,0,0:0:0:35:kick_s.wav
402,192,142837,1,0,0:0:0:30:kick_h.wav
475,192,142837,1,0,0:0:0:0:
36,192,142909,1,0,0:0:0:0:
329,192,142909,1,0,0:0:0:0:
109,192,142980,1,0,0:0:0:30:snare.wav
402,192,142980,1,0,0:0:0:0:
256,192,143052,1,0,0:0:0:0:
475,192,143052,1,0,0:0:0:0:
36,192,143123,1,0,0:0:0:35:kick_s.wav
109,192,143123,1,0,0:0:0:0:
329,192,143123,1,0,0:0:0:0:
182,192,143194,1,0,0:0:0:35:kick_s.wav
402,192,143194,1,0,0:0:0:0:
475,192,143194,1,0,0:0:0:0:
36,192,143266,1,0,0:0:0:35:kick_s.wav
109,192,143266,1,0,0:0:0:30:snare.wav
256,192,143266,1,0,0:0:0:0:
329,192,143337,1,0,0:0:0:35:kick_s.wav
402,192,143337,1,0,0:0:0:0:
475,192,143337,1,0,0:0:0:0:
36,192,143409,1,0,0:0:0:35:kick_s.wav
109,192,143409,1,0,0:0:0:0:
182,192,143409,1,0,0:0:0:0:
256,192,143480,1,0,0:0:0:35:kick_s.wav
329,192,143480,1,0,0:0:0:0:
475,192,143480,1,0,0:0:0:0:
36,192,143552,1,0,0:0:0:35:kick_s.wav
109,192,143552,1,0,0:0:0:50:cymbal.wav
182,192,143552,1,0,0:0:0:0:
402,192,143552,1,0,0:0:0:0:
329,192,143599,1,0,0:0:0:0:
475,192,143647,1,0,0:0:0:0:
109,192,143694,1,0,0:0:0:30:snare.wav
256,192,143694,1,0,0:0:0:0:
402,192,143742,1,0,0:0:0:0:
182,192,143790,1,0,0:0:0:0:
36,192,143837,1,0,0:0:0:35:kick_s.wav
109,192,143837,1,0,0:0:0:0:
329,192,143837,1,0,0:0:0:0:
475,192,143837,1,0,0:0:0:0:
256,192,143885,1,0,0:0:0:0:
182,192,143932,1,0,0:0:0:0:
109,192,143980,1,0,0:0:0:30:snare.wav
402,192,143980,1,0,0:0:0:0:
256,192,144028,1,0,0:0:0:0:
36,192,144075,1,0,0:0:0:0:
109,192,144123,1,0,0:0:0:35:kick_s.wav
329,192,144123,1,0,0:0:0:0:
402,192,144123,1,0,0:0:0:0:
475,192,144123,1,0,0:0:0:0:
182,192,144171,1,0,0:0:0:0:
36,192,144218,1,0,0:0:0:0:
256,192,144266,1,0,0:0:0:30:snare.wav
402,192,144266,1,0,0:0:0:0:
109,192,144313,1,0,0:0:0:0:
329,192,144361,1,0,0:0:0:0:
36,192,144409,1,0,0:0:0:35:kick_s.wav
182,192,144409,1,0,0:0:0:0:
402,192,144409,1,0,0:0:0:0:
475,192,144409,1,0,0:0:0:0:
256,192,144480,1,0,0:0:0:0:
36,192,144552,1,0,0:0:0:35:kick_s.wav
182,192,144552,1,0,0:0:0:0:
402,192,144552,1,0,0:0:0:0:
475,192,144552,1,0,0:0:0:0:
329,192,144599,1,0,0:0:0:0:
109,192,144647,1,0,0:0:0:0:
256,192,144694,1,0,0:0:0:30:snare.wav
475,192,144694,1,0,0:0:0:0:
182,192,144718,1,0,0:0:0:0:
402,192,144718,1,0,0:0:0:0:
36,192,144766,1,0,0:0:0:0:
109,192,144837,1,0,0:0:0:35:kick_s.wav
256,192,144837,1,0,0:0:0:0:
329,192,144837,1,0,0:0:0:0:
475,192,144837,1,0,0:0:0:0:
402,192,144885,1,0,0:0:0:0:
36,192,144932,1,0,0:0:0:0:
182,192,144980,1,0,0:0:0:30:snare.wav
329,192,144980,1,0,0:0:0:0:
475,192,145028,1,0,0:0:0:0:
109,192,145075,1,0,0:0:0:0:
36,192,145123,1,0,0:0:0:35:kick_s.wav
182,192,145123,1,0,0:0:0:0:
256,192,145123,1,0,0:0:0:0:
402,192,145123,1,0,0:0:0:0:
329,192,145171,1,0,0:0:0:0:
475,192,145218,1,0,0:0:0:0:
36,192,145266,1,0,0:0:0:30:kick_h.wav
256,192,145266,1,0,0:0:0:30:snare.wav
109,192,145290,1,0,0:0:0:0:
329,192,145290,1,0,0:0:0:0:
475,192,145337,1,0,0:0:0:0:
36,192,145409,1,0,0:0:0:35:kick_s.wav
109,192,145409,1,0,0:0:0:0:
182,192,145409,1,0,0:0:0:0:
256,192,145409,1,0,0:0:0:0:
402,192,145480,1,0,0:0:0:0:
36,192,145552,1,0,0:0:0:35:kick_s.wav
109,192,145552,1,0,0:0:0:0:
182,192,145552,1,0,0:0:0:0:
256,192,145552,1,0,0:0:0:0:
402,192,145623,1,0,0:0:0:0:
475,192,145623,1,0,0:0:0:0:
36,192,145694,1,0,0:0:0:30:kick_h.wav
256,192,145694,1,0,0:0:0:30:snare.wav
109,192,145718,1,0,0:0:0:0:
329,192,145718,1,0,0:0:0:0:
475,192,145766,1,0,0:0:0:0:
109,192,145837,1,0,0:0:0:35:kick_s.wav
329,192,145837,1,0,0:0:0:30:kick_h.wav
182,192,145861,1,0,0:0:0:0:
402,192,145861,1,0,0:0:0:0:
36,192,145909,1,0,0:0:0:0:
182,192,145980,1,0,0:0:0:30:kick_h.wav
402,192,145980,1,0,0:0:0:30:snare.wav
256,192,146004,1,0,0:0:0:0:
475,192,146004,1,0,0:0:0:0:
109,192,146052,1,0,0:0:0:0:
36,192,146123,1,0,0:0:0:35:kick_s.wav
182,192,146123,1,0,0:0:0:0:
329,192,146123,1,0,0:0:0:0:
402,192,146123,1,0,0:0:0:0:
256,192,146171,1,0,0:0:0:0:
475,192,146218,1,0,0:0:0:0:
109,192,146266,1,0,0:0:0:30:snare.wav
329,192,146266,1,0,0:0:0:0:
182,192,146313,1,0,0:0:0:0:
402,192,146361,1,0,0:0:0:0:
36,192,146409,1,0,0:0:0:35:kick_s.wav
109,192,146409,1,0,0:0:0:0:
256,192,146409,1,0,0:0:0:0:
475,192,146409,1,0,0:0:0:0:
329,192,146480,1,0,0:0:0:0:
36,192,146552,1,0,0:0:0:35:kick_s.wav
109,192,146552,1,0,0:0:0:0:
256,192,146552,1,0,0:0:0:0:
475,192,146552,1,0,0:0:0:0:
402,192,146599,1,0,0:0:0:0:
182,192,146647,1,0,0:0:0:0:
329,192,146694,1,0,0:0:0:30:snare.wav
475,192,146694,1,0,0:0:0:0:
109,192,146742,1,0,0:0:0:0:
256,192,146790,1,0,0:0:0:0:
36,192,146837,1,0,0:0:0:35:kick_s.wav
182,192,146837,1,0,0:0:0:0:
402,192,146837,1,0,0:0:0:0:
475,192,146837,1,0,0:0:0:0:
329,192,146885,1,0,0:0:0:0:
109,192,146932,1,0,0:0:0:0:
256,192,146980,1,0,0:0:0:30:kick_h.wav
475,192,146980,1,0,0:0:0:30:snare.wav
182,192,147004,1,0,0:0:0:0:
402,192,147004,1,0,0:0:0:0:
36,192,147052,1,0,0:0:0:0:
109,192,147123,1,0,0:0:0:35:kick_s.wav
256,192,147123,1,0,0:0:0:0:
329,192,147123,1,0,0:0:0:0:
475,192,147123,1,0,0:0:0:0:
182,192,147171,1,0,0:0:0:0:
402,192,147218,1,0,0:0:0:0:
36,192,147266,1,0,0:0:0:30:snare.wav
256,192,147266,1,0,0:0:0:0:
475,192,147313,1,0,0:0:0:0:
329,192,147361,1,0,0:0:0:0:
36,192,147409,1,0,0:0:0:35:kick_s.wav
109,192,147409,1,0,0:0:0:0:
182,192,147409,1,0,0:0:0:0:
402,192,147409,1,0,0:0:0:0:
256,192,147480,1,0,0:0:0:0:
36,192,147552,1,0,0:0:0:35:kick_s.wav
329,192,147552,1,0,0:0:0:0:
475,192,147552,1,0,0:0:0:0:
402,192,147552,1,0,0:0:0:0:
182,192,147623,1,0,0:0:0:0:
256,192,147623,1,0,0:0:0:0:
109,192,147694,1,0,0:0:0:30:snare.wav
402,192,147694,1,0,0:0:0:0:
256,192,147766,1,0,0:0:0:0:
329,192,147766,1,0,0:0:0:0:
36,192,147837,1,0,0:0:0:35:kick_s.wav
182,192,147837,1,0,0:0:0:30:kick_h.wav
475,192,147837,1,0,0:0:0:0:
109,192,147837,1,0,0:0:0:0:
329,192,147909,1,0,0:0:0:0:
402,192,147909,1,0,0:0:0:0:
109,192,147980,1,0,0:0:0:30:snare.wav
256,192,147980,1,0,0:0:0:0:
402,192,148052,1,0,0:0:0:0:
475,192,148052,1,0,0:0:0:0:
36,192,148123,1,0,0:0:0:35:kick_s.wav
182,192,148123,1,0,0:0:0:0:
329,192,148123,1,0,0:0:0:0:
109,192,148123,1,0,0:0:0:0:
256,192,148194,1,0,0:0:0:0:
475,192,148194,1,0,0:0:0:0:
182,192,148266,1,0,0:0:0:30:snare.wav
402,192,148266,1,0,0:0:0:0:
109,192,148337,1,0,0:0:0:0:
329,192,148337,1,0,0:0:0:0:
36,192,148409,1,0,0:0:0:35:kick_s.wav
256,192,148409,1,0,0:0:0:0:
402,192,148409,1,0,0:0:0:0:
475,192,148409,1,0,0:0:0:0:
182,192,148480,1,0,0:0:0:0:
36,192,148552,1,0,0:0:0:35:kick_s.wav
256,192,148552,1,0,0:0:0:0:
402,192,148552,1,0,0:0:0:0:
475,192,148552,1,0,0:0:0:0:
109,192,148599,1,0,0:0:0:0:
182,192,148647,1,0,0:0:0:0:
256,192,148694,1,0,0:0:0:30:snare.wav
329,192,148742,1,0,0:0:0:0:
402,192,148790,1,0,0:0:0:0:
36,192,148837,1,0,0:0:0:35:kick_s.wav
109,192,148837,1,0,0:0:0:30:kick_h.wav
182,192,148837,1,0,0:0:0:0:
475,192,148837,1,0,0:0:0:0:
329,192,148885,1,0,0:0:0:0:
256,192,148932,1,0,0:0:0:0:
36,192,148980,1,0,0:0:0:30:snare.wav
402,192,148980,1,0,0:0:0:0:
182,192,149028,1,0,0:0:0:0:
329,192,149075,1,0,0:0:0:0:
36,192,149123,1,0,0:0:0:35:kick_s.wav
109,192,149123,1,0,0:0:0:0:
256,192,149123,1,0,0:0:0:0:
475,192,149123,1,0,0:0:0:0:
402,192,149171,1,0,0:0:0:0:
182,192,149218,1,0,0:0:0:0:
109,192,149266,1,0,0:0:0:30:snare.wav
329,192,149266,1,0,0:0:0:0:
256,192,149313,1,0,0:0:0:0:
475,192,149361,1,0,0:0:0:0:
36,192,149409,1,0,0:0:0:35:kick_s.wav
109,192,149409,1,0,0:0:0:30:kick_h.wav
182,192,149409,1,0,0:0:0:0:
329,192,149409,1,0,0:0:0:0:
256,192,149480,1,0,0:0:0:0:
36,192,149552,1,0,0:0:0:35:kick_s.wav
109,192,149552,1,0,0:0:0:0:
182,192,149552,1,0,0:0:0:0:
329,192,149552,1,0,0:0:0:0:
475,192,149599,1,0,0:0:0:0:
256,192,149647,1,0,0:0:0:0:
109,192,149694,1,0,0:0:0:30:kick_h.wav
402,192,149694,1,0,0:0:0:30:snare.wav
182,192,149742,1,0,0:0:0:0:
329,192,149790,1,0,0:0:0:0:
36,192,149837,1,0,0:0:0:35:kick_s.wav
256,192,149837,1,0,0:0:0:30:kick_h.wav
402,192,149837,1,0,0:0:0:0:
475,192,149837,1,0,0:0:0:0:
109,192,149885,1,0,0:0:0:0:
329,192,149932,1,0,0:0:0:0:
36,192,149980,1,0,0:0:0:30:kick_h.wav
182,192,149980,1,0,0:0:0:30:snare.wav
475,192,149980,1,0,0:0:0:0:
402,192,150028,1,0,0:0:0:0:
256,192,150075,1,0,0:0:0:0:
36,192,150123,1,0,0:0:0:35:kick_s.wav
109,192,150123,1,0,0:0:0:0:
182,192,150123,1,0,0:0:0:0:
329,192,150123,1,0,0:0:0:0:
475,192,150171,1,0,0:0:0:0:
256,192,150218,1,0,0:0:0:0:
109,192,150266,1,0,0:0:0:30:snare.wav
402,192,150266,1,0,0:0:0:0:
182,192,150313,1,0,0:0:0:0:
256,192,150361,1,0,0:0:0:0:
36,192,150409,1,0,0:0:0:35:kick_s.wav
329,192,150409,1,0,0:0:0:0:
402,192,150409,1,0,0:0:0:0:
475,192,150409,1,0,0:0:0:0:
182,192,150480,1,0,0:0:0:0:
36,192,150552,1,0,0:0:0:35:kick_s.wav
256,192,150552,1,0,0:0:0:0:
402,192,150552,1,0,0:0:0:0:
475,192,150552,1,0,0:0:0:0:
109,192,150623,1,0,0:0:0:0:
329,192,150623,1,0,0:0:0:0:
182,192,150694,1,0,0:0:0:30:snare.wav
402,192,150694,1,0,0:0:0:0:
256,192,150766,1,0,0:0:0:0:
475,192,150766,1,0,0:0:0:0:
36,192,150837,1,0,0:0:0:35:kick_s.wav
109,192,150837,1,0,0:0:0:0:
182,192,150837,1,0,0:0:0:0:
329,192,150837,1,0,0:0:0:0:
402,192,150909,1,0,0:0:0:0:
475,192,150909,1,0,0:0:0:0:
182,192,150980,1,0,0:0:0:30:snare.wav
256,192,150980,1,0,0:0:0:0:
329,192,151052,1,0,0:0:0:0:
402,192,151052,1,0,0:0:0:0:
36,192,151123,1,0,0:0:0:35:kick_s.wav
109,192,151123,1,0,0:0:0:0:
182,192,151123,1,0,0:0:0:0:
256,192,151194,1,0,0:0:0:35:kick_s.wav
402,192,151194,1,0,0:0:0:0:
475,192,151194,1,0,0:0:0:0:
36,192,151266,1,0,0:0:0:35:kick_s.wav
109,192,151266,1,0,0:0:0:30:snare.wav
329,192,151266,1,0,0:0:0:0:
182,192,151337,1,0,0:0:0:35:kick_s.wav
402,192,151337,1,0,0:0:0:0:
475,192,151337,1,0,0:0:0:0:
36,192,151409,1,0,0:0:0:35:kick_s.wav
109,192,151409,1,0,0:0:0:0:
256,192,151409,1,0,0:0:0:0:
256,192,151480,1,0,0:0:0:35:kick_s.wav
402,192,151480,1,0,0:0:0:0:
475,192,151480,1,0,0:0:0:0:
36,192,151552,1,0,0:0:0:35:kick_s.wav
182,192,151552,1,0,0:0:0:50:cymbal.wav
329,192,151552,1,0,0:0:0:0:
109,192,151599,1,0,0:0:0:0:
402,192,151623,1,0,0:0:0:0:
256,192,151647,1,0,0:0:0:0:
182,192,151694,1,0,0:0:0:30:snare.wav
475,192,151694,1,0,0:0:0:0:
109,192,151742,1,0,0:0:0:0:
329,192,151766,1,0,0:0:0:0:
36,192,151790,1,0,0:0:0:0:
182,192,151837,1,0,0:0:0:35:kick_s.wav
256,192,151837,1,0,0:0:0:0:
475,192,151837,1,0,0:0:0:0:
402,192,151885,1,0,0:0:0:0:
109,192,151909,1,0,0:0:0:0:
329,192,151932,1,0,0:0:0:0:
36,192,151980,1,0,0:0:0:30:snare.wav
256,192,151980,1,0,0:0:0:0:
402,192,152028,1,0,0:0:0:0:
182,192,152052,1,0,0:0:0:0:
475,192,152075,1,0,0:0:0:0:
36,192,152123,1,0,0:0:0:35:kick_s.wav
256,192,152123,1,0,0:0:0:0:
329,192,152123,1,0,0:0:0:0:
109,192,152171,1,0,0:0:0:0:
402,192,152194,1,0,0:0:0:0:
182,192,152218,1,0,0:0:0:0:
256,192,152266,1,0,0:0:0:30:snare.wav
475,192,152266,1,0,0:0:0:0:
109,192,152313,1,0,0:0:0:0:
329,192,152337,1,0,0:0:0:0:
36,192,152361,1,0,0:0:0:0:
182,192,152409,1,0,0:0:0:35:kick_s.wav
256,192,152409,1,0,0:0:0:30:kick_h.wav
402,192,152409,1,0,0:0:0:0:
475,192,152409,1,0,0:0:0:0:
109,192,152480,1,0,0:0:0:0:
36,192,152552,1,0,0:0:0:35:kick_s.wav
329,192,152552,1,0,0:0:0:0:
475,192,152552,1,0,0:0:0:0:
109,192,152599,1,0,0:0:0:0:
402,192,152623,1,0,0:0:0:0:
182,192,152647,1,0,0:0:0:0:
256,192,152694,1,0,0:0:0:30:kick_h.wav
475,192,152694,1,0,0:0:0:30:snare.wav
109,192,152742,1,0,0:0:0:0:
329,192,152766,1,0,0:0:0:0:
36,192,152790,1,0,0:0:0:0:
182,192,152837,1,0,0:0:0:35:kick_s.wav
256,192,152837,1,0,0:0:0:0:
475,192,152837,1,0,0:0:0:0:
402,192,152885,1,0,0:0:0:0:
109,192,152909,1,0,0:0:0:0:
329,192,152932,1,0,0:0:0:0:
36,192,152980,1,0,0:0:0:30:kick_h.wav
256,192,152980,1,0,0:0:0:30:snare.wav
402,192,153028,1,0,0:0:0:0:
182,192,153052,1,0,0:0:0:0:
475,192,153075,1,0,0:0:0:0:
36,192,153123,1,0,0:0:0:35:kick_s.wav
256,192,153123,1,0,0:0:0:30:kick_h.wav
329,192,153123,1,0,0:0:0:0:
109,192,153171,1,0,0:0:0:0:
402,192,153194,1,0,0:0:0:30:kick_h.wav
182,192,153218,1,0,0:0:0:0:
256,192,153266,1,0,0:0:0:30:snare.wav
109,192,153313,1,0,0:0:0:0:
329,192,153337,1,0,0:0:0:0:
36,192,153361,1,0,0:0:0:0:
182,192,153409,1,0,0:0:0:35:kick_s.wav
256,192,153409,1,0,0:0:0:0:
402,192,153409,1,0,0:0:0:0:
475,192,153409,1,0,0:0:0:0:
256,192,153480,1,0,0:0:0:0:
36,192,153552,1,0,0:0:0:35:kick_s.wav
109,192,153552,1,0,0:0:0:0:
402,192,153552,1,0,0:0:0:0:
329,192,153599,1,0,0:0:0:0:
182,192,153623,1,0,0:0:0:0:
475,192,153647,1,0,0:0:0:0:
109,192,153694,1,0,0:0:0:30:snare.wav
402,192,153694,1,0,0:0:0:0:
329,192,153742,1,0,0:0:0:0:
36,192,153766,1,0,0:0:0:0:
256,192,153790,1,0,0:0:0:0:
109,192,153837,1,0,0:0:0:35:kick_s.wav
402,192,153837,1,0,0:0:0:0:
475,192,153837,1,0,0:0:0:0:
182,192,153885,1,0,0:0:0:0:
329,192,153909,1,0,0:0:0:0:
36,192,153932,1,0,0:0:0:0:
109,192,153980,1,0,0:0:0:30:snare.wav
402,192,153980,1,0,0:0:0:0:
182,192,154028,1,0,0:0:0:0:
475,192,154052,1,0,0:0:0:0:
256,192,154075,1,0,0:0:0:0:
36,192,154123,1,0,0:0:0:35:kick_s.wav
109,192,154123,1,0,0:0:0:0:
402,192,154123,1,0,0:0:0:0:
329,192,154171,1,0,0:0:0:0:
182,192,154194,1,0,0:0:0:0:
475,192,154218,1,0,0:0:0:0:
109,192,154266,1,0,0:0:0:30:snare.wav
402,192,154266,1,0,0:0:0:0:
329,192,154313,1,0,0:0:0:0:
36,192,154337,1,0,0:0:0:0:
256,192,154361,1,0,0:0:0:0:
109,192,154409,1,0,0:0:0:35:kick_s.wav
182,192,154409,1,0,0:0:0:0:
402,192,154409,1,0,0:0:0:0:
475,192,154409,1,0,0:0:0:0:
256,192,154480,1,0,0:0:0:0:
36,192,154552,1,0,0:0:0:35:kick_s.wav
109,192,154552,1,0,0:0:0:0:
329,192,154552,1,0,0:0:0:0:
182,192,154599,1,0,0:0:0:0:
475,192,154623,1,0,0:0:0:0:
256,192,154647,1,0,0:0:0:0:
36,192,154694,1,0,0:0:0:30:kick_h.wav
402,192,154694,1,0,0:0:0:30:snare.wav
109,192,154742,1,0,0:0:0:0:
329,192,154766,1,0,0:0:0:0:
256,192,154790,1,0,0:0:0:0:
182,192,154837,1,0,0:0:0:35:kick_s.wav
402,192,154837,1,0,0:0:0:0:
475,192,154837,1,0,0:0:0:0:
329,192,154885,1,0,0:0:0:0:
36,192,154909,1,0,0:0:0:0:
256,192,154932,1,0,0:0:0:0:
109,192,154980,1,0,0:0:0:30:kick_h.wav
475,192,154980,1,0,0:0:0:30:snare.wav
402,192,155028,1,0,0:0:0:0:
182,192,155052,1,0,0:0:0:0:
256,192,155075,1,0,0:0:0:0:
36,192,155123,1,0,0:0:0:35:kick_s.wav
109,192,155123,1,0,0:0:0:0:
329,192,155123,1,0,0:0:0:0:
182,192,155171,1,0,0:0:0:0:
475,192,155194,1,0,0:0:0:0:
256,192,155218,1,0,0:0:0:0:
36,192,155266,1,0,0:0:0:30:snare.wav
402,192,155266,1,0,0:0:0:0:
109,192,155313,1,0,0:0:0:0:
329,192,155337,1,0,0:0:0:35:kick_s.wav
256,192,155361,1,0,0:0:0:0:
36,192,155409,1,0,0:0:0:35:kick_s.wav
182,192,155409,1,0,0:0:0:0:
402,192,155409,1,0,0:0:0:0:
475,192,155409,1,0,0:0:0:0:
402,192,155480,1,0,0:0:0:0:
36,192,155552,1,0,0:0:0:35:kick_s.wav
109,192,155552,1,0,0:0:0:30:kick_h.wav
256,192,155552,1,0,0:0:0:0:
182,192,155552,1,0,0:0:0:0:
329,192,155623,1,0,0:0:0:0:
475,192,155623,1,0,0:0:0:0:
36,192,155694,1,0,0:0:0:30:snare.wav
182,192,155694,1,0,0:0:0:0:
256,192,155766,1,0,0:0:0:0:
402,192,155766,1,0,0:0:0:0:
36,192,155837,1,0,0:0:0:35:kick_s.wav
109,192,155837,1,0,0:0:0:0:
475,192,155837,1,0,0:0:0:0:
182,192,155909,1,0,0:0:0:0:
329,192,155909,1,0,0:0:0:0:
36,192,155980,1,0,0:0:0:30:snare.wav
402,192,155980,1,0,0:0:0:0:
109,192,156052,1,0,0:0:0:0:
256,192,156052,1,0,0:0:0:0:
182,192,156123,1,0,0:0:0:35:kick_s.wav
329,192,156123,1,0,0:0:0:0:
475,192,156123,1,0,0:0:0:0:
36,192,156194,1,0,0:0:0:0:
256,192,156194,1,0,0:0:0:0:
109,192,156266,1,0,0:0:0:30:snare.wav
402,192,156266,1,0,0:0:0:0:
256,192,156337,1,0,0:0:0:0:
475,192,156337,1,0,0:0:0:0:
36,192,156409,1,0,0:0:0:35:kick_s.wav
182,192,156409,1,0,0:0:0:30:kick_h.wav
329,192,156409,1,0,0:0:0:0:
402,192,156409,1,0,0:0:0:0:
109,192,156480,1,0,0:0:0:0:
256,192,156552,1,0,0:0:0:35:kick_s.wav
402,192,156552,1,0,0:0:0:30:kick_h.wav
475,192,156552,1,0,0:0:0:0:
36,192,156599,1,0,0:0:0:0:
182,192,156623,1,0,0:0:0:0:
329,192,156647,1,0,0:0:0:0:
109,192,156694,1,0,0:0:0:30:snare.wav
475,192,156694,1,0,0:0:0:0:
402,192,156742,1,0,0:0:0:0:
182,192,156766,1,0,0:0:0:0:
329,192,156790,1,0,0:0:0:0:
36,192,156837,1,0,0:0:0:35:kick_s.wav
109,192,156837,1,0,0:0:0:0:
256,192,156837,1,0,0:0:0:0:
475,192,156885,1,0,0:0:0:0:
329,192,156909,1,0,0:0:0:0:
182,192,156932,1,0,0:0:0:0:
36,192,156980,1,0,0:0:0:30:snare.wav
402,192,156980,1,0,0:0:0:0:
109,192,157028,1,0,0:0:0:0:
329,192,157052,1,0,0:0:0:0:
182,192,157075,1,0,0:0:0:0:
256,192,157123,1,0,0:0:0:35:kick_s.wav
402,192,157123,1,0,0:0:0:0:
475,192,157123,1,0,0:0:0:0:
36,192,157171,1,0,0:0:0:0:
182,192,157194,1,0,0:0:0:0:
329,192,157218,1,0,0:0:0:0:
109,192,157266,1,0,0:0:0:30:snare.wav
475,192,157266,1,0,0:0:0:0:
402,192,157313,1,0,0:0:0:0:
182,192,157337,1,0,0:0:0:0:
329,192,157361,1,0,0:0:0:0:
36,192,157409,1,0,0:0:0:35:kick_s.wav
109,192,157409,1,0,0:0:0:30:kick_h.wav
256,192,157409,1,0,0:0:0:0:
475,192,157409,1,0,0:0:0:0:
256,192,157480,1,0,0:0:0:0:
182,192,157552,1,0,0:0:0:35:kick_s.wav
329,192,157552,1,0,0:0:0:30:kick_h.wav
402,192,157552,1,0,0:0:0:0:
36,192,157599,1,0,0:0:0:0:
475,192,157623,1,0,0:0:0:0:
109,192,157647,1,0,0:0:0:0:
182,192,157694,1,0,0:0:0:30:snare.wav
329,192,157694,1,0,0:0:0:0:
256,192,157742,1,0,0:0:0:0:
402,192,157766,1,0,0:0:0:0:
36,192,157790,1,0,0:0:0:0:
109,192,157837,1,0,0:0:0:35:kick_s.wav
182,192,157837,1,0,0:0:0:0:
329,192,157837,1,0,0:0:0:0:
475,192,157885,1,0,0:0:0:0:
36,192,157909,1,0,0:0:0:0:
402,192,157932,1,0,0:0:0:0:
182,192,157980,1,0,0:0:0:30:snare.wav
329,192,157980,1,0,0:0:0:0:
256,192,158028,1,0,0:0:0:0:
109,192,158052,1,0,0:0:0:0:
475,192,158075,1,0,0:0:0:0:
182,192,158123,1,0,0:0:0:35:kick_s.wav
329,192,158123,1,0,0:0:0:0:
402,192,158123,1,0,0:0:0:0:
36,192,158171,1,0,0:0:0:0:
475,192,158194,1,0,0:0:0:0:
109,192,158218,1,0,0:0:0:0:
182,192,158266,1,0,0:0:0:30:snare.wav
329,192,158266,1,0,0:0:0:0:
256,192,158313,1,0,0:0:0:0:
402,192,158337,1,0,0:0:0:0:
36,192,158361,1,0,0:0:0:0:
109,192,158409,1,0,0:0:0:35:kick_s.wav
182,192,158409,1,0,0:0:0:0:
329,192,158409,1,0,0:0:0:0:
475,192,158409,1,0,0:0:0:0:
256,192,158480,1,0,0:0:0:0:
36,192,158552,1,0,0:0:0:35:kick_s.wav
109,192,158552,1,0,0:0:0:0:
402,192,158552,1,0,0:0:0:0:
329,192,158599,1,0,0:0:0:0:
182,192,158623,1,0,0:0:0:0:
475,192,158647,1,0,0:0:0:0:
109,192,158694,1,0,0:0:0:30:snare.wav
402,192,158694,1,0,0:0:0:0:
329,192,158742,1,0,0:0:0:0:
36,192,158766,1,0,0:0:0:0:
256,192,158790,1,0,0:0:0:0:
109,192,158837,1,0,0:0:0:35:kick_s.wav
402,192,158837,1,0,0:0:0:0:
475,192,158837,1,0,0:0:0:0:
182,192,158885,1,0,0:0:0:0:
329,192,158909,1,0,0:0:0:0:
36,192,158932,1,0,0:0:0:0:
109,192,158980,1,0,0:0:0:30:snare.wav
402,192,158980,1,0,0:0:0:0:
182,192,159028,1,0,0:0:0:0:
475,192,159052,1,0,0:0:0:0:
256,192,159075,1,0,0:0:0:0:
109,192,159123,1,0,0:0:0:35:kick_s.wav
329,192,159123,1,0,0:0:0:0:
402,192,159123,1,0,0:0:0:0:
36,192,159159,1,0,0:0:0:0:
182,192,159194,1,0,0:0:0:35:kick_s.wav
256,192,159194,1,0,0:0:0:0:
475,192,159194,1,0,0:0:0:0:
402,192,159230,1,0,0:0:0:0:
36,192,159266,1,0,0:0:0:35:kick_s.wav
109,192,159266,1,0,0:0:0:30:snare.wav
329,192,159266,1,0,0:0:0:0:
256,192,159302,1,0,0:0:0:0:
182,192,159337,1,0,0:0:0:35:kick_s.wav
402,192,159337,1,0,0:0:0:0:
475,192,159337,1,0,0:0:0:0:
109,192,159373,1,0,0:0:0:0:
36,192,159409,1,0,0:0:0:35:kick_s.wav
256,192,159409,1,0,0:0:0:0:
329,192,159409,1,0,0:0:0:0:
475,192,159444,1,0,0:0:0:0:
109,192,159480,1,0,0:0:0:35:kick_s.wav
182,192,159480,1,0,0:0:0:0:
402,192,159480,1,0,0:0:0:0:
329,192,159516,1,0,0:0:0:0:
36,192,159552,1,0,0:0:0:0:
256,192,159552,1,0,0:0:0:0:
36,192,160123,1,0,0:0:0:0:
475,192,160123,1,0,0:0:0:0:
182,192,160194,1,0,0:0:0:0:
256,192,160242,1,0,0:0:0:0:
329,192,160290,1,0,0:0:0:0:
402,192,160337,1,0,0:0:0:0:
329,192,160385,1,0,0:0:0:0:
182,192,160432,1,0,0:0:0:0:
109,192,160480,1,0,0:0:0:0:
182,192,160528,1,0,0:0:0:0:
256,192,160575,1,0,0:0:0:0:
329,192,160623,1,0,0:0:0:0:
