osu file format v14

[General]
AudioFilename: audio.mp3
AudioLeadIn: 0
PreviewTime: 78247
Countdown: 0
SampleSet: Normal
StackLeniency: 0.7
Mode: 3
LetterboxInBreaks: 0
SpecialStyle: 0
WidescreenStoryboard: 1

[Editor]
DistanceSpacing: 4
BeatDivisor: 4
GridSize: 32
TimelineZoom: 1.599999

[Metadata]
Title:theyaremanycolors
TitleUnicode:theyaremanycolors
Artist:Frums
ArtistUnicode:Frums
Creator:_Stan
Version:normal
Source:BOFU2017 - LEGENDA EST A MYTH -
Tags:featured artist fa the bms of fighters ultimate 2017 they are many colors electronic instrumental video game experimental psytrance psycore tamc -noname- tyrcs [emiria] victorica_db mappers' guild mg semicolon
BeatmapID:3937813
BeatmapSetID:1909163

[Difficulty]
HPDrainRate:7.4
CircleSize:7
OverallDifficulty:7.4
ApproachRate:5
SliderMultiplier:1.4
SliderTickRate:1

[Events]
//Background and Video events
0,0,"bg.png",0,0
//Break Periods
2,28283,32873
//Storyboard Layer 0 (Background)
//Storyboard Layer 1 (Fail)
//Storyboard Layer 2 (Pass)
//Storyboard Layer 3 (Foreground)
//Storyboard Layer 4 (Overlay)
//Storyboard Sound Samples

[TimingPoints]
73,250,4,1,1,20,1,0
73,-100,4,1,1,20,0,0
39573,333.333333333333,4,1,1,20,1,0
39573,-75.187969924812,4,1,1,20,0,0
40239,250,4,1,1,20,1,0
40239,-100,4,1,1,20,0,0
80239,333.333333333333,6,1,1,20,1,0
80239,-75.187969924812,6,1,1,20,0,1
112238,-75.187969924812,6,1,1,20,0,0
120238,326.086956521739,4,1,1,20,1,0
120238,-76.9230769230769,4,1,1,20,0,0
121216,319.148936170213,6,1,1,20,1,8
121216,-78.7401574803149,6,1,1,20,0,8
122173,312.5,6,1,1,20,1,0
122173,-80,6,1,1,20,0,0
123110,306.122448979592,6,1,1,20,1,8
123110,-81.9672131147541,6,1,1,20,0,8
124028,300,6,1,1,20,1,0
124028,-83.3333333333333,6,1,1,20,0,0
124928,295.566502463054,6,1,1,20,1,8
124928,-84.7457627118644,6,1,1,20,0,8
125814,291.26213592233,6,1,1,20,1,0
125814,-86.2068965517241,6,1,1,20,0,0
126687,288.461538461538,6,1,1,20,1,8
126687,-86.9565217391304,6,1,1,20,0,8
127552,285.714285714286,7,1,1,20,1,0
127552,-87.719298245614,7,1,1,20,0,0

[HitObjects]
475,192,73,5,0,0:0:0:0:
329,192,4073,1,0,0:0:0:0:
182,192,8073,1,0,0:0:0:0:
36,192,12073,1,0,0:0:0:0:
36,192,16073,1,0,0:0:0:0:
256,192,16573,1,0,0:0:0:15:snare.wav
36,192,17323,1,0,0:0:0:0:
256,192,17573,1,0,0:0:0:15:snare.wav
36,192,18073,1,0,0:0:0:0:
256,192,18573,1,0,0:0:0:15:snare.wav
36,192,19323,1,0,0:0:0:0:
256,192,19573,1,0,0:0:0:15:snare.wav
36,192,20073,1,0,0:0:0:0:
475,192,20073,1,0,0:0:0:0:
256,192,20573,1,0,0:0:0:15:snare.wav
36,192,21323,1,0,0:0:0:0:
256,192,21573,1,0,0:0:0:15:snare.wav
36,192,22073,1,0,0:0:0:0:
256,192,22573,1,0,0:0:0:15:snare.wav
36,192,23323,1,0,0:0:0:0:
256,192,23573,1,0,0:0:0:15:snare.wav
36,192,24073,1,0,0:0:0:0:
475,192,24073,1,0,0:0:0:0:
256,192,24573,1,0,0:0:0:15:snare.wav
36,192,25323,1,0,0:0:0:0:
256,192,25573,1,0,0:0:0:15:snare.wav
36,192,26073,1,0,0:0:0:0:
256,192,26573,1,0,0:0:0:15:snare.wav
36,192,27323,1,0,0:0:0:0:
256,192,27573,1,0,0:0:0:15:snare.wav
36,192,28073,1,0,0:0:0:0:
475,192,28073,1,0,0:0:0:0:
329,192,34073,5,0,0:0:0:0:
182,192,37073,1,0,0:0:0:0:
36,192,39573,1,0,0:0:0:0:
329,192,40239,1,0,0:0:0:35:kick_s.wav
402,192,40239,1,0,0:0:0:30:snare.wav
36,192,40489,1,0,0:0:0:35:kick_s.wav
256,192,40739,1,0,0:0:0:35:kick_s.wav
36,192,40989,1,0,0:0:0:35:kick_s.wav
329,192,41239,1,0,0:0:0:35:kick_s.wav
402,192,41239,1,0,0:0:0:30:snare.wav
36,192,41489,1,0,0:0:0:35:kick_s.wav
256,192,41739,1,0,0:0:0:35:kick_s.wav
36,192,41989,1,0,0:0:0:35:kick_s.wav
182,192,42114,1,0,0:0:0:35:kick_s.wav
329,192,42239,1,0,0:0:0:35:kick_s.wav
402,192,42239,1,0,0:0:0:30:snare.wav
36,192,42489,1,0,0:0:0:35:kick_s.wav
256,192,42739,1,0,0:0:0:35:kick_s.wav
36,192,42989,1,0,0:0:0:35:kick_s.wav
329,192,43239,1,0,0:0:0:35:kick_s.wav
402,192,43239,1,0,0:0:0:30:snare.wav
36,192,43489,1,0,0:0:0:35:kick_s.wav
256,192,43614,1,0,0:0:0:35:kick_s.wav
475,192,43864,1,0,0:0:0:35:kick_s.wav
402,192,43989,1,0,0:0:0:35:kick_s.wav
329,192,44114,1,0,0:0:0:35:kick_s.wav
109,192,44239,1,0,0:0:0:35:kick_s.wav
182,192,44239,1,0,0:0:0:30:snare.wav
475,192,44489,1,0,0:0:0:35:kick_s.wav
256,192,44739,1,0,0:0:0:35:kick_s.wav
475,192,44989,1,0,0:0:0:35:kick_s.wav
109,192,45239,1,0,0:0:0:35:kick_s.wav
182,192,45239,1,0,0:0:0:30:snare.wav
475,192,45489,1,0,0:0:0:35:kick_s.wav
256,192,45739,1,0,0:0:0:35:kick_s.wav
475,192,45989,1,0,0:0:0:35:kick_s.wav
329,192,46114,1,0,0:0:0:35:kick_s.wav
109,192,46239,1,0,0:0:0:35:kick_s.wav
182,192,46239,1,0,0:0:0:30:snare.wav
475,192,46489,1,0,0:0:0:35:kick_s.wav
329,192,46739,1,0,0:0:0:35:kick_s.wav
475,192,46989,1,0,0:0:0:35:kick_s.wav
109,192,47239,1,0,0:0:0:35:kick_s.wav
182,192,47239,1,0,0:0:0:30:snare.wav
475,192,47489,1,0,0:0:0:35:kick_s.wav
329,192,47614,1,0,0:0:0:35:kick_s.wav
256,192,47739,1,0,0:0:0:35:kick_s.wav
182,192,47864,1,0,0:0:0:35:kick_s.wav
36,192,47989,1,0,0:0:0:35:kick_s.wav
402,192,48239,1,0,0:0:0:35:kick_s.wav
475,192,48239,1,0,0:0:0:30:snare.wav
109,192,48489,1,0,0:0:0:35:kick_s.wav
329,192,48739,1,0,0:0:0:35:kick_s.wav
109,192,48989,1,0,0:0:0:35:kick_s.wav
402,192,49239,1,0,0:0:0:35:kick_s.wav
475,192,49239,1,0,0:0:0:30:snare.wav
109,192,49489,1,0,0:0:0:35:kick_s.wav
329,192,49739,1,0,0:0:0:35:kick_s.wav
109,192,49989,1,0,0:0:0:35:kick_s.wav
256,192,50114,1,0,0:0:0:35:kick_s.wav
402,192,50239,1,0,0:0:0:35:kick_s.wav
475,192,50239,1,0,0:0:0:30:snare.wav
109,192,50489,1,0,0:0:0:35:kick_s.wav
329,192,50739,1,0,0:0:0:35:kick_s.wav
109,192,50989,1,0,0:0:0:35:kick_s.wav
402,192,51239,1,0,0:0:0:35:kick_s.wav
475,192,51239,1,0,0:0:0:30:snare.wav
109,192,51489,1,0,0:0:0:35:kick_s.wav
329,192,51614,1,0,0:0:0:35:kick_s.wav
475,192,51864,1,0,0:0:0:35:kick_s.wav
402,192,51989,1,0,0:0:0:35:kick_s.wav
256,192,52114,1,0,0:0:0:35:kick_s.wav
36,192,52239,1,0,0:0:0:35:kick_s.wav
109,192,52239,1,0,0:0:0:30:snare.wav
402,192,52489,1,0,0:0:0:35:kick_s.wav
182,192,52739,1,0,0:0:0:35:kick_s.wav
402,192,52989,1,0,0:0:0:35:kick_s.wav
36,192,53239,1,0,0:0:0:35:kick_s.wav
109,192,53239,1,0,0:0:0:30:snare.wav
402,192,53489,1,0,0:0:0:35:kick_s.wav
182,192,53739,1,0,0:0:0:35:kick_s.wav
402,192,53989,1,0,0:0:0:35:kick_s.wav
256,192,54114,1,0,0:0:0:35:kick_s.wav
36,192,54239,1,0,0:0:0:35:kick_s.wav
109,192,54239,1,0,0:0:0:30:snare.wav
402,192,54489,1,0,0:0:0:35:kick_s.wav
182,192,54739,1,0,0:0:0:35:kick_s.wav
402,192,54989,1,0,0:0:0:35:kick_s.wav
256,192,55114,1,0,0:0:0:35:kick_s.wav
36,192,55239,1,0,0:0:0:35:kick_s.wav
475,192,55239,1,0,0:0:0:30:snare.wav
182,192,55364,1,0,0:0:0:35:kick_s.wav
329,192,55489,1,0,0:0:0:35:kick_s.wav
36,192,55739,1,0,0:0:0:35:kick_s.wav
475,192,55739,1,0,0:0:0:0:
329,192,55864,1,0,0:0:0:35:kick_s.wav
182,192,55989,1,0,0:0:0:35:kick_s.wav
402,192,56239,1,0,0:0:0:35:kick_s.wav
475,192,56239,1,0,0:0:0:30:snare.wav
36,192,56489,1,0,0:0:0:35:kick_s.wav
109,192,56614,1,0,0:0:0:0:
182,192,56739,1,0,0:0:0:35:kick_s.wav
256,192,56864,1,0,0:0:0:30:kick_h.wav
329,192,56989,1,0,0:0:0:35:kick_s.wav
36,192,57239,1,0,0:0:0:35:kick_s.wav
109,192,57239,1,0,0:0:0:30:snare.wav
475,192,57489,1,0,0:0:0:35:kick_s.wav
402,192,57614,1,0,0:0:0:0:
329,192,57739,1,0,0:0:0:35:kick_s.wav
256,192,57864,1,0,0:0:0:30:kick_h.wav
182,192,57989,1,0,0:0:0:35:kick_s.wav
109,192,58114,1,0,0:0:0:35:kick_s.wav
402,192,58239,1,0,0:0:0:35:kick_s.wav
475,192,58239,1,0,0:0:0:30:snare.wav
36,192,58489,1,0,0:0:0:35:kick_s.wav
109,192,58614,1,0,0:0:0:0:
182,192,58739,1,0,0:0:0:35:kick_s.wav
256,192,58864,1,0,0:0:0:30:kick_h.wav
329,192,58989,1,0,0:0:0:35:kick_s.wav
402,192,59114,1,0,0:0:0:35:kick_s.wav
36,192,59239,1,0,0:0:0:35:kick_s.wav
109,192,59239,1,0,0:0:0:30:snare.wav
475,192,59489,1,0,0:0:0:35:kick_s.wav
329,192,59614,1,0,0:0:0:35:kick_s.wav
36,192,59864,1,0,0:0:0:35:kick_s.wav
109,192,59989,1,0,0:0:0:35:kick_s.wav
182,192,60114,1,0,0:0:0:35:kick_s.wav
329,192,60239,1,0,0:0:0:35:kick_s.wav
475,192,60239,1,0,0:0:0:30:snare.wav
109,192,60489,1,0,0:0:0:35:kick_s.wav
182,192,60614,1,0,0:0:0:0:
256,192,60739,1,0,0:0:0:35:kick_s.wav
329,192,60864,1,0,0:0:0:30:kick_h.wav
402,192,60989,1,0,0:0:0:35:kick_s.wav
36,192,61239,1,0,0:0:0:35:kick_s.wav
182,192,61239,1,0,0:0:0:30:snare.wav
475,192,61489,1,0,0:0:0:35:kick_s.wav
402,192,61614,1,0,0:0:0:0:
329,192,61739,1,0,0:0:0:35:kick_s.wav
256,192,61864,1,0,0:0:0:30:kick_h.wav
182,192,61989,1,0,0:0:0:35:kick_s.wav
109,192,62114,1,0,0:0:0:35:kick_s.wav
329,192,62239,1,0,0:0:0:35:kick_s.wav
475,192,62239,1,0,0:0:0:30:snare.wav
36,192,62489,1,0,0:0:0:35:kick_s.wav
109,192,62614,1,0,0:0:0:0:
182,192,62739,1,0,0:0:0:35:kick_s.wav
256,192,62864,1,0,0:0:0:30:kick_h.wav
329,192,62989,1,0,0:0:0:35:kick_s.wav
402,192,63114,1,0,0:0:0:35:kick_s.wav
36,192,63239,1,0,0:0:0:35:kick_s.wav
182,192,63239,1,0,0:0:0:30:snare.wav
475,192,63489,1,0,0:0:0:35:kick_s.wav
329,192,63614,1,0,0:0:0:35:kick_s.wav
256,192,63739,1,0,0:0:0:35:kick_s.wav
182,192,63864,1,0,0:0:0:35:kick_s.wav
36,192,63989,1,0,0:0:0:35:kick_s.wav
402,192,64239,1,0,0:0:0:35:kick_s.wav
475,192,64239,1,0,0:0:0:30:snare.wav
182,192,64489,1,0,0:0:0:35:kick_s.wav
109,192,64614,1,0,0:0:0:0:
36,192,64739,1,0,0:0:0:35:kick_s.wav
109,192,64864,1,0,0:0:0:30:kick_h.wav
182,192,64989,1,0,0:0:0:35:kick_s.wav
402,192,65239,1,0,0:0:0:35:kick_s.wav
475,192,65239,1,0,0:0:0:30:snare.wav
182,192,65489,1,0,0:0:0:35:kick_s.wav
109,192,65614,1,0,0:0:0:0:
36,192,65739,1,0,0:0:0:35:kick_s.wav
182,192,65864,1,0,0:0:0:30:kick_h.wav
329,192,65989,1,0,0:0:0:35:kick_s.wav
475,192,66114,1,0,0:0:0:35:kick_s.wav
36,192,66239,1,0,0:0:0:35:kick_s.wav
109,192,66239,1,0,0:0:0:30:snare.wav
329,192,66489,1,0,0:0:0:35:kick_s.wav
402,192,66614,1,0,0:0:0:0:
475,192,66739,1,0,0:0:0:35:kick_s.wav
402,192,66864,1,0,0:0:0:30:kick_h.wav
329,192,66989,1,0,0:0:0:35:kick_s.wav
256,192,67114,1,0,0:0:0:0:
36,192,67239,1,0,0:0:0:35:kick_s.wav
109,192,67239,1,0,0:0:0:30:snare.wav
475,192,67489,1,0,0:0:0:35:kick_s.wav
329,192,67614,1,0,0:0:0:35:kick_s.wav
36,192,67864,1,0,0:0:0:30:kick_h.wav
109,192,67989,1,0,0:0:0:35:kick_s.wav
182,192,68114,1,0,0:0:0:35:kick_s.wav
329,192,68239,1,0,0:0:0:35:kick_s.wav
475,192,68239,1,0,0:0:0:30:snare.wav
109,192,68489,1,0,0:0:0:35:kick_s.wav
182,192,68614,1,0,0:0:0:0:
256,192,68739,1,0,0:0:0:35:kick_s.wav
182,192,68864,1,0,0:0:0:30:kick_h.wav
109,192,68989,1,0,0:0:0:35:kick_s.wav
329,192,69239,1,0,0:0:0:35:kick_s.wav
475,192,69239,1,0,0:0:0:30:snare.wav
109,192,69489,1,0,0:0:0:35:kick_s.wav
329,192,69614,1,0,0:0:0:0:
182,192,69739,1,0,0:0:0:35:kick_s.wav
402,192,69864,1,0,0:0:0:30:kick_h.wav
256,192,69989,1,0,0:0:0:35:kick_s.wav
475,192,70114,1,0,0:0:0:35:kick_s.wav
36,192,70239,1,0,0:0:0:35:kick_s.wav
182,192,70239,1,0,0:0:0:30:snare.wav
402,192,70489,1,0,0:0:0:35:kick_s.wav
182,192,70614,1,0,0:0:0:0:
329,192,70739,1,0,0:0:0:35:kick_s.wav
109,192,70864,1,0,0:0:0:30:kick_h.wav
256,192,70989,1,0,0:0:0:35:kick_s.wav
36,192,71114,1,0,0:0:0:35:kick_s.wav
475,192,71239,1,0,0:0:0:35:kick_s.wav
329,192,71239,1,0,0:0:0:30:snare.wav
36,192,71364,1,0,0:0:0:35:kick_s.wav
109,192,71489,1,0,0:0:0:35:kick_s.wav
182,192,71614,1,0,0:0:0:35:kick_s.wav
256,192,71739,1,0,0:0:0:35:kick_s.wav
329,192,71864,1,0,0:0:0:35:kick_s.wav
402,192,71989,1,0,0:0:0:35:kick_s.wav
475,192,72114,1,0,0:0:0:0:
109,192,72239,1,0,0:0:0:35:kick_s.wav
36,192,72239,1,0,0:0:0:30:kick_h.wav
402,192,72489,1,0,0:0:0:30:snare.wav
256,192,72614,1,0,0:0:0:30:snare.wav
109,192,72739,1,0,0:0:0:35:kick_s.wav
36,192,72739,1,0,0:0:0:30:kick_h.wav
402,192,72989,1,0,0:0:0:30:snare.wav
256,192,73114,1,0,0:0:0:30:snare.wav
475,192,73239,1,0,0:0:0:35:kick_s.wav
36,192,73239,1,0,0:0:0:30:kick_h.wav
182,192,73426,1,0,0:0:0:35:kick_s.wav
329,192,73614,1,0,0:0:0:35:kick_s.wav
475,192,73739,1,0,0:0:0:35:kick_s.wav
36,192,73739,1,0,0:0:0:30:kick_h.wav
329,192,73905,1,0,0:0:0:35:kick_s.wav
182,192,74072,1,0,0:0:0:35:kick_s.wav
475,192,74239,1,0,0:0:0:35:kick_s.wav
402,192,74239,1,0,0:0:0:30:kick_h.wav
109,192,74489,1,0,0:0:0:30:snare.wav
256,192,74614,1,0,0:0:0:30:snare.wav
475,192,74739,1,0,0:0:0:35:kick_s.wav
402,192,74739,1,0,0:0:0:30:kick_h.wav
109,192,74989,1,0,0:0:0:30:snare.wav
256,192,75114,1,0,0:0:0:30:snare.wav
475,192,75239,1,0,0:0:0:35:kick_s.wav
36,192,75239,1,0,0:0:0:30:kick_h.wav
329,192,75426,1,0,0:0:0:35:kick_s.wav
182,192,75614,1,0,0:0:0:35:kick_s.wav
475,192,75739,1,0,0:0:0:35:kick_s.wav
36,192,75739,1,0,0:0:0:30:kick_h.wav
182,192,75905,1,0,0:0:0:35:kick_s.wav
329,192,76072,1,0,0:0:0:35:kick_s.wav
109,192,76239,1,0,0:0:0:35:kick_s.wav
36,192,76239,1,0,0:0:0:50:cymbal.wav
109,192,76426,1,0,0:0:0:35:kick_s.wav
36,192,76426,1,0,0:0:0:0:
256,192,76614,1,0,0:0:0:30:kick_h.wav
475,192,76739,1,0,0:0:0:35:kick_s.wav
402,192,76739,1,0,0:0:0:0:
475,192,76926,1,0,0:0:0:35:kick_s.wav
402,192,76926,1,0,0:0:0:0:
36,192,77114,1,0,0:0:0:30:kick_h.wav
329,192,77239,1,0,0:0:0:35:kick_s.wav
182,192,77239,1,0,0:0:0:0:
329,192,77405,1,0,0:0:0:35:kick_s.wav
182,192,77405,1,0,0:0:0:0:
475,192,77572,1,0,0:0:0:30:kick_h.wav
109,192,77739,1,0,0:0:0:35:kick_s.wav
36,192,77739,1,0,0:0:0:0:
109,192,77905,1,0,0:0:0:35:kick_s.wav
36,192,77905,1,0,0:0:0:0:
256,192,78072,1,0,0:0:0:30:kick_h.wav
475,192,78239,1,0,0:0:0:35:kick_s.wav
36,192,78489,1,0,0:0:0:35:kick_s.wav
475,192,78739,1,0,0:0:0:35:kick_s.wav
36,192,78989,1,0,0:0:0:35:kick_s.wav
402,192,79239,1,0,0:0:0:35:kick_s.wav
329,192,79239,1,0,0:0:0:0:
182,192,79489,1,0,0:0:0:35:kick_s.wav
109,192,79489,1,0,0:0:0:0:
402,192,79739,1,0,0:0:0:35:kick_s.wav
329,192,79739,1,0,0:0:0:0:
182,192,79989,1,0,0:0:0:35:kick_s.wav
109,192,79989,1,0,0:0:0:0:
475,192,80239,1,0,0:0:0:35:kick_s.wav
36,192,80239,1,0,0:0:0:30:snare.wav
402,192,80405,1,0,0:0:0:0:
329,192,80572,1,0,0:0:0:35:kick_s.wav
256,192,80739,1,0,0:0:0:0:
36,192,80905,1,0,0:0:0:35:kick_s.wav
109,192,81072,1,0,0:0:0:0:
182,192,81239,1,0,0:0:0:35:kick_s.wav
256,192,81405,1,0,0:0:0:0:
475,192,81572,1,0,0:0:0:35:kick_s.wav
329,192,81572,1,0,0:0:0:0:
182,192,81905,1,0,0:0:0:35:kick_s.wav
329,192,82072,1,0,0:0:0:35:kick_s.wav
475,192,82239,1,0,0:0:0:35:kick_s.wav
36,192,82239,1,0,0:0:0:30:snare.wav
109,192,82405,1,0,0:0:0:0:
182,192,82572,1,0,0:0:0:35:kick_s.wav
256,192,82739,1,0,0:0:0:0:
475,192,82905,1,0,0:0:0:35:kick_s.wav
402,192,83072,1,0,0:0:0:0:
329,192,83239,1,0,0:0:0:35:kick_s.wav
256,192,83405,1,0,0:0:0:0:
182,192,83572,1,0,0:0:0:35:kick_s.wav
36,192,83572,1,0,0:0:0:0:
329,192,83905,1,0,0:0:0:35:kick_s.wav
329,192,84072,1,0,0:0:0:35:kick_s.wav
109,192,84239,1,0,0:0:0:35:kick_s.wav
36,192,84239,1,0,0:0:0:30:snare.wav
475,192,84405,1,0,0:0:0:0:
402,192,84572,1,0,0:0:0:35:kick_s.wav
329,192,84739,1,0,0:0:0:0:
256,192,84905,1,0,0:0:0:35:kick_s.wav
36,192,85072,1,0,0:0:0:0:
182,192,85239,1,0,0:0:0:35:kick_s.wav
329,192,85405,1,0,0:0:0:0:
475,192,85572,1,0,0:0:0:35:kick_s.wav
36,192,85572,1,0,0:0:0:0:
109,192,85905,1,0,0:0:0:35:kick_s.wav
256,192,86072,1,0,0:0:0:35:kick_s.wav
475,192,86239,1,0,0:0:0:35:kick_s.wav
402,192,86239,1,0,0:0:0:30:snare.wav
36,192,86405,1,0,0:0:0:0:
109,192,86572,1,0,0:0:0:35:kick_s.wav
182,192,86739,1,0,0:0:0:0:
256,192,86905,1,0,0:0:0:35:kick_s.wav
475,192,87072,1,0,0:0:0:0:
329,192,87239,1,0,0:0:0:35:kick_s.wav
182,192,87405,1,0,0:0:0:35:kick_s.wav
329,192,87572,1,0,0:0:0:35:kick_s.wav
182,192,87738,1,0,0:0:0:35:kick_s.wav
329,192,87905,1,0,0:0:0:35:kick_s.wav
182,192,88072,1,0,0:0:0:35:kick_s.wav
475,192,88238,1,0,0:0:0:35:kick_s.wav
36,192,88238,1,0,0:0:0:30:snare.wav
256,192,88405,1,0,0:0:0:0:
109,192,88572,1,0,0:0:0:35:kick_s.wav
329,192,88738,1,0,0:0:0:0:
182,192,88905,1,0,0:0:0:35:kick_s.wav
402,192,89072,1,0,0:0:0:0:
256,192,89238,1,0,0:0:0:35:kick_s.wav
475,192,89405,1,0,0:0:0:0:
36,192,89572,1,0,0:0:0:35:kick_s.wav
329,192,89572,1,0,0:0:0:0:
182,192,89905,1,0,0:0:0:35:kick_s.wav
109,192,90072,1,0,0:0:0:35:kick_s.wav
36,192,90238,1,0,0:0:0:35:kick_s.wav
475,192,90238,1,0,0:0:0:30:snare.wav
256,192,90405,1,0,0:0:0:0:
402,192,90572,1,0,0:0:0:35:kick_s.wav
182,192,90738,1,0,0:0:0:0:
329,192,90905,1,0,0:0:0:35:kick_s.wav
109,192,91072,1,0,0:0:0:0:
256,192,91238,1,0,0:0:0:35:kick_s.wav
36,192,91405,1,0,0:0:0:0:
182,192,91572,1,0,0:0:0:35:kick_s.wav
475,192,91572,1,0,0:0:0:0:
329,192,91905,1,0,0:0:0:35:kick_s.wav
329,192,92072,1,0,0:0:0:35:kick_s.wav
36,192,92238,1,0,0:0:0:35:kick_s.wav
475,192,92238,1,0,0:0:0:30:snare.wav
182,192,92405,1,0,0:0:0:0:
329,192,92572,1,0,0:0:0:35:kick_s.wav
109,192,92738,1,0,0:0:0:0:
256,192,92905,1,0,0:0:0:35:kick_s.wav
402,192,93072,1,0,0:0:0:0:
182,192,93238,1,0,0:0:0:35:kick_s.wav
329,192,93405,1,0,0:0:0:0:
36,192,93572,1,0,0:0:0:35:kick_s.wav
475,192,93572,1,0,0:0:0:0:
182,192,93905,1,0,0:0:0:35:kick_s.wav
109,192,94072,1,0,0:0:0:35:kick_s.wav
36,192,94238,1,0,0:0:0:35:kick_s.wav
475,192,94238,1,0,0:0:0:30:snare.wav
329,192,94405,1,0,0:0:0:0:
182,192,94572,1,0,0:0:0:35:kick_s.wav
402,192,94738,1,0,0:0:0:0:
256,192,94905,1,0,0:0:0:35:kick_s.wav
109,192,95072,1,0,0:0:0:0:
36,192,95238,1,0,0:0:0:35:kick_s.wav
475,192,95238,1,0,0:0:0:30:kick_h.wav
402,192,95405,1,0,0:0:0:35:kick_s.wav
329,192,95572,1,0,0:0:0:35:kick_s.wav
256,192,95738,1,0,0:0:0:35:kick_s.wav
182,192,95905,1,0,0:0:0:35:kick_s.wav
109,192,96072,1,0,0:0:0:35:kick_s.wav
36,192,96238,1,0,0:0:0:35:kick_s.wav
475,192,96238,1,0,0:0:0:30:snare.wav
256,192,96405,1,0,0:0:0:0:
402,192,96572,1,0,0:0:0:35:kick_s.wav
256,192,96738,1,0,0:0:0:0:
402,192,96905,1,0,0:0:0:35:kick_s.wav
256,192,97072,1,0,0:0:0:0:
402,192,97238,1,0,0:0:0:35:kick_s.wav
256,192,97405,1,0,0:0:0:0:
36,192,97572,1,0,0:0:0:35:kick_s.wav
402,192,97572,1,0,0:0:0:0:
182,192,97905,1,0,0:0:0:35:kick_s.wav
109,192,98072,1,0,0:0:0:35:kick_s.wav
36,192,98238,1,0,0:0:0:35:kick_s.wav
475,192,98238,1,0,0:0:0:30:snare.wav
256,192,98405,1,0,0:0:0:0:
109,192,98572,1,0,0:0:0:35:kick_s.wav
256,192,98738,1,0,0:0:0:0:
109,192,98905,1,0,0:0:0:35:kick_s.wav
256,192,99072,1,0,0:0:0:0:
109,192,99238,1,0,0:0:0:35:kick_s.wav
256,192,99405,1,0,0:0:0:0:
109,192,99572,1,0,0:0:0:35:kick_s.wav
475,192,99572,1,0,0:0:0:0:
329,192,99905,1,0,0:0:0:35:kick_s.wav
329,192,100072,1,0,0:0:0:35:kick_s.wav
36,192,100238,1,0,0:0:0:35:kick_s.wav
475,192,100238,1,0,0:0:0:30:snare.wav
182,192,100405,1,0,0:0:0:0:
329,192,100572,1,0,0:0:0:35:kick_s.wav
36,192,100738,1,0,0:0:0:0:
182,192,100905,1,0,0:0:0:35:kick_s.wav
329,192,101072,1,0,0:0:0:0:
36,192,101238,1,0,0:0:0:35:kick_s.wav
182,192,101405,1,0,0:0:0:0:
329,192,101572,1,0,0:0:0:35:kick_s.wav
475,192,101572,1,0,0:0:0:0:
182,192,101905,1,0,0:0:0:35:kick_s.wav
109,192,102072,1,0,0:0:0:35:kick_s.wav
36,192,102238,1,0,0:0:0:35:kick_s.wav
475,192,102238,1,0,0:0:0:30:snare.wav
329,192,102405,1,0,0:0:0:0:
182,192,102572,1,0,0:0:0:35:kick_s.wav
475,192,102738,1,0,0:0:0:0:
329,192,102905,1,0,0:0:0:35:kick_s.wav
182,192,103072,1,0,0:0:0:0:
402,192,103238,1,0,0:0:0:35:kick_s.wav
109,192,103405,1,0,0:0:0:35:kick_s.wav
402,192,103572,1,0,0:0:0:35:kick_s.wav
109,192,103738,1,0,0:0:0:35:kick_s.wav
402,192,103905,1,0,0:0:0:35:kick_s.wav
109,192,104072,1,0,0:0:0:35:kick_s.wav
329,192,104238,1,0,0:0:0:35:kick_s.wav
475,192,104238,1,0,0:0:0:30:snare.wav
36,192,104405,1,0,0:0:0:0:
182,192,104572,1,0,0:0:0:35:kick_s.wav
36,192,104738,1,0,0:0:0:0:
182,192,104905,1,0,0:0:0:35:kick_s.wav
36,192,105072,1,0,0:0:0:0:
182,192,105238,1,0,0:0:0:35:kick_s.wav
36,192,105405,1,0,0:0:0:0:
182,192,105572,1,0,0:0:0:35:kick_s.wav
475,192,105572,1,0,0:0:0:0:
329,192,105905,1,0,0:0:0:35:kick_s.wav
256,192,106072,1,0,0:0:0:35:kick_s.wav
36,192,106238,1,0,0:0:0:35:kick_s.wav
182,192,106238,1,0,0:0:0:30:snare.wav
475,192,106405,1,0,0:0:0:0:
329,192,106572,1,0,0:0:0:35:kick_s.wav
475,192,106738,1,0,0:0:0:0:
329,192,106905,1,0,0:0:0:35:kick_s.wav
475,192,107072,1,0,0:0:0:0:
329,192,107238,1,0,0:0:0:35:kick_s.wav
475,192,107405,1,0,0:0:0:0:
36,192,107572,1,0,0:0:0:35:kick_s.wav
329,192,107572,1,0,0:0:0:0:
182,192,107905,1,0,0:0:0:35:kick_s.wav
182,192,108072,1,0,0:0:0:35:kick_s.wav
36,192,108238,1,0,0:0:0:35:kick_s.wav
475,192,108238,1,0,0:0:0:30:snare.wav
402,192,108405,1,0,0:0:0:0:
329,192,108572,1,0,0:0:0:35:kick_s.wav
36,192,108738,1,0,0:0:0:0:
109,192,108905,1,0,0:0:0:35:kick_s.wav
182,192,109072,1,0,0:0:0:0:
475,192,109238,1,0,0:0:0:35:kick_s.wav
402,192,109405,1,0,0:0:0:0:
36,192,109572,1,0,0:0:0:35:kick_s.wav
329,192,109572,1,0,0:0:0:0:
182,192,109905,1,0,0:0:0:35:kick_s.wav
329,192,110072,1,0,0:0:0:35:kick_s.wav
36,192,110238,1,0,0:0:0:35:kick_s.wav
475,192,110238,1,0,0:0:0:30:snare.wav
109,192,110405,1,0,0:0:0:0:
182,192,110572,1,0,0:0:0:35:kick_s.wav
475,192,110738,1,0,0:0:0:0:
402,192,110905,1,0,0:0:0:35:kick_s.wav
329,192,111072,1,0,0:0:0:0:
36,192,111238,1,0,0:0:0:35:kick_s.wav
475,192,111238,1,0,0:0:0:30:kick_h.wav
109,192,111405,1,0,0:0:0:35:kick_s.wav
182,192,111572,1,0,0:0:0:35:kick_s.wav
329,192,111738,1,0,0:0:0:35:kick_s.wav
182,192,111905,1,0,0:0:0:35:kick_s.wav
329,192,112072,1,0,0:0:0:0:
36,192,112238,1,0,0:0:0:35:kick_s.wav
475,192,112238,1,0,0:0:0:30:snare.wav
109,192,112572,1,0,0:0:0:0:
182,192,112905,1,0,0:0:0:0:
256,192,113238,1,0,0:0:0:0:
329,192,113572,1,0,0:0:0:0:
402,192,113905,1,0,0:0:0:0:
475,192,114238,1,0,0:0:0:0:
402,192,114572,1,0,0:0:0:0:
329,192,114905,1,0,0:0:0:0:
256,192,115238,1,0,0:0:0:0:
182,192,115572,1,0,0:0:0:0:
109,192,115905,1,0,0:0:0:0:
36,192,116238,1,0,0:0:0:0:
182,192,116572,1,0,0:0:0:0:
329,192,116905,1,0,0:0:0:0:
109,192,117238,1,0,0:0:0:0:
256,192,117572,1,0,0:0:0:0:
402,192,117905,1,0,0:0:0:0:
475,192,118238,1,0,0:0:0:0:
329,192,118572,1,0,0:0:0:0:
182,192,118905,1,0,0:0:0:0:
402,192,119238,1,0,0:0:0:0:
256,192,119572,1,0,0:0:0:0:
109,192,119905,1,0,0:0:0:0:
36,192,120238,1,0,0:0:0:35:kick_s.wav
475,192,120238,1,0,0:0:0:50:cymbal.wav
402,192,120564,1,0,0:0:0:0:
36,192,120727,1,0,0:0:0:35:kick_s.wav
329,192,120890,1,0,0:0:0:0:
256,192,121216,1,0,0:0:0:0:
182,192,121535,1,0,0:0:0:0:
109,192,121854,1,0,0:0:0:0:
36,192,122173,1,0,0:0:0:0:
109,192,122485,1,0,0:0:0:0:
182,192,122798,1,0,0:0:0:0:
256,192,123110,1,0,0:0:0:0:
329,192,123416,1,0,0:0:0:0:
402,192,123722,1,0,0:0:0:0:
475,192,124028,1,0,0:0:0:0:
256,192,124328,1,0,0:0:0:0:
402,192,124628,1,0,0:0:0:0:
182,192,124928,1,0,0:0:0:0:
329,192,125223,1,0,0:0:0:0:
109,192,125519,1,0,0:0:0:0:
256,192,125814,1,0,0:0:0:0:
36,192,126105,1,0,0:0:0:0:
329,192,126396,1,0,0:0:0:0:
109,192,126687,1,0,0:0:0:0:
475,192,126975,1,0,0:0:0:0:
402,192,127047,1,0,0:0:0:0:
329,192,127119,1,0,0:0:0:0:
182,192,127263,1,0,0:0:0:0:
109,192,127336,1,0,0:0:0:0:
36,192,127408,1,0,0:0:0:0:
402,192,127552,1,0,0:0:0:35:kick_s.wav
475,192,127552,1,0,0:0:0:50:cymbal.wav
109,192,127694,1,0,0:0:0:30:snare.wav
182,192,127837,1,0,0:0:0:35:kick_s.wav
329,192,127980,1,0,0:0:0:30:snare.wav
402,192,128123,1,0,0:0:0:35:kick_s.wav
256,192,128409,1,0,0:0:0:35:kick_s.wav
36,192,128552,1,0,0:0:0:35:kick_s.wav
109,192,128552,1,0,0:0:0:0:
402,192,128694,1,0,0:0:0:30:snare.wav
329,192,128837,1,0,0:0:0:35:kick_s.wav
182,192,128980,1,0,0:0:0:30:snare.wav
109,192,129123,1,0,0:0:0:35:kick_s.wav
256,192,129409,1,0,0:0:0:35:kick_s.wav
402,192,129552,1,0,0:0:0:35:kick_s.wav
475,192,129552,1,0,0:0:0:0:
36,192,129694,1,0,0:0:0:30:snare.wav
182,192,129837,1,0,0:0:0:35:kick_s.wav
329,192,129980,1,0,0:0:0:30:snare.wav
475,192,130123,1,0,0:0:0:35:kick_s.wav
256,192,130409,1,0,0:0:0:35:kick_s.wav
36,192,130552,1,0,0:0:0:35:kick_s.wav
109,192,130552,1,0,0:0:0:0:
475,192,130694,1,0,0:0:0:30:snare.wav
329,192,130837,1,0,0:0:0:35:kick_s.wav
182,192,130980,1,0,0:0:0:30:snare.wav
36,192,131123,1,0,0:0:0:35:kick_s.wav
402,192,131409,1,0,0:0:0:35:kick_s.wav
36,192,131552,1,0,0:0:0:35:kick_s.wav
109,192,131623,1,0,0:0:0:0:
182,192,131694,1,0,0:0:0:30:snare.wav
329,192,131837,1,0,0:0:0:35:kick_s.wav
402,192,131909,1,0,0:0:0:0:
475,192,131980,1,0,0:0:0:30:snare.wav
109,192,132123,1,0,0:0:0:35:kick_s.wav
329,192,132409,1,0,0:0:0:35:kick_s.wav
36,192,132552,1,0,0:0:0:35:kick_s.wav
475,192,132552,1,0,0:0:0:0:
109,192,132694,1,0,0:0:0:30:snare.wav
182,192,132837,1,0,0:0:0:35:kick_s.wav
256,192,132980,1,0,0:0:0:30:snare.wav
329,192,133123,1,0,0:0:0:35:kick_s.wav
182,192,133409,1,0,0:0:0:35:kick_s.wav
36,192,133552,1,0,0:0:0:35:kick_s.wav
475,192,133552,1,0,0:0:0:0:
402,192,133694,1,0,0:0:0:30:snare.wav
329,192,133837,1,0,0:0:0:35:kick_s.wav
256,192,133980,1,0,0:0:0:30:snare.wav
182,192,134123,1,0,0:0:0:35:kick_s.wav
329,192,134409,1,0,0:0:0:35:kick_s.wav
36,192,134552,1,0,0:0:0:35:kick_s.wav
475,192,134552,1,0,0:0:0:0:
109,192,134694,1,0,0:0:0:30:snare.wav
182,192,134837,1,0,0:0:0:35:kick_s.wav
256,192,134980,1,0,0:0:0:30:snare.wav
475,192,135123,1,0,0:0:0:35:kick_s.wav
329,192,135266,1,0,0:0:0:35:kick_s.wav
182,192,135409,1,0,0:0:0:35:kick_s.wav
36,192,135552,1,0,0:0:0:35:kick_s.wav
475,192,135552,1,0,0:0:0:0:
402,192,135694,1,0,0:0:0:30:snare.wav
329,192,135837,1,0,0:0:0:35:kick_s.wav
256,192,135980,1,0,0:0:0:30:snare.wav
109,192,136123,1,0,0:0:0:35:kick_s.wav
329,192,136409,1,0,0:0:0:35:kick_s.wav
36,192,136552,1,0,0:0:0:35:kick_s.wav
475,192,136552,1,0,0:0:0:0:
109,192,136694,1,0,0:0:0:30:snare.wav
182,192,136837,1,0,0:0:0:35:kick_s.wav
256,192,136980,1,0,0:0:0:30:snare.wav
402,192,137123,1,0,0:0:0:35:kick_s.wav
182,192,137409,1,0,0:0:0:35:kick_s.wav
36,192,137552,1,0,0:0:0:35:kick_s.wav
475,192,137552,1,0,0:0:0:0:
402,192,137694,1,0,0:0:0:30:snare.wav
329,192,137837,1,0,0:0:0:35:kick_s.wav
256,192,137980,1,0,0:0:0:30:snare.wav
109,192,138123,1,0,0:0:0:35:kick_s.wav
329,192,138409,1,0,0:0:0:35:kick_s.wav
36,192,138552,1,0,0:0:0:35:kick_s.wav
475,192,138552,1,0,0:0:0:0:
109,192,138694,1,0,0:0:0:30:snare.wav
182,192,138837,1,0,0:0:0:35:kick_s.wav
256,192,138980,1,0,0:0:0:30:snare.wav
402,192,139123,1,0,0:0:0:35:kick_s.wav
109,192,139409,1,0,0:0:0:35:kick_s.wav
475,192,139552,1,0,0:0:0:35:kick_s.wav
402,192,139623,1,0,0:0:0:0:
329,192,139694,1,0,0:0:0:30:snare.wav
182,192,139837,1,0,0:0:0:35:kick_s.wav
109,192,139909,1,0,0:0:0:0:
36,192,139980,1,0,0:0:0:30:snare.wav
402,192,140123,1,0,0:0:0:35:kick_s.wav
256,192,140409,1,0,0:0:0:35:kick_s.wav
36,192,140552,1,0,0:0:0:35:kick_s.wav
109,192,140552,1,0,0:0:0:30:kick_h.wav
475,192,140694,1,0,0:0:0:30:snare.wav
329,192,140837,1,0,0:0:0:35:kick_s.wav
182,192,140980,1,0,0:0:0:30:snare.wav
36,192,141123,1,0,0:0:0:35:kick_s.wav
256,192,141409,1,0,0:0:0:35:kick_s.wav
402,192,141552,1,0,0:0:0:35:kick_s.wav
475,192,141552,1,0,0:0:0:0:
36,192,141694,1,0,0:0:0:30:snare.wav
182,192,141837,1,0,0:0:0:35:kick_s.wav
329,192,141980,1,0,0:0:0:30:snare.wav
475,192,142123,1,0,0:0:0:35:kick_s.wav
256,192,142409,1,0,0:0:0:35:kick_s.wav
36,192,142552,1,0,0:0:0:35:kick_s.wav
109,192,142552,1,0,0:0:0:30:kick_h.wav
475,192,142694,1,0,0:0:0:30:snare.wav
329,192,142837,1,0,0:0:0:35:kick_s.wav
36,192,142980,1,0,0:0:0:30:snare.wav
109,192,143123,1,0,0:0:0:35:kick_s.wav
182,192,143266,1,0,0:0:0:35:kick_s.wav
256,192,143409,1,0,0:0:0:35:kick_s.wav
402,192,143552,1,0,0:0:0:35:kick_s.wav
475,192,143552,1,0,0:0:0:50:cymbal.wav
36,192,143694,1,0,0:0:0:30:snare.wav
182,192,143837,1,0,0:0:0:35:kick_s.wav
329,192,143980,1,0,0:0:0:30:snare.wav
182,192,144123,1,0,0:0:0:35:kick_s.wav
256,192,144409,1,0,0:0:0:35:kick_s.wav
36,192,144552,1,0,0:0:0:35:kick_s.wav
109,192,144552,1,0,0:0:0:0:
475,192,144694,1,0,0:0:0:30:snare.wav
329,192,144837,1,0,0:0:0:35:kick_s.wav
182,192,144980,1,0,0:0:0:30:snare.wav
329,192,145123,1,0,0:0:0:35:kick_s.wav
256,192,145409,1,0,0:0:0:35:kick_s.wav
402,192,145552,1,0,0:0:0:35:kick_s.wav
475,192,145552,1,0,0:0:0:0:
36,192,145694,1,0,0:0:0:30:kick_h.wav
182,192,145837,1,0,0:0:0:35:kick_s.wav
36,192,145980,1,0,0:0:0:30:kick_h.wav
182,192,146123,1,0,0:0:0:35:kick_s.wav
256,192,146409,1,0,0:0:0:35:kick_s.wav
36,192,146552,1,0,0:0:0:35:kick_s.wav
109,192,146552,1,0,0:0:0:0:
475,192,146694,1,0,0:0:0:30:snare.wav
329,192,146837,1,0,0:0:0:35:kick_s.wav
475,192,146980,1,0,0:0:0:30:kick_h.wav
329,192,147123,1,0,0:0:0:35:kick_s.wav
109,192,147409,1,0,0:0:0:35:kick_s.wav
475,192,147552,1,0,0:0:0:35:kick_s.wav
402,192,147623,1,0,0:0:0:0:
329,192,147694,1,0,0:0:0:30:snare.wav
182,192,147837,1,0,0:0:0:35:kick_s.wav
109,192,147909,1,0,0:0:0:0:
36,192,147980,1,0,0:0:0:30:snare.wav
402,192,148123,1,0,0:0:0:35:kick_s.wav
182,192,148409,1,0,0:0:0:35:kick_s.wav
329,192,148552,1,0,0:0:0:35:kick_s.wav
475,192,148552,1,0,0:0:0:0:
36,192,148694,1,0,0:0:0:30:snare.wav
182,192,148837,1,0,0:0:0:35:kick_s.wav
329,192,148980,1,0,0:0:0:30:snare.wav
475,192,149123,1,0,0:0:0:35:kick_s.wav
329,192,149409,1,0,0:0:0:35:kick_s.wav
36,192,149552,1,0,0:0:0:35:kick_s.wav
182,192,149552,1,0,0:0:0:0:
475,192,149694,1,0,0:0:0:30:kick_h.wav
329,192,149837,1,0,0:0:0:35:kick_s.wav
182,192,149980,1,0,0:0:0:30:kick_h.wav
36,192,150123,1,0,0:0:0:35:kick_s.wav
256,192,150409,1,0,0:0:0:35:kick_s.wav
402,192,150552,1,0,0:0:0:35:kick_s.wav
475,192,150552,1,0,0:0:0:0:
182,192,150694,1,0,0:0:0:30:snare.wav
329,192,150837,1,0,0:0:0:35:kick_s.wav
36,192,150980,1,0,0:0:0:30:snare.wav
182,192,151123,1,0,0:0:0:35:kick_s.wav
329,192,151266,1,0,0:0:0:35:kick_s.wav
475,192,151409,1,0,0:0:0:35:kick_s.wav
36,192,151552,1,0,0:0:0:35:kick_s.wav
109,192,151552,1,0,0:0:0:50:cymbal.wav
256,192,151694,1,0,0:0:0:30:snare.wav
402,192,151837,1,0,0:0:0:35:kick_s.wav
256,192,151980,1,0,0:0:0:30:snare.wav
402,192,152123,1,0,0:0:0:35:kick_s.wav
36,192,152409,1,0,0:0:0:35:kick_s.wav
402,192,152552,1,0,0:0:0:35:kick_s.wav
475,192,152552,1,0,0:0:0:0:
256,192,152694,1,0,0:0:0:30:kick_h.wav
109,192,152837,1,0,0:0:0:35:kick_s.wav
256,192,152980,1,0,0:0:0:30:kick_h.wav
109,192,153123,1,0,0:0:0:35:kick_s.wav
402,192,153409,1,0,0:0:0:35:kick_s.wav
36,192,153552,1,0,0:0:0:35:kick_s.wav
182,192,153552,1,0,0:0:0:0:
475,192,153694,1,0,0:0:0:30:snare.wav
256,192,153837,1,0,0:0:0:35:kick_s.wav
475,192,153980,1,0,0:0:0:30:snare.wav
256,192,154123,1,0,0:0:0:35:kick_s.wav
109,192,154409,1,0,0:0:0:35:kick_s.wav
329,192,154552,1,0,0:0:0:35:kick_s.wav
475,192,154552,1,0,0:0:0:0:
36,192,154694,1,0,0:0:0:30:kick_h.wav
256,192,154837,1,0,0:0:0:35:kick_s.wav
36,192,154980,1,0,0:0:0:30:kick_h.wav
256,192,155123,1,0,0:0:0:35:kick_s.wav
402,192,155409,1,0,0:0:0:35:kick_s.wav
36,192,155552,1,0,0:0:0:35:kick_s.wav
182,192,155623,1,0,0:0:0:0:
329,192,155694,1,0,0:0:0:30:snare.wav
182,192,155837,1,0,0:0:0:35:kick_s.wav
329,192,155909,1,0,0:0:0:0:
475,192,155980,1,0,0:0:0:30:snare.wav
109,192,156123,1,0,0:0:0:35:kick_s.wav
402,192,156409,1,0,0:0:0:35:kick_s.wav
36,192,156552,1,0,0:0:0:35:kick_s.wav
182,192,156552,1,0,0:0:0:30:kick_h.wav
329,192,156694,1,0,0:0:0:30:snare.wav
109,192,156837,1,0,0:0:0:35:kick_s.wav
256,192,156980,1,0,0:0:0:30:snare.wav
402,192,157123,1,0,0:0:0:35:kick_s.wav
109,192,157409,1,0,0:0:0:35:kick_s.wav
329,192,157552,1,0,0:0:0:35:kick_s.wav
475,192,157552,1,0,0:0:0:30:kick_h.wav
182,192,157694,1,0,0:0:0:30:snare.wav
402,192,157837,1,0,0:0:0:35:kick_s.wav
256,192,157980,1,0,0:0:0:30:snare.wav
109,192,158123,1,0,0:0:0:35:kick_s.wav
402,192,158409,1,0,0:0:0:35:kick_s.wav
36,192,158552,1,0,0:0:0:35:kick_s.wav
182,192,158552,1,0,0:0:0:0:
329,192,158694,1,0,0:0:0:30:snare.wav
475,192,158837,1,0,0:0:0:35:kick_s.wav
109,192,158980,1,0,0:0:0:30:snare.wav
182,192,159123,1,0,0:0:0:35:kick_s.wav
256,192,159266,1,0,0:0:0:35:kick_s.wav
329,192,159409,1,0,0:0:0:35:kick_s.wav
402,192,159552,1,0,0:0:0:0:
