osu file format v14

[General]
AudioFilename: audio.mp3
AudioLeadIn: 0
PreviewTime: 39603
Countdown: 0
SampleSet: Soft
StackLeniency: 0.2
Mode: 0
LetterboxInBreaks: 0
EpilepsyWarning: 1
WidescreenStoryboard: 1

[Editor]
DistanceSpacing: 3
BeatDivisor: 4
GridSize: 8
TimelineZoom: 2.299999

[Metadata]
Title:theyaremanycolors
TitleUnicode:theyaremanycolors
Artist:Frums
ArtistUnicode:Frums
Creator:ScubDomino
Version:regouextreme
Source:BOFU2017 - LEGENDA EST A MYTH -
Tags:THE BMS OF FIGHTERS ULTIMATE 2017 semicolon frums.xyz frumsdotxyz BOFU AOiRO_Manbow 青色鍋男 featured artist fa instrumental electronic electronica densecore psycore dark psytrance breakcore glitch experimental hardcore edm idm ambient techno juke footwork black red green blue multiple personality disorder dissociative identity did mpd rhythm video game guyfawes bowandarrow cuboctahedral natsume shiki anime girl natsume_shiki anime_girl scub domino jungkyuyoung [keqing] 8972308 celine citreum bws bwsnoob -bws miraculous 3545579 s0m3guy someguy some guy 11141924 Regou 419954 jasontime12345 Mizunashi Akari 12882468 nik nikolomara 10077264 calliecube allice cannedca callieonosu obamacube 7535045 handsome hehe tastystew 2123087 pip pipuuko Aven-_- [Lucian] [Rue] 8446047 therearemanycolors therearemanycolours theyaremanycolours they there are many colors colours tamc bms_of_fighters drums LEGEND
BeatmapID:4052460
BeatmapSetID:1533352

[Difficulty]
HPDrainRate:4
CircleSize:4.6
OverallDifficulty:9
ApproachRate:9.8
SliderMultiplier:2
SliderTickRate:0.5

[Events]
//Background and Video events
0,0,"mycelium.png",0,0
Video,-960,"test.mp4" S,0,-960,,0.7
//Break Periods
//Storyboard Layer 0 (Background)
//Storyboard Layer 1 (Fail)
//Storyboard Layer 2 (Pass)
//Storyboard Layer 3 (Foreground)
//Storyboard Layer 4 (Overlay)
//Storyboard Sound Samples

[TimingPoints]
83,500,4,2,1,30,1,0
83,-500,4,2,1,30,0,0
8083,-500,4,2,1,30,0,0
12083,-500,4,2,1,40,0,0
39583,333.333333333333,4,2,1,55,1,0
40249,250,4,2,1,70,1,0
40249,-66.6666666666666,4,2,1,70,0,0
47999,-100,4,2,1,70,0,0
48249,-66.6666666666666,4,2,1,70,0,0
72499,-66.6666666666666,4,2,1,50,0,0
72749,-66.6666666666666,4,2,1,70,0,0
72999,-66.6666666666666,4,2,1,50,0,0
73249,-66.6666666666666,4,2,1,70,0,0
74499,-133.333333333333,4,2,1,50,0,0
74749,-133.333333333333,4,2,1,70,0,0
74874,-133.333333333333,4,2,1,50,0,0
75249,-100,4,2,1,70,0,0
76499,-100,4,2,1,50,0,0
76749,-100,4,2,1,70,0,0
76999,-100,4,2,1,50,0,0
77249,-100,4,2,1,70,0,0
77499,-100,4,2,1,50,0,0
77749,-100,4,2,1,70,0,0
77999,-100,4,2,1,50,0,0
78249,-100,4,2,1,70,0,0
78311,-100,4,2,1,60,0,0
78415,-100,4,2,1,65,0,0
78478,-100,4,2,1,55,0,0
78582,-100,4,2,1,60,0,0
78644,-100,4,2,1,50,0,0
78749,-100,4,2,1,55,0,0
78811,-100,4,2,1,45,0,0
78915,-100,4,2,1,50,0,0
78999,-100,4,2,1,40,0,0
79082,-100,4,2,1,45,0,0
79165,-100,4,2,1,35,0,0
79249,-100,4,2,1,50,0,0
79332,-100,4,2,1,40,0,0
79415,-100,4,2,1,60,0,0
79499,-100,4,2,1,50,0,0
79582,-100,4,2,1,70,0,0
79665,-100,4,2,1,60,0,0
79749,-100,4,2,1,80,0,0
80250,333.333333333333,3,2,1,80,1,0
80305,-100,3,2,1,70,0,0
87916,-28.5714285714286,3,2,1,70,0,0
88249,-66.6666666666667,3,2,1,70,0,0
95916,-100,3,2,1,70,0,0
96249,-50,3,2,1,70,0,0
100916,-66.6666666666667,3,2,1,70,0,0
102916,-100,3,2,1,70,0,0
104166,-50,3,2,1,70,0,0
107666,-100,3,2,1,70,0,0
108333,-50,3,2,1,70,0,0
112249,-100,3,2,1,70,0,0
112305,-100,3,2,1,30,0,0
116249,-100,3,2,1,70,0,0
116305,-100,3,2,1,30,0,0
119249,-100,3,2,1,35,0,0
119305,-100,3,2,1,40,0,0
119416,-100,3,2,1,45,0,0
119499,-100,3,2,1,50,0,0
119583,-100,3,2,1,55,0,0
119666,-100,3,2,1,60,0,0
119749,-100,3,2,1,65,0,0
119833,-100,3,2,1,70,0,0
120250,326.086956521739,3,2,1,70,1,0
121228,319.148936170213,3,2,1,70,1,0
122185,312.5,3,2,1,70,1,0
123123,306.122448979592,3,2,1,70,1,0
124041,300,3,2,1,70,1,0
124941,295.566502463054,3,2,1,70,1,0
125828,291.26213592233,3,2,1,70,1,0
126702,288.461538461538,3,2,1,50,1,0
126990,-100,3,2,1,45,0,0
127062,-100,3,2,1,35,0,0
127134,-100,3,2,1,45,0,0
127206,-100,3,2,1,55,0,0
127278,-100,3,2,1,65,0,0
127351,-100,3,2,1,75,0,0
127423,-100,3,2,1,85,0,0
127567,285.714285714286,7,2,1,70,1,0
127567,-100,7,2,1,70,0,0
127638,-100,7,2,1,50,0,0
128567,-80,7,2,1,50,0,0
129567,-100,7,2,1,50,0,0
130567,-80,7,2,1,50,0,0
131852,-100,7,2,1,50,0,0
132567,-80,7,2,1,50,0,0
133567,-100,7,2,1,50,0,0
134567,-80,7,2,1,50,0,0
135138,-80,7,2,1,60,0,0
135567,-100,7,2,1,70,0,0
136567,-80,7,2,1,70,0,0
137567,-100,7,2,1,70,0,0
138567,-80,7,2,1,70,0,0
139852,-100,7,2,1,70,0,0
141567,-80,7,2,1,70,0,0
143852,-66.6666666666667,7,2,1,70,0,0
144852,-80,7,2,1,70,0,0
145567,-66.6666666666667,7,2,1,70,0,0
148138,-80,7,2,1,70,0,0
151138,-80,7,2,1,75,0,0
151567,-80,7,2,1,80,0,0
159567,3858.52090032154,7,2,1,70,1,1
159627,-100,7,2,2,70,0,1
159687,-100,7,2,1,70,0,1
159717,-100,7,2,2,70,0,1
159747,-100,7,2,1,70,0,1
159868,-100,7,2,2,70,0,1
159928,-100,7,2,1,70,0,1
159989,-100,7,2,2,70,0,1
160079,-100,7,2,1,70,0,1
160230,-100,7,2,2,70,0,1
160290,-100,7,2,1,70,0,1
160380,-100,7,2,2,70,0,1
160411,-100,7,2,1,70,0,1
160441,-100,7,2,2,70,0,1
160501,-100,7,2,1,70,0,1
160561,-100,7,2,2,70,0,1
160652,-100,7,2,1,70,0,1
160802,-100,7,2,2,70,0,1
160863,-100,7,2,1,70,0,1
160893,-100,7,2,2,70,0,1
160953,-100,7,2,1,70,0,1
161013,-100,7,2,2,70,0,1
161074,-100,7,2,1,70,0,1
161164,-100,7,2,2,70,0,1
161194,-100,7,2,1,70,0,1
161255,-100,7,2,2,70,0,1
161285,-100,7,2,1,70,0,1
161345,-100,7,2,2,70,0,1
161405,-100,7,2,1,70,0,1
161496,-10000,7,2,2,70,0,0

[Colours]
Combo1 : 192,192,192
Combo2 : 213,85,85
Combo3 : 215,135,87
Combo4 : 228,210,107
Combo5 : 88,220,78
Combo6 : 87,210,131
Combo7 : 81,81,81
Combo8 : 70,131,213

[HitObjects]
22,52,83,118,0,B|22:228|22:228|38:244|38:244|38:132,1,310,2|0,0:0|0:0,0:0:0:0:
109,127,4083,86,0,B|173:127|173:127|199:153|199:153|199:243|199:243|225:271|225:271|311:271,1,310,2|0,0:0|0:0,0:0:0:0:
373,233,8083,22,0,B|373:169|373:169|413:145|413:145|413:249|413:249|397:257|397:257|397:297|397:297|405:305|405:305|405:337,1,310,2|0,0:0|0:0,0:0:0:0:
39,86,12083,86,0,B|73:13|186:13|229:114|182:185|120:196|120:196|40:208|7:315|93:386|174:362|202:304,1,630,2|0,0:0|0:0,0:0:0:0:
275,210,20083,22,0,B|334:130|334:130|458:166|458:166|473:358|473:358|361:311|361:311|378:225,1,630,2|0,0:0|0:0,0:0:0:0:
284,313,28083,86,0,B|247:345|191:338|159:297|160:253|160:253|162:204|122:164|69:165|36:193|36:193|66:213|73:254|51:286|21:296,1,470,2|0,0:0|0:0,0:0:0:0:
199,85,34083,22,0,B|266:121|266:121|242:250|242:250|284:129|284:129|368:123,1,420
298,22,39583,85,2,2:0:0:0:
0,79,40249,38,0,P|56:54|95:140,1,150.000005722046,4|0,1:2|0:0,0:0:0:0:
99,124,40499,2,0,P|137:183|203:161,1,150.000005722046,4|0,3:3|0:0,0:0:0:0:
209,153,40749,2,0,P|265:128|304:214,1,150.000005722046,4|0,3:3|0:0,0:0:0:0:
308,198,40999,2,0,P|345:256|411:234,1,150.000005722046,4|0,3:3|0:0,0:0:0:0:
411,234,41249,102,0,P|345:256|308:198,1,150.000005722046,4|0,3:3|0:0,0:0:0:0:
312,189,41499,2,0,P|274:130|209:153,1,150.000005722046,4|0,3:3|0:0,0:0:0:0:
203,160,41749,2,0,P|137:183|99:124,1,150.000005722046,4|0,3:3|0:0,0:0:0:0:
489,370,41999,6,0,L|502:283,1,75.0000028610231,4|0,3:3|0:0,0:0:0:0:
501,285,42124,2,0,L|514:198,1,75.0000028610231,8|0,3:3|0:0,0:0:0:0:
443,161,42249,102,0,P|387:136|348:222,1,150.000005722046,4|0,3:3|0:0,0:0:0:0:
343,206,42499,2,0,P|305:264|239:242,1,150.000005722046,4|0,3:3|0:0,0:0:0:0:
234,235,42749,2,0,P|178:210|139:296,1,150.000005722046,4|0,3:3|0:0,0:0:0:0:
135,280,42999,2,0,P|97:338|31:316,1,150.000005722046,4|0,3:3|0:0,0:0:0:0:
31,316,43249,6,0,P|96:338|134:279,1,150.000005722046,4|0,3:3|0:0,0:0:0:0:
130,271,43499,2,0,L|201:234,1,75.0000028610231,8|0,3:3|0:0,0:0:0:0:
229,314,43624,102,0,L|189:84,1,225.000008583069,4|0,3:3|0:0,0:0:0:0:
309,273,43874,1,4,3:3:0:0:
309,273,43936,1,8,3:3:0:0:
309,273,43999,2,0,L|294:193,1,75.0000028610231,8|0,3:3|0:0,0:0:0:0:
284,117,44124,2,0,L|297:190,1,75.0000028610231,4|0,3:3|0:0,0:0:0:0:
8,116,44249,6,0,P|64:141|103:55,1,150.000005722046,8|0,3:3|0:0,0:0:0:0:
108,71,44499,2,0,P|146:12|212:34,1,150.000005722046,4|0,3:3|0:0,0:0:0:0:
217,42,44749,2,0,P|273:67|312:-19,1,150.000005722046,4|0,3:3|0:0,0:0:0:0:
321,6,44999,2,0,P|283:64|217:42,1,150.000005722046,4|0,3:3|0:0,0:0:0:0:
212,34,45249,2,0,P|146:12|108:71,1,150.000005722046,4|0,3:3|0:0,0:0:0:0:
112,79,45499,2,0,P|74:138|8:116,1,150.000005722046,4|0,3:3|0:0,0:0:0:0:
8,115,45749,2,0,P|74:138|112:79,1,150.000005722046,4|0,3:3|0:0,0:0:0:0:
424,351,45999,2,0,L|439:271,1,75.0000028610231,8|0,3:3|0:0,0:0:0:0:
459,201,46124,2,0,L|446:274,1,75.0000028610231,8|0,3:3|0:0,0:0:0:0:
411,113,46249,102,0,P|345:90|308:149,1,150.000005722046,4|0,3:3|0:0,0:0:0:0:
312,157,46500,2,0,P|274:216|209:194,1,150.000005722046,4|0,3:3|0:0,0:0:0:0:
202,185,46749,2,0,P|136:164|99:223,1,150.000005722046,4|0,3:3|0:0,0:0:0:0:
103,231,46999,2,0,P|65:290|0:268,1,150.000005722046,4|0,3:3|0:0,0:0:0:0:
289,366,47249,6,0,B|309:331|309:331|289:284,1,75.0000028610231,8|0,3:3|0:0,0:0:0:0:
158,274,47374,1,0,0:0:0:0:
158,274,47436,1,4,3:3:0:0:
158,274,47499,2,0,B|178:308|178:308|229:315,1,75.0000028610231,8|0,3:3|0:0,0:0:0:0:
299,205,47624,2,0,B|258:205|258:205|227:246,1,75.0000028610231,4|0,3:3|0:0,0:0:0:0:
424,351,47749,102,0,L|400:201,1,150.000005722046,8|8,3:3|3:3,0:0:0:0:
385,122,47999,2,0,L|374:56,2,50,2|0|0,3:3|0:0|0:0,0:0:0:0:
0,0,48249,6,0,P|61:10|56:99,1,150.000005722046,8|0,1:3|0:0,0:0:0:0:
61,92,48499,2,0,P|62:161|130:178,1,150.000005722046,4|0,3:3|0:0,0:0:0:0:
141,175,48749,2,0,P|200:196|179:283,1,150.000005722046,4|0,3:3|0:0,0:0:0:0:
185,277,48999,2,0,P|174:346|238:374,1,150.000005722046,4|0,3:3|0:0,0:0:0:0:
238,374,49249,2,0,P|174:346|185:277,1,150.000005722046,4|0,3:3|0:0,0:0:0:0:
194,272,49499,2,0,P|204:203|141:175,1,150.000005722046,4|0,3:3|0:0,0:0:0:0:
130,178,49750,2,0,P|62:161|61:92,1,150.000005722046,4|0,3:3|0:0,0:0:0:0:
180,33,49999,102,0,L|267:46,1,75.0000028610231,4|0,3:3|0:0,0:0:0:0:
265,45,50124,2,0,L|352:58,1,75.0000028610231,8|0,3:3|0:0,0:0:0:0:
512,0,50249,6,0,P|451:10|456:99,1,150.000005722046,4|0,3:3|0:0,0:0:0:0:
451,92,50499,2,0,P|450:161|382:178,1,150.000005722046,4|0,3:3|0:0,0:0:0:0:
371,175,50749,2,0,P|312:196|333:283,1,150.000005722046,4|0,3:3|0:0,0:0:0:0:
327,277,50999,2,0,P|338:346|274:374,1,150.000005722046,4|0,3:3|0:0,0:0:0:0:
274,374,51249,2,0,P|338:346|327:277,1,150.000005722046,4|0,3:3|0:0,0:0:0:0:
317,272,51499,102,0,L|328:185,1,75.0000028610231,8|0,3:3|0:0,0:0:0:0:
424,143,51624,2,0,L|191:171,1,225.000008583069,4|4,3:3|3:3,0:0:0:0:
102,220,51874,1,8,3:3:0:0:
102,220,51936,1,0,3:0:0:0:
102,220,51999,2,0,L|117:140,1,75.0000028610231,8|0,3:3|0:0,0:0:0:0:
125,65,52124,2,0,L|112:138,1,75.0000028610231,4|0,3:3|0:0,0:0:0:0:
426,366,52249,6,0,P|365:356|370:267,1,150.000005722046,8|0,3:3|0:0,0:0:0:0:
365,274,52499,2,0,P|364:205|296:188,1,150.000005722046,4|0,3:3|0:0,0:0:0:0:
285,191,52749,2,0,P|226:170|247:83,1,150.000005722046,8|0,3:3|0:0,0:0:0:0:
231,93,52999,2,0,P|221:162|285:191,1,150.000005722046,4|0,3:3|0:0,0:0:0:0:
295,188,53249,2,0,P|363:204|365:274,1,150.000005722046,8|0,3:3|0:0,0:0:0:0:
357,279,53499,2,0,P|358:348|426:366,1,150.000005722046,4|0,3:3|0:0,0:0:0:0:
426,366,53749,2,0,P|365:356|370:267,1,150.000005722046,8|0,3:3|0:0,0:0:0:0:
190,0,53999,2,0,L|270:15,1,75.0000028610231,4|0,3:3|0:0,0:0:0:0:
345,23,54124,2,0,L|272:10,1,75.0000028610231,8|0,3:3|0:0,0:0:0:0:
0,270,54249,102,0,P|61:260|56:171,1,150.000005722046,4|0,3:3|0:0,0:0:0:0:
61,178,54499,2,0,P|62:108|130:92,1,150.000005722046,8|0,3:3|0:0,0:0:0:0:
193,192,54749,6,0,B|205:230|205:230|267:238,1,75.0000028610231,4|0,3:3|0:0,0:0:0:0:
309,294,54874,2,0,B|335:264|335:264|311:206,1,75.0000028610231,0|4,0:0|0:3,0:0:0:0:
276,156,54999,1,8,3:3:0:0:
277,146,55124,2,0,L|284:64,1,75.0000028610231,4|0,0:3|0:0,0:0:0:0:
412,22,55249,101,8,1:3:0:0:
427,42,55311,1,0,3:0:0:0:
418,71,55374,1,12,3:3:0:0:
439,103,55436,1,0,3:0:0:0:
427,142,55499,2,0,B|441:164|441:164|507:155,1,75.0000028610231,8|0,1:3|3:0,0:0:0:0:
473,246,55624,1,12,1:3:0:0:
452,278,55686,1,0,3:0:0:0:
464,317,55749,2,0,B|450:339|450:339|384:330,1,75.0000028610231,8|8,3:3|3:3,0:0:0:0:
315,376,55874,5,8,3:3:0:0:
311,362,55936,1,4,3:3:0:0:
305,348,55999,1,4,1:3:0:0:
303,293,56061,1,0,3:0:0:0:
261,259,56124,1,0,3:0:0:0:
207,269,56186,1,0,3:0:0:0:
180,316,56249,101,4,1:0:0:0:
144,116,56374,6,0,L|-13:74,1,150.000005722046,0|4,0:0|3:3,0:0:0:0:
216,129,56624,2,0,L|54:143,1,150.000005722046,2|4,3:0|3:0,1:0:0:0:
294,121,56874,2,0,L|146:189,1,150.000005722046,2|4,3:0|3:3,1:0:0:0:
357,84,57124,2,0,L|242:198,1,150.000005722046,2|4,3:0|3:3,1:0:0:0:
144,116,57374,2,0,L|-13:74,1,150.000005722046,2|4,3:0|3:3,1:0:0:0:
216,129,57624,2,0,L|54:143,1,150.000005722046,2|4,3:0|3:3,1:0:0:0:
294,121,57874,2,0,L|146:189,1,150.000005722046,2|4,3:0|3:3,1:0:0:0:
357,84,58124,2,0,L|242:198,1,150.000005722046,4|4,3:3|3:3,0:0:0:0:
144,116,58374,2,0,L|-13:74,1,150.000005722046,2|4,3:0|3:3,1:0:0:0:
216,129,58624,2,0,L|54:143,1,150.000005722046,2|4,3:0|3:3,1:0:0:0:
294,121,58874,2,0,L|146:189,1,150.000005722046,2|4,3:0|3:3,1:0:0:0:
357,84,59124,2,0,L|242:198,1,150.000005722046,2|4,3:0|3:3,1:0:0:0:
395,10,59374,101,2,3:0:0:0:
357,84,59499,5,4,3:3:0:0:
445,277,59624,2,0,L|426:129,1,150.000005722046,6|0,3:0|3:3,1:0:0:0:
86,255,59874,2,0,L|65:95,1,150.000005722046,6|4,3:3|3:3,0:0:0:0:
240,384,60124,101,6,3:3:0:0:
256,192,60249,1,4,1:3:0:0:
272,0,60374,1,0,0:0:0:0:
224,120,60499,5,4,3:3:0:0:
368,268,60624,102,0,L|525:310,1,150.000005722046,2|4,3:0|3:0,1:0:0:0:
296,255,60874,2,0,L|458:241,1,150.000005722046,2|4,3:0|3:3,1:0:0:0:
218,263,61124,2,0,L|366:195,1,150.000005722046,2|4,3:0|3:3,1:0:0:0:
155,300,61374,2,0,L|270:186,1,150.000005722046,2|4,3:0|3:3,1:0:0:0:
368,268,61624,2,0,L|525:310,1,150.000005722046,2|4,3:0|3:3,1:0:0:0:
296,255,61874,2,0,L|458:241,1,150.000005722046,2|4,3:0|3:3,1:0:0:0:
218,263,62124,2,0,L|366:195,1,150.000005722046,4|4,3:3|3:3,0:0:0:0:
155,300,62374,2,2,L|270:186,1,150.000005722046,2|4,3:0|3:3,1:2:0:0:
70,107,62624,6,2,B|63:137|63:137|37:122|37:122|-9:-9,1,150.000005722046,2|4,3:0|3:3,1:2:0:0:
242,41,62874,102,2,B|235:11|235:11|209:26|209:26|163:157,1,150.000005722046,2|4,3:0|3:3,1:2:0:0:
409,176,63124,6,2,B|402:206|402:206|376:191|376:191|330:60,1,150.000005722046,2|4,3:0|3:3,1:2:0:0:
512,74,63374,2,2,L|422:91,1,75.0000028610231,2|4,3:0|3:0,1:2:0:0:
179,110,63499,101,4,3:3:0:0:
142,150,63561,1,0,0:0:0:0:
151,204,63624,1,6,3:0:0:0:
198,230,63686,1,0,0:0:0:0:
249,210,63749,1,8,3:3:0:0:
511,183,63874,5,6,3:3:0:0:
511,183,63936,1,8,3:3:0:0:
511,183,63999,2,2,L|495:346,1,150.000005722046,4|0,3:0|0:0,0:1:0:0:
404,370,64249,101,4,1:0:0:0:
108,14,64499,5,4,3:3:0:0:
161,279,64624,102,0,L|4:237,1,150.000005722046,2|4,3:0|3:0,1:0:0:0:
233,292,64874,2,0,L|71:306,1,150.000005722046,2|4,3:0|3:3,1:0:0:0:
311,284,65124,2,0,L|163:352,1,150.000005722046,2|4,3:0|3:3,1:0:0:0:
374,247,65374,2,0,L|259:361,1,150.000005722046,2|4,3:0|3:3,1:0:0:0:
161,279,65624,2,0,L|4:237,1,150.000005722046,2|4,3:0|3:3,1:0:0:0:
233,292,65874,2,0,L|71:306,1,150.000005722046,2|4,3:0|3:3,1:0:0:0:
311,284,66124,2,0,L|163:352,1,150.000005722046,4|4,3:3|3:3,0:0:0:0:
374,247,66374,2,0,L|259:361,1,150.000005722046,2|4,3:0|3:3,1:0:0:0:
161,279,66624,2,0,L|4:237,1,150.000005722046,2|4,3:0|3:3,1:0:0:0:
233,292,66874,2,0,L|71:306,1,150.000005722046,2|4,3:0|3:3,1:0:0:0:
311,284,67124,2,0,L|163:352,1,150.000005722046,2|4,3:0|3:3,1:0:0:0:
374,247,67374,2,0,L|259:361,1,150.000005722046,2|4,3:0|3:3,1:0:0:0:
427,197,67624,2,0,L|357:343,1,150.000005722046,6|0,3:0|3:3,1:0:0:0:
454,127,67874,2,0,L|439:288,1,150.000005722046,6|4,3:3|3:3,0:0:0:0:
512,384,68124,5,6,3:3:0:0:
512,384,68186,1,0,0:0:0:0:
512,384,68249,1,4,1:3:0:0:
0,0,68499,1,4,3:3:0:0:
152,104,68624,102,0,L|-5:146,1,150.000005722046,2|4,3:0|3:0,1:0:0:0:
224,91,68874,2,0,L|62:77,1,150.000005722046,2|4,3:0|3:3,1:0:0:0:
302,99,69124,2,0,L|154:31,1,150.000005722046,2|4,3:0|1:3,1:0:0:0:
365,136,69374,2,0,L|250:22,1,150.000005722046,2|4,3:0|3:3,1:0:0:0:
152,104,69624,2,0,L|-5:146,1,150.000005722046,2|4,3:0|3:3,1:0:0:0:
224,91,69874,2,0,L|62:77,1,150.000005722046,2|4,3:0|3:3,1:0:0:0:
302,99,70124,2,0,L|154:31,1,150.000005722046,4|4,3:3|1:3,0:0:0:0:
491,159,70374,6,2,P|472:86|476:0,1,150.000005722046,2|4,3:0|3:3,1:2:0:0:
299,238,70624,2,2,P|236:224|226:134,1,150.000005722046,2|4,3:0|1:3,1:2:0:0:
132,330,70874,2,2,P|85:373|90:292,1,150.000005722046,2|4,3:0|3:3,1:2:0:0:
392,174,71124,102,2,P|398:216|400:256,1,75.0000028610231,2|0,3:0|0:0,1:2:0:0:
437,349,71249,5,4,1:3:0:0:
437,349,71311,1,0,1:0:0:0:
437,349,71374,1,2,3:0:0:0:
437,349,71436,1,4,3:0:0:0:
437,349,71499,2,0,P|470:346|480:293,1,75.0000028610231,4|0,1:3|0:0,0:0:0:0:
370,89,71624,2,0,P|337:92|327:145,1,75.0000028610231,6|0,3:0|0:0,1:0:0:0:
399,248,71749,102,0,P|369:243|307:238,1,75.0000028610231,8|0,3:3|0:0,0:0:0:0:
316,233,71874,2,0,P|279:237|242:243,1,75.0000028610231,6|0,3:3|0:0,0:0:0:0:
233,242,71999,2,0,P|203:237|141:232,1,75.0000028610231,8|0,1:3|0:0,0:0:0:0:
150,227,72124,2,0,P|113:231|75:237,1,75.0000028610231,4|0,1:3|0:0,0:0:0:0:
0,246,72249,5,4,1:2:0:0:
56,56,72499,101,0,3:0:0:0:
112,56,72561,1,0,3:0:0:0:
168,56,72624,1,0,3:0:0:0:
224,56,72686,1,0,3:0:0:0:
281,56,72749,1,4,1:2:0:0:
72,128,72999,5,0,3:0:0:0:
128,128,73061,1,0,3:0:0:0:
184,128,73124,1,0,3:0:0:0:
240,128,73186,1,0,3:0:0:0:
297,128,73249,102,0,P|349:151|390:73,1,150.000005722046,4|0,1:2|0:0,0:0:0:0:
391,75,73436,2,0,P|421:13|488:31,1,150.000005722046,0|0,1:2|0:0,0:0:0:0:
493,42,73624,2,0,P|486:75|478:124,1,75.0000028610231,0|0,1:2|0:0,0:0:0:0:
495,247,73749,6,0,P|447:232|395:223,1,100.000003814697,0|0,1:2|0:0,0:0:0:0:
483,314,73915,2,0,P|431:298|383:290,1,100.000003814697,0|0,1:2|0:0,0:0:0:0:
469,381,74082,2,0,P|421:365|369:357,1,100.000003814697,0|0,1:2|0:0,0:0:0:0:
256,352,74249,101,4,1:2:0:0:
36,218,74499,6,0,L|46:258,3,37.5000014305115,0|0|0|0,3:0|3:0|3:0|3:0,0:0:0:0:
95,157,74749,1,4,1:2:0:0:
198,250,74999,2,0,L|208:290,3,37.5000014305115,0|0|0|0,3:0|3:0|3:0|3:0,0:0:0:0:
159,352,75249,102,0,B|131:338|131:338|126:296,1,66.6666666666667,4|0,1:2|0:0,0:0:0:0:
306,191,75436,2,0,B|307:222|307:222|274:247,1,66.6666666666667
181,171,75624,1,0,1:2:0:0:
188,157,75686,1,0,0:0:0:0:
195,143,75749,1,0,1:2:0:0:
105,45,75915,6,0,L|116:111,1,66.6666666666667,0|0,1:2|0:0,0:0:0:0:
80,229,76082,1,0,1:2:0:0:
90,208,76165,1,0,0:0:0:0:
100,187,76249,1,2,1:3:0:0:
306,191,76415,102,0,P|337:191|393:195,1,66.6666666666667,2|0,1:3|0:0,0:0:0:0:
454,251,76624,1,0,1:2:0:0:
454,251,76686,1,0,1:2:0:0:
454,251,76749,1,2,1:3:0:0:
257,242,76915,6,0,P|257:273|253:329,1,66.6666666666667,2|0,1:3|0:0,0:0:0:0:
197,390,77124,1,0,1:2:0:0:
197,390,77186,1,0,1:2:0:0:
197,390,77249,1,2,1:3:0:0:
206,193,77415,102,0,P|175:193|119:189,1,66.6666666666667,2|0,1:3|0:0,0:0:0:0:
65,248,77582,5,0,1:2:0:0:
54,176,77665,1,0,1:2:0:0:
44,104,77749,1,2,1:3:0:0:
255,142,77915,102,0,P|255:111|259:55,1,66.6666666666667,2|0,1:3|0:0,0:0:0:0:
48,192,78082,5,0,1:2:0:0:
16,192,78165,1,0,1:2:0:0:
56,192,78249,101,2,1:3:0:0:
24,192,78332,1,0,1:3:0:0:
64,192,78415,5,2,1:3:0:0:
32,192,78498,1,0,1:3:0:0:
72,192,78582,101,2,1:3:0:0:
40,192,78665,1,0,1:3:0:0:
80,192,78749,5,2,1:3:0:0:
48,192,78832,1,0,1:3:0:0:
88,192,78916,101,2,1:3:0:0:
56,192,78999,1,0,1:3:0:0:
96,192,79082,5,2,1:3:0:0:
64,192,79165,1,0,1:3:0:0:
104,192,79249,5,2,1:3:0:0:
72,192,79332,1,0,1:3:0:0:
168,168,79415,85,2,1:3:0:0:
176,216,79499,1,0,1:3:0:0:
176,168,79582,21,2,1:3:0:0:
184,216,79666,1,0,1:3:0:0:
184,168,79749,85,2,1:3:0:0:
192,216,79833,1,0,1:3:0:0:
192,168,79916,37,2,1:3:0:0:
200,216,80000,1,0,1:3:0:0:
200,168,80082,69,2,1:3:0:0:
208,216,80166,1,0,1:3:0:0:
256,272,80250,53,4,1:2:0:0:
312,248,80333,1,0,3:0:0:0:
336,192,80416,1,0,3:0:0:0:
312,135,80499,1,0,3:0:0:0:
256,112,80583,1,6,1:3:0:0:
199,135,80666,1,0,3:0:0:0:
176,192,80749,1,2,3:0:0:0:
199,248,80832,1,0,3:0:0:0:
256,268,80916,5,4,1:3:0:0:
310,246,80999,1,2,3:0:0:0:
332,192,81082,1,0,3:0:0:0:
310,137,81165,1,0,3:0:0:0:
256,115,81249,1,6,1:3:0:0:
201,137,81332,1,0,3:0:0:0:
179,192,81415,1,0,3:0:0:0:
201,246,81500,1,2,3:0:0:0:
256,264,81583,101,6,1:3:0:0:
307,243,81666,1,0,3:0:0:0:
328,192,81749,1,2,3:0:0:0:
307,139,81832,1,4,1:3:0:0:
304,144,81916,5,4,1:3:0:0:
256,118,82000,1,2,3:0:0:0:
203,139,82083,1,4,1:3:0:0:
182,192,82166,1,0,3:0:0:0:
203,243,82249,1,0,1:1:0:0:
256,260,82333,101,0,3:0:0:0:
304,240,82416,1,0,3:0:0:0:
324,192,82499,1,0,3:0:0:0:
304,142,82582,1,6,1:3:0:0:
256,122,82666,1,0,3:0:0:0:
206,142,82749,1,2,3:0:0:0:
186,192,82832,1,0,3:0:0:0:
206,240,82915,1,4,1:3:0:0:
256,256,83000,5,2,3:0:0:0:
301,237,83083,1,0,3:0:0:0:
320,192,83166,1,0,3:0:0:0:
301,144,83249,1,6,1:3:0:0:
256,125,83333,1,0,3:0:0:0:
208,144,83416,1,0,3:0:0:0:
189,192,83501,1,2,3:0:0:0:
208,237,83583,1,6,1:3:0:0:
256,252,83666,101,0,3:0:0:0:
298,234,83749,1,2,3:0:0:0:
316,192,83832,1,4,1:3:0:0:
298,146,83916,5,4,1:3:0:0:
294,149,84000,1,2,3:0:0:0:
256,128,84083,1,4,1:3:0:0:
210,146,84166,1,0,3:0:0:0:
195,192,84250,1,0,1:2:0:0:
212,232,84332,1,0,3:0:0:0:
256,249,84416,1,0,3:0:0:0:
296,232,84499,1,0,3:0:0:0:
256,246,84583,101,6,1:3:0:0:
294,230,84666,1,0,3:0:0:0:
256,243,84750,5,2,3:0:0:0:
292,228,84833,1,0,3:0:0:0:
256,243,84916,101,4,1:3:0:0:
292,228,84999,1,2,3:0:0:0:
256,237,85083,5,0,3:0:0:0:
288,224,85166,1,0,3:0:0:0:
256,237,85250,101,6,1:3:0:0:
288,224,85333,1,0,3:0:0:0:
256,233,85416,5,0,3:0:0:0:
285,221,85499,1,2,3:0:0:0:
256,232,85583,101,6,1:3:0:0:
284,220,85666,1,0,3:0:0:0:
256,228,85749,5,2,3:0:0:0:
264,163,85833,1,4,1:3:0:0:
236,95,85917,101,4,1:3:0:0:
261,85,86000,1,2,3:0:0:0:
236,92,86083,5,4,1:3:0:0:
259,82,86166,1,0,3:0:0:0:
255,4,86250,101,0,1:1:0:0:
207,16,86333,1,0,3:0:0:0:
181,57,86416,1,2,3:0:0:0:
190,105,86499,1,0,3:0:0:0:
229,135,86583,1,6,1:3:0:0:
267,164,86666,1,0,3:0:0:0:
276,212,86749,1,2,3:0:0:0:
250,253,86832,1,0,3:0:0:0:
203,266,86915,1,6,1:3:0:0:
250,253,87000,5,2,3:0:0:0:
276,212,87083,1,2,3:0:0:0:
267,164,87166,1,0,3:0:0:0:
229,135,87249,1,6,1:3:0:0:
190,105,87333,1,0,3:0:0:0:
181,57,87416,1,0,3:0:0:0:
207,16,87499,1,2,3:0:0:0:
255,4,87583,102,0,L|256:43,1,25,0|0,1:0|1:0,0:0:0:0:
256,48,87666,2,0,L|257:87,1,25,0|0,1:0|1:0,0:0:0:0:
256,88,87749,2,0,L|257:127,1,25,0|0,1:0|0:0,0:0:0:0:
257,132,87832,2,0,L|258:171,1,25,0|0,1:0|0:0,0:0:0:0:
259,218,87916,6,2,B|259:289|259:289|214:289|214:289|214:188|214:188|232:188|232:188|232:182|232:182|208:182|208:182|196:188|196:188|196:164|196:164|208:170|208:170|273:170|273:170|339:135|339:135|339:211|339:211|258:184,1,612.500005841255,4|0,1:3|0:0,1:0:0:0:
112,224,88249,102,0,L|32:224,1,75.0000028610231,2|0,1:1|3:0,3:0:0:0:
160,88,88416,2,2,L|80:88,1,75.0000028610231,0|0,3:0|3:0,3:0:0:0:
312,304,88583,2,2,L|232:304,1,75.0000028610231,4|0,1:3|3:0,3:0:0:0:
160,296,88749,1,0,3:0:0:0:
192,360,88833,2,2,L|272:360,1,75.0000028610231,0|4,3:0|1:3,3:0:0:0:
312,96,88999,1,0,3:0:0:0:
336,160,89083,1,0,3:0:0:0:
368,224,89166,1,0,3:0:0:0:
400,288,89250,2,2,L|480:288,1,75.0000028610231,4|0,1:3|3:0,3:0:0:0:
424,136,89416,2,2,L|504:136,1,75.0000028610231,0|0,3:3|3:0,3:0:0:0:
352,40,89583,6,2,L|272:40,1,75.0000028610231,4|0,1:3|3:0,3:0:0:0:
205,32,89749,1,0,3:0:0:0:
237,96,89833,2,2,L|317:96,1,75.0000028610231,8|4,1:3|1:3,3:0:0:0:
176,184,89999,1,0,3:0:0:0:
208,248,90083,2,2,L|288:248,1,75.0000028610231,4|0,1:3|0:0,3:0:0:0:
0,248,90249,101,4,1:3:0:0:
32,184,90332,1,0,3:0:0:0:
64,120,90416,2,2,L|144:120,1,75.0000028610231,0|0,3:0|3:0,3:0:0:0:
120,272,90583,2,2,L|200:272,1,75.0000028610231,4|0,1:3|0:0,3:0:0:0:
304,216,90749,1,0,3:0:0:0:
336,152,90833,2,2,L|416:152,1,75.0000028610231,0|4,3:0|1:3,3:0:0:0:
512,136,90999,1,0,3:0:0:0:
481,203,91083,1,0,3:0:0:0:
449,267,91166,1,0,3:0:0:0:
417,331,91250,2,2,L|337:331,1,75.0000028610231,4|0,1:3|3:0,3:0:0:0:
208,216,91416,1,0,3:0:0:0:
176,152,91500,2,2,L|96:152,1,75.0000028610231,0|4,3:0|1:3,3:0:0:0:
336,152,91666,1,0,3:0:0:0:
304,88,91749,1,0,3:0:0:0:
272,24,91833,2,2,L|192:24,1,75.0000028610231,4|4,3:3|1:3,3:0:0:0:
121,62,91999,1,8,0:3:0:0:
153,126,92083,2,2,L|233:126,1,75.0000028610231,8|4,1:3|3:3,3:0:0:0:
443,259,92249,5,4,1:3:0:0:
443,259,92333,1,0,3:0:0:0:
443,259,92416,2,2,B|467:231|467:231|455:183,1,75.0000028610231,0|0,3:0|3:0,3:0:0:0:
458,25,92583,101,4,1:3:0:0:
409,0,92666,1,0,3:0:0:0:
359,21,92749,1,0,3:0:0:0:
343,73,92832,1,0,3:0:0:0:
373,119,92916,2,2,L|384:207,1,75.0000028610231,4|0,1:3|0:0,3:0:0:0:
303,262,93083,1,0,3:0:0:0:
242,224,93166,2,2,L|253:139,1,75.0000028610231,0|4,3:0|1:3,3:0:0:0:
190,108,93333,5,0,3:0:0:0:
183,107,93416,1,0,3:0:0:0:
176,107,93499,1,0,3:0:0:0:
155,28,93583,2,2,P|119:104|45:73,1,150.000005722046,4|0,1:3|3:3,3:0:0:0:
7,189,93916,101,4,1:3:0:0:
24,246,93999,1,0,3:0:0:0:
16,192,94083,5,4,1:3:0:0:
33,249,94166,1,0,3:0:0:0:
51,318,94249,101,4,1:3:0:0:
111,307,94333,1,0,3:0:0:0:
173,294,94416,1,0,3:0:0:0:
203,365,94499,2,2,L|235:207,1,150.000005722046,0|0,3:0|3:0,3:0:0:0:
186,153,94749,2,2,B|159:171|159:171|158:219,1,75.0000028610231,0|0,3:0|3:0,3:0:0:0:
299,173,94916,5,4,1:3:0:0:
331,155,94999,1,0,3:0:0:0:
366,164,95082,1,0,3:0:0:0:
387,194,95165,1,0,3:0:0:0:
382,231,95249,101,4,1:3:0:0:
388,293,95332,1,8,3:3:0:0:
447,315,95415,1,8,1:3:0:0:
494,275,95498,1,4,3:3:0:0:
480,214,95582,5,8,1:3:0:0:
412,245,95666,101,8,3:3:0:0:
338,235,95749,5,4,1:3:0:0:
270,266,95833,101,8,3:3:0:0:
198,248,95916,6,2,L|146:248,3,50,4|8|8|8,1:3|3:3|1:3|3:3,3:0:0:0:
0,40,96249,102,2,B|18:7|62:1|92:27|97:61|84:85|84:85|65:118|84:159|123:170|154:156|167:131,1,300,6|0,1:0|3:0,0:1:0:0:
253,174,96583,5,6,1:3:0:0:
252,162,96666,1,0,3:0:0:0:
250,150,96749,2,0,L|239:38,1,100,2|0,3:0|3:0,0:0:0:0:
389,18,96916,101,4,1:3:0:0:
444,31,96999,1,2,3:0:0:0:
404,75,97083,1,0,3:0:0:0:
389,18,97166,1,0,3:0:0:0:
412,49,97249,6,0,P|469:100|388:278,1,300,6|2,1:3|3:0,0:0:0:0:
222,219,97583,1,6,1:3:0:0:
177,279,97666,1,0,3:0:0:0:
119,233,97749,102,0,P|80:198|135:79,1,200,2|4,3:0|1:3,0:0:0:0:
277,93,97999,1,2,3:0:0:0:
213,148,98083,6,0,P|267:49|436:108,1,300,4|0,1:3|3:0,0:0:0:0:
424,218,98416,1,0,3:0:0:0:
488,273,98500,102,0,P|431:173|322:201,1,200,0|0,3:0|0:0,0:0:0:0:
360,298,98833,1,0,3:0:0:0:
95,263,98999,1,0,0:0:0:0:
74,281,99083,1,0,3:0:0:0:
107,236,99167,1,0,3:0:0:0:
100,265,99250,6,0,P|43:214|124:36,1,300,6|2,1:3|3:0,0:0:0:0:
177,90,99583,2,0,P|193:148|194:199,1,100,6|0,1:3|3:0,0:0:0:0:
307,255,99749,1,2,3:0:0:0:
280,319,99833,2,0,P|333:294|295:149,1,200,4|2,1:3|3:0,0:0:0:0:
474,54,100083,2,0,P|490:112|491:163,1,100,4|0,1:3|3:0,0:0:0:0:
500,263,100249,101,0,1:2:0:0:
457,240,100333,1,0,3:0:0:0:
418,319,100499,2,0,B|216:365|296:144|49:215,1,400,0|0,3:0|3:0,0:0:0:0:
16,291,100916,6,0,P|30:317|28:362,3,75.0000028610231,4|2|0|0,1:3|3:0|3:0|3:0,0:0:0:0:
61,212,101249,101,6,1:3:0:0:
82,182,101332,1,0,3:0:0:0:
118,175,101415,1,0,3:0:0:0:
147,196,101498,1,2,3:0:0:0:
154,232,101583,5,6,1:3:0:0:
168,284,101666,1,0,3:0:0:0:
219,302,101749,1,2,3:0:0:0:
262,270,101832,1,4,1:3:0:0:
259,216,101916,101,4,1:3:0:0:
287,150,101999,1,2,3:0:0:0:
358,138,102082,1,4,1:3:0:0:
406,191,102165,1,0,3:0:0:0:
387,260,102249,5,0,1:1:0:0:
416,365,102416,102,0,P|339:247|419:32,1,375.000014305115,2|0,3:0|3:0,0:0:0:0:
472,98,102916,6,0,L|479:155,3,50,6|2|2|0,1:3|3:0|3:0|3:0,0:0:0:0:
406,191,103249,2,0,L|413:248,2,50,6|4|4,1:3|3:0|3:0,0:0:0:0:
460,308,103499,1,6,3:0:0:0:
344,286,103583,102,0,L|291:276,1,50,6|6,1:3|3:3,0:0:0:0:
278,141,103749,2,0,L|225:131,1,50,6|4,1:3|1:3,0:0:0:0:
177,198,103916,2,0,L|124:188,1,50,4|4,1:3|3:3,0:0:0:0:
64,143,104083,1,6,1:3:0:0:
0,97,104166,6,0,B|18:130|62:136|92:110|97:76|84:52|84:52|65:19|84:-22|123:-33|154:-19|167:6,1,300,6|0,1:3|3:0,0:0:0:0:
278,141,104499,102,0,P|292:226|157:172,1,300,0|2,3:0|3:0,0:0:0:0:
334,49,104833,1,0,3:0:0:0:
392,148,104916,5,4,1:3:0:0:
400,91,104999,1,2,3:3:0:0:
404,146,105083,101,0,3:3:0:0:
413,91,105166,1,0,3:3:0:0:
486,173,105249,5,6,1:3:0:0:
480,185,105333,1,0,3:0:0:0:
474,196,105416,2,0,P|445:106|255:102,1,300,0|0,3:0|3:0,0:0:0:0:
210,274,105749,2,0,P|289:288|363:187,1,200,2|4,3:0|1:3,0:0:0:0:
375,359,105999,102,0,P|434:385|417:277,1,200,2|0,3:0|3:0,0:0:0:0:
188,159,106249,6,0,P|224:268|335:154,1,300,2|2,1:2|3:2,0:0:0:0:
298,138,106583,1,6,1:3:0:0:
512,140,106749,102,0,P|502:62|369:41,1,200,2|4,3:2|1:3,0:0:0:0:
336,199,106999,2,0,P|404:213|382:93,1,200,2|0,3:2|3:0,0:0:0:0:
74,266,107249,6,0,P|24:159|249:90,1,400,6|6,1:3|1:3,0:0:0:0:
192,156,107666,2,0,L|187:210,2,50,0|2|4,3:0|3:0|1:3,0:0:0:0:
246,275,107916,101,4,1:3:0:0:
262,346,107999,1,2,3:0:0:0:
253,278,108083,5,4,1:3:0:0:
269,349,108166,1,0,3:0:0:0:
347,303,108249,101,0,1:2:0:0:
358,319,108333,2,0,P|262:304|132:289,1,200,0|0,3:0|3:0,0:0:0:0:
31,26,108583,5,6,1:3:0:0:
66,95,108666,1,0,3:0:0:0:
2,141,108749,102,0,P|54:49|236:69,1,300,2|2,3:0|3:0,0:0:0:0:
237,197,109083,1,0,3:0:0:0:
300,242,109166,6,0,P|248:150|148:169,2,200,0|0|2,3:0|3:0|3:0,0:0:0:0:
0,242,109749,101,2,3:0:0:0:
19,336,109833,2,0,P|94:355|165:234,1,200,4|2,1:3|3:0,0:0:0:0:
105,210,110083,5,4,1:3:0:0:
100,221,110166,1,0,3:0:0:0:
127,293,110249,101,0,1:1:0:0:
162,286,110332,1,0,3:0:0:0:
197,280,110415,1,2,3:0:0:0:
232,274,110498,1,0,3:0:0:0:
267,268,110582,1,6,1:3:0:0:
303,262,110665,1,0,3:0:0:0:
338,256,110748,1,2,3:0:0:0:
373,250,110832,1,0,3:0:0:0:
411,176,110916,5,6,1:3:0:0:
369,167,110999,1,2,3:0:0:0:
326,160,111082,1,2,3:0:0:0:
284,153,111165,1,0,3:0:0:0:
242,146,111249,1,6,1:3:0:0:
199,138,111332,1,0,3:0:0:0:
157,131,111415,1,0,3:0:0:0:
115,124,111499,1,2,3:0:0:0:
44,63,111583,101,4,1:3:0:0:
94,52,111666,1,8,3:3:0:0:
146,43,111749,1,8,1:3:0:0:
196,35,111832,1,4,3:3:0:0:
246,27,111916,1,8,1:3:0:0:
298,17,111999,1,8,3:3:0:0:
348,8,112082,1,4,1:3:0:0:
399,0,112166,1,8,3:3:0:0:
464,72,112249,6,0,L|464:128,96,50,4|0|0|0|0|0|0|0|0|0|0|0|0|0|0|0|0|0|0|0|0|0|0|0|0|0|0|0|0|0|0|0|0|0|0|0|0|0|0|0|0|0|0|0|0|0|0|0|2|0|0|0|0|0|0|0|0|0|0|0|0|0|0|0|0|0|0|0|0|0|0|0|0|0|0|0|0|0|0|0|0|0|0|0|0|0|0|0|0|0|0|0|0|0|0|0|4,1:0|3:0|3:0|3:0|3:0|3:0|3:0|3:0|3:0|3:0|3:0|3:0|3:0|3:0|3:0|3:0|3:0|3:0|3:0|3:0|3:0|3:0|3:0|3:0|3:0|3:0|3:0|3:0|3:0|3:0|3:0|3:0|3:0|3:0|3:0|3:0|3:0|3:0|3:0|3:0|3:0|3:0|3:0|3:0|3:0|3:0|3:0|3:0|2:3|3:0|3:0|3:0|3:0|3:0|3:0|3:0|3:0|3:0|3:0|3:0|3:0|3:0|3:0|3:0|3:0|3:0|3:0|3:0|3:0|3:0|3:0|3:0|3:0|3:0|3:0|3:0|3:0|3:0|3:0|3:0|3:0|3:0|3:0|3:0|3:0|3:0|3:0|3:0|3:0|3:0|3:0|3:0|3:0|3:0|3:0|3:0|1:3,0:0:0:0:
112,288,120739,37,4,3:3:0:0:
256,192,120820,12,0,127423,3:0:0:0:
115,172,127567,102,0,P|56:194|34:79,2,200,8|8|8,1:3|2:3|2:3,0:0:0:0:
180,36,128424,1,8,2:3:0:0:
201,116,128567,102,0,L|347:90,1,125,8|0,3:3|3:0,0:0:0:0:
480,221,128852,2,0,P|513:157|434:58,1,187.5,8|0,2:3|3:0,0:0:0:0:
424,151,129138,2,0,P|345:159|326:264,1,187.5,8|0,2:3|3:0,0:0:0:0:
271,326,129424,5,8,2:3:0:0:
245,320,129495,1,0,3:0:0:0:
220,315,129567,2,0,L|198:95,2,200,8|8|8,3:3|2:3|2:3,0:0:0:0:
16,199,130424,1,8,2:3:0:0:
1,279,130567,2,0,P|56:279|96:215,1,125,8|0,3:3|3:0,0:0:0:0:
60,74,130852,2,0,P|165:89|209:96,1,125,8|0,2:3|3:0,0:0:0:0:
310,99,131138,1,8,2:3:0:0:
374,206,131281,1,0,3:0:0:0:
405,222,131352,1,0,3:0:0:0:
440,224,131423,1,8,2:3:0:0:
473,210,131495,1,0,3:0:0:0:
497,184,131566,1,8,1:3:0:0:
508,151,131638,1,0,3:0:0:0:
504,116,131709,1,0,3:0:0:0:
486,85,131781,1,0,3:0:0:0:
446,69,131852,102,0,L|373:81,3,50,8|0|0|0,2:3|3:0|3:0|3:0,0:0:0:0:
319,65,132138,2,0,L|246:53,3,50,8|0|0|0,2:3|3:0|3:0|3:0,0:0:0:0:
158,198,132424,5,8,2:3:0:0:
136,204,132495,1,0,3:0:0:0:
114,210,132567,2,0,P|46:177|55:78,1,187.5,8|0,3:3|3:0,0:0:0:0:
69,66,132852,1,8,2:3:0:0:
152,102,132995,101,0,3:0:0:0:
181,79,133066,1,0,3:0:0:0:
217,74,133137,1,8,2:3:0:0:
251,89,133209,1,0,2:0:0:0:
272,119,133280,1,0,3:0:0:0:
275,156,133352,1,0,3:0:0:0:
263,195,133424,5,8,2:3:0:0:
263,195,133495,1,0,3:0:0:0:
263,195,133567,2,0,L|336:207,3,50,8|0|0|0,1:3|2:0|3:0|3:0,0:0:0:0:
277,275,133852,2,0,L|350:287,3,50,8|0|0|0,2:3|2:0|3:0|3:0,0:0:0:0:
292,357,134138,2,0,L|365:369,3,50,8|0|0|0,2:3|2:0|3:0|3:0,0:0:0:0:
442,337,134424,101,8,2:3:0:0:
442,337,134495,1,0,3:0:0:0:
442,337,134567,2,0,P|456:217|477:68,2,250,8|8|8,3:3|2:3|2:3,0:0:0:0:
323,341,135281,5,0,3:0:0:0:
282,362,135352,1,0,3:0:0:0:
238,350,135423,1,8,2:3:0:0:
215,311,135495,1,0,3:0:0:0:
215,265,135567,102,0,P|146:233|112:348,2,200,4|8|8,1:3|2:3|2:3,0:0:0:0:
316,222,136424,2,0,L|307:169,1,50,8|0,2:3|3:0,0:0:0:0:
225,89,136567,6,0,P|286:78|349:74,1,125,8|0,3:3|3:0,0:0:0:0:
433,124,136852,2,0,P|427:54|411:-24,1,125,8|0,2:3|3:0,0:0:0:0:
480,207,137138,2,0,P|494:307|355:320,1,250,8|8,2:3|2:3,0:0:0:0:
309,290,137495,1,0,3:0:0:0:
309,290,137567,102,0,P|210:277|101:271,2,200,8|8|8,3:3|2:3|2:3,0:0:0:0:
168,157,138424,5,8,2:3:0:0:
168,157,138495,1,0,3:0:0:0:
168,157,138567,2,0,P|164:93|177:22,1,125,8|0,3:3|3:0,0:0:0:0:
253,100,138852,2,0,P|317:96|388:109,1,125,8|0,2:3|3:0,0:0:0:0:
480,144,139138,1,8,2:3:0:0:
505,176,139209,1,0,2:0:0:0:
512,217,139280,1,0,3:0:0:0:
499,256,139352,1,0,3:0:0:0:
470,285,139423,1,8,2:3:0:0:
431,297,139495,1,0,3:0:0:0:
404,297,139566,1,8,1:3:0:0:
404,297,139638,101,0,3:0:0:0:
404,297,139709,1,0,3:0:0:0:
404,297,139781,1,0,3:0:0:0:
404,297,139852,2,0,L|412:361,3,50,8|0|0|0,2:3|3:0|3:0|3:0,0:0:0:0:
315,244,140138,5,8,1:3:0:0:
302,255,140209,1,0,3:0:0:0:
288,265,140281,2,0,L|299:194,1,50,0|0,3:0|3:0,0:0:0:0:
308,148,140424,2,0,L|319:77,1,50,8|0,2:3|3:0,0:0:0:0:
212,29,140567,2,0,P|147:14|141:125,1,200,8|8,3:3|1:3,0:0:0:0:
123,250,141067,101,0,3:0:0:0:
184,281,141138,2,0,B|201:231|201:231|157:175,1,100,8|0,2:3|3:0,0:0:0:0:
84,181,141352,1,0,1:0:0:0:
74,190,141424,2,0,L|-9:184,1,50,8|0,2:3|1:0,0:0:0:0:
101,327,141567,6,0,L|364:290,2,250,8|8|8,1:3|1:3|2:3,0:0:0:0:
414,342,142424,2,0,P|429:314|420:272,1,62.5,8|0,1:3|3:0,0:0:0:0:
379,223,142567,102,0,L|369:182,4,31.25,10|0|0|0|0,1:3|0:0|2:0|0:0|1:0,0:0:0:0:
241,206,142852,6,0,L|254:118,1,62.5,8|0,1:3|1:0,0:0:0:0:
231,207,142995,2,0,L|244:119,1,62.5,0|0,3:0|1:0,0:0:0:0:
221,208,143138,2,0,L|234:120,1,62.5,8|0,2:3|1:0,0:0:0:0:
150,119,143281,101,0,3:0:0:0:
147,65,143352,1,0,1:0:0:0:
181,25,143423,1,8,2:3:0:0:
235,19,143495,1,0,1:0:0:0:
277,52,143566,1,12,2:3:0:0:
376,31,143709,5,2,1:3:0:0:
376,31,143781,1,0,3:0:0:0:
376,31,143852,2,0,P|376:69|367:113,1,75.0000028610231,4|0,3:0|1:0,0:0:0:0:
430,196,143995,2,0,P|391:196|348:187,1,75.0000028610231,2|2,1:3|3:0,0:0:0:0:
270,271,144138,101,4,3:0:0:0:
272,234,144209,1,0,1:0:0:0:
252,203,144280,1,2,3:0:0:0:
217,191,144352,1,0,1:0:0:0:
182,203,144423,1,4,3:0:0:0:
79,328,144567,6,0,P|15:323|22:175,1,225.000008583069,4|0,3:0|3:0,0:0:0:0:
63,58,144852,2,0,P|82:139|96:245,1,187.500007152558,4|0,3:0|3:0,0:0:0:0:
157,289,145138,1,4,3:0:0:0:
356,70,145424,101,4,3:0:0:0:
356,70,145495,1,0,1:3:0:0:
356,70,145567,2,0,P|392:62|440:61,3,75,12|0|2|2,2:3|3:0|1:3|3:0,0:0:0:0:
340,157,145852,2,0,P|348:193|349:241,3,75,4|0|2|2,3:0|1:0|1:3|3:0,0:0:0:0:
256,136,146138,5,4,3:0:0:0:
213,118,146209,1,0,1:0:0:0:
169,132,146280,1,2,3:0:0:0:
145,171,146352,1,0,1:0:0:0:
151,216,146423,1,4,3:0:0:0:
90,347,146567,102,0,P|166:387|210:265,1,225.000008583069,4|0,3:0|3:0,0:0:0:0:
317,313,146852,2,0,P|393:268|473:359,1,225.000008583069,4|0,3:0|3:0,0:0:0:0:
388,358,147138,1,4,3:0:0:0:
43,162,147281,5,2,1:3:0:0:
43,162,147352,1,0,3:0:0:0:
43,162,147424,1,4,3:0:0:0:
17,128,147495,1,0,1:3:0:0:
14,87,147567,1,12,2:3:0:0:
34,50,147638,1,0,3:0:0:0:
70,30,147709,1,2,1:3:0:0:
111,32,147781,1,0,3:0:0:0:
145,56,147852,1,4,3:0:0:0:
161,95,147924,1,0,1:0:0:0:
153,136,147995,1,2,1:3:0:0:
153,136,148067,1,2,3:0:0:0:
153,136,148138,102,0,L|170:212,1,62.5,4|0,3:0|1:0,0:0:0:0:
167,259,148281,2,0,L|183:183,1,62.5,2|0,3:0|1:0,0:0:0:0:
256,192,148424,5,4,3:0:0:0:
110,326,148567,102,0,B|64:283|64:283|94:212,1,125,4|2,3:0|1:3,0:0:0:0:
402,58,148852,2,0,B|448:101|448:101|418:172,1,125,4|2,3:0|1:3,0:0:0:0:
256,192,149138,1,4,3:0:0:0:
262,376,149424,5,4,3:0:0:0:
260,352,149495,1,0,1:3:0:0:
258,329,149566,1,12,2:3:0:0:
255,305,149638,1,0,3:0:0:0:
259,287,149709,1,2,1:3:0:0:
259,287,149781,1,2,3:0:0:0:
258,286,149852,101,4,3:0:0:0:
110,326,149995,2,0,L|135:125,1,187.5,2|0,1:3|1:0,0:0:0:0:
196,95,150281,1,2,3:0:0:0:
213,128,150352,1,0,1:0:0:0:
209,165,150424,1,4,3:0:0:0:
0,150,150567,6,0,P|10:48|104:47,1,187.5,4|0,3:0|3:0,0:0:0:0:
60,103,150852,2,0,L|89:227,1,125,4|2,3:0|1:3,0:0:0:0:
380,92,151138,101,4,3:0:0:0:
374,127,151209,1,8,3:0:0:0:
368,163,151280,1,8,1:3:0:0:
362,199,151352,1,8,3:0:0:0:
356,235,151423,1,12,3:0:0:0:
351,271,151495,1,8,1:3:0:0:
345,307,151566,1,12,2:3:0:0:
252,362,151709,5,2,1:3:0:0:
252,362,151781,1,0,3:0:0:0:
252,362,151852,2,0,L|179:350,1,62.5,4|0,3:0|1:0,0:0:0:0:
114,318,151995,2,0,L|187:330,1,62.5,2|2,1:3|3:0,0:0:0:0:
1,334,152138,2,0,P|2:248|112:241,1,187.5,4|0,3:0|1:0,0:0:0:0:
222,200,152424,1,4,3:0:0:0:
222,200,152495,1,2,1:3:0:0:
222,200,152567,2,0,P|221:114|111:107,1,187.5,4|0,3:0|3:0,0:0:0:0:
44,49,152852,2,0,L|50:122,1,62.5,4|0,3:0|3:0,0:0:0:0:
32,57,153138,2,0,L|38:130,1,62.5,4|0,3:0|3:0,0:0:0:0:
449,184,153424,101,4,3:0:0:0:
449,184,153495,1,0,1:3:0:0:
449,184,153567,2,0,P|454:217|456:248,3,62.5,12|0|2|2,2:3|3:0|1:3|3:0,0:0:0:0:
416,327,153852,1,4,3:0:0:0:
380,341,153923,1,0,1:0:0:0:
344,329,153994,1,2,1:3:0:0:
324,296,154066,1,2,3:0:0:0:
326,257,154138,2,0,P|323:225|319:194,3,62.5,4|0|2|0,3:0|1:0|3:0|1:0,0:0:0:0:
202,199,154424,5,4,3:0:0:0:
202,199,154495,1,2,1:3:0:0:
202,199,154567,2,0,P|187:121|289:102,1,187.5,4|0,3:0|3:0,0:0:0:0:
360,97,154852,2,0,L|366:34,1,62.5,4|0,3:0|3:0,0:0:0:0:
403,114,155138,2,0,L|397:51,1,62.5,4|0,3:0|3:0,0:0:0:0:
0,221,155424,101,4,3:0:0:0:
0,221,155495,1,0,1:3:0:0:
0,221,155567,1,12,2:3:0:0:
27,248,155638,1,0,3:0:0:0:
66,248,155709,1,2,1:3:0:0:
94,223,155781,1,0,3:0:0:0:
99,185,155852,5,4,3:0:0:0:
104,132,155923,1,0,1:0:0:0:
147,101,155994,1,2,1:3:0:0:
199,110,156066,1,2,3:0:0:0:
227,156,156138,2,0,L|213:235,3,62.5,4|0|2|0,3:0|1:0|3:0|1:0,0:0:0:0:
224,231,156424,102,0,L|209:310,1,62.5,4|2,3:0|1:3,0:0:0:0:
352,359,156567,2,0,B|391:311|391:311|366:243,1,125,4|2,3:0|1:3,0:0:0:0:
423,0,156852,2,0,B|384:48|384:48|409:116,1,125,4|2,3:0|1:3,0:0:0:0:
512,192,157138,5,4,3:0:0:0:
148,256,157424,101,4,3:0:0:0:
34,186,157567,5,12,2:3:0:0:
31,140,157638,1,0,3:0:0:0:
58,103,157709,1,2,1:3:0:0:
103,92,157781,1,2,3:0:0:0:
144,112,157852,1,4,3:0:0:0:
239,187,157995,101,2,1:3:0:0:
252,174,158067,2,0,L|239:326,1,125,2|0,3:0|1:0,0:0:0:0:
263,366,158281,2,0,L|255:291,1,62.5,2|2,3:0|1:2,0:0:0:0:
391,253,158424,6,0,L|313:243,1,62.5,4|2,3:0|1:3,0:0:0:0:
179,306,158567,2,0,L|257:296,1,62.5,2|0,1:2|1:3,0:0:0:0:
252,174,158709,101,2,1:3:0:0:
272,187,158781,1,2,1:2:0:0:
253,192,158852,1,4,3:0:0:0:
261,204,158924,1,0,3:0:0:0:
254,210,158995,5,2,1:2:0:0:
195,223,159066,1,0,3:0:0:0:
146,186,159137,1,4,3:0:0:0:
144,126,159209,1,4,3:0:0:0:
189,86,159280,1,6,1:3:0:0:
211,88,159352,1,4,3:0:0:0:
192,93,159423,1,4,3:0:0:0:
200,105,159495,1,4,1:3:0:0:
201,119,159567,102,0,L|211:10,1,100,0|0,0:0|0:0,1:0:0:0:
