osu file format v14

[General]
AudioFilename: audio.mp3
AudioLeadIn: 0
PreviewTime: 39603
Countdown: 0
SampleSet: Soft
StackLeniency: 0.6
Mode: 0
LetterboxInBreaks: 0
EpilepsyWarning: 1
WidescreenStoryboard: 1

[Editor]
Bookmarks: 12083,40249,77999,80250,96249,112249,127567,158924
DistanceSpacing: 3
BeatDivisor: 4
GridSize: 16
TimelineZoom: 3.499998

[Metadata]
Title:theyaremanycolors
TitleUnicode:theyaremanycolors
Artist:Frums
ArtistUnicode:Frums
Creator:ScubDomino
Version:nikhard
Source:BOFU2017 - LEGENDA EST A MYTH -
Tags:THE BMS OF FIGHTERS ULTIMATE 2017 semicolon frums.xyz frumsdotxyz BOFU AOiRO_Manbow 青色鍋男 featured artist fa instrumental electronic electronica densecore psycore dark psytrance breakcore glitch experimental hardcore edm idm ambient techno juke footwork black red green blue multiple personality disorder dissociative identity did mpd rhythm video game guyfawes bowandarrow cuboctahedral natsume shiki anime girl natsume_shiki anime_girl scub domino jungkyuyoung [keqing] 8972308 celine citreum bws bwsnoob -bws miraculous 3545579 s0m3guy someguy some guy 11141924 Regou 419954 jasontime12345 Mizunashi Akari 12882468 nik nikolomara 10077264 calliecube allice cannedca callieonosu obamacube 7535045 handsome hehe tastystew 2123087 pip pipuuko Aven-_- [Lucian] [Rue] 8446047 therearemanycolors therearemanycolours theyaremanycolours they there are many colors colours tamc bms_of_fighters drums LEGEND
BeatmapID:4052459
BeatmapSetID:1533352

[Difficulty]
HPDrainRate:4
CircleSize:3.7
OverallDifficulty:6
ApproachRate:7.5
SliderMultiplier:1.1
SliderTickRate:0.5

[Events]
//Background and Video events
0,0,"mycelium.png",0,0
Video,-960,"test.mp4" S,0,-960,,0.7
//Break Periods
2,112448,115424
//Storyboard Layer 0 (Background)
//Storyboard Layer 1 (Fail)
//Storyboard Layer 2 (Pass)
//Storyboard Layer 3 (Foreground)
//Storyboard Layer 4 (Overlay)
//Storyboard Sound Samples

[TimingPoints]
83,500,4,2,1,30,1,0
12083,-200,4,2,1,40,0,0
39583,333.333333333333,4,2,1,55,1,0
40249,250,4,2,1,70,1,0
40249,-166.666666666667,4,2,1,70,0,0
72499,-166.666666666667,4,2,1,50,0,0
72749,-166.666666666667,4,2,1,70,0,0
72999,-166.666666666667,4,2,1,50,0,0
73249,-166.666666666667,4,2,1,70,0,0
74499,-166.666666666667,4,2,1,50,0,0
74749,-166.666666666667,4,2,1,70,0,0
74874,-166.666666666667,4,2,1,50,0,0
75249,-166.666666666667,4,2,1,70,0,0
76499,-166.666666666667,4,2,1,50,0,0
76749,-166.666666666667,4,2,1,70,0,0
76999,-166.666666666667,4,2,1,50,0,0
77249,-166.666666666667,4,2,1,70,0,0
77499,-166.666666666667,4,2,1,50,0,0
77749,-166.666666666667,4,2,1,70,0,0
77999,-166.666666666667,4,2,1,50,0,0
78249,-166.666666666667,4,2,1,70,0,0
78311,-166.666666666667,4,2,1,60,0,0
78415,-166.666666666667,4,2,1,65,0,0
78478,-166.666666666667,4,2,1,55,0,0
78582,-166.666666666667,4,2,1,60,0,0
78644,-166.666666666667,4,2,1,50,0,0
78749,-166.666666666667,4,2,1,55,0,0
78811,-166.666666666667,4,2,1,45,0,0
78915,-166.666666666667,4,2,1,50,0,0
78999,-166.666666666667,4,2,1,40,0,0
79082,-166.666666666667,4,2,1,45,0,0
79165,-166.666666666667,4,2,1,35,0,0
79249,-166.666666666667,4,2,1,50,0,0
79332,-166.666666666667,4,2,1,40,0,0
79415,-166.666666666667,4,2,1,60,0,0
79499,-166.666666666667,4,2,1,50,0,0
79582,-166.666666666667,4,2,1,70,0,0
79665,-166.666666666667,4,2,1,60,0,0
79749,-166.666666666667,4,2,1,80,0,0
80250,333.333333333333,3,2,1,80,1,0
80305,-100,3,2,1,70,0,0
88249,-83.3333333333333,3,2,1,70,0,0
104083,-71.4285714285714,3,2,1,70,0,0
112305,-83.3333333333333,3,2,1,30,0,0
116249,-83.3333333333333,3,2,1,70,0,0
116305,-83.3333333333333,3,2,1,30,0,0
119249,-83.3333333333333,3,2,1,35,0,0
119305,-83.3333333333333,3,2,1,40,0,0
119416,-83.3333333333333,3,2,1,45,0,0
119499,-83.3333333333333,3,2,1,50,0,0
119583,-83.3333333333333,3,2,1,55,0,0
119666,-83.3333333333333,3,2,1,60,0,0
119749,-83.3333333333333,3,2,1,65,0,0
119833,-83.3333333333333,3,2,1,70,0,0
120250,326.086956521739,3,2,1,70,1,0
121228,319.148936170213,3,2,1,70,1,0
122185,312.5,3,2,1,70,1,0
123123,306.122448979592,3,2,1,70,1,0
124041,300,3,2,1,70,1,0
124941,295.566502463054,3,2,1,70,1,0
125828,291.26213592233,3,2,1,70,1,0
126702,288.461538461538,3,2,1,50,1,0
126990,-100,3,2,1,45,0,0
127062,-100,3,2,1,35,0,0
127134,-100,3,2,1,45,0,0
127206,-100,3,2,1,55,0,0
127278,-100,3,2,1,65,0,0
127351,-100,3,2,1,75,0,0
127423,-100,3,2,1,85,0,0
127567,285.714285714286,7,2,1,70,1,0
127638,-100,7,2,1,50,0,0
135138,-100,7,2,1,60,0,0
135567,-100,7,2,1,70,0,0
151138,-100,7,2,1,75,0,0
151567,-100,7,2,1,80,0,0
159567,3858.52090032154,7,2,1,70,1,1
159627,-100,7,2,2,70,0,1
159687,-100,7,2,1,70,0,1
159717,-100,7,2,2,70,0,1
159747,-100,7,2,1,70,0,1
159868,-100,7,2,2,70,0,1
159928,-100,7,2,1,70,0,1
159989,-100,7,2,2,70,0,1
160079,-100,7,2,1,70,0,1
160230,-100,7,2,2,70,0,1
160290,-100,7,2,1,70,0,1
160380,-100,7,2,2,70,0,1
160411,-100,7,2,1,70,0,1
160441,-100,7,2,2,70,0,1
160501,-100,7,2,1,70,0,1
160561,-100,7,2,2,70,0,1
160652,-100,7,2,1,70,0,1
160802,-100,7,2,2,70,0,1
160863,-100,7,2,1,70,0,1
160893,-100,7,2,2,70,0,1
160953,-100,7,2,1,70,0,1
161013,-100,7,2,2,70,0,1
161074,-100,7,2,1,70,0,1
161164,-100,7,2,2,70,0,1
161194,-100,7,2,1,70,0,1
161255,-100,7,2,2,70,0,1
161285,-100,7,2,1,70,0,1
161345,-100,7,2,2,70,0,1
161405,-100,7,2,1,70,0,1
161496,-10000,7,2,2,70,0,0

[Colours]
Combo1 : 192,192,192
Combo2 : 213,85,85
Combo3 : 215,135,87
Combo4 : 228,210,107
Combo5 : 88,220,78
Combo6 : 87,210,131
Combo7 : 65,207,207
Combo8 : 70,131,213

[HitObjects]
256,192,12083,12,0,19583,0:0:0:0:
256,192,20083,12,0,27583,0:0:0:0:
256,192,28083,12,2,39583,2:0:0:0:
135,274,40249,117,4,1:2:0:0:
41,294,40499,1,4,3:3:0:0:
145,278,40749,2,0,L|134:348,1,65.9999979858399,4|4,3:3|3:3,0:0:0:0:
40,368,41249,2,0,L|30:302,1,65.9999979858399,4|4,3:3|3:3,0:0:0:0:
66,209,41749,1,4,3:3:0:0:
153,283,41999,6,0,L|151:316,2,32.99999899292,4|8|4,3:3|3:3|3:3,0:0:0:0:
62,192,42499,1,4,3:3:0:0:
109,84,42749,2,0,L|198:75,1,65.9999979858399,4|4,3:3|3:3,0:0:0:0:
277,134,43249,101,4,3:3:0:0:
185,66,43499,2,0,L|131:60,1,32.99999899292,8|4,3:3|3:3,0:0:0:0:
369,102,43874,1,4,3:3:0:0:
369,102,43999,2,0,L|422:96,1,32.99999899292,8|4,3:3|3:3,0:0:0:0:
498,105,44249,5,8,3:3:0:0:
404,85,44499,1,4,3:3:0:0:
508,101,44749,2,0,L|497:31,1,65.9999979858399,4|4,3:3|3:3,0:0:0:0:
403,11,45249,2,0,L|393:77,1,65.9999979858399,4|4,3:3|3:3,0:0:0:0:
432,177,45749,1,4,3:3:0:0:
500,120,45999,102,0,L|498:87,2,32.99999899292,8|8|4,3:3|3:3|3:3,0:0:0:0:
436,194,46499,1,4,3:3:0:0:
348,151,46749,2,0,L|259:160,1,65.9999979858399,4|4,3:3|3:3,0:0:0:0:
149,261,47249,6,0,L|182:264,2,32.99999899292,8|0|8,3:3|0:0|3:3,0:0:0:0:
122,227,47624,2,0,L|89:230,2,32.99999899292,4|8|8,3:3|3:3|3:3,0:0:0:0:
137,184,47999,1,2,3:3:0:0:
273,130,48249,101,8,1:3:0:0:
170,109,48499,1,4,3:3:0:0:
283,126,48749,2,0,L|272:56,1,65.9999979858399,4|4,3:3|3:3,0:0:0:0:
178,36,49249,2,0,L|168:102,1,65.9999979858399,4|4,3:3|3:3,0:0:0:0:
204,195,49749,1,4,3:3:0:0:
281,103,49999,6,0,L|279:70,2,32.99999899292,4|8|4,3:3|3:3|3:3,0:0:0:0:
190,194,50499,1,4,3:3:0:0:
79,140,50749,2,0,L|69:74,1,65.9999979858399,4|4,3:3|3:3,0:0:0:0:
126,0,51249,101,4,3:3:0:0:
232,71,51499,2,0,L|286:65,1,32.99999899292,8|4,3:3|3:3,0:0:0:0:
124,159,51874,1,8,3:3:0:0:
124,159,51999,2,0,L|71:153,1,32.99999899292,8|4,3:3|3:3,0:0:0:0:
10,143,52249,5,8,3:3:0:0:
104,163,52499,1,4,3:3:0:0:
0,147,52749,2,0,L|11:217,1,65.9999979858399,8|4,3:3|3:3,0:0:0:0:
105,237,53249,2,0,L|115:171,1,65.9999979858399,8|4,3:3|3:3,0:0:0:0:
76,71,53749,1,8,3:3:0:0:
8,128,53999,102,0,L|10:161,2,32.99999899292,4|8|4,3:3|3:3|3:3,0:0:0:0:
72,54,54499,1,8,3:3:0:0:
160,97,54749,2,0,L|249:88,1,65.9999979858399,4|8,3:3|3:3,0:0:0:0:
294,164,55249,6,0,L|297:140,8,16.49999949646,8|0|12|0|8|0|12|0|8,1:3|3:0|3:3|3:0|1:3|3:0|1:3|3:0|3:3,0:0:0:0:
315,18,55999,1,4,1:3:0:0:
315,18,56124,1,0,3:0:0:0:
315,18,56249,2,0,L|205:9,1,98.9999969787599,4|2,1:0|3:0,0:0:0:0:
151,61,56749,2,0,L|158:119,1,32.99999899292,4|2,3:0|3:0,0:0:0:0:
234,130,56999,2,0,L|227:188,1,32.99999899292,4|2,3:3|3:0,0:0:0:0:
186,241,57249,2,0,L|128:234,1,32.99999899292,4|2,3:3|3:0,0:0:0:0:
81,193,57499,2,0,L|23:200,1,32.99999899292,4|2,3:3|3:0,0:0:0:0:
0,266,57749,2,0,L|7:324,1,32.99999899292,4|2,3:3|3:0,0:0:0:0:
80,372,57999,101,4,3:3:0:0:
80,372,58124,1,4,3:3:0:0:
80,372,58249,2,0,L|190:363,1,98.9999969787599,4|2,3:3|3:0,0:0:0:0:
234,304,58749,2,0,L|227:246,1,32.99999899292,4|2,3:3|3:0,0:0:0:0:
158,224,58999,2,0,L|165:166,1,32.99999899292,4|2,3:3|3:0,0:0:0:0:
206,119,59249,5,4,3:3:0:0:
74,245,59499,2,0,L|16:238,1,32.99999899292,4|6,3:3|3:0,0:0:0:0:
210,301,59874,1,6,3:3:0:0:
210,301,59999,2,0,L|268:294,1,32.99999899292,4|6,3:3|3:3,0:0:0:0:
308,356,60249,102,0,L|406:364,1,98.9999969787599,4|2,1:3|3:0,0:0:0:0:
470,320,60749,2,0,L|477:262,1,32.99999899292,4|2,3:0|3:0,0:0:0:0:
504,212,60999,2,0,L|497:154,1,32.99999899292,4|2,3:3|3:0,0:0:0:0:
422,131,61249,2,0,L|364:138,1,32.99999899292,4|2,3:3|3:0,0:0:0:0:
317,179,61499,2,0,L|259:172,1,32.99999899292,4|2,3:3|3:0,0:0:0:0:
236,106,61749,2,0,L|243:48,1,32.99999899292,4|2,3:3|3:0,0:0:0:0:
300,8,61999,5,4,3:3:0:0:
300,8,62124,1,4,3:3:0:0:
300,8,62249,2,0,L|410:17,1,98.9999969787599,4|2,3:3|3:0,0:0:0:0:
460,75,62749,2,0,L|453:133,1,32.99999899292,4|2,3:3|3:0,0:0:0:0:
412,180,62999,2,0,L|419:238,1,32.99999899292,4|2,3:3|3:0,0:0:0:0:
470,279,63249,102,0,L|466:308,12,16.49999949646,4|0|2|4|4|0|6|0|8|4|6|8|4,3:3|0:0|3:0|3:0|3:3|0:0|3:0|0:0|3:3|0:3|3:3|3:3|3:0,0:0:0:0:
354,365,64249,6,0,L|256:373,1,98.9999969787599,4|2,1:0|3:0,0:0:0:0:
179,319,64749,2,0,L|172:261,1,32.99999899292,4|2,3:0|3:0,0:0:0:0:
201,208,64999,2,0,L|208:150,1,32.99999899292,4|2,3:3|3:0,0:0:0:0:
290,148,65249,2,0,L|348:155,1,32.99999899292,4|2,3:3|3:0,0:0:0:0:
395,196,65499,2,0,L|453:189,1,32.99999899292,4|2,3:3|3:0,0:0:0:0:
476,123,65749,2,0,L|469:65,1,32.99999899292,4|2,3:3|3:0,0:0:0:0:
412,25,65999,101,4,3:3:0:0:
412,25,66124,1,4,3:3:0:0:
412,25,66249,2,0,L|302:34,1,98.9999969787599,4|2,3:3|3:0,0:0:0:0:
252,92,66749,2,0,L|259:150,1,32.99999899292,4|2,3:3|3:0,0:0:0:0:
300,197,66999,2,0,L|293:255,1,32.99999899292,4|2,3:3|3:0,0:0:0:0:
233,298,67249,5,4,3:3:0:0:
115,227,67499,2,0,L|57:234,1,32.99999899292,4|6,3:3|3:0,0:0:0:0:
288,238,67874,1,6,3:3:0:0:
288,238,67999,2,0,L|346:245,1,32.99999899292,4|6,3:3|3:3,0:0:0:0:
377,181,68249,102,0,L|475:173,1,98.9999969787599,4|2,1:3|3:0,0:0:0:0:
512,97,68749,2,0,L|505:39,1,32.99999899292,4|2,3:0|3:0,0:0:0:0:
447,4,68999,2,0,L|414:8,1,32.99999899292,4|2,3:3|3:0,0:0:0:0:
349,66,69249,2,0,L|291:59,1,32.99999899292,4|2,1:3|3:0,0:0:0:0:
247,16,69499,2,0,L|189:23,1,32.99999899292,4|2,3:3|3:0,0:0:0:0:
165,90,69749,2,0,L|172:148,1,32.99999899292,4|2,3:3|3:0,0:0:0:0:
136,201,69999,5,4,3:3:0:0:
136,201,70124,1,4,3:3:0:0:
136,201,70249,2,0,L|38:209,1,98.9999969787599,4|2,1:3|3:0,0:0:0:0:
1,285,70749,2,0,L|8:343,1,32.99999899292,4|2,1:3|3:0,0:0:0:0:
71,374,70999,2,0,L|103:369,1,32.99999899292,4|2,3:3|3:0,0:0:0:0:
165,305,71249,102,0,L|163:288,12,16.49999949646,4|0|2|4|4|0|6|0|8|0|6|0|8,1:3|1:0|3:0|3:0|1:3|0:0|3:0|0:0|3:3|0:0|3:3|0:0|1:3,0:0:0:0:
97,195,72249,1,4,1:2:0:0:
25,349,72499,2,0,L|27:334,4,16.49999949646,0|0|0|0|4,3:0|3:0|3:0|3:0|1:2,0:0:0:0:
190,212,72999,2,0,L|188:196,3,16.49999949646,0|0|0|0,3:0|3:0|3:0|3:0,0:0:0:0:
186,176,73249,6,0,L|180:127,2,49.4999984893799,4|0|0,1:2|0:0|0:0,0:0:0:0:
88,213,73749,2,0,L|96:134,2,43.9999986572266,0|0|0,1:2|1:2|1:2,0:0:0:0:
6,145,74249,1,4,1:2:0:0:
113,41,74499,2,0,L|111:25,4,16.49999949646,0|0|0|0|4,3:0|3:0|3:0|3:0|1:2,0:0:0:0:
261,128,74999,2,0,L|262:112,3,16.49999949646,0|0|0|0,3:0|3:0|3:0|3:0,0:0:0:0:
265,92,75249,102,0,L|270:30,2,49.4999984893799,4|0|0,1:2|0:0|0:0,0:0:0:0:
360,130,75749,2,0,L|352:51,2,43.9999986572266,0|0|0,1:2|1:2|1:2,0:0:0:0:
459,79,76249,6,0,L|463:35,2,43.9999986572266,2|0|0,1:3|0:0|0:0,0:0:0:0:
372,117,76665,1,0,0:0:0:0:
381,101,76749,2,0,L|376:57,2,43.9999986572266,2|0|0,1:3|0:0|0:0,0:0:0:0:
267,74,77165,1,0,0:0:0:0:
278,63,77249,2,0,L|282:19,2,43.9999986572266,2|2|0,1:3|1:3|1:2,0:0:0:0:
166,107,77665,1,0,1:2:0:0:
176,96,77749,2,0,L|171:52,2,43.9999986572266,2|2|0,1:3|1:3|1:2,0:0:0:0:
256,192,78249,12,2,79749,1:3:0:0:
97,282,80250,38,0,P|57:277|-11:330,2,110,4|6|4,1:2|1:3|1:3,0:0:0:0:
201,356,81250,1,6,1:3:0:0:
328,304,81583,1,6,1:3:0:0:
452,371,81833,1,4,1:3:0:0:
452,371,81916,2,0,P|466:332|491:307,1,55,4|4,1:3|1:3,0:0:0:0:
512,248,82250,6,0,P|502:200|431:185,2,110,0|6|4,1:1|1:3|1:3,0:0:0:0:
437,362,83250,1,6,1:3:0:0:
320,308,83583,1,6,1:3:0:0:
197,350,83833,1,4,1:3:0:0:
197,350,83916,2,0,L|145:340,3,27.5,4|2|4|0,1:3|3:0|1:3|3:0,0:0:0:0:
233,344,84250,102,0,P|260:299|326:297,2,110,0|6|4,1:2|1:3|1:3,0:0:0:0:
120,372,85250,1,6,1:3:0:0:
33,313,85500,1,2,3:0:0:0:
33,313,85583,2,0,P|26:274|24:265,1,27.5,6|0,1:3|3:0,0:0:0:0:
59,173,85833,1,4,1:3:0:0:
59,173,85916,2,0,P|93:190|118:187,1,55,4|4,1:3|1:3,0:0:0:0:
190,194,86250,6,0,P|217:239|283:241,2,110,0|6|6,1:1|1:3|1:3,0:0:0:0:
121,75,87250,1,6,1:3:0:0:
198,99,87416,2,0,L|201:73,8,13.75,0|0|2|0|0|0|0|0|0,3:0|0:0|3:0|0:0|1:0|1:0|1:0|1:0|1:0,0:0:0:0:
120,61,87915,2,0,L|35:67,1,82.5,4|0,1:3|0:0,0:0:0:0:
16,105,88249,38,0,L|5:189,2,65.9999979858399,2|0|4,1:1|3:0|1:3,0:0:0:0:
104,193,88749,1,0,3:0:0:0:
104,193,88833,2,0,L|93:277,1,65.9999979858399,0|0,3:0|3:0,0:0:0:0:
206,175,89165,1,0,3:0:0:0:
206,175,89249,2,0,L|195:91,1,65.9999979858399,4|0,1:3|3:3,0:0:0:0:
119,42,89583,2,0,B|80:46|80:46|55:31|55:31|13:28,2,98.9999969787599,4|8|4,1:3|1:3|1:3,0:0:0:0:
220,104,90249,53,4,1:3:0:0:
296,58,90416,1,0,3:0:0:0:
296,58,90499,1,0,3:0:0:0:
296,58,90583,2,0,B|367:68,1,65.9999979858399,4|0,1:3|3:0,0:0:0:0:
381,97,90833,2,0,L|372:162,1,65.9999979858399,0|0,3:0|3:0,0:0:0:0:
313,221,91249,53,4,1:3:0:0:
234,256,91416,1,0,3:0:0:0:
234,256,91500,2,0,L|245:340,1,65.9999979858399,0|0,3:0|3:0,0:0:0:0:
178,185,91832,1,4,3:3:0:0:
178,185,91916,2,0,L|189:101,1,65.9999979858399,4|8,1:3|1:3,0:0:0:0:
173,26,92249,54,0,L|122:21,1,32.99999899292,4|0,1:3|3:0,0:0:0:0:
77,73,92415,1,0,3:0:0:0:
65,82,92499,2,0,L|-19:73,2,65.9999979858399,0|0|0,3:0|3:0|3:0,0:0:0:0:
228,106,93083,1,0,3:0:0:0:
228,106,93166,1,0,3:0:0:0:
228,106,93249,2,0,L|305:99,1,65.9999979858399,4|0,1:3|3:0,0:0:0:0:
368,29,93583,1,4,1:3:0:0:
448,85,93749,2,0,B|446:128|446:128|476:191|476:191|438:262,1,164.9999949646,0|0,3:3|3:0,0:0:0:0:
409,253,94249,6,0,L|358:258,1,32.99999899292,4|0,1:3|3:0,0:0:0:0:
307,214,94415,1,0,3:0:0:0:
294,227,94499,2,0,L|209:235,2,65.9999979858399,0|0|0,3:0|3:0|3:0,0:0:0:0:
365,329,95083,1,0,3:0:0:0:
478,328,95249,2,0,P|531:281|385:167,1,329.9999899292,4|8,1:3|1:3,0:0:0:0:
301,240,96249,38,0,P|257:234|234:100,1,197.99999395752,6|2,1:0|3:0,0:0:0:0:
311,27,96916,2,0,P|355:22|419:38,1,98.9999969787599,4|0,1:3|3:0,0:0:0:0:
431,54,97249,2,0,P|435:86|408:118,1,65.9999979858399,6|0,1:3|3:0,0:0:0:0:
341,161,97583,1,6,1:3:0:0:
219,101,97832,1,4,1:3:0:0:
219,101,97916,2,0,L|135:114,1,65.9999979858399,4|4,1:3|1:3,0:0:0:0:
69,55,98249,54,0,P|30:65|4:205,1,197.99999395752,0|2,1:1|3:0,0:0:0:0:
77,288,98916,2,0,P|122:289|173:254,1,98.9999969787599,4|0,1:3|3:0,0:0:0:0:
181,224,99249,2,0,P|179:177|182:145,1,65.9999979858399,6|0,1:3|3:0,0:0:0:0:
248,85,99583,1,6,1:3:0:0:
358,145,99749,1,2,3:0:0:0:
358,145,99833,1,4,1:3:0:0:
358,145,99916,1,4,1:3:0:0:
443,89,100082,1,4,1:3:0:0:
484,166,100249,6,0,P|493:107|514:30,2,131.99999597168,0|6|4,1:2|1:3|1:3,0:0:0:0:
342,184,101249,2,0,P|291:156|228:139,1,98.9999969787599,6|2,1:3|3:0,0:0:0:0:
213,161,101583,1,6,1:3:0:0:
93,117,101833,1,4,1:3:0:0:
93,117,101916,2,0,L|73:33,1,65.9999979858399,4|4,1:3|1:3,0:0:0:0:
143,2,102249,38,0,P|216:15|66:175,1,461.999985900879,0|4,1:1|3:0,0:0:0:0:
12,97,103583,2,0,L|9:71,8,16.49999949646,6|0|6|0|6|0|4|0|4,1:3|3:3|3:3|3:3|1:3|0:0|1:3|0:0|1:3,0:0:0:0:
41,0,104083,70,0,L|54:334,1,307.999990600586,6|2,1:3|3:0,0:0:0:0:
166,372,104916,2,0,B|194:327|194:327|166:214,1,153.999995300293,4|6,1:3|1:3,0:0:0:0:
290,203,105416,2,0,B|259:120|259:120|281:58,2,153.999995300293,0|2|4,3:0|3:0|1:3,0:0:0:0:
395,135,106249,2,0,B|413:87|413:87|392:26,3,115.49999647522,2|2|2|2,1:2|3:2|3:2|3:2,0:0:0:0:
512,0,107249,38,0,L|500:307,1,307.999990600586,6|4,1:3|1:3,0:0:0:0:
375,364,108083,1,4,1:3:0:0:
375,364,108166,1,0,3:0:0:0:
375,364,108249,2,0,B|347:316|347:316|368:194,1,153.999995300293,0|6,1:2|1:3,0:0:0:0:
232,150,108749,2,0,B|252:236|252:236|218:291,1,153.999995300293,2|0,3:0|3:0,0:0:0:0:
110,366,109249,2,0,B|83:329|83:329|104:234,3,115.49999647522,6|2|2|2,1:3|3:0|3:0|3:0,0:0:0:0:
18,170,110249,2,0,B|8:107|8:107|77:9|77:9|163:97|163:97|209:60|209:60|279:116|279:116|390:39|390:39|431:66|431:66|512:63|512:63|473:231|473:231|438:193,1,923.999971801759,0|4,1:1|1:0,0:0:0:0:
256,192,116249,53,2,2:3:0:0:
296,238,120249,5,4,1:3:0:0:
191,126,120739,1,4,3:3:0:0:
256,192,120820,12,0,126702,3:0:0:0:
7,352,127567,22,0,L|7:238,2,110,8|8|8,1:3|2:3|2:3,0:0:0:0:
11,138,128424,1,8,2:3:0:0:
11,138,128567,1,8,3:3:0:0:
7,345,128852,1,8,2:3:0:0:
11,138,129138,2,0,L|11:24,1,110,8|8,2:3|2:3,0:0:0:0:
87,29,129567,6,0,L|87:143,2,110,8|8|8,3:3|2:3|2:3,0:0:0:0:
91,243,130424,1,8,2:3:0:0:
91,243,130567,1,8,3:3:0:0:
87,36,130852,1,8,2:3:0:0:
91,243,131138,2,0,L|91:357,1,110,8|8,2:3|2:3,0:0:0:0:
168,355,131567,102,0,L|168:241,2,110,8|8|8,1:3|2:3|2:3,0:0:0:0:
172,141,132424,1,8,2:3:0:0:
172,141,132567,1,8,3:3:0:0:
168,348,132852,1,8,2:3:0:0:
172,141,133138,2,0,L|172:27,1,110,8|8,2:3|2:3,0:0:0:0:
248,32,133567,6,0,L|248:146,2,110,8|8|8,1:3|2:3|2:3,0:0:0:0:
252,246,134424,1,8,2:3:0:0:
252,246,134567,1,8,3:3:0:0:
248,39,134852,1,8,2:3:0:0:
252,246,135138,2,0,L|252:360,1,110,8|8,2:3|2:3,0:0:0:0:
335,356,135567,102,0,L|335:242,2,110,4|8|8,1:3|2:3|2:3,0:0:0:0:
339,142,136424,1,8,2:3:0:0:
339,142,136567,1,8,3:3:0:0:
335,349,136852,1,8,2:3:0:0:
339,142,137138,2,0,L|339:28,1,110,8|8,2:3|2:3,0:0:0:0:
415,33,137567,6,0,L|415:147,2,110,8|8|8,3:3|2:3|2:3,0:0:0:0:
419,247,138424,1,8,2:3:0:0:
419,247,138567,1,8,3:3:0:0:
415,40,138852,1,8,2:3:0:0:
419,247,139138,2,0,L|419:361,1,110,8|8,2:3|2:3,0:0:0:0:
496,359,139567,102,0,L|496:245,2,110,8|8|8,1:3|2:3|1:3,0:0:0:0:
500,145,140424,1,8,2:3:0:0:
500,145,140567,1,8,3:3:0:0:
496,352,140852,1,8,1:3:0:0:
500,145,141138,2,0,L|500:31,1,110,8|8,2:3|2:3,0:0:0:0:
256,192,141567,12,0,143281,3:0:0:0:
201,310,143709,6,0,B|164:302|164:302|38:354,1,165,2|4,1:3|3:0,0:0:0:0:
0,284,144281,1,2,3:0:0:0:
0,284,144424,2,0,B|-8:210|-8:210|11:180,1,110,4|2,3:0|1:3,0:0:0:0:
87,124,144852,2,0,L|158:119,1,55,4|2,3:0|1:3,0:0:0:0:
207,49,145138,102,0,B|227:14|227:14|225:-11,2,55,4|2|4,3:0|1:3|3:0,0:0:0:0:
151,118,145567,2,0,B|90:93|90:93|22:97,1,110,12|4,2:3|3:0,0:0:0:0:
0,299,146138,1,4,3:0:0:0:
0,299,146281,2,0,L|54:280,1,55,2|4,3:0|3:0,0:0:0:0:
96,217,146567,2,0,B|154:217|154:217|205:266,1,110,4|4,3:0|3:0,0:0:0:0:
283,336,147138,2,0,L|397:324,1,110,4|4,3:0|3:0,0:0:0:0:
465,355,147567,6,0,B|511:361|511:361|527:234|527:234|472:227,1,220,12|4,2:3|3:0,0:0:0:0:
377,307,148424,1,4,3:0:0:0:
377,307,148567,2,0,B|315:294|315:294|282:238,1,110,4|4,3:0|3:0,0:0:0:0:
305,82,149138,2,0,B|337:48|337:48|419:68,1,110,4|4,3:0|3:0,0:0:0:0:
473,25,149567,2,0,B|511:39|511:39|487:174,1,165,12|2,2:3|1:3,0:0:0:0:
434,229,150138,1,4,3:0:0:0:
356,146,150424,1,4,3:0:0:0:
356,146,150567,1,4,3:0:0:0:
263,223,150852,2,0,L|148:213,1,110,4|4,3:0|3:0,0:0:0:0:
92,267,151281,2,0,L|37:271,1,55,8|12,1:3|3:0,0:0:0:0:
13,341,151567,102,0,B|-14:282|-14:282|0:181,1,165,12|2,2:3|1:3,0:0:0:0:
75,103,152138,1,4,3:0:0:0:
75,103,152209,2,0,B|124:106|124:106|173:76,1,82.5,0|4,1:0|3:0,0:0:0:0:
246,128,152567,6,0,P|245:183|236:259,2,110,4|4|4,3:0|3:0|3:0,0:0:0:0:
312,57,153281,2,0,P|342:56|367:55,1,55,2|4,1:3|3:0,0:0:0:0:
469,17,153567,102,0,B|485:67|485:67|453:138,1,110,12|4,2:3|3:0,0:0:0:0:
394,186,153995,1,2,1:3:0:0:
315,137,154138,2,0,P|288:129|261:125,1,55,4|2,3:0|3:0,0:0:0:0:
202,54,154424,1,4,3:0:0:0:
111,67,154567,6,0,B|77:51|77:51|6:66,1,110,4|4,3:0|3:0,0:0:0:0:
0,156,154995,1,2,1:3:0:0:
0,156,155067,2,0,B|7:204|7:204|83:244,1,110,0|0,3:0|3:0,0:0:0:0:
168,294,155567,102,0,B|230:284|230:284|220:169,1,165,12|2,2:3|1:3,0:0:0:0:
157,123,156138,2,0,P|115:129|85:136,1,55,4|2,3:0|3:0,0:0:0:0:
53,215,156424,1,4,3:0:0:0:
116,278,156567,6,0,B|122:344|122:344|86:403,2,110,4|4|4,3:0|3:0|3:0,0:0:0:0:
39,215,157281,2,0,B|35:209|31:193|31:160,1,55,2|4,1:3|3:0,0:0:0:0:
83,64,157567,102,0,B|132:84|132:84|181:54|252:57,1,165,12|2,2:3|1:3,0:0:0:0:
303,137,158138,1,2,1:2:0:0:
303,137,158209,2,0,B|378:124|378:124|391:71,1,110,0|2,1:0|1:3,0:0:0:0:
403,56,158567,1,2,1:2:0:0:
506,88,158709,2,0,L|494:252,1,165,2|4,1:3|3:0,0:0:0:0:
431,312,159281,5,6,1:3:0:0:
409,308,159352,1,4,3:0:0:0:
387,304,159424,1,4,3:0:0:0:
365,300,159495,1,4,1:3:0:0:
343,296,159567,1,0,0:0:0:0:
