osu file format v14

[General]
AudioFilename: audio.mp3
AudioLeadIn: 0
PreviewTime: 39603
Countdown: 0
SampleSet: Soft
StackLeniency: 0.2
Mode: 0
LetterboxInBreaks: 0
EpilepsyWarning: 1
WidescreenStoryboard: 1

[Editor]
Bookmarks: 12083,40249,56249,77999,80250,96249,112249,127567,158924
DistanceSpacing: 1.2
BeatDivisor: 8
GridSize: 8
TimelineZoom: 2.499999

[Metadata]
Title:theyaremanycolors
TitleUnicode:theyaremanycolors
Artist:Frums
ArtistUnicode:Frums
Creator:ScubDomino
Version:hehemaster
Source:BOFU2017 - LEGENDA EST A MYTH -
Tags:THE BMS OF FIGHTERS ULTIMATE 2017 semicolon frums.xyz frumsdotxyz BOFU AOiRO_Manbow 青色鍋男 featured artist fa instrumental electronic electronica densecore psycore dark psytrance breakcore glitch experimental hardcore edm idm ambient techno juke footwork black red green blue multiple personality disorder dissociative identity did mpd rhythm video game guyfawes bowandarrow cuboctahedral natsume shiki anime girl natsume_shiki anime_girl scub domino jungkyuyoung [keqing] 8972308 celine citreum bws bwsnoob -bws miraculous 3545579 s0m3guy someguy some guy 11141924 Regou 419954 jasontime12345 Mizunashi Akari 12882468 nik nikolomara 10077264 calliecube allice cannedca callieonosu obamacube 7535045 handsome hehe tastystew 2123087 pip pipuuko Aven-_- [Lucian] [Rue] 8446047 therearemanycolors therearemanycolours theyaremanycolours they there are many colors colours tamc bms_of_fighters drums LEGEND
BeatmapID:4052456
BeatmapSetID:1533352

[Difficulty]
HPDrainRate:4
CircleSize:4
OverallDifficulty:9
ApproachRate:8.5
SliderMultiplier:2.5
SliderTickRate:0.5

[Events]
//Background and Video events
0,0,"mycelium.png",0,0
Video,-960,"test.mp4" S,0,-960,,0.7
//Break Periods
2,112449,117499
2,120939,126240
//Storyboard Layer 0 (Background)
//Storyboard Layer 1 (Fail)
//Storyboard Layer 2 (Pass)
//Storyboard Layer 3 (Foreground)
//Storyboard Layer 4 (Overlay)
//Storyboard Sound Samples

[TimingPoints]
83,500,4,2,1,60,1,0
12083,-1000,4,2,1,60,0,0
39583,333.333333333333,4,2,1,60,1,0
40249,250,4,2,1,60,1,0
40249,-200,4,2,1,60,0,0
80250,333.333333333333,3,2,1,60,1,0
120250,326.086956521739,3,2,1,60,1,0
121228,319.148936170213,3,2,1,60,1,0
122185,312.5,3,2,1,60,1,0
123123,306.122448979592,3,2,1,60,1,0
124041,300,3,2,1,60,1,0
124941,295.566502463054,3,2,1,60,1,0
125828,291.26213592233,3,2,1,60,1,0
126702,288.461538461538,3,2,1,60,1,0
127567,285.714285714286,7,2,1,60,1,0
159567,3858.52090032154,7,2,1,60,1,1
159627,-100,7,2,2,60,0,1
159687,-100,7,2,1,60,0,1
159717,-100,7,2,2,60,0,1
159747,-100,7,2,1,60,0,1
159868,-100,7,2,2,60,0,1
159928,-100,7,2,1,60,0,1
159989,-100,7,2,2,60,0,1
160079,-100,7,2,1,60,0,1
160230,-100,7,2,2,60,0,1
160290,-100,7,2,1,60,0,1
160380,-100,7,2,2,60,0,1
160411,-100,7,2,1,60,0,1
160441,-100,7,2,2,60,0,1
160501,-100,7,2,1,60,0,1
160561,-100,7,2,2,60,0,1
160652,-100,7,2,1,60,0,1
160802,-100,7,2,2,60,0,1
160863,-100,7,2,1,60,0,1
160893,-100,7,2,2,60,0,1
160953,-100,7,2,1,60,0,1
161013,-100,7,2,2,60,0,1
161074,-100,7,2,1,60,0,1
161164,-100,7,2,2,60,0,1
161194,-100,7,2,1,60,0,1
161255,-100,7,2,2,60,0,1
161285,-100,7,2,1,60,0,1
161345,-100,7,2,2,60,0,1
161405,-100,7,2,1,60,0,1
161496,-100,7,2,2,60,0,0

[Colours]
Combo1 : 192,192,192
Combo2 : 213,85,85
Combo3 : 215,135,87
Combo4 : 228,210,107
Combo5 : 88,220,78
Combo6 : 87,210,131
Combo7 : 81,81,81
Combo8 : 70,131,213

[HitObjects]
256,192,39583,12,0,40166,0:0:0:0:
230,62,40249,5,4,1:2:0:0:
104,85,40499,1,4,3:3:0:0:
124,210,40749,1,4,3:3:0:0:
198,203,40999,101,4,3:3:0:0:
206,277,41249,5,4,3:3:0:0:
408,308,41499,1,4,3:3:0:0:
439,109,41749,1,4,3:3:0:0:
368,123,41999,101,4,3:3:0:0:
368,123,42124,1,8,3:3:0:0:
361,48,42249,5,4,3:3:0:0:
459,29,42499,1,4,3:3:0:0:
483,127,42749,1,4,3:3:0:0:
435,185,42999,101,4,3:3:0:0:
492,231,43249,5,4,3:3:0:0:
443,378,43499,1,8,3:3:0:0:
443,378,43624,1,4,3:3:0:0:
288,326,43874,1,4,3:3:0:0:
288,326,43936,1,8,3:3:0:0:
288,326,43999,102,0,L|281:254,1,62.5,8|4,3:3|3:3,0:0:0:0:
341,216,44249,5,8,3:3:0:0:
206,178,44499,1,4,3:3:0:0:
182,315,44749,1,4,3:3:0:0:
112,286,44999,101,4,3:3:0:0:
80,354,45249,5,4,3:3:0:0:
21,152,45499,1,4,3:3:0:0:
228,110,45749,1,4,3:3:0:0:
244,183,45999,101,8,3:3:0:0:
244,183,46124,1,8,3:3:0:0:
317,167,46249,5,4,3:3:0:0:
331,27,46499,1,4,3:3:0:0:
191,17,46749,1,4,3:3:0:0:
161,88,46999,101,4,3:3:0:0:
98,42,47249,6,0,L|31:33,1,62.5,8|0,3:3|0:0,0:0:0:0:
11,29,47436,1,4,3:3:0:0:
11,29,47499,1,8,3:3:0:0:
32,114,47624,2,0,L|39:150,4,31.25,4|0|8|8|8,3:3|0:0|3:3|3:3|3:3,0:0:0:0:
256,175,47999,102,0,L|247:278,1,93.75,2|0,3:3|0:0,0:0:0:0:
247,268,48249,5,8,1:3:0:0:
424,319,48499,1,4,3:3:0:0:
456,147,48749,1,4,3:3:0:0:
503,88,48999,101,4,3:3:0:0:
439,48,49249,5,4,3:3:0:0:
484,272,49499,1,4,3:3:0:0:
259,314,49749,1,4,3:3:0:0:
227,245,49999,101,4,3:3:0:0:
227,245,50124,1,8,3:3:0:0:
158,274,50249,5,4,3:3:0:0:
144,146,50499,1,4,3:3:0:0:
274,135,50749,1,4,3:3:0:0:
318,195,50999,101,4,3:3:0:0:
384,160,51249,5,4,3:3:0:0:
220,60,51499,1,8,3:3:0:0:
220,60,51624,2,0,L|232:149,1,62.5,4|0,3:3|0:0,0:0:0:0:
237,154,51811,1,4,3:3:0:0:
237,154,51874,1,8,3:3:0:0:
184,212,51999,102,0,L|112:196,1,62.5,8|4,3:3|3:3,0:0:0:0:
61,238,52249,5,8,3:3:0:0:
27,125,52499,1,4,3:3:0:0:
147,94,52749,1,8,3:3:0:0:
199,147,52999,101,4,3:3:0:0:
264,110,53249,5,8,3:3:0:0:
236,328,53499,1,4,3:3:0:0:
456,352,53749,1,8,3:3:0:0:
434,280,53999,101,4,3:3:0:0:
434,280,54124,1,8,3:3:0:0:
501,248,54249,5,4,3:3:0:0:
512,138,54499,1,8,3:3:0:0:
401,128,54749,2,0,L|409:55,1,62.5,4|0,3:3|0:0,0:0:0:0:
417,41,54936,1,4,0:3:0:0:
417,41,54999,1,8,3:3:0:0:
350,1,55124,1,4,0:3:0:0:
294,50,55249,101,8,1:3:0:0:
251,31,55311,1,0,3:0:0:0:
205,36,55374,1,12,3:3:0:0:
169,65,55436,1,0,3:0:0:0:
152,108,55499,1,8,1:3:0:0:
161,154,55561,1,0,3:0:0:0:
191,188,55624,1,12,1:3:0:0:
236,202,55686,1,0,3:0:0:0:
281,191,55749,1,8,3:3:0:0:
326,201,55811,1,8,3:3:0:0:
361,231,55874,1,8,3:3:0:0:
376,275,55936,1,4,3:3:0:0:
368,321,55999,1,4,1:3:0:0:
339,357,56061,1,0,3:0:0:0:
295,373,56124,1,0,3:0:0:0:
249,367,56186,1,0,3:0:0:0:
213,339,56249,1,4,1:0:0:0:
213,339,56499,5,4,3:3:0:0:
139,354,56624,1,2,3:0:0:0:
124,280,56749,1,4,3:0:0:0:
61,238,56874,1,2,3:0:0:0:
102,175,56999,1,4,3:3:0:0:
87,101,57124,1,2,3:0:0:0:
161,86,57249,1,4,3:3:0:0:
202,24,57374,1,2,3:0:0:0:
265,64,57499,1,4,3:3:0:0:
339,49,57624,1,2,3:0:0:0:
354,123,57749,1,4,3:3:0:0:
417,165,57874,1,2,3:0:0:0:
376,228,57999,101,4,3:3:0:0:
399,363,58124,1,4,3:3:0:0:
270,315,58249,5,4,3:3:0:0:
344,304,58374,1,2,3:0:0:0:
223,255,58499,1,4,3:3:0:0:
297,244,58624,1,2,3:0:0:0:
251,184,58749,1,4,3:3:0:0:
325,173,58874,1,2,3:0:0:0:
204,124,58999,1,4,3:3:0:0:
278,113,59124,1,2,3:0:0:0:
232,53,59249,1,4,3:3:0:0:
306,42,59374,1,2,3:0:0:0:
406,215,59499,1,4,3:3:0:0:
480,204,59624,1,6,3:0:0:0:
480,204,59874,101,6,3:3:0:0:
484,200,59936,1,8,3:3:0:0:
488,196,59999,1,4,3:3:0:0:
441,45,60124,1,6,3:3:0:0:
334,162,60249,1,4,1:3:0:0:
334,162,60499,5,4,3:3:0:0:
349,88,60624,1,2,3:0:0:0:
275,73,60749,1,4,3:0:0:0:
233,10,60874,1,2,3:0:0:0:
170,51,60999,1,4,3:3:0:0:
96,36,61124,1,2,3:0:0:0:
81,110,61249,1,4,3:3:0:0:
19,151,61374,1,2,3:0:0:0:
59,214,61499,1,4,3:3:0:0:
44,288,61624,1,2,3:0:0:0:
118,303,61749,1,4,3:3:0:0:
160,366,61874,1,2,3:0:0:0:
223,325,61999,101,4,3:3:0:0:
358,348,62124,1,4,3:3:0:0:
310,219,62249,5,4,3:3:0:0:
295,292,62374,1,2,3:0:0:0:
253,169,62499,1,4,3:3:0:0:
238,242,62624,1,2,3:0:0:0:
181,192,62749,1,4,3:3:0:0:
166,265,62874,1,2,3:0:0:0:
124,142,62999,1,4,3:3:0:0:
109,215,63124,1,2,3:0:0:0:
52,165,63249,101,4,3:3:0:0:
110,31,63374,1,2,3:0:0:0:
116,30,63436,1,4,3:0:0:0:
122,29,63499,1,4,3:3:0:0:
177,79,63624,1,6,3:0:0:0:
183,77,63686,1,0,0:0:0:0:
189,75,63749,1,8,3:3:0:0:
195,73,63811,1,4,0:3:0:0:
201,71,63874,1,6,3:3:0:0:
249,13,63999,2,2,L|385:33,1,125,4|4,3:0|1:0,0:1:0:0:
372,31,64499,5,4,3:3:0:0:
337,214,64624,1,2,3:0:0:0:
415,52,64749,1,4,3:0:0:0:
293,192,64874,1,2,3:0:0:0:
442,91,64999,1,4,3:3:0:0:
266,153,65124,1,2,3:0:0:0:
445,139,65249,1,4,3:3:0:0:
262,104,65374,1,2,3:0:0:0:
424,183,65499,1,4,3:3:0:0:
284,61,65624,1,2,3:0:0:0:
385,210,65749,1,4,3:3:0:0:
323,34,65874,1,2,3:0:0:0:
337,214,65999,101,4,3:3:0:0:
266,239,66124,1,4,3:3:0:0:
273,313,66249,5,4,3:3:0:0:
111,370,66374,1,2,3:0:0:0:
104,296,66499,1,4,3:3:0:0:
266,239,66624,1,2,3:0:0:0:
259,165,66749,1,4,3:3:0:0:
97,222,66874,1,2,3:0:0:0:
90,148,66999,1,4,3:3:0:0:
252,91,67124,1,2,3:0:0:0:
245,17,67249,1,4,3:3:0:0:
83,74,67374,1,2,3:0:0:0:
76,0,67499,101,4,3:3:0:0:
167,107,67624,1,6,3:0:0:0:
37,160,67749,1,0,3:3:0:0:
33,164,67811,1,0,0:0:0:0:
29,168,67874,1,6,3:3:0:0:
14,247,67999,1,4,3:3:0:0:
70,350,68124,1,6,3:3:0:0:
175,299,68249,1,4,1:3:0:0:
175,299,68499,5,4,3:3:0:0:
140,116,68624,1,2,3:0:0:0:
218,278,68749,1,4,3:0:0:0:
96,138,68874,1,2,3:0:0:0:
245,239,68999,1,4,3:3:0:0:
69,177,69124,1,2,3:0:0:0:
248,191,69249,1,4,1:3:0:0:
65,226,69374,1,2,3:0:0:0:
227,147,69499,1,4,3:3:0:0:
87,269,69624,1,2,3:0:0:0:
188,120,69749,1,4,3:3:0:0:
126,296,69874,1,2,3:0:0:0:
140,116,69999,101,4,3:3:0:0:
66,100,70124,1,4,3:3:0:0:
82,26,70249,1,4,1:3:0:0:
288,193,70499,5,4,3:3:0:0:
176,228,70624,1,2,3:0:0:0:
140,116,70749,1,4,1:3:0:0:
510,184,70936,101,0,0:0:0:0:
510,184,70999,1,4,3:3:0:0:
403,298,71124,1,2,3:0:0:0:
288,193,71249,1,4,1:3:0:0:
304,149,71311,1,0,1:0:0:0:
304,102,71374,1,2,3:0:0:0:
287,59,71436,1,4,3:0:0:0:
255,25,71499,1,4,1:3:0:0:
213,4,71561,1,0,0:0:0:0:
167,0,71624,1,6,3:0:0:0:
122,14,71686,1,0,0:0:0:0:
85,42,71749,2,0,L|79:95,1,31.25,8|0,3:3|0:0,0:0:0:0:
207,90,71874,2,0,L|201:143,1,31.25,6|0,3:3|0:0,0:0:0:0:
19,120,71999,2,0,L|13:173,1,31.25,8|0,1:3|0:0,0:0:0:0:
141,168,72124,2,0,L|135:221,1,31.25,4|0,1:3|0:0,0:0:0:0:
67,233,72249,6,0,P|130:246|159:281,1,93.75,4|0,1:2|0:0,0:0:0:0:
155,341,72499,1,0,3:0:0:0:
194,365,72561,1,0,3:0:0:0:
240,363,72624,1,0,3:0:0:0:
277,336,72686,1,0,3:0:0:0:
292,292,72749,2,0,P|283:243|281:174,1,93.75,4|0,1:2|0:0,0:0:0:0:
323,128,72999,1,0,3:0:0:0:
366,112,73061,1,0,3:0:0:0:
411,120,73124,1,0,3:0:0:0:
446,151,73186,1,0,3:0:0:0:
460,195,73249,102,0,B|459:140|487:159|485:86,2,93.75,4|0|0,1:2|1:2|1:2,0:0:0:0:
400,248,73749,1,0,1:2:0:0:
425,357,73915,1,0,1:2:0:0:
312,384,74082,1,0,1:2:0:0:
256,334,74249,6,0,P|263:281|279:224,1,93.75,4|0,1:2|0:0,0:0:0:0:
253,167,74499,1,0,3:0:0:0:
214,141,74561,1,0,3:0:0:0:
168,144,74624,1,0,3:0:0:0:
133,174,74686,1,0,3:0:0:0:
123,219,74749,2,0,P|70:227|46:187,1,93.75,4|0,1:2|0:0,0:0:0:0:
0,137,74999,1,0,3:0:0:0:
5,90,75061,1,0,3:0:0:0:
33,54,75124,1,0,3:0:0:0:
76,36,75186,1,0,3:0:0:0:
122,44,75249,102,0,B|178:51|160:21|221:29,2,93.75,4|0|0,1:2|1:2|1:2,0:0:0:0:
274,84,75749,1,0,1:2:0:0:
242,159,75832,1,0,0:0:0:0:
268,236,75915,1,0,1:2:0:0:
338,278,75998,1,0,0:0:0:0:
418,263,76082,1,0,1:2:0:0:
469,199,76165,1,0,0:0:0:0:
465,117,76248,5,2,1:3:0:0:
343,144,76436,1,2,1:3:0:0:
321,18,76624,1,0,1:2:0:0:
321,18,76686,1,0,1:2:0:0:
321,18,76749,101,2,1:3:0:0:
132,0,76936,1,2,1:3:0:0:
114,194,77124,1,0,1:2:0:0:
114,194,77186,1,0,1:2:0:0:
114,194,77249,5,2,1:3:0:0:
203,178,77415,1,2,1:3:0:0:
215,273,77582,1,0,1:2:0:0:
215,273,77665,1,0,1:2:0:0:
215,273,77749,101,2,1:3:0:0:
427,318,77915,1,2,1:3:0:0:
467,109,78082,1,0,1:2:0:0:
467,109,78165,1,0,1:2:0:0:
467,109,78249,5,2,1:3:0:0:
448,50,78332,1,0,1:3:0:0:
402,9,78415,1,2,1:3:0:0:
341,0,78498,1,0,1:3:0:0:
284,24,78582,1,2,1:3:0:0:
249,75,78665,1,0,1:3:0:0:
246,137,78748,1,2,1:3:0:0:
276,190,78832,1,0,1:3:0:0:
330,220,78915,1,2,1:3:0:0:
357,270,78999,1,0,1:3:0:0:
347,327,79082,1,2,1:3:0:0:
304,365,79165,1,0,1:3:0:0:
247,368,79249,1,2,1:3:0:0:
200,335,79332,1,0,1:3:0:0:
184,280,79415,1,2,1:3:0:0:
200,223,79499,6,0,P|200:198|192:178,3,31.25,0|0|0|0,1:3|0:0|0:0|0:0,0:0:0:0:
113,124,79749,2,0,P|135:137|156:139,3,31.25,2|0|0|0,1:3|0:0|0:0|0:0,0:0:0:0:
242,98,79999,2,0,P|220:111|207:127,3,31.25,0|0|0|0,1:3|0:0|0:0|0:0,0:0:0:0:
284,25,80250,21,4,1:2:0:0:
356,41,80333,1,0,3:0:0:0:
410,92,80416,1,0,3:0:0:0:
436,156,80500,1,0,3:0:0:0:
440,224,80583,1,6,1:3:0:0:
424,284,80666,1,0,3:0:0:0:
387,335,80750,1,2,3:0:0:0:
337,361,80833,1,0,3:0:0:0:
280,361,80916,1,4,1:3:0:0:
245,324,81000,1,2,3:0:0:0:
253,274,81083,1,0,3:0:0:0:
288,249,81166,1,0,3:0:0:0:
332,247,81250,1,6,1:3:0:0:
362,225,81333,1,0,3:0:0:0:
367,188,81416,1,0,3:0:0:0:
348,162,81500,1,2,3:0:0:0:
319,149,81583,1,6,1:3:0:0:
298,135,81666,1,0,3:0:0:0:
286,112,81750,1,2,3:0:0:0:
284,93,81833,1,4,1:3:0:0:
291,75,81916,1,4,1:3:0:0:
302,68,82000,1,2,3:0:0:0:
314,65,82083,1,4,1:3:0:0:
319,67,82166,1,0,3:0:0:0:
321,72,82250,5,0,1:1:0:0:
318,72,82333,1,0,3:0:0:0:
318,69,82416,1,0,3:0:0:0:
321,69,82500,1,0,3:0:0:0:
321,72,82583,1,6,1:3:0:0:
318,72,82666,1,0,3:0:0:0:
318,69,82749,1,2,3:0:0:0:
321,69,82833,1,0,3:0:0:0:
321,72,82916,1,4,1:3:0:0:
318,72,82999,1,2,3:0:0:0:
318,69,83082,1,0,3:0:0:0:
321,69,83166,1,0,3:0:0:0:
321,72,83250,1,6,1:3:0:0:
318,72,83333,1,0,3:0:0:0:
318,69,83416,1,0,3:0:0:0:
321,69,83500,1,2,3:0:0:0:
321,72,83583,1,6,1:3:0:0:
318,72,83666,1,0,3:0:0:0:
318,69,83749,1,2,3:0:0:0:
321,69,83833,1,4,1:3:0:0:
348,90,83916,101,4,1:3:0:0:
300,99,83999,5,2,3:0:0:0:
291,51,84082,101,4,1:3:0:0:
339,42,84166,5,0,3:0:0:0:
321,72,84250,101,0,1:2:0:0:
318,72,84333,1,0,3:0:0:0:
318,69,84416,1,0,3:0:0:0:
321,69,84500,1,0,3:0:0:0:
321,72,84583,1,6,1:3:0:0:
318,72,84666,1,0,3:0:0:0:
318,69,84749,1,2,3:0:0:0:
321,69,84833,1,0,3:0:0:0:
321,72,84916,1,4,1:3:0:0:
318,72,84999,1,2,3:0:0:0:
318,69,85082,1,0,3:0:0:0:
321,69,85166,1,0,3:0:0:0:
321,72,85250,5,6,1:3:0:0:
318,72,85333,1,0,3:0:0:0:
318,69,85416,1,0,3:0:0:0:
321,69,85500,1,2,3:0:0:0:
321,72,85583,1,6,1:3:0:0:
318,72,85666,1,0,3:0:0:0:
318,69,85749,1,2,3:0:0:0:
321,69,85833,1,4,1:3:0:0:
321,72,85916,1,4,1:3:0:0:
318,72,85999,1,2,3:0:0:0:
318,69,86082,1,4,1:3:0:0:
321,69,86166,1,0,3:0:0:0:
321,72,86250,101,0,1:1:0:0:
319,67,86333,1,0,3:0:0:0:
314,65,86416,1,2,3:0:0:0:
302,68,86499,1,0,3:0:0:0:
291,75,86583,1,6,1:3:0:0:
284,93,86666,1,0,3:0:0:0:
286,112,86749,1,2,3:0:0:0:
298,135,86833,1,0,3:0:0:0:
319,149,86916,1,6,1:3:0:0:
348,162,86999,1,2,3:0:0:0:
367,188,87083,1,2,3:0:0:0:
362,225,87166,1,0,3:0:0:0:
332,247,87250,2,0,P|316:275|301:335,1,62.5,6|0,1:3|3:0,0:0:0:0:
259,221,87416,2,0,P|243:249|228:309,1,62.5,0|2,3:0|3:0,0:0:0:0:
176,341,87583,5,0,1:0:0:0:
117,360,87666,1,0,1:0:0:0:
60,339,87749,1,0,1:0:0:0:
27,287,87832,1,0,1:0:0:0:
33,226,87916,2,2,P|75:216|105:196,1,62.5,4|0,1:3|0:0,1:0:0:0:
5,148,88083,2,0,P|47:138|77:118,1,62.5,0|2,0:0|3:0,0:0:0:0:
56,49,88249,101,2,1:1:0:0:
237,27,88416,1,0,3:0:0:0:
262,210,88583,1,4,1:3:0:0:
206,149,88749,5,0,3:0:0:0:
206,149,88833,1,0,3:0:0:0:
201,285,88999,1,0,3:0:0:0:
201,285,89083,1,0,3:0:0:0:
201,285,89166,1,0,3:0:0:0:
201,285,89249,1,4,1:3:0:0:
396,335,89416,101,0,3:3:0:0:
373,97,89583,1,4,1:3:0:0:
435,152,89749,5,0,3:0:0:0:
435,152,89833,1,8,1:3:0:0:
451,31,89999,1,0,3:0:0:0:
451,31,90082,1,4,1:3:0:0:
231,9,90249,101,4,1:3:0:0:
231,9,90333,1,0,3:0:0:0:
231,9,90416,1,0,3:0:0:0:
256,191,90583,1,4,1:3:0:0:
66,220,90749,1,0,3:0:0:0:
66,220,90833,1,0,3:0:0:0:
79,137,90999,5,0,3:0:0:0:
79,137,91083,1,0,3:0:0:0:
79,137,91166,1,0,3:0:0:0:
79,137,91249,1,4,1:3:0:0:
162,157,91416,1,0,3:0:0:0:
162,157,91499,1,0,3:0:0:0:
176,356,91666,101,0,3:0:0:0:
176,356,91749,1,0,3:0:0:0:
176,356,91833,1,4,3:3:0:0:
176,356,91916,1,4,1:3:0:0:
425,306,92083,1,8,1:3:0:0:
473,248,92249,5,4,1:3:0:0:
473,211,92332,1,0,3:0:0:0:
452,181,92415,1,0,3:0:0:0:
417,169,92498,1,0,3:0:0:0:
370,109,92666,101,0,3:0:0:0:
336,125,92749,1,0,3:0:0:0:
299,127,92832,1,0,3:0:0:0:
264,114,92915,1,4,1:3:0:0:
262,39,93083,5,0,3:0:0:0:
230,18,93166,1,0,3:0:0:0:
194,11,93249,1,4,1:3:0:0:
157,18,93332,1,0,3:0:0:0:
126,38,93416,1,0,3:0:0:0:
59,4,93583,101,4,1:3:0:0:
24,70,93749,5,0,3:3:0:0:
58,83,93832,1,4,3:0:0:0:
82,111,93915,1,4,1:3:0:0:
88,148,93998,1,0,3:0:0:0:
75,182,94082,1,4,1:3:0:0:
147,202,94249,101,4,1:3:0:0:
137,238,94332,1,0,3:0:0:0:
146,274,94415,1,0,3:0:0:0:
171,301,94498,1,0,3:0:0:0:
238,266,94666,5,0,3:0:0:0:
270,246,94749,1,0,3:0:0:0:
306,238,94832,1,0,3:0:0:0:
343,240,94915,1,4,1:3:0:0:
378,252,94999,1,0,3:0:0:0:
408,275,95082,1,0,3:0:0:0:
430,305,95165,1,0,3:0:0:0:
443,340,95249,101,4,1:3:0:0:
377,371,95332,1,8,3:3:0:0:
305,373,95415,1,8,1:3:0:0:
238,345,95498,1,4,3:3:0:0:
188,292,95582,1,8,1:3:0:0:
163,224,95665,1,8,3:3:0:0:
169,152,95748,1,4,1:3:0:0:
203,88,95832,1,8,3:3:0:0:
260,43,95915,1,4,1:3:0:0:
330,26,95998,1,8,3:3:0:0:
401,38,96082,1,8,1:3:0:0:
462,77,96165,1,8,3:3:0:0:
501,138,96249,1,6,1:0:0:0:
256,192,96333,12,4,96916,1:3:0:0:
323,136,96999,5,2,3:0:0:0:
263,94,97082,1,0,3:0:0:0:
193,114,97165,1,0,3:0:0:0:
164,180,97249,2,0,P|186:249|189:315,1,125,6|0,1:3|3:0,0:0:0:0:
144,280,97499,101,2,3:0:0:0:
47,306,97666,1,0,3:0:0:0:
20,209,97833,1,4,1:3:0:0:
20,209,97916,1,4,1:3:0:0:
193,344,98083,5,4,1:3:0:0:
340,132,98249,101,0,1:1:0:0:
340,132,98333,1,0,3:0:0:0:
355,230,98499,1,0,3:0:0:0:
484,267,98666,5,0,3:0:0:0:
506,71,98833,1,0,3:0:0:0:
340,132,98999,101,2,3:0:0:0:
274,163,99082,1,0,3:0:0:0:
210,130,99165,1,0,3:0:0:0:
198,57,99249,2,0,P|127:43|82:-8,1,125,6|0,1:3|3:0,0:0:0:0:
40,5,99499,5,2,3:0:0:0:
27,104,99666,1,0,3:0:0:0:
125,121,99833,1,4,1:3:0:0:
125,121,99916,1,4,1:3:0:0:
332,17,100083,101,4,1:3:0:0:
441,233,100249,5,0,1:2:0:0:
441,233,100333,1,0,3:0:0:0:
342,217,100499,1,0,3:0:0:0:
342,217,100583,1,6,1:3:0:0:
256,192,100666,12,4,101916,1:3:0:0:
351,126,101999,101,2,3:0:0:0:
351,126,102083,1,4,1:3:0:0:
351,126,102166,2,0,P|376:186|376:268,1,125,0|0,3:0|3:0,0:0:0:0:
342,279,102416,1,2,3:0:0:0:
256,192,102499,12,6,103499,3:0:0:0:
181,139,103583,5,6,1:3:0:0:
135,227,103749,1,6,1:3:0:0:
135,227,103833,1,4,1:3:0:0:
259,351,103999,101,4,3:3:0:0:
480,268,104166,2,0,P|446:200|459:82,1,187.5,6|0,1:3|3:0,0:0:0:0:
505,93,104499,6,0,P|491:19|373:42,1,187.5,0|2,3:0|3:0,0:0:0:0:
342,11,104833,1,0,3:0:0:0:
297,32,104916,1,4,1:3:0:0:
265,70,104999,1,2,3:0:0:0:
254,118,105082,1,0,3:0:0:0:
264,167,105166,1,0,3:0:0:0:
294,206,105249,1,6,1:3:0:0:
338,228,105332,1,0,3:0:0:0:
388,229,105416,102,0,B|297:220|340:299|215:287,1,187.5,0|0,3:0|3:0,0:0:0:0:
217,338,105749,2,0,B|177:290|160:349|106:283,1,125,2|4,3:0|1:3,0:0:0:0:
78,247,105999,1,2,3:0:0:0:
30,44,106249,6,0,P|25:87|117:91,1,125,2|0,1:2|3:0,0:0:0:0:
130,147,106499,2,0,P|191:108|276:103,1,125,2|0,3:2|3:0,0:0:0:0:
271,58,106749,2,0,P|302:133|356:185,1,125,2|4,3:2|1:3,0:0:0:0:
380,163,106999,2,0,P|387:235|363:294,1,125,2|0,3:2|3:0,0:0:0:0:
331,316,107249,1,6,1:3:0:0:
256,192,107333,12,2,107999,3:0:0:0:
196,269,108083,101,4,1:3:0:0:
196,269,108166,1,0,3:0:0:0:
196,269,108249,2,0,P|111:268|113:157,1,187.5,0|0,1:2|3:0,0:0:0:0:
73,134,108583,1,6,1:3:0:0:
105,96,108666,1,0,3:0:0:0:
153,87,108749,1,2,3:0:0:0:
196,111,108832,1,0,3:0:0:0:
215,156,108916,1,4,1:3:0:0:
260,176,108999,1,2,3:0:0:0:
306,162,109082,1,0,3:0:0:0:
332,120,109166,5,0,3:0:0:0:
432,125,109333,1,0,3:0:0:0:
400,219,109499,2,0,P|374:285|371:362,1,125,2|0,3:0|3:0,0:0:0:0:
326,365,109749,102,0,P|261:363|230:281,1,125,2|4,3:0|1:3,0:0:0:0:
237,268,109999,1,2,3:0:0:0:
237,268,110083,1,4,1:3:0:0:
141,238,110249,5,0,1:1:0:0:
138,189,110332,1,0,3:0:0:0:
102,157,110415,1,2,3:0:0:0:
55,143,110500,1,0,3:0:0:0:
27,102,110583,1,6,1:3:0:0:
32,53,110666,1,0,3:0:0:0:
66,18,110750,1,2,3:0:0:0:
115,13,110833,1,0,3:0:0:0:
156,40,110916,1,6,1:3:0:0:
171,86,111000,1,2,3:0:0:0:
204,121,111083,1,2,3:0:0:0:
252,123,111166,1,0,3:0:0:0:
288,90,111250,101,6,1:3:0:0:
214,105,111333,1,0,3:0:0:0:
141,120,111416,1,0,3:0:0:0:
67,135,111499,1,2,3:0:0:0:
49,208,111583,5,4,1:3:0:0:
99,264,111666,1,8,3:3:0:0:
148,320,111749,1,8,1:3:0:0:
198,376,111832,1,4,3:3:0:0:
271,357,111916,101,8,1:3:0:0:
294,286,111999,1,8,3:3:0:0:
318,215,112082,1,4,1:3:0:0:
342,144,112165,1,8,3:3:0:0:
288,90,112249,5,4,1:0:0:0:
256,192,118249,12,4,120250,1:3:0:0:
202,217,120739,101,4,3:0:0:0:
512,345,126990,53,0,3:0:0:0:
500,351,127062,1,0,3:0:0:0:
480,352,127134,1,0,3:0:0:0:
427,342,127206,1,0,3:0:0:0:
369,311,127278,1,0,3:0:0:0:
319,255,127351,1,0,3:0:0:0:
279,181,127423,1,0,3:0:0:0:
245,100,127495,1,0,3:0:0:0:
219,3,127567,101,8,1:3:0:0:
73,39,127852,1,8,2:3:0:0:
111,184,128138,1,8,2:3:0:0:
442,361,128424,101,8,2:3:0:0:
442,361,128567,1,8,3:3:0:0:
299,327,128852,1,8,2:3:0:0:
345,186,129138,1,8,2:3:0:0:
68,384,129424,5,8,2:3:0:0:
68,384,129567,1,8,3:3:0:0:
173,358,129852,1,8,2:3:0:0:
139,255,130138,1,8,2:3:0:0:
292,157,130424,101,8,2:3:0:0:
292,157,130567,1,8,3:3:0:0:
326,14,130852,1,8,2:3:0:0:
467,60,131138,1,8,2:3:0:0:
300,271,131424,5,8,2:3:0:0:
300,271,131567,1,8,1:3:0:0:
118,382,131852,1,8,2:3:0:0:
21,190,132138,1,8,2:3:0:0:
265,69,132424,101,8,2:3:0:0:
265,69,132567,1,8,3:3:0:0:
187,89,132852,1,8,2:3:0:0:
173,9,133138,1,8,2:3:0:0:
326,132,133424,5,8,2:3:0:0:
326,132,133567,1,8,1:3:0:0:
485,169,133852,1,8,2:3:0:0:
434,326,134138,1,8,2:3:0:0:
56,237,134424,101,8,2:3:0:0:
56,237,134567,1,8,3:3:0:0:
0,55,134852,1,8,2:3:0:0:
188,16,135138,1,8,2:3:0:0:
152,86,135281,6,0,L|157:117,4,31.25,0|0|0|0|8,3:0|0:0|3:0|0:0|2:3,0:0:0:0:
229,156,135495,1,0,3:0:0:0:
229,156,135567,102,0,P|234:118|254:74,3,62.5,4|0|0|0,1:3|2:0|3:0|3:0,0:0:0:0:
307,175,135852,2,0,P|312:137|332:93,3,62.5,8|0|0|0,2:3|2:0|3:0|3:0,0:0:0:0:
384,199,136138,2,0,P|389:161|409:117,3,62.5,8|0|0|0,2:3|2:0|3:0|3:0,0:0:0:0:
473,113,136424,5,8,2:3:0:0:
464,305,136567,2,0,P|459:267|439:223,3,62.5,8|0|0|0,3:3|2:0|3:0|3:0,0:0:0:0:
305,343,136852,2,0,P|300:305|280:261,3,62.5,8|0|0|0,2:3|2:0|3:0|3:0,0:0:0:0:
146,381,137138,2,0,P|141:343|121:299,3,62.5,8|0|0|0,2:3|2:0|3:0|3:0,0:0:0:0:
185,258,137424,101,8,2:3:0:0:
0,270,137567,2,0,P|38:275|82:295,3,62.5,8|0|0|0,3:3|2:0|3:0|3:0,0:0:0:0:
18,192,137852,2,0,P|56:197|100:217,3,62.5,8|0|0|0,2:3|2:0|3:0|3:0,0:0:0:0:
36,114,138138,2,0,P|74:119|118:139,3,62.5,8|0|0|0,2:3|2:0|3:0|3:0,0:0:0:0:
2,42,138424,5,8,2:3:0:0:
177,121,138567,2,0,P|182:159|202:203,3,62.5,8|0|0|0,3:3|2:0|3:0|3:0,0:0:0:0:
300,94,138852,2,0,P|305:132|325:176,3,62.5,8|0|0|0,2:3|2:0|3:0|3:0,0:0:0:0:
423,67,139138,2,0,P|428:105|448:149,3,62.5,8|0|0|0,2:3|2:0|3:0|3:0,0:0:0:0:
486,17,139424,101,8,2:3:0:0:
508,163,139567,1,8,1:3:0:0:
478,217,139638,1,0,3:0:0:0:
427,240,139709,1,0,3:0:0:0:
376,234,139781,1,0,3:0:0:0:
346,202,139852,1,8,2:3:0:0:
344,164,139924,1,0,3:0:0:0:
355,135,139995,1,0,3:0:0:0:
344,111,140067,1,0,3:0:0:0:
327,101,140138,1,8,1:3:0:0:
314,103,140209,1,0,3:0:0:0:
312,109,140281,1,0,3:0:0:0:
368,31,140424,5,8,2:3:0:0:
230,99,140567,2,0,P|235:137|255:181,3,62.5,8|0|0|0,3:3|2:0|3:0|3:0,0:0:0:0:
152,118,140852,2,0,P|157:156|177:200,3,62.5,8|0|0|0,1:3|2:0|3:0|3:0,0:0:0:0:
74,137,141138,2,0,P|79:175|99:219,3,62.5,8|0|0|0,2:3|3:0|3:0|1:0,0:0:0:0:
20,256,141424,101,8,2:3:0:0:
20,256,141495,1,0,1:0:0:0:
20,256,141567,2,0,P|62:278|87:311,3,62.5,8|0|0|0,1:3|3:0|3:0|3:0,0:0:0:0:
145,252,141852,2,0,P|159:297|153:338,3,62.5,8|0|0|0,1:3|2:0|3:0|3:0,0:0:0:0:
238,332,142138,2,0,P|216:374|182:399,3,62.5,8|0|0|0,2:3|2:0|3:0|3:0,0:0:0:0:
322,317,142424,6,0,P|307:281|307:245,1,62.5,8|0,1:3|3:0,0:0:0:0:
364,205,142567,1,10,1:3:0:0:
383,159,142638,1,0,2:0:0:0:
374,111,142709,1,0,1:0:0:0:
339,76,142781,1,0,3:0:0:0:
291,66,142852,2,0,P|264:69|216:42,3,62.5,8|0|0|0,1:3|1:0|3:0|1:0,0:0:0:0:
176,0,143138,1,8,2:3:0:0:
114,6,143209,1,0,1:0:0:0:
70,48,143280,1,0,3:0:0:0:
60,108,143352,1,0,1:0:0:0:
88,163,143423,1,8,2:3:0:0:
144,188,143495,1,0,1:0:0:0:
204,175,143566,1,12,2:3:0:0:
281,217,143709,101,2,1:3:0:0:
307,175,143780,1,0,3:0:0:0:
351,152,143851,1,4,3:0:0:0:
400,154,143923,1,0,1:0:0:0:
443,180,143994,1,2,1:3:0:0:
467,223,144067,2,0,P|461:253|464:302,1,62.5,2|4,3:0|3:0,0:0:0:0:
492,314,144209,1,0,1:0:0:0:
470,358,144280,1,2,3:0:0:0:
426,381,144351,1,0,1:0:0:0:
378,374,144424,2,0,P|353:343|305:325,1,62.5,4|2,3:0|1:3,0:0:0:0:
294,350,144567,2,0,P|253:345|207:366,1,62.5,4|0,3:0|1:3,0:0:0:0:
206,316,144709,5,2,1:3:0:0:
162,339,144780,1,0,3:0:0:0:
115,329,144851,1,4,3:0:0:0:
84,291,144923,1,0,3:0:0:0:
86,242,144994,1,2,1:3:0:0:
119,205,145066,1,0,3:0:0:0:
168,199,145137,1,4,3:0:0:0:
204,166,145209,1,0,3:0:0:0:
203,118,145280,1,2,1:3:0:0:
167,85,145352,1,0,3:0:0:0:
119,90,145424,2,0,P|83:112|68:152,1,62.5,4|0,3:0|1:3,0:0:0:0:
42,159,145567,101,12,2:3:0:0:
43,208,145638,1,0,3:0:0:0:
65,252,145709,1,2,1:3:0:0:
104,283,145781,2,0,P|134:270|193:268,1,62.5,2|4,3:0|3:0,0:0:0:0:
190,230,145924,1,0,1:0:0:0:
223,266,145995,1,2,1:3:0:0:
269,284,146066,1,2,3:0:0:0:
318,280,146138,1,4,3:0:0:0:
360,254,146209,1,0,1:0:0:0:
387,212,146281,1,2,3:0:0:0:
391,163,146352,1,0,1:0:0:0:
373,117,146424,2,0,P|359:88|361:30,1,62.5,4|2,3:0|1:3,0:0:0:0:
379,21,146567,5,4,3:0:0:0:
426,34,146638,1,0,1:3:0:0:
464,66,146709,1,2,1:3:0:0:
486,111,146781,1,0,3:0:0:0:
486,160,146852,1,4,3:0:0:0:
466,205,146924,1,0,3:0:0:0:
429,238,146995,2,0,P|384:228|329:246,1,62.5,2|0,1:3|3:0,0:0:0:0:
337,198,147138,1,4,3:0:0:0:
300,231,147209,1,0,3:0:0:0:
252,241,147280,1,2,1:3:0:0:
205,224,147352,1,0,3:0:0:0:
174,186,147424,2,0,P|133:179|90:204,1,62.5,4|0,3:0|1:3,0:0:0:0:
77,160,147567,101,12,2:3:0:0:
56,205,147638,1,0,3:0:0:0:
52,254,147709,1,2,1:3:0:0:
66,302,147781,1,0,3:0:0:0:
97,341,147852,1,4,3:0:0:0:
139,367,147924,1,0,1:0:0:0:
188,376,147995,1,2,1:3:0:0:
237,367,148067,1,2,3:0:0:0:
279,341,148138,1,4,3:0:0:0:
310,302,148209,1,0,1:0:0:0:
324,255,148281,1,2,3:0:0:0:
321,205,148352,1,0,1:0:0:0:
300,160,148424,2,0,P|295:130|304:88,1,62.5,4|2,3:0|1:3,0:0:0:0:
337,75,148567,5,4,3:0:0:0:
321,33,148638,1,0,1:3:0:0:
273,3,148709,1,2,1:3:0:0:
223,0,148781,1,0,3:0:0:0:
179,21,148852,1,4,3:0:0:0:
150,61,148924,1,0,3:0:0:0:
146,111,148995,1,2,1:3:0:0:
166,156,149067,1,0,3:0:0:0:
205,185,149138,2,0,P|249:182|291:212,1,62.5,4|0,3:0|3:0,0:0:0:0:
337,154,149281,2,0,P|361:190|356:241,1,62.5,2|0,1:3|3:0,0:0:0:0:
429,252,149424,2,0,P|409:291|362:312,1,62.5,4|0,3:0|1:3,0:0:0:0:
366,381,149567,101,12,2:3:0:0:
331,345,149638,1,0,3:0:0:0:
286,323,149709,1,2,1:3:0:0:
237,318,149781,1,2,3:0:0:0:
189,330,149852,1,4,3:0:0:0:
148,359,149924,1,0,1:0:0:0:
100,371,149995,1,2,1:3:0:0:
54,355,150066,1,2,3:0:0:0:
23,316,150138,1,4,3:0:0:0:
19,267,150209,1,0,1:0:0:0:
42,224,150281,1,2,3:0:0:0:
85,200,150352,1,0,1:0:0:0:
134,204,150424,2,0,P|159:227|174:263,1,62.5,4|2,3:0|1:3,0:0:0:0:
157,295,150567,5,4,3:0:0:0:
195,326,150638,1,0,1:3:0:0:
243,337,150709,1,2,1:3:0:0:
292,325,150781,1,0,3:0:0:0:
330,294,150852,1,4,3:0:0:0:
350,249,150924,1,0,3:0:0:0:
349,199,150995,1,2,1:3:0:0:
325,155,151067,1,0,3:0:0:0:
285,127,151138,101,4,3:0:0:0:
209,96,151209,1,8,3:0:0:0:
128,111,151280,1,8,1:3:0:0:
68,167,151352,1,8,3:0:0:0:
47,247,151423,1,12,3:0:0:0:
71,325,151495,1,8,1:3:0:0:
134,378,151567,5,12,2:3:0:0:
195,382,151638,1,0,3:0:0:0:
240,341,151709,1,2,1:3:0:0:
244,281,151781,1,0,3:0:0:0:
204,235,151852,1,4,3:0:0:0:
144,230,151924,1,0,1:0:0:0:
98,189,151995,1,2,1:3:0:0:
78,131,152066,1,2,3:0:0:0:
89,70,152138,1,4,3:0:0:0:
128,22,152209,1,0,1:0:0:0:
186,0,152281,1,2,3:0:0:0:
247,9,152352,1,0,1:0:0:0:
296,47,152424,2,0,P|310:76|314:124,1,62.5,4|2,3:0|1:3,0:0:0:0:
385,138,152567,101,4,3:0:0:0:
394,198,152638,1,0,1:3:0:0:
363,251,152709,1,2,1:3:0:0:
305,271,152781,1,0,3:0:0:0:
248,251,152852,1,4,3:0:0:0:
217,198,152924,1,0,3:0:0:0:
227,137,152995,1,2,1:3:0:0:
207,79,153066,1,0,3:0:0:0:
158,41,153137,1,4,3:0:0:0:
97,34,153209,1,0,3:0:0:0:
42,62,153280,1,2,1:3:0:0:
11,115,153352,1,0,3:0:0:0:
13,177,153424,2,0,P|37:208|44:239,1,62.5,4|0,3:0|1:3,0:0:0:0:
17,301,153567,5,12,2:3:0:0:
58,347,153638,1,0,3:0:0:0:
118,360,153709,1,2,1:3:0:0:
175,337,153781,1,2,3:0:0:0:
208,285,153852,1,4,3:0:0:0:
205,224,153924,1,0,1:0:0:0:
167,175,153995,1,2,1:3:0:0:
173,114,154066,1,2,3:0:0:0:
212,67,154137,1,4,3:0:0:0:
272,51,154209,1,0,1:0:0:0:
329,72,154280,1,2,3:0:0:0:
364,123,154352,1,0,1:0:0:0:
364,184,154424,2,0,P|366:217|384:253,1,62.5,4|2,3:0|1:3,0:0:0:0:
451,261,154567,101,4,3:0:0:0:
443,322,154638,1,0,1:3:0:0:
402,368,154709,1,2,1:3:0:0:
342,384,154781,1,0,3:0:0:0:
284,364,154852,1,4,3:0:0:0:
247,314,154924,1,0,3:0:0:0:
244,253,154995,1,2,1:3:0:0:
275,200,155067,1,0,3:0:0:0:
271,139,155138,1,4,3:0:0:0:
231,93,155209,1,0,3:0:0:0:
171,81,155281,1,2,1:3:0:0:
116,109,155352,1,0,3:0:0:0:
90,165,155424,2,0,P|90:191|106:236,1,62.5,4|0,3:0|1:3,0:0:0:0:
175,233,155567,5,12,2:3:0:0:
178,232,155638,1,0,3:0:0:0:
182,232,155709,1,2,1:3:0:0:
186,233,155781,1,0,3:0:0:0:
189,233,155852,1,4,3:0:0:0:
193,233,155924,1,0,1:0:0:0:
197,234,155995,1,2,1:3:0:0:
201,235,156067,1,2,3:0:0:0:
204,235,156138,1,4,3:0:0:0:
208,236,156209,1,0,1:0:0:0:
211,238,156281,1,2,3:0:0:0:
215,239,156352,1,0,1:0:0:0:
218,240,156424,1,4,3:0:0:0:
222,242,156495,1,2,1:3:0:0:
225,243,156567,1,4,3:0:0:0:
229,245,156638,1,0,1:3:0:0:
232,247,156709,1,2,1:3:0:0:
235,249,156781,1,0,3:0:0:0:
238,251,156852,1,4,3:0:0:0:
241,253,156924,1,0,3:0:0:0:
244,255,156995,1,2,1:3:0:0:
247,258,157067,1,0,3:0:0:0:
250,260,157138,1,4,3:0:0:0:
252,263,157209,1,0,3:0:0:0:
255,266,157281,1,2,1:3:0:0:
257,269,157352,1,0,3:0:0:0:
260,271,157424,1,4,3:0:0:0:
262,275,157495,1,0,1:3:0:0:
264,278,157567,1,12,2:3:0:0:
266,281,157638,1,0,3:0:0:0:
268,284,157709,1,2,1:3:0:0:
270,287,157781,1,2,3:0:0:0:
272,291,157852,1,4,3:0:0:0:
273,294,157924,1,2,1:2:0:0:
274,298,157995,1,2,1:3:0:0:
276,301,158067,1,2,3:0:0:0:
277,305,158138,1,2,1:2:0:0:
278,308,158209,1,0,1:0:0:0:
279,312,158281,1,2,3:0:0:0:
280,316,158352,1,2,1:2:0:0:
280,319,158424,1,4,3:0:0:0:
281,323,158495,1,2,1:3:0:0:
281,327,158567,1,2,1:2:0:0:
281,330,158638,1,0,1:3:0:0:
281,334,158709,1,2,1:3:0:0:
281,338,158781,1,2,1:2:0:0:
281,342,158852,1,4,3:0:0:0:
281,345,158924,1,0,3:0:0:0:
280,349,158995,1,2,1:2:0:0:
279,353,159067,1,0,3:0:0:0:
279,357,159138,101,4,3:0:0:0:
205,315,159209,1,4,3:0:0:0:
181,234,159280,1,6,1:3:0:0:
222,159,159352,1,4,3:0:0:0:
303,135,159423,1,4,3:0:0:0:
378,174,159495,1,4,1:3:0:0:
403,254,159566,1,0,0:0:0:0:
