osu file format v14

[General]
AudioFilename: audio.mp3
AudioLeadIn: 0
PreviewTime: 39603
Countdown: 0
SampleSet: Soft
StackLeniency: 0.2
Mode: 0
LetterboxInBreaks: 0
EpilepsyWarning: 1
WidescreenStoryboard: 1

[Editor]
Bookmarks: 12083,40249,80250,112249,127567,135567,143567,151567,158924
DistanceSpacing: 0.2
BeatDivisor: 3
GridSize: 8
TimelineZoom: 2.299999

[Metadata]
Title:theyaremanycolors
TitleUnicode:theyaremanycolors
Artist:Frums
ArtistUnicode:Frums
Creator:ScubDomino
Version:akariexpert
Source:BOFU2017 - LEGENDA EST A MYTH -
Tags:THE BMS OF FIGHTERS ULTIMATE 2017 semicolon frums.xyz frumsdotxyz BOFU AOiRO_Manbow 青色鍋男 featured artist fa instrumental electronic electronica densecore psycore dark psytrance breakcore glitch experimental hardcore edm idm ambient techno juke footwork black red green blue multiple personality disorder dissociative identity did mpd rhythm video game guyfawes bowandarrow cuboctahedral natsume shiki anime girl natsume_shiki anime_girl scub domino jungkyuyoung [keqing] 8972308 celine citreum bws bwsnoob -bws miraculous 3545579 s0m3guy someguy some guy 11141924 Regou 419954 jasontime12345 Mizunashi Akari 12882468 nik nikolomara 10077264 calliecube allice cannedca callieonosu obamacube 7535045 handsome hehe tastystew 2123087 pip pipuuko Aven-_- [Lucian] [Rue] 8446047 therearemanycolors therearemanycolours theyaremanycolours they there are many colors colours tamc bms_of_fighters drums LEGEND
BeatmapID:4052453
BeatmapSetID:1533352

[Difficulty]
HPDrainRate:4
CircleSize:4
OverallDifficulty:8
ApproachRate:9.4
SliderMultiplier:2
SliderTickRate:0.5

[Events]
//Background and Video events
0,0,"mycelium.png",0,0
Video,-960,"test.mp4" S,0,-960,,0.7
//Break Periods
//Storyboard Layer 0 (Background)
//Storyboard Layer 1 (Fail)
//Storyboard Layer 2 (Pass)
//Storyboard Layer 3 (Foreground)
//Storyboard Layer 4 (Overlay)
//Storyboard Sound Samples

[TimingPoints]
83,500,4,2,1,30,1,0
12083,-200,4,2,1,40,0,0
18833,-250,4,2,1,40,0,0
22583,-200,4,2,1,40,0,0
27583,-200,4,2,1,40,0,0
27676,-200,4,2,1,5,0,0
28083,-200,4,2,1,40,0,0
28166,-200,4,2,1,5,0,0
37083,-200,4,2,1,40,0,0
39583,333.333333333333,4,2,1,55,1,0
40249,250,4,2,1,70,1,0
40249,-133.333333333333,4,2,1,70,0,0
56249,-100,4,2,1,70,0,0
72499,-100,4,2,1,50,0,0
72749,-100,4,2,1,70,0,0
72999,-100,4,2,1,50,0,0
73249,-100,4,2,1,70,0,0
74499,-100,4,2,1,50,0,0
74749,-100,4,2,1,70,0,0
74874,-100,4,2,1,50,0,0
75249,-100,4,2,1,70,0,0
76499,-100,4,2,1,50,0,0
76749,-100,4,2,1,70,0,0
76999,-100,4,2,1,50,0,0
77249,-100,4,2,1,70,0,0
77499,-100,4,2,1,50,0,0
77749,-100,4,2,1,70,0,0
77999,-100,4,2,1,50,0,0
78249,-100,4,2,1,70,0,0
78311,-100,4,2,1,60,0,0
78415,-100,4,2,1,65,0,0
78478,-100,4,2,1,55,0,0
78582,-100,4,2,1,60,0,0
78644,-100,4,2,1,50,0,0
78749,-100,4,2,1,55,0,0
78811,-100,4,2,1,45,0,0
78915,-100,4,2,1,50,0,0
78999,-100,4,2,1,40,0,0
79082,-100,4,2,1,45,0,0
79165,-100,4,2,1,35,0,0
79249,-100,4,2,1,50,0,0
79332,-100,4,2,1,40,0,0
79415,-100,4,2,1,60,0,0
79499,-100,4,2,1,50,0,0
79582,-100,4,2,1,70,0,0
79665,-100,4,2,1,60,0,0
79749,-100,4,2,1,80,0,0
80250,333.333333333333,3,2,1,80,1,0
80305,-100,3,2,1,70,0,0
87916,-66.6666666666667,3,2,1,70,0,0
96249,-50,3,2,1,70,0,0
112249,-333.333333333333,3,2,1,70,0,0
112305,-333.333333333333,3,2,1,30,0,0
116249,-333.333333333333,3,2,1,70,0,0
116305,-333.333333333333,3,2,1,30,0,0
119249,-333.333333333333,3,2,1,35,0,0
119305,-333.333333333333,3,2,1,40,0,0
119416,-333.333333333333,3,2,1,45,0,0
119499,-333.333333333333,3,2,1,50,0,0
119583,-333.333333333333,3,2,1,55,0,0
119666,-333.333333333333,3,2,1,60,0,0
119749,-333.333333333333,3,2,1,65,0,0
119833,-333.333333333333,3,2,1,70,0,0
120250,326.086956521739,3,2,1,70,1,0
121228,319.148936170213,3,2,1,70,1,0
122185,312.5,3,2,1,70,1,0
123123,306.122448979592,3,2,1,70,1,0
124041,300,3,2,1,70,1,0
124941,295.566502463054,3,2,1,70,1,0
125828,291.26213592233,3,2,1,70,1,0
126702,288.461538461538,3,2,1,50,1,0
126990,-100,3,2,1,45,0,0
127062,-100,3,2,1,35,0,0
127134,-100,3,2,1,45,0,0
127206,-100,3,2,1,55,0,0
127278,-100,3,2,1,65,0,0
127351,-100,3,2,1,75,0,0
127423,-100,3,2,1,85,0,0
127567,285.714285714286,7,2,1,70,1,0
127567,-133.333333333333,7,2,1,70,0,0
127638,-133.333333333333,7,2,1,50,0,0
135138,-133.333333333333,7,2,1,60,0,0
135567,-83.3333333333333,7,2,1,70,0,0
143567,-66.6666666666667,7,2,1,70,0,0
151138,-66.6666666666667,7,2,1,75,0,0
151567,-50,7,2,1,80,0,0
157138,-66.6666666666667,7,2,1,80,0,0
159567,3858.52090032154,7,2,1,70,1,1
159567,-1000,7,2,1,70,0,1
159627,-1000,7,2,2,70,0,1
159687,-1000,7,2,1,70,0,1
159717,-1000,7,2,2,70,0,1
159747,-1000,7,2,1,70,0,1
159868,-1000,7,2,2,70,0,1
159928,-1000,7,2,1,70,0,1
159989,-1000,7,2,2,70,0,1
160079,-1000,7,2,1,70,0,1
160230,-1000,7,2,2,70,0,1
160290,-1000,7,2,1,70,0,1
160380,-1000,7,2,2,70,0,1
160411,-1000,7,2,1,70,0,1
160441,-1000,7,2,2,70,0,1
160501,-1000,7,2,1,70,0,1
160561,-1000,7,2,2,70,0,1
160652,-1000,7,2,1,70,0,1
160802,-1000,7,2,2,70,0,1
160863,-1000,7,2,1,70,0,1
160893,-1000,7,2,2,70,0,1
160953,-1000,7,2,1,70,0,1
161013,-1000,7,2,2,70,0,1
161074,-1000,7,2,1,70,0,1
161164,-1000,7,2,2,70,0,1
161194,-1000,7,2,1,70,0,1
161255,-1000,7,2,2,70,0,1
161285,-1000,7,2,1,70,0,1
161345,-1000,7,2,2,70,0,1
161405,-1000,7,2,1,70,0,1
161496,-10000,7,2,2,70,0,0

[Colours]
Combo1 : 192,192,192
Combo2 : 213,85,85
Combo3 : 215,135,87
Combo4 : 228,210,107
Combo5 : 88,220,78
Combo6 : 87,210,131
Combo7 : 81,81,81
Combo8 : 70,131,213

[HitObjects]
32,224,12083,118,0,L|32:392,1,150,2|0,0:0|0:0,0:0:0:0:
104,80,15333,86,0,L|104:392,1,300
176,80,19208,22,0,L|176:384,1,300
248,264,22958,86,0,L|248:392,1,125
320,296,26083,22,0,L|320:384,1,83.3333333333333
392,376,26583,86,0,L|392:352,11,16.6666666666667
448,288,27583,22,0,L|448:264,113,16.6666666666667,2|0|0|0|0|0|2|0|0|0|0|0|0|0|0|0|0|0|0|0|0|0|0|0|0|0|0|0|0|0|0|0|0|0|0|0|0|0|0|0|0|0|0|0|0|0|0|0|0|0|0|0|0|0|0|0|0|0|0|0|0|0|0|0|0|0|0|0|0|0|0|0|0|0|0|0|0|0|0|0|0|0|0|0|0|0|0|0|0|0|0|0|0|0|0|0|0|0|0|0|0|0|0|0|0|0|0|0|0|0|0|0|0|0,0:0|0:0|0:0|0:0|0:0|0:0|0:0|0:0|0:0|0:0|0:0|0:0|0:0|0:0|0:0|0:0|0:0|0:0|0:0|0:0|0:0|0:0|0:0|0:0|0:0|0:0|0:0|0:0|0:0|0:0|0:0|0:0|0:0|0:0|0:0|0:0|0:0|0:0|0:0|0:0|0:0|0:0|0:0|0:0|0:0|0:0|0:0|0:0|0:0|0:0|0:0|0:0|0:0|0:0|0:0|0:0|0:0|0:0|0:0|0:0|0:0|0:0|0:0|0:0|0:0|0:0|0:0|0:0|0:0|0:0|0:0|0:0|0:0|0:0|0:0|0:0|0:0|0:0|0:0|0:0|0:0|0:0|0:0|0:0|0:0|0:0|0:0|0:0|0:0|0:0|0:0|0:0|0:0|0:0|0:0|0:0|0:0|0:0|0:0|0:0|0:0|0:0|0:0|0:0|0:0|0:0|0:0|0:0|0:0|0:0|0:0|0:0|0:0|0:0,0:0:0:0:
512,192,37083,86,0,L|8:192,1,500,0|2,3:0|2:0,0:0:0:0:
12,192,40249,38,0,B|120:224,1,112.500004291535,4|0,1:2|0:0,0:0:0:0:
119,223,40499,2,0,L|95:151,1,75.0000028610231,4|0,3:3|0:0,0:0:0:0:
48,288,40749,2,0,L|72:360,1,75.0000028610231,4|0,3:3|0:0,0:0:0:0:
208,176,40999,2,0,L|232:248,1,75.0000028610231,4|0,3:3|0:0,0:0:0:0:
272,352,41249,102,0,B|380:320,1,112.500004291535,4|0,3:3|0:0,0:0:0:0:
379,320,41499,2,0,L|355:248,1,75.0000028610231,4|0,3:3|0:0,0:0:0:0:
80,368,41749,6,0,L|160:344,1,75.0000028610231,4|0,3:3|0:0,0:0:0:0:
272,352,41999,2,0,L|256:304,1,37.5000014305115,4|0,3:3|0:0,0:0:0:0:
231,247,42124,2,0,L|215:199,1,37.5000014305115,8|0,3:3|0:0,0:0:0:0:
432,136,42249,102,0,L|312:104,1,112.500004291535,4|0,3:3|0:0,0:0:0:0:
323,107,42499,2,0,L|299:187,1,75.0000028610231,4|0,3:3|0:0,0:0:0:0:
112,232,42749,2,0,L|136:152,1,75.0000028610231,4|0,3:3|0:0,0:0:0:0:
323,107,42999,2,0,L|347:27,1,75.0000028610231,4|0,3:3|0:0,0:0:0:0:
136,160,43249,6,0,L|248:160,1,112.500004291535,4|0,3:3|0:0,0:0:0:0:
328,192,43499,2,0,L|376:192,1,37.5000014305115,8|0,3:3|0:0,0:0:0:0:
440,192,43624,2,0,L|488:192,1,37.5000014305115,4|0,3:3|0:0,0:0:0:0:
16,200,43874,101,4,3:3:0:0:
16,200,43936,1,8,3:3:0:0:
16,200,43999,1,8,3:3:0:0:
176,200,44124,2,0,L|112:200,1,37.5000014305115,4|0,3:3|0:0,0:0:0:0:
32,368,44249,6,0,L|72:248,1,112.500004291535,8|0,3:3|0:0,0:0:0:0:
67,261,44499,2,0,L|88:344,1,75.0000028610231,4|0,3:3|0:0,0:0:0:0:
138,200,44749,2,0,L|120:127,1,75.0000028610231,4|0,3:3|0:0,0:0:0:0:
280,360,44999,2,0,L|262:287,1,75.0000028610231,4|0,3:3|0:0,0:0:0:0:
424,152,45249,102,0,L|400:288,1,112.500004291535,4|0,3:3|0:0,0:0:0:0:
404,262,45499,2,0,L|308:238,1,75.0000028610231,4|0,3:3|0:0,0:0:0:0:
416,64,45749,2,0,L|504:88,1,75.0000028610231,4|0,3:3|0:0,0:0:0:0:
295,233,45999,2,0,L|351:249,1,37.5000014305115,8|0,3:3|0:0,0:0:0:0:
404,262,46124,2,0,L|460:278,1,37.5000014305115,8|0,3:3|0:0,0:0:0:0:
509,194,46249,6,0,L|488:83,1,112.500004291535,4|0,3:3|0:0,0:0:0:0:
488,83,46499,2,0,L|453:162,1,75.0000028610231,4|0,3:3|0:0,0:0:0:0:
472,368,46749,2,0,L|505:300,1,75.0000028610231,4|0,3:3|0:0,0:0:0:0:
128,320,46999,2,0,L|161:252,1,75.0000028610231,4|0,3:3|0:0,0:0:0:0:
256,384,47249,101,8,3:3:0:0:
254,267,47436,1,4,3:3:0:0:
254,267,47499,1,8,3:3:0:0:
256,160,47624,5,4,3:3:0:0:
256,160,47686,1,0,0:0:0:0:
256,160,47749,1,8,3:3:0:0:
256,160,47811,1,8,3:3:0:0:
256,160,47874,1,8,3:3:0:0:
254,267,47999,102,0,B|256:304,4,25.0000009536744,2|0|0|0|0,3:3|0:0|0:0|0:0|0:0,0:0:0:0:
347,268,48249,6,0,L|448:216,1,112.500004291535,8|0,1:3|0:0,0:0:0:0:
446,216,48499,2,0,L|400:136,1,75.0000028610231,4|0,3:3|0:0,0:0:0:0:
448,320,48749,2,0,L|485:384,1,75.0000028610231,4|0,3:3|0:0,0:0:0:0:
128,240,48999,2,0,L|165:304,1,75.0000028610231,4|0,3:3|0:0,0:0:0:0:
8,376,49249,102,0,L|48:256,1,112.500004291535,4|0,3:3|0:0,0:0:0:0:
43,269,49499,2,0,L|5:204,1,75.0000028610231,4|0,3:3|0:0,0:0:0:0:
208,224,49749,2,0,L|245:288,1,75.0000028610231,4|0,3:3|0:0,0:0:0:0:
264,16,49999,2,0,L|288:56,1,37.5000014305115,4|0,3:3|0:0,0:0:0:0:
328,112,50124,2,0,L|352:152,1,37.5000014305115,8|0,3:3|0:0,0:0:0:0:
504,192,50249,6,0,L|376:224,1,112.500004291535,4|0,3:3|0:0,0:0:0:0:
394,219,50499,2,0,L|472:264,1,75.0000028610231,4|0,3:3|0:0,0:0:0:0:
224,208,50749,2,0,L|159:170,1,75.0000028610231,4|0,3:3|0:0,0:0:0:0:
504,376,50999,2,0,L|439:338,1,75.0000028610231,4|0,3:3|0:0,0:0:0:0:
248,336,51249,102,0,L|112:360,1,112.500004291535,4|0,3:3|0:0,0:0:0:0:
137,355,51499,1,8,3:3:0:0:
176,248,51624,1,4,3:3:0:0:
24,328,51812,5,4,3:3:0:0:
24,328,51874,1,8,3:3:0:0:
64,216,51999,1,8,3:3:0:0:
104,104,52124,1,4,3:3:0:0:
136,0,52249,102,0,L|8:16,1,112.500004291535,8|0,3:3|0:0,0:0:0:0:
24,13,52499,2,0,L|104:32,1,75.0000028610231,4|0,3:3|0:0,0:0:0:0:
248,152,52749,2,0,L|174:135,1,75.0000028610231,8|0,3:3|0:0,0:0:0:0:
512,104,52999,2,0,L|438:87,1,75.0000028610231,4|0,3:3|0:0,0:0:0:0:
349,35,53249,6,0,L|477:11,1,112.500004291535,8|0,3:3|0:0,0:0:0:0:
460,15,53499,2,0,L|436:95,1,75.0000028610231,4|0,3:3|0:0,0:0:0:0:
248,152,53749,2,0,L|269:80,1,75.0000028610231,8|0,3:3|0:0,0:0:0:0:
400,288,53999,2,0,L|411:252,1,37.5000014305115,4|0,3:3|0:0,0:0:0:0:
328,264,54124,2,0,L|339:228,1,37.5000014305115,8|0,3:3|0:0,0:0:0:0:
248,240,54249,101,4,3:3:0:0:
248,240,54499,1,8,3:3:0:0:
248,240,54749,1,4,3:3:0:0:
248,240,54936,5,4,0:3:0:0:
248,240,54999,1,8,3:3:0:0:
248,240,55124,1,4,0:3:0:0:
32,368,55249,102,0,L|80:351,1,37.5000014305115,8|0,1:3|3:0,0:0:0:0:
32,240,55374,6,0,L|32:296,1,37.5000014305115,12|0,3:3|3:0,0:0:0:0:
144,352,55499,102,0,L|208:376,1,37.5000014305115,8|0,1:3|3:0,0:0:0:0:
136,232,55624,6,0,L|136:283,1,37.5000014305115,12|0,1:3|3:0,0:0:0:0:
256,368,55749,102,0,L|291:355,1,37.5000014305115,8|8,3:3|3:3,0:0:0:0:
248,240,55874,6,0,L|248:296,1,37.5000014305115,8|4,3:3|3:3,0:0:0:0:
368,352,55999,102,0,L|417:367,1,37.5000014305115,4|0,1:3|3:0,0:0:0:0:
352,232,56124,6,0,L|351:269,1,37.5000014305115,0|0,3:0|3:0,0:0:0:0:
480,336,56249,101,4,1:0:0:0:
416,160,56374,2,0,L|536:128,1,100,0|4,0:0|3:3,0:0:0:0:
0,368,56624,6,0,L|120:336,1,100,2|4,3:0|3:0,1:0:0:0:
16,280,56874,2,0,L|136:248,1,100,2|4,3:0|3:3,1:0:0:0:
288,352,57124,102,0,L|408:320,1,100,2|4,3:0|3:3,1:0:0:0:
24,88,57374,6,0,L|144:56,1,100,2|4,3:0|3:3,1:0:0:0:
144,144,57624,2,0,L|264:112,1,100,2|4,3:0|3:3,1:0:0:0:
72,360,57874,102,0,L|192:328,1,100,2|4,3:0|3:3,1:0:0:0:
376,64,58124,6,0,L|496:32,1,100,4|4,3:3|3:3,0:0:0:0:
352,160,58374,2,0,L|472:128,1,100,2|4,3:0|3:3,1:0:0:0:
112,80,58624,102,0,L|232:48,1,100,2|4,3:0|3:3,1:0:0:0:
328,304,58874,6,0,L|448:272,1,100,2|4,3:0|3:3,1:0:0:0:
400,376,59124,2,0,L|520:344,1,100,2|4,3:0|3:3,1:0:0:0:
0,264,59374,102,0,L|120:232,1,100,2|4,3:0|3:3,1:0:0:0:
232,64,59624,6,0,L|352:32,1,100,6|0,3:0|3:3,1:0:0:0:
64,32,59874,101,6,3:3:0:0:
64,32,59936,1,8,3:3:0:0:
64,32,59999,1,4,3:3:0:0:
32,144,60124,1,6,3:3:0:0:
176,184,60249,5,4,1:3:0:0:
128,333,60374,2,0,L|88:213,1,100,0|4,0:0|3:3,0:0:0:0:
456,120,60624,102,0,L|416:0,1,100,2|4,3:0|3:0,1:0:0:0:
392,208,60874,2,0,L|352:88,1,100,2|4,3:0|3:3,1:0:0:0:
120,112,61124,6,0,L|80:-8,1,100,2|4,3:0|3:3,1:0:0:0:
224,128,61374,2,0,L|184:8,1,100,2|4,3:0|3:3,1:0:0:0:
240,368,61624,102,0,L|200:248,1,100,2|4,3:0|3:3,1:0:0:0:
496,224,61874,6,0,L|456:104,1,100,2|4,3:0|3:3,1:0:0:0:
432,312,62124,2,0,L|392:192,1,100,4|4,3:3|3:3,0:0:0:0:
48,176,62374,102,2,L|8:56,1,100,2|4,3:0|3:3,1:2:0:0:
272,384,62624,6,2,L|232:264,1,100,2|4,3:0|3:3,1:2:0:0:
288,128,62874,102,2,L|248:8,1,100,2|4,3:0|3:3,1:2:0:0:
392,136,63124,2,2,L|368:64,1,50,2|0,3:0|0:0,1:2:0:0:
352,8,63249,5,4,3:3:0:0:
496,128,63374,1,2,3:0:0:0:
496,128,63436,1,4,3:0:0:0:
496,128,63499,1,4,3:3:0:0:
496,128,63561,1,0,0:0:0:0:
496,128,63624,1,6,3:0:0:0:
496,128,63686,1,0,0:0:0:0:
496,128,63749,1,8,3:3:0:0:
496,128,63811,1,4,0:3:0:0:
496,128,63874,1,6,3:3:0:0:
496,128,63936,1,8,3:3:0:0:
496,128,63999,102,2,B|464:176|464:176|512:144,1,100,4|0,3:0|0:0,0:1:0:0:
392,248,64249,5,4,1:0:0:0:
512,376,64374,2,0,L|400:336,1,100,0|4,0:0|3:3,0:0:0:0:
120,336,64624,102,0,L|8:296,1,100,2|4,3:0|3:0,1:0:0:0:
208,264,64874,2,0,L|96:224,1,100,2|4,3:0|3:3,1:0:0:0:
432,64,65124,6,0,L|320:24,1,100,2|4,3:0|3:3,1:0:0:0:
144,152,65374,102,0,L|32:112,1,100,2|4,3:0|3:3,1:0:0:0:
112,56,65624,2,0,L|0:16,1,100,2|4,3:0|3:3,1:0:0:0:
384,368,65874,6,0,L|272:328,1,100,2|4,3:0|3:3,1:0:0:0:
344,136,66124,102,0,L|232:96,1,100,4|4,3:3|3:3,0:0:0:0:
128,320,66374,6,0,L|16:280,1,100,2|4,3:0|3:3,1:0:0:0:
184,256,66624,2,0,L|72:216,1,100,2|4,3:0|3:3,1:0:0:0:
384,48,66874,102,0,L|272:8,1,100,2|4,3:0|3:3,1:0:0:0:
488,304,67124,6,0,L|376:264,1,100,2|4,3:0|3:3,1:0:0:0:
472,216,67374,2,0,L|360:176,1,100,2|4,3:0|3:3,1:0:0:0:
240,368,67624,102,0,L|128:328,1,100,6|0,3:0|3:3,1:0:0:0:
145,334,67811,1,0,0:0:0:0:
145,334,67874,1,6,3:3:0:0:
240,248,67999,1,4,3:3:0:0:
176,128,68124,1,6,3:3:0:0:
32,160,68249,5,4,1:3:0:0:
0,384,68374,2,0,L|40:280,1,100,0|4,0:0|3:3,0:0:0:0:
384,280,68624,102,0,L|424:176,1,100,2|4,3:0|3:0,1:0:0:0:
456,360,68874,2,0,L|496:256,1,100,2|4,3:0|3:3,1:0:0:0:
264,120,69124,6,0,L|304:16,1,100,2|4,3:0|1:3,1:0:0:0:
184,368,69374,102,0,L|224:264,1,100,2|4,3:0|3:3,1:0:0:0:
24,112,69624,6,0,L|64:8,1,100,2|4,3:0|3:3,1:0:0:0:
88,232,69874,2,0,L|128:128,1,100,2|4,3:0|3:3,1:0:0:0:
416,144,70124,102,0,L|456:40,1,100,4|4,3:3|1:3,0:0:0:0:
464,352,70374,6,2,L|504:248,1,100,2|4,3:0|3:3,1:2:0:0:
288,216,70624,102,2,L|328:112,1,100,2|4,3:0|1:3,1:2:0:0:
128,384,70874,6,2,L|168:280,1,100,2|4,3:0|3:3,1:2:0:0:
48,96,71124,102,2,L|78:16,1,50,2|0,3:0|0:0,1:2:0:0:
88,216,71249,5,4,1:3:0:0:
88,216,71311,1,0,1:0:0:0:
88,216,71374,1,2,3:0:0:0:
88,216,71436,1,4,3:0:0:0:
88,216,71499,1,4,1:3:0:0:
88,216,71561,1,0,0:0:0:0:
88,216,71624,1,6,3:0:0:0:
88,216,71686,1,0,0:0:0:0:
88,216,71749,102,0,L|144:216,1,50,8|0,3:3|0:0,0:0:0:0:
208,168,71874,2,0,L|264:168,1,50,6|0,3:3|0:0,0:0:0:0:
368,240,71999,2,0,L|318:240,1,50,8|0,1:3|0:0,0:0:0:0:
240,296,72124,2,0,L|190:296,1,50,4|0,1:3|0:0,0:0:0:0:
80,296,72249,5,4,1:2:0:0:
352,360,72499,101,0,3:0:0:0:
349,345,72561,5,0,3:0:0:0:
343,354,72624,101,0,3:0:0:0:
352,360,72686,5,0,3:0:0:0:
359,351,72749,101,4,1:2:0:0:
265,68,72999,5,0,3:0:0:0:
262,83,73061,101,0,3:0:0:0:
256,74,73124,5,0,3:0:0:0:
265,68,73186,101,0,3:0:0:0:
272,77,73249,5,4,1:2:0:0:
352,160,73436,1,0,1:2:0:0:
456,120,73624,1,0,1:2:0:0:
512,192,73749,101,0,1:2:0:0:
248,216,73915,1,0,1:0:0:0:
128,24,74082,1,0,1:0:0:0:
48,56,74249,5,4,1:2:0:0:
128,342,74499,101,0,3:0:0:0:
125,327,74561,5,0,3:0:0:0:
119,336,74624,101,0,3:0:0:0:
128,342,74686,5,0,3:0:0:0:
135,333,74749,101,4,1:2:0:0:
255,25,74999,5,0,3:0:0:0:
252,40,75061,101,0,3:0:0:0:
246,31,75124,5,0,3:0:0:0:
255,25,75186,101,0,3:0:0:0:
262,34,75249,5,4,1:2:0:0:
216,232,75436,1,0,1:2:0:0:
408,368,75624,1,0,1:2:0:0:
480,336,75749,101,0,1:2:0:0:
368,264,75915,1,0,1:0:0:0:
256,304,76082,1,0,1:0:0:0:
0,352,76249,6,0,L|112:312,1,100,2|0,1:3|0:0,0:0:0:0:
88,240,76436,2,0,L|160:216,1,50,2|0,1:3|0:0,0:0:0:0:
168,368,76624,102,0,L|216:352,1,50,0|0,1:2|1:2,0:0:0:0:
240,280,76749,2,0,L|344:240,1,100,2|0,1:3|0:0,0:0:0:0:
336,160,76936,2,0,L|456:120,1,100,2|0,1:3|0:0,0:0:0:0:
448,376,77124,6,0,L|496:360,1,50,0|0,1:2|1:2,0:0:0:0:
488,280,77249,2,0,L|376:320,1,88.8888888888889,2|0,1:3|0:0,0:0:0:0:
352,240,77415,2,0,L|248:280,1,88.8888888888889,2|0,1:3|0:0,0:0:0:0:
272,112,77582,102,0,L|192:144,1,66.6666666666667,0|0,1:2|1:2,0:0:0:0:
200,208,77749,2,0,L|104:248,1,88.8888888888889,2|0,1:3|0:0,0:0:0:0:
128,320,77915,2,0,L|-32:384,1,133.333333333333,2|0,1:3|1:2,0:0:0:0:
368,352,78165,5,0,1:2:0:0:
416,312,78249,1,2,1:3:0:0:
408,248,78332,1,0,1:3:0:0:
448,200,78415,1,2,1:3:0:0:
448,136,78499,1,0,1:3:0:0:
416,112,78582,1,2,1:3:0:0:
424,64,78665,1,0,1:3:0:0:
384,32,78749,1,2,1:3:0:0:
336,40,78832,1,0,1:3:0:0:
296,16,78915,1,2,1:3:0:0:
248,40,78999,1,0,1:3:0:0:
208,16,79082,1,2,1:3:0:0:
168,32,79165,1,0,1:3:0:0:
144,16,79249,1,2,1:3:0:0:
128,24,79332,1,0,1:3:0:0:
120,16,79415,1,2,1:3:0:0:
112,24,79499,1,0,1:3:0:0:
104,16,79582,1,2,1:3:0:0:
96,24,79665,1,0,1:3:0:0:
88,16,79749,1,2,1:3:0:0:
80,24,79832,1,0,1:3:0:0:
72,16,79915,1,2,1:3:0:0:
64,24,79999,1,0,1:3:0:0:
56,16,80082,1,2,1:3:0:0:
48,24,80165,1,0,1:3:0:0:
40,16,80250,38,0,L|16:80,3,50,4|0|0|0,1:2|3:0|3:0|3:0,0:0:0:0:
0,152,80583,2,0,L|64:160,3,50,6|0|2|0,1:3|3:0|3:0|3:0,0:0:0:0:
16,312,80916,2,0,L|0:256,3,50,4|2|0|0,1:3|3:0|3:0|3:0,0:0:0:0:
80,384,81250,2,0,L|152:376,3,50,6|0|0|2,1:3|3:0|3:0|3:0,0:0:0:0:
224,352,81583,1,6,1:3:0:0:
224,352,81666,2,0,L|304:384,1,50,0|2,3:0|3:0,0:0:0:0:
424,352,81833,1,4,1:3:0:0:
424,352,81916,2,0,L|352:368,1,50,4|2,1:3|3:0,0:0:0:0:
464,264,82083,2,0,L|520:288,1,50,4|0,1:3|3:0,0:0:0:0:
512,184,82250,2,0,L|488:120,3,50,0|0|0|0,1:1|3:0|3:0|3:0,0:0:0:0:
464,32,82583,2,0,L|432:104,3,50,6|0|2|0,1:3|3:0|3:0|3:0,0:0:0:0:
320,0,82916,2,0,L|384:16,3,50,4|2|0|0,1:3|3:0|3:0|3:0,0:0:0:0:
224,24,83250,2,0,L|152:40,3,50,6|0|0|2,1:3|3:0|3:0|3:0,0:0:0:0:
80,24,83583,1,6,1:3:0:0:
80,24,83666,2,0,L|0:64,2,50,0|2|4,3:0|3:0|1:3,0:0:0:0:
32,120,83916,1,4,1:3:0:0:
16,144,84000,1,2,3:0:0:0:
16,184,84083,1,4,1:3:0:0:
0,216,84166,1,0,3:0:0:0:
16,256,84250,2,0,L|48:320,2,50,0|0|0,1:2|3:0|3:0,0:0:0:0:
136,360,84500,5,0,3:0:0:0:
136,360,84583,2,0,L|72:384,3,50,6|0|2|0,1:3|3:0|3:0|3:0,0:0:0:0:
240,368,84916,2,0,L|280:312,3,50,4|2|0|0,1:3|3:0|3:0|3:0,0:0:0:0:
400,368,85250,2,0,L|328:352,3,50,6|0|0|2,1:3|3:0|3:0|3:0,0:0:0:0:
479,324,85583,1,6,1:3:0:0:
479,324,85666,2,0,L|496:272,1,50,0|2,3:0|3:0,0:0:0:0:
442,199,85833,1,4,1:3:0:0:
442,199,85916,2,0,L|408:256,1,50,4|2,1:3|3:0,0:0:0:0:
496,96,86083,2,0,L|451:118,1,50,4|0,1:3|3:0,0:0:0:0:
384,24,86250,2,0,L|456:8,3,50,0|0|2|0,1:1|3:0|3:0|3:0,0:0:0:0:
288,40,86583,2,0,L|216:24,3,50,6|0|2|0,1:3|3:0|3:0|3:0,0:0:0:0:
108,24,86916,2,0,L|152:0,3,50,6|2|2|0,1:3|3:0|3:0|3:0,0:0:0:0:
32,64,87250,1,6,1:3:0:0:
16,104,87333,1,0,3:0:0:0:
32,160,87416,1,0,3:0:0:0:
24,208,87499,1,2,3:0:0:0:
40,248,87583,2,0,L|72:256,1,25,0|0,1:0|1:0,0:0:0:0:
40,264,87666,2,0,L|64:280,1,25,0|0,1:0|1:0,0:0:0:0:
32,288,87749,1,0,1:0:0:0:
16,336,87833,1,0,1:0:0:0:
32,368,87916,102,2,L|128:368,1,75.0000028610231,4|0,1:3|0:0,1:0:0:0:
200,352,88083,2,0,L|280:352,1,75.0000028610231,0|2,0:0|3:0,0:0:0:0:
384,360,88249,6,0,B|352:376|352:376|368:336,1,75.0000028610231,2|0,1:1|3:0,3:0:0:0:
496,352,88416,2,2,B|464:368|464:368|480:328,1,75.0000028610231,0|0,3:0|3:0,3:0:0:0:
416,280,88583,2,2,L|464:216,1,75.0000028610231,4|0,1:3|3:0,3:0:0:0:
432,88,88749,101,0,3:0:0:0:
432,88,88833,2,2,B|464:120|464:120|496:104,1,75.0000028610231,0|4,3:0|1:3,3:0:0:0:
480,16,88999,5,0,3:0:0:0:
416,16,89083,1,0,3:0:0:0:
360,16,89166,1,0,3:0:0:0:
312,40,89249,2,2,L|232:40,1,75.0000028610231,4|0,1:3|3:0,3:0:0:0:
128,24,89416,102,2,L|24:24,1,75.0000028610231,0|0,3:3|3:0,3:0:0:0:
144,40,89583,2,2,L|224:40,1,75.0000028610231,4|0,1:3|3:0,3:0:0:0:
16,88,89749,5,0,3:0:0:0:
16,88,89833,2,2,B|56:120|56:120|72:64,1,75.0000028610231,8|4,1:3|1:3,3:0:0:0:
24,200,89999,1,0,3:0:0:0:
24,200,90083,2,2,B|64:232|64:232|72:192,1,75.0000028610231,4|0,1:3|0:0,3:0:0:0:
16,296,90249,101,4,1:3:0:0:
16,344,90333,1,0,3:0:0:0:
48,376,90416,1,0,3:0:0:0:
96,376,90499,1,0,3:0:0:0:
144,376,90583,2,2,B|128:328|128:328|96:376,1,75.0000028610231,4|0,1:3|0:0,3:0:0:0:
248,336,90749,1,0,3:0:0:0:
248,336,90833,2,2,B|232:288|232:288|200:336,1,75.0000028610231,0|4,3:0|1:3,3:0:0:0:
360,368,90999,5,0,3:0:0:0:
416,368,91083,1,0,3:0:0:0:
472,368,91166,1,0,3:0:0:0:
448,344,91249,1,4,1:3:0:0:
416,344,91333,1,0,3:0:0:0:
392,344,91416,1,0,3:0:0:0:
360,344,91499,2,2,B|352:304|352:304|416:288,1,75.0000028610231,0|4,3:0|1:3,3:0:0:0:
488,240,91666,1,0,3:0:0:0:
488,240,91749,2,2,B|432:216|432:216|400:224,1,75.0000028610231,0|4,3:0|3:3,3:0:0:0:
472,128,91916,101,4,1:3:0:0:
480,104,91999,1,8,0:3:0:0:
440,64,92083,5,8,1:3:0:0:
448,40,92166,1,4,3:3:0:0:
408,0,92249,102,2,B|392:16|392:16|336:40,1,75.0000028610231,4|0,1:3|3:0,3:0:0:0:
256,0,92416,1,0,3:0:0:0:
256,0,92499,2,2,B|224:24|224:24|272:56,1,75.0000028610231,0|4,3:0|1:3,3:0:0:0:
152,40,92666,5,0,3:0:0:0:
96,40,92749,1,0,3:0:0:0:
64,24,92833,1,0,3:0:0:0:
8,24,92916,2,2,B|16:56|16:56|64:48,1,75.0000028610231,4|0,1:3|0:0,3:0:0:0:
40,152,93083,101,0,3:0:0:0:
16,200,93166,1,0,3:0:0:0:
24,264,93249,1,4,1:3:0:0:
56,320,93333,1,0,3:0:0:0:
24,368,93416,2,2,L|128:352,1,75.0000028610231,0|0,3:0|3:0,3:0:0:0:
224,344,93583,6,2,B|192:352|192:352|208:288,1,75.0000028610231,4|0,1:3|0:0,3:0:0:0:
312,352,93749,2,2,B|344:360|344:360|328:296,1,75.0000028610231,0|4,3:3|3:0,3:0:0:0:
440,360,93916,101,4,1:3:0:0:
480,328,93999,1,0,3:0:0:0:
472,288,94083,1,4,1:3:0:0:
480,240,94166,1,0,3:0:0:0:
448,200,94249,2,2,B|416:224|416:224|448:168,1,75.0000028610231,4|0,1:3|3:0,3:0:0:0:
496,88,94416,5,0,3:0:0:0:
432,104,94499,2,2,B|424:56|424:56|384:32,1,75.0000028610231,0|4,3:0|1:3,3:0:0:0:
312,8,94666,101,0,3:0:0:0:
280,24,94749,1,0,3:0:0:0:
248,8,94833,1,0,3:0:0:0:
224,24,94916,1,4,1:3:0:0:
200,8,94999,1,0,3:0:0:0:
176,24,95083,1,0,3:0:0:0:
144,16,95166,1,0,3:0:0:0:
120,32,95249,1,4,1:3:0:0:
96,24,95333,1,8,3:3:0:0:
80,48,95416,1,8,1:3:0:0:
48,56,95499,1,4,3:3:0:0:
56,88,95583,1,8,1:3:0:0:
32,112,95666,1,8,3:3:0:0:
48,144,95749,1,4,1:3:0:0:
32,184,95833,1,8,3:3:0:0:
64,224,95916,1,4,1:3:0:0:
40,264,95999,1,8,3:3:0:0:
48,320,96083,1,8,1:3:0:0:
96,360,96166,1,8,3:3:0:0:
168,368,96249,6,2,B|208:296|208:296|104:296|104:296|0:216|0:216|296:216|296:216|304:208|304:208|296:232|296:232|304:224|304:224|456:224,1,800,6|4,1:0|1:3,0:1:0:0:
496,312,96999,1,2,3:0:0:0:
464,312,97083,1,0,3:0:0:0:
432,312,97166,1,0,3:0:0:0:
400,312,97249,102,0,B|400:200|400:200|416:176|416:176|416:256,1,200,6|0,1:3|3:0,0:0:0:0:
312,336,97499,2,0,B|265:360|265:360|288:296,1,100,2|6,3:0|1:3,0:0:0:0:
320,248,97666,2,0,B|280:216|280:216|224:264,1,100,0|2,3:0|3:0,0:0:0:0:
168,328,97833,2,0,B|120:192|120:192|128:184|128:184|176:208,1,200,4|2,1:3|3:0,0:0:0:0:
216,152,98083,2,0,B|211:139|211:139|160:112|160:112|200:-24,1,200,4|0,1:3|1:1,0:0:0:0:
104,8,98333,2,0,L|72:104,1,100,0|0,3:0|3:0,0:0:0:0:
56,216,98499,6,0,B|100:196|100:196|200:240|200:240|272:232,2,200,0|0|0,3:0|3:0|3:0,0:0:0:0:
136,304,98999,101,2,3:0:0:0:
136,304,99083,1,0,3:0:0:0:
136,304,99166,1,0,3:0:0:0:
80,368,99249,5,6,1:3:0:0:
80,368,99333,1,0,3:0:0:0:
80,368,99416,1,0,3:0:0:0:
152,384,99499,102,0,B|272:336|272:336|288:344|288:344|352:320,1,200,2|0,3:0|3:0,0:0:0:0:
461,382,99749,2,0,B|469:310|469:310|365:214,1,200,2|4,3:0|1:3,0:0:0:0:
376,224,99999,2,0,B|352:296|352:296|296:320|296:320|325:390,1,200,2|0,3:0|3:0,0:0:0:0:
392,368,100249,5,0,1:2:0:0:
392,368,100333,1,0,3:0:0:0:
256,208,100499,102,0,B|160:208|160:208|144:224|144:224|-8:176|-8:176|0:112|0:112|56:120|56:120|80:176|80:176|224:120|224:120|296:56|296:56|432:24|432:24|520:56|520:56|432:72|432:72|344:144|344:144|328:200|328:200|376:304|376:304|424:136|424:136|432:256,1,1600,0|4,3:0|1:3,0:0:0:0:
448,264,101916,1,4,1:3:0:0:
432,304,101999,1,2,3:0:0:0:
448,352,102083,1,4,1:3:0:0:
424,368,102166,6,0,B|336:368|336:368|352:328|352:328|264:328,1,200,0|0,3:0|3:0,0:0:0:0:
216,368,102416,2,0,B|48:368|48:368|8:320|8:320|56:344|56:344|128:328|128:328|288:160|288:160|344:144|344:144|336:112|336:112|0:112,1,1000,2|6,3:0|1:3,0:0:0:0:
0,192,103333,101,4,3:0:0:0:
0,192,103416,1,4,3:0:0:0:
120,231,103583,5,6,1:3:0:0:
120,231,103666,1,6,3:3:0:0:
192,272,103749,101,6,1:3:0:0:
192,272,103833,2,0,B|200:296|200:296|296:336,1,100,4|4,1:3|1:3,0:0:0:0:
416,352,103999,2,0,B|392:304|392:304|424:344,1,100,4|6,3:3|1:3,0:0:0:0:
400,352,104166,6,0,B|344:232|344:232|440:152|440:152|400:208,1,300,6|0,1:3|3:0,0:0:0:0:
452,252,104499,2,0,B|284:172|284:172|212:268,1,300,0|2,3:0|3:0,0:0:0:0:
272,352,104833,101,0,3:0:0:0:
328,384,104916,1,4,1:3:0:0:
376,336,104999,1,2,3:0:0:0:
336,336,105083,1,0,3:0:0:0:
288,336,105166,1,0,3:0:0:0:
248,336,105249,1,6,1:3:0:0:
192,336,105333,1,0,3:0:0:0:
120,336,105416,6,0,B|240:192|240:192|112:216,1,300,0|0,3:0|3:0,0:0:0:0:
32,224,105749,102,0,B|132:297|132:297|120:208,1,200,2|4,3:0|1:3,0:0:0:0:
144,64,105999,2,0,B|71:141|71:141|176:96,1,200,2|0,3:0|3:0,0:0:0:0:
40,40,106249,6,0,L|264:96,1,200,2|0,1:2|3:0,0:0:0:0:
296,144,106499,2,0,B|434:119|434:119|344:96,1,200,2|0,3:2|3:0,0:0:0:0:
440,40,106749,102,0,L|392:264,1,200,2|4,3:2|1:3,0:0:0:0:
368,360,106999,2,0,B|312:272|312:272|384:336,1,200,2|0,3:2|3:0,0:0:0:0:
456,384,107249,6,0,B|248:384|248:384|64:303|64:303|338:357|338:357|496:296|496:296|424:264,1,900,6|2,1:3|3:0,0:0:0:0:
376,176,108083,101,4,1:3:0:0:
376,176,108166,1,0,3:0:0:0:
376,176,108249,2,0,B|336:272|336:272|176:240|176:240|136:184,1,300,0|0,1:2|3:0,0:0:0:0:
64,184,108583,1,6,1:3:0:0:
64,184,108666,1,0,3:0:0:0:
64,184,108749,2,0,B|113:119|113:119|256:160,1,200,2|4,3:0|1:3,0:0:0:0:
296,80,108999,5,2,3:0:0:0:
296,80,109083,1,0,3:0:0:0:
296,80,109166,2,0,L|184:48,1,100,0|6,3:0|1:3,0:0:0:0:
368,40,109333,2,0,L|467:27,1,100,0|0,3:0|3:0,0:0:0:0:
472,184,109499,102,0,B|410:209|410:209|496:104,1,200,2|0,3:0|3:0,0:0:0:0:
360,128,109749,2,0,B|416:160|416:160|456:296,1,200,2|4,3:0|1:3,0:0:0:0:
344,368,109999,5,2,3:0:0:0:
288,376,110083,1,4,1:3:0:0:
256,344,110166,1,0,3:0:0:0:
296,304,110249,101,0,1:1:0:0:
288,264,110333,1,0,3:0:0:0:
264,240,110416,1,2,3:0:0:0:
224,208,110500,1,0,3:0:0:0:
184,232,110583,5,6,1:3:0:0:
144,216,110666,1,0,3:0:0:0:
96,208,110750,1,2,3:0:0:0:
64,168,110833,1,0,3:0:0:0:
72,104,110916,101,6,1:3:0:0:
120,112,110999,1,2,3:0:0:0:
168,80,111083,1,2,3:0:0:0:
216,48,111166,1,0,3:0:0:0:
256,80,111249,5,6,1:3:0:0:
296,128,111333,1,0,3:0:0:0:
344,136,111416,1,0,3:0:0:0:
384,168,111499,1,2,3:0:0:0:
344,224,111583,101,4,1:3:0:0:
280,256,111666,1,8,3:3:0:0:
224,296,111749,1,8,1:3:0:0:
192,352,111833,1,4,3:3:0:0:
256,384,111916,5,8,1:3:0:0:
256,336,111999,1,8,3:3:0:0:
256,304,112083,1,4,1:3:0:0:
256,288,112166,1,8,3:3:0:0:
256,192,112249,102,0,L|240:176,95,14.9999995422363,4|0|0|0|0|0|0|0|0|0|0|0|0|0|0|0|0|0|0|0|0|0|0|0|0|0|0|0|0|0|0|0|0|0|0|0|0|0|0|0|0|0|0|0|0|0|0|0|2|0|0|0|0|0|0|0|0|0|0|0|0|0|0|0|0|0|0|0|0|0|0|0|0|0|0|0|0|0|0|0|0|0|0|0|0|0|0|0|0|0|0|0|0|0|0|0,1:0|3:0|3:0|3:0|3:0|3:0|3:0|3:0|3:0|3:0|3:0|3:0|3:0|3:0|3:0|3:0|3:0|3:0|3:0|3:0|3:0|3:0|3:0|3:0|3:0|3:0|3:0|3:0|3:0|3:0|3:0|3:0|3:0|3:0|3:0|3:0|3:0|3:0|3:0|3:0|3:0|3:0|3:0|3:0|3:0|3:0|3:0|3:0|2:3|3:0|3:0|3:0|3:0|3:0|3:0|3:0|3:0|3:0|3:0|3:0|3:0|3:0|3:0|3:0|3:0|3:0|3:0|3:0|3:0|3:0|3:0|3:0|3:0|3:0|3:0|3:0|3:0|3:0|3:0|3:0|3:0|3:0|3:0|3:0|3:0|3:0|3:0|3:0|3:0|3:0|3:0|3:0|3:0|3:0|3:0|3:0,0:0:0:0:
64,208,120250,6,0,L|64:336,1,100,4|0,1:3|0:0,0:0:0:0:
432,88,120739,2,0,L|432:200,1,100,4|0,3:3|0:0,0:0:0:0:
256,192,120983,12,0,126702,3:0:0:0:
407,226,126774,37,0,0:0:0:0:
407,226,126846,1,0,0:0:0:0:
407,226,126918,1,0,0:0:0:0:
368,208,126990,1,0,3:0:0:0:
328,224,127062,1,0,3:0:0:0:
293,213,127134,1,0,3:0:0:0:
256,224,127206,1,0,3:0:0:0:
208,224,127278,1,0,3:0:0:0:
168,240,127351,1,0,3:0:0:0:
128,240,127423,1,0,3:0:0:0:
88,224,127495,1,0,3:0:0:0:
48,238,127567,102,0,L|14:325,1,75.0000028610231,8|0,1:3|3:0,0:0:0:0:
386,31,127852,102,0,L|277:73,1,112.500004291535,8|0,2:3|3:0,0:0:0:0:
281,71,128138,6,0,L|199:38,1,75.0000028610231,8|0,2:3|3:0,0:0:0:0:
400,240,128424,102,0,L|363:229,1,37.5000014305115,8|0,2:3|3:0,0:0:0:0:
408,253,128567,6,0,L|335:232,1,75.0000028610231,8|0,3:3|3:0,0:0:0:0:
125,365,128852,102,0,L|255:339,1,112.500004291535,8|0,2:3|3:0,0:0:0:0:
235,342,129138,6,0,L|205:262,1,75.0000028610231,8|0,2:3|3:0,0:0:0:0:
280,56,129424,102,0,L|272:117,1,37.5000014305115,8|0,2:3|3:0,0:0:0:0:
422,119,129567,6,0,L|325:151,1,75.0000028610231,8|0,3:3|3:0,0:0:0:0:
41,76,129852,102,0,L|94:182,1,112.500004291535,8|0,2:3|3:0,0:0:0:0:
91,177,130138,6,0,L|126:105,1,75.0000028610231,8|0,2:3|3:0,0:0:0:0:
128,312,130424,102,0,L|80:332,1,37.5000014305115,8|0,2:3|3:0,0:0:0:0:
137,317,130567,6,0,L|44:355,1,75.0000028610231,8|0,3:3|3:0,0:0:0:0:
408,272,130852,102,0,L|304:230,1,112.500004291535,8|0,2:3|3:0,0:0:0:0:
303,229,131138,6,0,L|343:308,1,75.0000028610231,8|0,2:3|3:0,0:0:0:0:
459,28,131424,102,0,L|443:62,1,37.5000014305115,8|0,2:3|3:0,0:0:0:0:
295,100,131567,5,8,1:3:0:0:
313,107,131638,1,0,3:0:0:0:
296,96,131709,1,0,3:0:0:0:
310,111,131781,1,0,3:0:0:0:
302,94,131852,1,8,2:3:0:0:
304,113,131924,1,0,3:0:0:0:
307,94,131995,1,0,3:0:0:0:
298,112,132067,1,0,3:0:0:0:
301,103,132138,102,0,L|208:70,1,75.0000028610231,8|0,2:3|3:0,0:0:0:0:
32,96,132424,6,0,L|47:130,1,37.5000014305115,8|0,2:3|3:0,0:0:0:0:
45,98,132567,102,0,L|81:184,1,75.0000028610231,8|0,3:3|3:0,0:0:0:0:
46,370,132852,6,0,L|92:246,1,112.500004291535,8|0,2:3|3:0,0:0:0:0:
85,264,133138,102,0,L|139:338,1,75.0000028610231,8|0,2:3|3:0,0:0:0:0:
416,280,133424,6,0,L|368:255,1,37.5000014305115,8|0,2:3|3:0,0:0:0:0:
238,258,133567,102,0,L|323:220,1,75.0000028610231,8|0,1:3|3:0,0:0:0:0:
316,21,133852,6,0,L|381:128,1,112.500004291535,8|0,2:3|3:0,0:0:0:0:
374,117,134138,102,0,L|301:137,1,75.0000028610231,8|0,2:3|3:0,0:0:0:0:
33,51,134424,6,0,L|67:83,1,37.5000014305115,8|0,2:3|3:0,0:0:0:0:
45,50,134567,102,0,L|113:111,1,75.0000028610231,8|0,3:3|3:0,0:0:0:0:
81,253,134852,6,0,L|20:370,1,112.500004291535,8|0,2:3|3:0,0:0:0:0:
28,352,135138,102,0,L|95:337,1,37.5000014305115,8|0,2:3|3:0,0:0:0:0:
147,314,135281,5,0,3:0:0:0:
181,327,135352,1,0,3:0:0:0:
218,339,135424,1,8,2:3:0:0:
255,352,135495,1,0,3:0:0:0:
290,363,135567,102,0,L|415:287,1,119.999996337891,4|0,1:3|3:0,0:0:0:0:
313,0,135852,6,0,L|234:196,1,179.999994506836,8|0,2:3|3:0,0:0:0:0:
245,166,136138,102,0,L|193:49,1,119.999996337891,8|0,2:3|3:0,0:0:0:0:
39,379,136424,6,0,L|129:337,1,59.9999981689454,8|0,2:3|3:0,0:0:0:0:
41,364,136567,102,0,L|174:297,1,119.999996337891,8|0,3:3|3:0,0:0:0:0:
512,335,136852,6,0,L|334:255,1,179.999994506836,8|0,2:3|3:0,0:0:0:0:
347,261,137138,102,0,L|485:221,1,119.999996337891,8|0,2:3|3:0,0:0:0:0:
113,51,137424,5,8,2:3:0:0:
122,71,137495,1,0,3:0:0:0:
170,77,137567,102,0,L|56:130,1,119.999996337891,8|0,3:3|3:0,0:0:0:0:
272,384,137852,6,0,L|153:217,1,179.999994506836,8|0,2:3|3:0,0:0:0:0:
167,237,138138,102,0,L|109:358,1,119.999996337891,8|0,2:3|3:0,0:0:0:0:
408,176,138424,6,0,L|432:251,1,59.9999981689454,8|0,2:3|3:0,0:0:0:0:
399,188,138567,102,0,L|442:332,1,119.999996337891,8|0,3:3|3:0,0:0:0:0:
180,69,138852,6,0,L|399:12,1,179.999994506836,8|0,2:3|3:0,0:0:0:0:
354,23,139138,102,0,L|288:136,1,119.999996337891,8|0,2:3|3:0,0:0:0:0:
36,168,139424,6,0,L|64:239,1,59.9999981689454,8|0,2:3|3:0,0:0:0:0:
14,329,139567,101,8,1:3:0:0:
45,342,139638,1,0,3:0:0:0:
12,337,139709,1,0,3:0:0:0:
46,332,139781,1,0,3:0:0:0:
43,325,139852,1,8,2:3:0:0:
15,344,139924,1,0,3:0:0:0:
34,322,139995,1,0,3:0:0:0:
24,349,140067,1,0,3:0:0:0:
30,334,140138,6,0,L|166:299,1,119.999996337891,8|0,1:3|3:0,0:0:0:0:
483,82,140424,102,0,L|453:163,1,59.9999981689454,8|0,2:3|3:0,0:0:0:0:
445,308,140567,6,0,L|389:201,1,119.999996337891,8|0,3:3|3:0,0:0:0:0:
126,15,140852,101,8,1:3:0:0:
126,15,140924,2,0,L|98:147,1,119.999996337891,0|0,2:0|3:0,0:0:0:0:
101,132,141138,6,0,L|165:197,1,59.9999981689454,8|0,2:3|3:0,0:0:0:0:
201,255,141281,101,0,3:0:0:0:
158,266,141352,1,0,1:0:0:0:
114,279,141424,1,8,2:3:0:0:
69,289,141495,1,0,1:0:0:0:
23,298,141567,6,0,L|190:368,1,179.999994506836,8|0,1:3|3:0,0:0:0:0:
189,367,141852,102,0,L|276:329,1,59.9999981689454,8|0,1:3|2:0,0:0:0:0:
375,351,141995,5,0,3:0:0:0:
391,309,142067,1,0,3:0:0:0:
406,264,142138,2,0,L|289:186,1,119.999996337891,8|0,2:3|3:0,0:0:0:0:
54,19,142424,102,0,L|73:105,1,59.9999981689454,8|0,1:3|3:0,0:0:0:0:
130,138,142567,6,0,L|145:99,4,29.9999990844727,10|0|0|0|0,1:3|0:0|2:0|0:0|1:0,0:0:0:0:
87,203,142781,101,0,3:0:0:0:
141,189,142852,1,8,1:3:0:0:
194,172,142924,1,0,1:0:0:0:
249,155,142995,1,0,3:0:0:0:
304,135,143067,1,0,1:0:0:0:
360,117,143138,1,8,2:3:0:0:
418,97,143209,1,0,1:0:0:0:
483,88,143281,1,0,3:0:0:0:
483,88,143352,1,0,1:0:0:0:
483,88,143424,1,8,2:3:0:0:
483,88,143495,1,0,1:0:0:0:
483,88,143567,6,0,B|313:38|313:38|273:-6,1,225.000008583069,12|0,2:3|3:0,0:0:0:0:
280,2,143852,2,0,B|261:41|261:41|281:76,1,75.0000028610231,4|0,3:0|1:0,0:0:0:0:
349,162,143995,2,0,B|373:135|373:135|362:189,1,75.0000028610231,2|2,1:3|3:0,0:0:0:0:
335,257,144138,101,4,3:0:0:0:
335,257,144209,1,0,1:0:0:0:
335,257,144281,1,2,3:0:0:0:
335,257,144352,1,0,1:0:0:0:
335,257,144424,2,0,L|294:328,1,75.0000028610231,4|2,3:0|1:3,0:0:0:0:
184,335,144567,2,0,B|172:282|172:282|229:366,1,150.000005722046,4|2,3:0|1:3,0:0:0:0:
97,318,144781,1,0,3:0:0:0:
97,318,144852,2,0,B|67:338|67:338|29:310,1,75.0000028610231,4|0,3:0|3:0,0:0:0:0:
70,234,144995,5,2,1:3:0:0:
85,201,145067,1,0,3:0:0:0:
101,159,145138,1,4,3:0:0:0:
118,119,145209,1,0,3:0:0:0:
93,81,145281,2,0,B|68:69|68:69|151:94,1,75.0000028610231,2|0,1:3|3:0,0:0:0:0:
253,92,145424,1,4,3:0:0:0:
253,92,145495,1,0,1:3:0:0:
234,104,145567,2,0,B|229:171|229:171|169:2,1,225.000008583069,12|2,2:3|3:0,0:0:0:0:
265,6,145852,102,0,L|354:36,1,75.0000028610231,4|0,3:0|1:0,0:0:0:0:
429,57,145995,1,2,1:3:0:0:
429,57,146067,1,2,3:0:0:0:
442,33,146138,2,0,B|328:52|328:52|384:157,1,225.000008583069,4|0,3:0|1:0,0:0:0:0:
440,208,146424,2,0,B|466:184|466:184|459:237,1,75.0000028610231,4|2,3:0|1:3,0:0:0:0:
479,312,146567,5,4,3:0:0:0:
479,312,146638,1,0,1:3:0:0:
479,312,146709,2,0,B|356:225|356:225|399:303,1,225.000008583069,2|0,1:3|3:0,0:0:0:0:
347,384,146995,2,0,L|435:364,1,75.0000028610231,2|0,1:3|3:0,0:0:0:0:
281,313,147138,2,0,B|298:281|298:281|244:314,1,75.0000028610231,4|0,3:0|3:0,0:0:0:0:
209,363,147281,101,2,1:3:0:0:
199,361,147352,1,0,3:0:0:0:
188,358,147424,1,4,3:0:0:0:
177,354,147495,1,0,1:3:0:0:
158,318,147567,5,12,2:3:0:0:
165,348,147638,1,0,3:0:0:0:
170,319,147709,1,2,1:3:0:0:
155,344,147781,1,0,3:0:0:0:
161,335,147852,102,0,B|116:233|116:233|57:207,1,150.000005722046,4|2,3:0|1:3,0:0:0:0:
23,266,148067,1,2,3:0:0:0:
23,266,148138,2,0,L|8:350,1,75.0000028610231,4|0,3:0|1:0,0:0:0:0:
20,351,148281,2,0,L|112:326,1,75.0000028610231,2|0,3:0|1:0,0:0:0:0:
128,222,148424,2,0,L|92:131,1,75.0000028610231,4|2,3:0|1:3,0:0:0:0:
19,58,148567,5,4,3:0:0:0:
19,58,148638,1,0,1:3:0:0:
19,58,148709,1,2,1:3:0:0:
19,58,148781,1,0,3:0:0:0:
3,87,148852,2,0,B|158:9|158:9|126:72,1,225.000008583069,4|0,3:0|3:0,0:0:0:0:
224,77,149138,1,4,3:0:0:0:
224,77,149209,1,0,3:0:0:0:
248,98,149281,2,0,L|331:83,1,75.0000028610231,2|0,1:3|3:0,0:0:0:0:
401,39,149424,2,0,B|409:3|409:3|380:46,1,75.0000028610231,4|0,3:0|1:3,0:0:0:0:
442,119,149567,101,12,2:3:0:0:
452,162,149638,1,0,3:0:0:0:
464,203,149709,1,2,1:3:0:0:
475,245,149781,1,2,3:0:0:0:
489,293,149852,2,0,B|450:305|450:305|505:273,1,75.0000028610231,4|0,3:0|1:0,0:0:0:0:
491,373,149995,2,0,B|384:321|384:321|333:354,1,150.000005722046,2|4,1:3|3:0,0:0:0:0:
239,376,150209,1,0,1:0:0:0:
239,376,150281,2,0,B|272:352|272:352|245:303,1,75.0000028610231,2|0,3:0|1:0,0:0:0:0:
109,253,150424,5,4,3:0:0:0:
116,261,150495,1,2,1:3:0:0:
116,261,150567,102,0,L|147:353,1,75.0000028610231,4|0,3:0|1:3,0:0:0:0:
118,243,150709,6,0,L|149:335,1,75.0000028610231,2|0,1:3|3:0,0:0:0:0:
152,202,150852,102,0,L|183:294,1,75.0000028610231,4|0,3:0|3:0,0:0:0:0:
219,158,150995,6,0,L|250:250,1,75.0000028610231,2|0,1:3|3:0,0:0:0:0:
149,113,151138,102,0,L|180:205,1,75.0000028610231,4|8,3:0|3:0,0:0:0:0:
45,92,151281,6,0,L|76:184,1,75.0000028610231,8|8,1:3|3:0,0:0:0:0:
13,275,151424,101,12,3:0:0:0:
13,275,151495,1,8,1:3:0:0:
13,275,151567,1,12,2:3:0:0:
61,298,151638,1,0,3:0:0:0:
116,322,151709,1,2,1:3:0:0:
170,350,151781,1,0,3:0:0:0:
224,377,151852,6,0,B|265:335|259:372|232:305|234:366|200:359|222:380,1,100,4|0,3:0|1:0,0:0:0:0:
141,371,151995,2,0,B|279:315|279:315|285:280|319:247,1,200,2|4,1:3|3:0,0:0:0:0:
370,326,152209,101,0,1:0:0:0:
370,326,152281,2,0,B|393:333|393:333|379:313|379:313|377:336|377:336|393:318|393:318|369:326,1,100,2|0,3:0|1:0,0:0:0:0:
446,252,152424,2,0,B|469:245|469:245|455:265|455:265|453:242|453:242|469:260|469:260|445:252,1,100,4|2,3:0|1:3,0:0:0:0:
480,354,152567,1,4,3:0:0:0:
480,354,152638,1,0,1:3:0:0:
480,354,152709,2,0,B|463:353|463:353|465:323|465:323|399:284|351:196,1,200,2|4,1:3|3:0,0:0:0:0:
277,166,152924,5,0,3:0:0:0:
327,151,152995,1,2,1:3:0:0:
371,121,153067,1,0,3:0:0:0:
396,73,153138,2,0,B|420:91|424:96|416:107|432:107|419:121|429:123|429:123|441:111|441:99|432:100|434:88|432:80|423:83|419:67,1,100,4|0,3:0|3:0,0:0:0:0:
335,21,153281,1,2,1:3:0:0:
335,21,153352,1,0,3:0:0:0:
335,21,153424,2,0,B|309:39|286:20|286:20|305:45|347:35,1,100,4|0,3:0|1:3,0:0:0:0:
455,11,153567,102,0,B|449:10|449:10|392:73|299:86|299:86|294:97|294:97|253:44|183:50,1,300,12|2,2:3|3:0,0:0:0:0:
206,138,153852,6,0,B|231:150|231:150|196:98|188:168,1,100,4|0,3:0|1:0,0:0:0:0:
132,219,153995,1,2,1:3:0:0:
161,245,154067,1,2,3:0:0:0:
140,288,154138,2,0,B|117:298|117:298|152:246|159:307,1,100,4|0,3:0|1:0,0:0:0:0:
53,358,154281,101,2,3:0:0:0:
32,338,154352,1,0,1:0:0:0:
26,349,154424,1,4,3:0:0:0:
45,367,154495,1,2,1:3:0:0:
29,370,154567,2,0,B|57:243|57:243|19:226|7:173,1,200,4|2,3:0|1:3,0:0:0:0:
87,163,154781,5,0,3:0:0:0:
87,163,154852,2,0,P|128:139|141:73,1,100,4|0,3:0|3:0,0:0:0:0:
64,86,154995,2,0,B|17:65|34:17|34:17|99:111|201:174,1,300,2|0,1:3|3:0,0:0:0:0:
232,297,155281,101,2,1:3:0:0:
249,239,155352,1,0,3:0:0:0:
273,184,155424,1,4,3:0:0:0:
303,133,155495,1,0,1:3:0:0:
285,100,155567,5,12,2:3:0:0:
299,133,155638,1,0,3:0:0:0:
290,95,155709,1,2,1:3:0:0:
290,136,155781,1,0,3:0:0:0:
299,95,155852,1,4,3:0:0:0:
284,133,155924,1,0,1:0:0:0:
306,97,155995,1,2,1:3:0:0:
278,128,156067,1,2,3:0:0:0:
310,104,156138,1,4,3:0:0:0:
273,121,156209,1,0,1:0:0:0:
312,113,156281,1,2,3:0:0:0:
271,113,156352,1,0,1:0:0:0:
293,113,156424,102,0,B|364:153|364:153|374:137|395:120,1,100,4|2,3:0|1:3,0:0:0:0:
356,50,156567,2,0,B|189:145|189:145|180:142|180:142|175:203|128:234,1,300,4|0,3:0|3:0,0:0:0:0:
127,230,156852,6,0,P|75:192|30:191,1,100,4|0,3:0|3:0,0:0:0:0:
50,36,156995,1,2,1:3:0:0:
50,36,157067,1,0,3:0:0:0:
50,36,157138,102,0,L|87:131,1,75.0000028610231,4|0,3:0|3:0,0:0:0:0:
188,279,157281,6,0,L|142:375,1,75.0000028610231,2|0,1:3|3:0,0:0:0:0:
51,208,157424,102,0,L|75:309,1,75.0000028610231,4|0,3:0|1:3,0:0:0:0:
205,128,157567,6,0,L|236:218,1,75.0000028610231,12|0,2:3|3:0,0:0:0:0:
346,287,157709,102,0,L|313:378,1,75.0000028610231,2|2,1:3|3:0,0:0:0:0:
441,213,157852,6,0,L|471:302,1,75.0000028610231,4|2,3:0|1:2,0:0:0:0:
363,96,157995,102,0,L|341:182,1,75.0000028610231,2|2,1:3|3:0,0:0:0:0:
143,287,158138,6,0,L|172:391,1,75.0000028610231,2|0,1:2|1:0,0:0:0:0:
62,212,158281,102,0,L|36:305,1,75.0000028610231,2|2,3:0|1:2,0:0:0:0:
164,95,158424,6,0,L|141:188,1,75.0000028610231,4|2,3:0|1:3,0:0:0:0:
350,261,158567,102,0,L|375:339,1,75.0000028610231,2|0,1:2|1:3,0:0:0:0:
447,137,158709,6,0,L|430:228,1,75.0000028610231,2|2,1:3|1:2,0:0:0:0:
297,50,158852,101,4,3:0:0:0:
237,101,158924,5,0,3:0:0:0:
161,114,158995,101,2,1:2:0:0:
109,98,159067,5,0,3:0:0:0:
70,105,159138,101,4,3:0:0:0:
55,117,159209,5,4,3:0:0:0:
90,126,159281,101,6,1:3:0:0:
135,155,159352,5,4,3:0:0:0:
171,199,159424,101,4,3:0:0:0:
231,227,159495,5,4,1:3:0:0:
301,201,159567,102,0,L|302:192,1,10,0|0,0:0|0:0,1:0:0:0:
