osu file format v14

[General]
AudioFilename: audio.mp3
AudioLeadIn: 0
PreviewTime: 96246
Countdown: 0
SampleSet: Normal
StackLeniency: 0.2
Mode: 1
LetterboxInBreaks: 0
WidescreenStoryboard: 1

[Editor]
DistanceSpacing: 4
BeatDivisor: 3
GridSize: 32
TimelineZoom: 3.400001

[Metadata]
Title:theyaremanycolors
TitleUnicode:theyaremanycolors
Artist:Frums
ArtistUnicode:Frums
Creator:Genjuro
Version:_yu68's Oni
Source:
Tags:bms bofu2017 legenda est a semicolon breakcore densecore frenchcore speedcore psycore hard rave dark psytrance trance experimental vulkin nifty [_chichinya_] _yu68 theyaremanycolours
BeatmapID:2120948
BeatmapSetID:984900

[Difficulty]
HPDrainRate:5
CircleSize:2
OverallDifficulty:5.5
ApproachRate:10
SliderMultiplier:1.4
SliderTickRate:1

[Events]
//Background and Video events
0,0,"bg.jpg",0,0
//Break Periods
2,112446,119797
//Storyboard Layer 0 (Background)
//Storyboard Layer 1 (Fail)
//Storyboard Layer 2 (Pass)
//Storyboard Layer 3 (Foreground)
//Storyboard Layer 4 (Overlay)
//Storyboard Sound Samples

[TimingPoints]
247,250,4,1,0,10,1,0
247,-400,4,1,0,10,0,0
40247,-100,4,1,0,50,0,0
55247,-100,4,1,0,65,0,0
56247,-100,4,1,0,80,0,0
70247,-100,4,1,0,85,0,0
71247,-100,4,1,0,90,0,0
72247,-100,4,1,0,55,0,0
74247,-100,4,1,0,50,0,0
76622,-100,4,1,0,55,0,0
77122,-100,4,1,0,60,0,0
77580,-100,4,1,0,65,0,0
78080,-100,4,1,0,70,0,0
78247,-101.010101010101,4,1,0,70,0,0
78413,-104.166666666667,4,1,0,70,0,0
78580,-106.382978723404,4,1,0,70,0,0
78747,-108.695652173913,4,1,0,70,0,0
78913,-111.111111111111,4,1,0,70,0,0
78997,-112.359550561798,4,1,0,70,0,0
79080,-113.636363636364,4,1,0,70,0,0
79247,-116.279069767442,4,1,0,80,0,0
79413,-119.047619047619,4,1,0,80,0,0
79497,-120.481927710843,4,1,0,80,0,0
79663,-123.456790123457,4,1,0,80,0,0
79747,-125,4,1,0,80,0,0
79913,-128.205128205128,4,1,0,80,0,0
79997,-129.87012987013,4,1,0,80,0,0
80080,-131.578947368421,4,1,0,80,0,0
80163,-133.333333333333,4,1,0,80,0,0
80247,333.333333333333,6,1,0,60,1,0
84497,-100,6,1,0,50,0,0
88246,-100,6,1,0,60,0,0
96246,-100,6,1,0,80,0,1
112246,-100,6,1,0,80,0,0
114246,-120.481927710843,6,1,0,65,0,0
116246,-151.515151515152,6,1,0,60,0,0
118246,-200,6,1,0,55,0,0
120247,326.086956521739,6,1,0,50,1,0
120247,-200,6,1,0,50,0,0
121225,319.148936170213,6,1,0,50,1,8
121225,-200,6,1,0,50,0,0
122182,312.5,6,1,0,50,1,0
122182,-200,6,1,0,50,0,0
123119,306.122448979592,6,1,0,50,1,8
124037,300,6,1,0,50,1,0
124037,-200,6,1,0,50,0,0
124937,295.566502463054,6,1,0,50,1,8
125823,291.26213592233,6,1,0,50,1,0
125823,-200,6,1,0,50,0,0
126696,289.855072463768,6,1,0,50,1,8
126985,-98.5714285714286,6,1,0,70,0,0
127565,285.714285714286,7,1,0,60,1,0
135565,-100,7,1,0,70,0,0
137565,-100,7,1,0,75,0,0
139565,-100,7,1,0,80,0,0
140565,-100,7,1,0,85,0,0
141565,-100,7,1,0,90,0,0
142565,-100,7,1,0,95,0,0
143565,-100,7,1,0,100,0,0
151565,-100,7,1,0,100,0,1
159565,-100,7,1,0,50,0,0

[HitObjects]
256,192,40247,5,4,0:0:0:0:
256,192,40497,1,0,0:0:0:0:
256,192,40747,1,0,0:0:0:0:
256,192,40997,1,0,0:0:0:0:
256,192,41247,1,0,0:0:0:0:
256,192,41497,1,0,0:0:0:0:
256,192,41747,1,0,0:0:0:0:
256,192,41997,1,0,0:0:0:0:
256,192,42122,1,0,0:0:0:0:
256,192,42247,1,0,0:0:0:0:
256,192,42497,1,0,0:0:0:0:
256,192,42747,1,0,0:0:0:0:
256,192,42997,1,0,0:0:0:0:
256,192,43247,1,0,0:0:0:0:
256,192,43497,1,0,0:0:0:0:
256,192,43622,1,0,0:0:0:0:
256,192,43872,1,0,0:0:0:0:
256,192,43934,1,0,0:0:0:0:
256,192,43997,1,0,0:0:0:0:
256,192,44122,1,0,0:0:0:0:
256,192,44247,1,0,0:0:0:0:
256,192,44497,1,0,0:0:0:0:
256,192,44747,1,0,0:0:0:0:
256,192,44997,1,0,0:0:0:0:
256,192,45247,1,0,0:0:0:0:
256,192,45497,1,0,0:0:0:0:
256,192,45747,1,0,0:0:0:0:
256,192,45997,1,0,0:0:0:0:
256,192,46122,1,0,0:0:0:0:
256,192,46247,1,0,0:0:0:0:
256,192,46497,1,0,0:0:0:0:
256,192,46747,1,0,0:0:0:0:
256,192,46997,1,0,0:0:0:0:
256,192,47247,1,0,0:0:0:0:
256,192,47434,1,8,0:0:0:0:
256,192,47497,1,0,0:0:0:0:
256,192,47622,1,0,0:0:0:0:
256,192,47872,1,0,0:0:0:0:
256,192,47997,1,8,0:0:0:0:
256,192,48059,1,8,0:0:0:0:
256,192,48122,1,8,0:0:0:0:
256,192,48247,1,0,0:0:0:0:
256,192,48497,1,0,0:0:0:0:
256,192,48747,1,8,0:0:0:0:
256,192,48997,1,0,0:0:0:0:
256,192,49247,1,0,0:0:0:0:
256,192,49497,1,0,0:0:0:0:
256,192,49747,1,8,0:0:0:0:
256,192,49997,1,0,0:0:0:0:
256,192,50122,1,0,0:0:0:0:
256,192,50247,1,0,0:0:0:0:
256,192,50497,1,0,0:0:0:0:
256,192,50747,1,8,0:0:0:0:
256,192,50997,1,0,0:0:0:0:
256,192,51247,1,0,0:0:0:0:
256,192,51497,1,8,0:0:0:0:
256,192,51622,1,0,0:0:0:0:
256,192,51747,1,8,0:0:0:0:
256,192,51809,1,0,0:0:0:0:
256,192,51872,1,0,0:0:0:0:
256,192,51997,1,8,0:0:0:0:
256,192,52122,1,0,0:0:0:0:
256,192,52247,1,0,0:0:0:0:
256,192,52497,1,0,0:0:0:0:
256,192,52747,1,8,0:0:0:0:
256,192,52997,1,0,0:0:0:0:
256,192,53247,1,0,0:0:0:0:
256,192,53497,1,0,0:0:0:0:
256,192,53747,1,8,0:0:0:0:
256,192,53997,1,0,0:0:0:0:
256,192,54122,1,0,0:0:0:0:
256,192,54247,1,0,0:0:0:0:
256,192,54497,1,0,0:0:0:0:
256,192,54747,1,8,0:0:0:0:
256,192,54934,1,0,0:0:0:0:
256,192,54997,1,8,0:0:0:0:
256,192,55122,1,8,0:0:0:0:
256,192,55247,1,0,0:0:0:0:
256,192,55309,1,0,0:0:0:0:
256,192,55372,1,0,0:0:0:0:
256,192,55497,1,0,0:0:0:0:
256,192,55622,1,8,0:0:0:0:
256,192,55747,1,0,0:0:0:0:
256,192,55872,1,0,0:0:0:0:
256,192,55997,1,8,0:0:0:0:
256,192,56059,1,8,0:0:0:0:
256,192,56122,1,8,0:0:0:0:
256,192,56247,1,4,0:0:0:0:
256,192,56497,1,0,0:0:0:0:
256,192,56622,1,8,0:0:0:0:
256,192,56872,1,8,0:0:0:0:
256,192,57122,1,8,0:0:0:0:
256,192,57247,1,0,0:0:0:0:
256,192,57372,1,8,0:0:0:0:
256,192,57497,1,0,0:0:0:0:
256,192,57622,1,8,0:0:0:0:
256,192,57872,1,8,0:0:0:0:
256,192,57997,1,0,0:0:0:0:
256,192,58122,1,0,0:0:0:0:
256,192,58247,1,0,0:0:0:0:
256,192,58372,1,8,0:0:0:0:
256,192,58622,1,8,0:0:0:0:
256,192,58872,1,8,0:0:0:0:
256,192,58997,1,0,0:0:0:0:
256,192,59122,1,8,0:0:0:0:
256,192,59247,1,0,0:0:0:0:
256,192,59497,1,0,0:0:0:0:
256,192,59622,1,8,0:0:0:0:
256,192,59872,1,8,0:0:0:0:
256,192,59934,1,8,0:0:0:0:
256,192,59997,1,0,0:0:0:0:
256,192,60122,1,8,0:0:0:0:
256,192,60247,1,0,0:0:0:0:
256,192,60497,1,0,0:0:0:0:
256,192,60622,1,8,0:0:0:0:
256,192,60872,1,8,0:0:0:0:
256,192,61122,1,8,0:0:0:0:
256,192,61247,1,0,0:0:0:0:
256,192,61372,1,8,0:0:0:0:
256,192,61497,1,0,0:0:0:0:
256,192,61622,1,8,0:0:0:0:
256,192,61872,1,8,0:0:0:0:
256,192,61997,1,0,0:0:0:0:
256,192,62122,1,0,0:0:0:0:
256,192,62247,1,0,0:0:0:0:
256,192,62372,1,8,0:0:0:0:
256,192,62622,1,8,0:0:0:0:
256,192,62872,1,8,0:0:0:0:
256,192,63122,1,8,0:0:0:0:
256,192,63247,1,0,0:0:0:0:
256,192,63372,1,8,0:0:0:0:
256,192,63434,1,0,0:0:0:0:
256,192,63497,1,0,0:0:0:0:
256,192,63622,1,8,0:0:0:0:
256,192,63747,1,0,0:0:0:0:
256,192,63809,1,0,0:0:0:0:
256,192,63872,1,0,0:0:0:0:
256,192,63997,1,8,0:0:0:0:
256,192,64247,1,0,0:0:0:0:
256,192,64497,1,0,0:0:0:0:
256,192,64622,1,8,0:0:0:0:
256,192,64872,1,8,0:0:0:0:
256,192,65122,1,8,0:0:0:0:
256,192,65247,1,0,0:0:0:0:
256,192,65372,1,8,0:0:0:0:
256,192,65497,1,0,0:0:0:0:
256,192,65622,1,8,0:0:0:0:
256,192,65872,1,8,0:0:0:0:
256,192,65997,1,0,0:0:0:0:
256,192,66122,1,0,0:0:0:0:
256,192,66247,1,0,0:0:0:0:
256,192,66372,1,8,0:0:0:0:
256,192,66497,1,0,0:0:0:0:
256,192,66622,1,8,0:0:0:0:
256,192,66872,1,8,0:0:0:0:
256,192,66997,1,0,0:0:0:0:
256,192,67122,1,8,0:0:0:0:
256,192,67247,1,0,0:0:0:0:
256,192,67497,1,8,0:0:0:0:
256,192,67622,1,0,0:0:0:0:
256,192,67747,1,8,0:0:0:0:
256,192,67809,1,0,0:0:0:0:
256,192,67872,1,0,0:0:0:0:
256,192,67997,1,8,0:0:0:0:
256,192,68122,1,8,0:0:0:0:
256,192,68247,1,0,0:0:0:0:
256,192,68497,1,0,0:0:0:0:
256,192,68622,1,8,0:0:0:0:
256,192,68872,1,8,0:0:0:0:
256,192,69122,1,8,0:0:0:0:
256,192,69247,1,0,0:0:0:0:
256,192,69372,1,8,0:0:0:0:
256,192,69497,1,0,0:0:0:0:
256,192,69622,1,8,0:0:0:0:
256,192,69872,1,8,0:0:0:0:
256,192,69997,1,0,0:0:0:0:
256,192,70122,1,0,0:0:0:0:
256,192,70247,1,0,0:0:0:0:
256,192,70372,1,8,0:0:0:0:
256,192,70622,1,8,0:0:0:0:
256,192,70747,1,0,0:0:0:0:
256,192,70872,1,8,0:0:0:0:
256,192,71122,1,8,0:0:0:0:
256,192,71247,1,0,0:0:0:0:
256,192,71309,1,0,0:0:0:0:
256,192,71372,1,0,0:0:0:0:
256,192,71497,1,0,0:0:0:0:
256,192,71622,1,8,0:0:0:0:
256,192,71684,1,8,0:0:0:0:
256,192,71747,1,0,0:0:0:0:
256,192,71872,1,0,0:0:0:0:
256,192,71997,1,8,0:0:0:0:
256,192,72059,1,8,0:0:0:0:
256,192,72122,1,8,0:0:0:0:
256,192,72247,1,4,0:0:0:0:
256,192,72747,1,4,0:0:0:0:
256,192,73247,1,0,0:0:0:0:
256,192,73434,1,0,0:0:0:0:
256,192,73622,1,0,0:0:0:0:
256,192,73747,1,8,0:0:0:0:
256,192,73913,1,8,0:0:0:0:
256,192,74080,1,8,0:0:0:0:
256,192,74247,1,4,0:0:0:0:
256,192,74747,1,4,0:0:0:0:
256,192,75247,1,0,0:0:0:0:
256,192,75434,1,8,0:0:0:0:
256,192,75622,1,8,0:0:0:0:
256,192,75747,1,0,0:0:0:0:
256,192,75913,1,0,0:0:0:0:
256,192,76080,1,8,0:0:0:0:
256,192,76247,1,0,0:0:0:0:
256,192,76434,1,0,0:0:0:0:
256,192,76622,1,0,0:0:0:0:
256,192,76684,1,0,0:0:0:0:
256,192,76747,1,8,0:0:0:0:
256,192,76934,1,8,0:0:0:0:
256,192,77122,1,8,0:0:0:0:
256,192,77184,1,8,0:0:0:0:
256,192,77247,1,0,0:0:0:0:
256,192,77413,1,0,0:0:0:0:
256,192,77580,1,0,0:0:0:0:
256,192,77663,1,0,0:0:0:0:
256,192,77747,1,8,0:0:0:0:
256,192,77913,1,8,0:0:0:0:
256,192,78080,1,8,0:0:0:0:
256,192,78163,1,8,0:0:0:0:
256,192,78247,1,0,0:0:0:0:
256,192,78413,1,8,0:0:0:0:
256,192,78580,1,8,0:0:0:0:
256,192,78747,1,0,0:0:0:0:
256,192,78913,1,8,0:0:0:0:
256,192,78997,1,8,0:0:0:0:
256,192,79080,1,8,0:0:0:0:
256,192,79247,1,0,0:0:0:0:
256,192,79413,1,8,0:0:0:0:
256,192,79497,1,0,0:0:0:0:
256,192,79663,1,0,0:0:0:0:
256,192,79747,1,8,0:0:0:0:
256,192,79913,1,0,0:0:0:0:
256,192,79997,1,0,0:0:0:0:
256,192,80080,1,8,0:0:0:0:
256,192,80163,1,8,0:0:0:0:
256,192,80247,1,0,0:0:0:0:
256,192,80580,1,0,0:0:0:0:
256,192,80747,1,8,0:0:0:0:
256,192,80913,1,0,0:0:0:0:
256,192,80997,1,0,0:0:0:0:
256,192,81080,1,8,0:0:0:0:
256,192,81247,1,0,0:0:0:0:
256,192,81413,1,8,0:0:0:0:
256,192,81580,1,0,0:0:0:0:
256,192,81663,1,8,0:0:0:0:
256,192,81830,1,0,0:0:0:0:
256,192,81913,1,0,0:0:0:0:
256,192,82080,1,8,0:0:0:0:
256,192,82247,1,0,0:0:0:0:
256,192,82580,1,0,0:0:0:0:
256,192,82747,1,8,0:0:0:0:
256,192,82913,1,0,0:0:0:0:
256,192,83080,1,8,0:0:0:0:
256,192,83163,1,8,0:0:0:0:
256,192,83247,1,0,0:0:0:0:
256,192,83413,1,8,0:0:0:0:
256,192,83580,1,0,0:0:0:0:
256,192,83663,1,8,0:0:0:0:
256,192,83747,1,0,0:0:0:0:
256,192,83913,1,8,0:0:0:0:
256,192,84080,1,0,0:0:0:0:
256,192,84163,1,0,0:0:0:0:
256,192,84247,1,0,0:0:0:0:
256,192,84580,1,0,0:0:0:0:
256,192,84747,1,8,0:0:0:0:
256,192,84913,1,0,0:0:0:0:
256,192,84997,1,0,0:0:0:0:
256,192,85080,1,0,0:0:0:0:
256,192,85247,1,8,0:0:0:0:
256,192,85413,1,8,0:0:0:0:
256,192,85580,1,0,0:0:0:0:
256,192,85663,1,8,0:0:0:0:
256,192,85830,1,0,0:0:0:0:
256,192,85913,1,8,0:0:0:0:
256,192,86080,1,0,0:0:0:0:
256,192,86247,1,0,0:0:0:0:
256,192,86580,1,0,0:0:0:0:
256,192,86747,1,8,0:0:0:0:
256,192,86830,1,0,0:0:0:0:
256,192,86913,1,8,0:0:0:0:
256,192,87080,1,0,0:0:0:0:
256,192,87247,1,8,0:0:0:0:
256,192,87330,1,8,0:0:0:0:
256,192,87413,1,0,0:0:0:0:
256,192,87580,1,0,0:0:0:0:
256,192,87663,1,8,0:0:0:0:
256,192,87746,1,0,0:0:0:0:
256,192,87830,1,0,0:0:0:0:
256,192,87913,1,8,0:0:0:0:
256,192,88080,1,8,0:0:0:0:
256,192,88246,1,0,0:0:0:0:
256,192,88580,1,8,0:0:0:0:
256,192,88746,1,0,0:0:0:0:
256,192,88830,1,8,0:0:0:0:
256,192,88996,1,8,0:0:0:0:
256,192,89080,1,0,0:0:0:0:
256,192,89246,1,8,0:0:0:0:
256,192,89413,1,8,0:0:0:0:
256,192,89580,1,0,0:0:0:0:
256,192,89746,1,0,0:0:0:0:
256,192,89830,1,8,0:0:0:0:
256,192,89913,1,0,0:0:0:0:
256,192,90080,1,8,0:0:0:0:
256,192,90246,1,0,0:0:0:0:
256,192,90330,1,0,0:0:0:0:
256,192,90413,1,0,0:0:0:0:
256,192,90580,1,8,0:0:0:0:
256,192,90746,1,0,0:0:0:0:
256,192,90830,1,8,0:0:0:0:
256,192,90996,1,8,0:0:0:0:
256,192,91080,1,0,0:0:0:0:
256,192,91246,1,8,0:0:0:0:
256,192,91413,1,0,0:0:0:0:
256,192,91496,1,8,0:0:0:0:
256,192,91580,1,8,0:0:0:0:
256,192,91746,1,8,0:0:0:0:
256,192,91913,1,0,0:0:0:0:
256,192,91996,1,0,0:0:0:0:
256,192,92080,1,8,0:0:0:0:
256,192,92246,1,0,0:0:0:0:
256,192,92580,1,8,0:0:0:0:
256,192,92746,1,8,0:0:0:0:
256,192,92830,1,0,0:0:0:0:
256,192,92913,1,8,0:0:0:0:
256,192,93080,1,0,0:0:0:0:
256,192,93163,1,0,0:0:0:0:
256,192,93246,1,8,0:0:0:0:
256,192,93413,1,8,0:0:0:0:
256,192,93580,1,0,0:0:0:0:
256,192,93746,1,8,0:0:0:0:
256,192,93913,1,8,0:0:0:0:
256,192,93996,1,8,0:0:0:0:
256,192,94080,1,8,0:0:0:0:
256,192,94246,1,0,0:0:0:0:
256,192,94413,1,8,0:0:0:0:
256,192,94496,1,0,0:0:0:0:
256,192,94663,1,0,0:0:0:0:
256,192,94746,1,8,0:0:0:0:
256,192,94830,1,8,0:0:0:0:
256,192,94913,1,0,0:0:0:0:
256,192,95080,1,8,0:0:0:0:
256,192,95246,1,0,0:0:0:0:
256,192,95330,1,0,0:0:0:0:
256,192,95413,1,0,0:0:0:0:
256,192,95496,1,0,0:0:0:0:
256,192,95580,1,8,0:0:0:0:
256,192,95746,1,0,0:0:0:0:
256,192,95830,1,0,0:0:0:0:
256,192,95913,1,8,0:0:0:0:
256,192,96246,1,4,0:0:0:0:
256,192,96496,1,8,0:0:0:0:
256,192,96580,1,0,0:0:0:0:
256,192,96746,1,8,0:0:0:0:
256,192,96913,1,0,0:0:0:0:
256,192,96996,1,8,0:0:0:0:
256,192,97080,1,0,0:0:0:0:
256,192,97246,1,8,0:0:0:0:
256,192,97496,1,8,0:0:0:0:
256,192,97580,1,0,0:0:0:0:
256,192,97663,1,0,0:0:0:0:
256,192,97830,1,8,0:0:0:0:
256,192,97913,1,0,0:0:0:0:
256,192,98080,1,8,0:0:0:0:
256,192,98246,1,0,0:0:0:0:
256,192,98496,1,0,0:0:0:0:
256,192,98580,1,8,0:0:0:0:
256,192,98746,1,0,0:0:0:0:
256,192,98913,1,8,0:0:0:0:
256,192,98996,1,0,0:0:0:0:
256,192,99080,1,8,0:0:0:0:
256,192,99246,1,0,0:0:0:0:
256,192,99496,1,0,0:0:0:0:
256,192,99580,1,0,0:0:0:0:
256,192,99746,1,0,0:0:0:0:
256,192,99913,1,8,0:0:0:0:
256,192,99996,1,0,0:0:0:0:
256,192,100080,1,8,0:0:0:0:
256,192,100163,1,8,0:0:0:0:
256,192,100246,1,0,0:0:0:0:
256,192,100496,1,8,0:0:0:0:
256,192,100580,1,0,0:0:0:0:
256,192,100746,1,8,0:0:0:0:
256,192,100913,1,0,0:0:0:0:
256,192,101080,1,8,0:0:0:0:
256,192,101163,1,8,0:0:0:0:
256,192,101246,1,0,0:0:0:0:
256,192,101413,1,8,0:0:0:0:
256,192,101580,1,0,0:0:0:0:
256,192,101663,1,8,0:0:0:0:
256,192,101830,1,0,0:0:0:0:
256,192,101913,1,8,0:0:0:0:
256,192,101996,1,8,0:0:0:0:
256,192,102080,1,0,0:0:0:0:
256,192,102246,1,0,0:0:0:0:
256,192,102496,1,8,0:0:0:0:
256,192,102580,1,0,0:0:0:0:
256,192,102746,1,8,0:0:0:0:
256,192,102913,1,0,0:0:0:0:
256,192,102996,1,0,0:0:0:0:
256,192,103080,1,8,0:0:0:0:
256,192,103246,1,0,0:0:0:0:
256,192,103330,1,0,0:0:0:0:
256,192,103413,1,0,0:0:0:0:
256,192,103580,1,8,0:0:0:0:
256,192,103746,1,0,0:0:0:0:
256,192,103830,1,8,0:0:0:0:
256,192,103996,1,0,0:0:0:0:
256,192,104080,1,8,0:0:0:0:
256,192,104163,1,8,0:0:0:0:
256,192,104246,1,0,0:0:0:0:
256,192,104496,1,8,0:0:0:0:
256,192,104580,1,0,0:0:0:0:
256,192,104746,1,8,0:0:0:0:
256,192,104830,1,8,0:0:0:0:
256,192,104913,1,0,0:0:0:0:
256,192,105080,1,8,0:0:0:0:
256,192,105246,1,0,0:0:0:0:
256,192,105330,1,0,0:0:0:0:
256,192,105413,1,8,0:0:0:0:
256,192,105580,1,0,0:0:0:0:
256,192,105746,1,8,0:0:0:0:
256,192,105830,1,0,0:0:0:0:
256,192,105996,1,0,0:0:0:0:
256,192,106080,1,8,0:0:0:0:
256,192,106246,1,0,0:0:0:0:
256,192,106496,1,8,0:0:0:0:
256,192,106580,1,0,0:0:0:0:
256,192,106746,1,8,0:0:0:0:
256,192,106913,1,0,0:0:0:0:
256,192,106996,1,8,0:0:0:0:
256,192,107080,1,0,0:0:0:0:
256,192,107246,1,8,0:0:0:0:
256,192,107413,1,0,0:0:0:0:
256,192,107496,1,0,0:0:0:0:
256,192,107580,1,8,0:0:0:0:
256,192,107663,1,0,0:0:0:0:
256,192,107830,1,0,0:0:0:0:
256,192,107913,1,8,0:0:0:0:
256,192,108080,1,8,0:0:0:0:
256,192,108163,1,8,0:0:0:0:
256,192,108246,1,0,0:0:0:0:
256,192,108496,1,0,0:0:0:0:
256,192,108580,1,0,0:0:0:0:
256,192,108746,1,8,0:0:0:0:
256,192,108913,1,0,0:0:0:0:
256,192,109080,1,8,0:0:0:0:
256,192,109163,1,0,0:0:0:0:
256,192,109246,1,0,0:0:0:0:
256,192,109413,1,8,0:0:0:0:
256,192,109580,1,0,0:0:0:0:
256,192,109746,1,8,0:0:0:0:
256,192,109830,1,0,0:0:0:0:
256,192,109996,1,0,0:0:0:0:
256,192,110080,1,8,0:0:0:0:
256,192,110246,1,0,0:0:0:0:
256,192,110413,1,8,0:0:0:0:
256,192,110496,1,8,0:0:0:0:
256,192,110580,1,0,0:0:0:0:
256,192,110746,1,8,0:0:0:0:
256,192,110913,1,0,0:0:0:0:
256,192,110996,1,8,0:0:0:0:
256,192,111163,1,8,0:0:0:0:
256,192,111246,1,0,0:0:0:0:
256,192,111330,1,0,0:0:0:0:
256,192,111413,1,0,0:0:0:0:
256,192,111580,1,8,0:0:0:0:
256,192,111746,1,0,0:0:0:0:
256,192,111830,1,0,0:0:0:0:
256,192,111913,1,8,0:0:0:0:
256,192,111996,1,8,0:0:0:0:
256,192,112080,1,8,0:0:0:0:
256,192,112163,1,8,0:0:0:0:
256,192,112246,1,0,0:0:0:0:
256,192,120247,5,0,0:0:0:0:
256,192,120736,1,0,0:0:0:0:
256,192,121225,12,0,126840,0:0:0:0:
256,192,127275,5,8,0:0:0:0:
256,192,127348,1,8,0:0:0:0:
256,192,127420,1,8,0:0:0:0:
256,192,127493,1,8,0:0:0:0:
256,192,127565,1,0,0:0:0:0:
256,192,127850,1,0,0:0:0:0:
256,192,128136,1,0,0:0:0:0:
256,192,128422,1,0,0:0:0:0:
256,192,128565,1,0,0:0:0:0:
256,192,128850,1,0,0:0:0:0:
256,192,129136,1,0,0:0:0:0:
256,192,129422,1,0,0:0:0:0:
256,192,129565,1,0,0:0:0:0:
256,192,129850,1,0,0:0:0:0:
256,192,130136,1,0,0:0:0:0:
256,192,130422,1,0,0:0:0:0:
256,192,130565,1,0,0:0:0:0:
256,192,130850,1,0,0:0:0:0:
256,192,131136,1,0,0:0:0:0:
256,192,131422,1,8,0:0:0:0:
256,192,131565,1,0,0:0:0:0:
256,192,131850,1,0,0:0:0:0:
256,192,132136,1,0,0:0:0:0:
256,192,132422,1,0,0:0:0:0:
256,192,132565,1,0,0:0:0:0:
256,192,132850,1,0,0:0:0:0:
256,192,133136,1,0,0:0:0:0:
256,192,133422,1,0,0:0:0:0:
256,192,133493,1,8,0:0:0:0:
256,192,133565,1,0,0:0:0:0:
256,192,133707,1,8,0:0:0:0:
256,192,133850,1,0,0:0:0:0:
256,192,134136,1,0,0:0:0:0:
256,192,134422,1,0,0:0:0:0:
256,192,134565,1,0,0:0:0:0:
256,192,134850,1,0,0:0:0:0:
256,192,134993,1,8,0:0:0:0:
256,192,135136,1,0,0:0:0:0:
256,192,135279,1,0,0:0:0:0:
256,192,135422,1,8,0:0:0:0:
256,192,135493,1,8,0:0:0:0:
256,192,135565,1,0,0:0:0:0:
256,192,135850,1,0,0:0:0:0:
256,192,136136,1,0,0:0:0:0:
256,192,136422,1,0,0:0:0:0:
256,192,136565,1,0,0:0:0:0:
256,192,136850,1,0,0:0:0:0:
256,192,137136,1,0,0:0:0:0:
256,192,137279,1,8,0:0:0:0:
256,192,137422,1,0,0:0:0:0:
256,192,137493,1,8,0:0:0:0:
256,192,137565,1,0,0:0:0:0:
256,192,137850,1,0,0:0:0:0:
256,192,138136,1,0,0:0:0:0:
256,192,138279,1,8,0:0:0:0:
256,192,138422,1,0,0:0:0:0:
256,192,138565,1,0,0:0:0:0:
256,192,138850,1,0,0:0:0:0:
256,192,139136,1,0,0:0:0:0:
256,192,139279,1,0,0:0:0:0:
256,192,139422,1,8,0:0:0:0:
256,192,139565,1,0,0:0:0:0:
256,192,139636,1,8,0:0:0:0:
256,192,139707,1,8,0:0:0:0:
256,192,139850,1,8,0:0:0:0:
256,192,140136,1,0,0:0:0:0:
256,192,140422,1,8,0:0:0:0:
256,192,140565,1,0,0:0:0:0:
256,192,140850,1,0,0:0:0:0:
256,192,140922,1,8,0:0:0:0:
256,192,140993,1,0,0:0:0:0:
256,192,141136,1,0,0:0:0:0:
256,192,141279,1,8,0:0:0:0:
256,192,141422,1,8,0:0:0:0:
256,192,141493,1,8,0:0:0:0:
256,192,141565,1,0,0:0:0:0:
256,192,141779,1,0,0:0:0:0:
256,192,141850,1,8,0:0:0:0:
256,192,141993,1,8,0:0:0:0:
256,192,142136,1,0,0:0:0:0:
256,192,142279,1,0,0:0:0:0:
256,192,142422,1,8,0:0:0:0:
256,192,142565,1,0,0:0:0:0:
256,192,142850,1,8,0:0:0:0:
256,192,142922,1,8,0:0:0:0:
256,192,142993,1,0,0:0:0:0:
256,192,143136,1,8,0:0:0:0:
256,192,143279,1,0,0:0:0:0:
256,192,143350,1,0,0:0:0:0:
256,192,143422,1,8,0:0:0:0:
256,192,143493,1,8,0:0:0:0:
256,192,143565,1,0,0:0:0:0:
256,192,143707,1,8,0:0:0:0:
256,192,143779,1,0,0:0:0:0:
256,192,143850,1,0,0:0:0:0:
256,192,143993,1,8,0:0:0:0:
256,192,144136,1,0,0:0:0:0:
256,192,144207,1,8,0:0:0:0:
256,192,144279,1,8,0:0:0:0:
256,192,144422,1,0,0:0:0:0:
256,192,144565,1,0,0:0:0:0:
256,192,144850,1,8,0:0:0:0:
256,192,144993,1,0,0:0:0:0:
256,192,145065,1,0,0:0:0:0:
256,192,145136,1,0,0:0:0:0:
256,192,145279,1,8,0:0:0:0:
256,192,145422,1,0,0:0:0:0:
256,192,145493,1,8,0:0:0:0:
256,192,145565,1,0,0:0:0:0:
256,192,145707,1,8,0:0:0:0:
256,192,145850,1,0,0:0:0:0:
256,192,145993,1,8,0:0:0:0:
256,192,146065,1,0,0:0:0:0:
256,192,146136,1,0,0:0:0:0:
256,192,146279,1,8,0:0:0:0:
256,192,146350,1,8,0:0:0:0:
256,192,146422,1,0,0:0:0:0:
256,192,146565,1,0,0:0:0:0:
256,192,146850,1,0,0:0:0:0:
256,192,146993,1,8,0:0:0:0:
256,192,147136,1,0,0:0:0:0:
256,192,147207,1,0,0:0:0:0:
256,192,147279,1,8,0:0:0:0:
256,192,147422,1,8,0:0:0:0:
256,192,147565,1,0,0:0:0:0:
256,192,147636,1,8,0:0:0:0:
256,192,147707,1,0,0:0:0:0:
256,192,147779,1,0,0:0:0:0:
256,192,147850,1,8,0:0:0:0:
256,192,147993,1,8,0:0:0:0:
256,192,148136,1,0,0:0:0:0:
256,192,148279,1,8,0:0:0:0:
256,192,148350,1,8,0:0:0:0:
256,192,148422,1,0,0:0:0:0:
256,192,148565,1,0,0:0:0:0:
256,192,148850,1,8,0:0:0:0:
256,192,148993,1,0,0:0:0:0:
256,192,149065,1,0,0:0:0:0:
256,192,149136,1,0,0:0:0:0:
256,192,149279,1,8,0:0:0:0:
256,192,149422,1,0,0:0:0:0:
256,192,149493,1,8,0:0:0:0:
256,192,149565,1,0,0:0:0:0:
256,192,149707,1,8,0:0:0:0:
256,192,149850,1,0,0:0:0:0:
256,192,149922,1,8,0:0:0:0:
256,192,150065,1,8,0:0:0:0:
256,192,150136,1,0,0:0:0:0:
256,192,150279,1,8,0:0:0:0:
256,192,150350,1,8,0:0:0:0:
256,192,150422,1,0,0:0:0:0:
256,192,150565,1,0,0:0:0:0:
256,192,150850,1,0,0:0:0:0:
256,192,150993,1,8,0:0:0:0:
256,192,151065,1,8,0:0:0:0:
256,192,151136,1,0,0:0:0:0:
256,192,151279,1,0,0:0:0:0:
256,192,151350,1,8,0:0:0:0:
256,192,151422,1,8,0:0:0:0:
256,192,151493,1,8,0:0:0:0:
256,192,151565,1,0,0:0:0:0:
256,192,151850,1,8,0:0:0:0:
256,192,151993,1,8,0:0:0:0:
256,192,152065,1,8,0:0:0:0:
256,192,152136,1,0,0:0:0:0:
256,192,152279,1,0,0:0:0:0:
256,192,152422,1,8,0:0:0:0:
256,192,152565,1,0,0:0:0:0:
256,192,152636,1,0,0:0:0:0:
256,192,152707,1,0,0:0:0:0:
256,192,152850,1,8,0:0:0:0:
256,192,152993,1,0,0:0:0:0:
256,192,153065,1,8,0:0:0:0:
256,192,153207,1,8,0:0:0:0:
256,192,153279,1,0,0:0:0:0:
256,192,153422,1,0,0:0:0:0:
256,192,153493,1,8,0:0:0:0:
256,192,153565,1,0,0:0:0:0:
256,192,153707,1,0,0:0:0:0:
256,192,153850,1,8,0:0:0:0:
256,192,153993,1,0,0:0:0:0:
256,192,154065,1,0,0:0:0:0:
256,192,154136,1,0,0:0:0:0:
256,192,154279,1,0,0:0:0:0:
256,192,154422,1,8,0:0:0:0:
256,192,154493,1,8,0:0:0:0:
256,192,154565,1,0,0:0:0:0:
256,192,154707,1,8,0:0:0:0:
256,192,154850,1,0,0:0:0:0:
256,192,154922,1,0,0:0:0:0:
256,192,154993,1,8,0:0:0:0:
256,192,155136,1,0,0:0:0:0:
256,192,155279,1,8,0:0:0:0:
256,192,155350,1,0,0:0:0:0:
256,192,155422,1,0,0:0:0:0:
256,192,155493,1,8,0:0:0:0:
256,192,155565,1,0,0:0:0:0:
256,192,155850,1,8,0:0:0:0:
256,192,155993,1,8,0:0:0:0:
256,192,156065,1,8,0:0:0:0:
256,192,156136,1,0,0:0:0:0:
256,192,156279,1,0,0:0:0:0:
256,192,156422,1,8,0:0:0:0:
256,192,156565,1,0,0:0:0:0:
256,192,156636,1,8,0:0:0:0:
256,192,156779,1,8,0:0:0:0:
256,192,156850,1,0,0:0:0:0:
256,192,156993,1,8,0:0:0:0:
256,192,157065,1,0,0:0:0:0:
256,192,157136,1,0,0:0:0:0:
256,192,157279,1,0,0:0:0:0:
256,192,157422,1,8,0:0:0:0:
256,192,157493,1,8,0:0:0:0:
256,192,157565,1,0,0:0:0:0:
256,192,157707,1,0,0:0:0:0:
256,192,157850,1,8,0:0:0:0:
256,192,157922,1,8,0:0:0:0:
256,192,158065,1,8,0:0:0:0:
256,192,158136,1,0,0:0:0:0:
256,192,158279,1,8,0:0:0:0:
256,192,158422,1,0,0:0:0:0:
256,192,158493,1,8,0:0:0:0:
256,192,158565,1,0,0:0:0:0:
256,192,158707,1,8,0:0:0:0:
256,192,158850,1,0,0:0:0:0:
256,192,158922,1,8,0:0:0:0:
256,192,158993,1,8,0:0:0:0:
256,192,159136,1,0,0:0:0:0:
256,192,159207,1,0,0:0:0:0:
256,192,159279,1,8,0:0:0:0:
256,192,159350,1,8,0:0:0:0:
256,192,159422,1,8,0:0:0:0:
256,192,159493,1,8,0:0:0:0:
