osu file format v14

[General]
AudioFilename: audio.mp3
AudioLeadIn: 0
PreviewTime: 96246
Countdown: 0
SampleSet: Normal
StackLeniency: 0.2
Mode: 1
LetterboxInBreaks: 0
WidescreenStoryboard: 1

[Editor]
Bookmarks: 40247,56247,72247
DistanceSpacing: 4
BeatDivisor: 2
GridSize: 32
TimelineZoom: 2.900001

[Metadata]
Title:theyaremanycolors
TitleUnicode:theyaremanycolors
Artist:Frums
ArtistUnicode:Frums
Creator:Genjuro
Version:Vulkin's Kantan
Source:
Tags:bms bofu2017 legenda est a semicolon breakcore densecore frenchcore speedcore psycore hard rave dark psytrance trance experimental vulkin nifty [_chichinya_] _yu68 theyaremanycolours
BeatmapID:2112539
BeatmapSetID:984900

[Difficulty]
HPDrainRate:8
CircleSize:7
OverallDifficulty:3
ApproachRate:10
SliderMultiplier:1.4
SliderTickRate:1

[Events]
//Background and Video events
0,0,"bg.jpg",0,0
//Break Periods
2,112446,119797
//Storyboard Layer 0 (Background)
//Storyboard Layer 1 (Fail)
//Storyboard Layer 2 (Pass)
//Storyboard Layer 3 (Foreground)
//Storyboard Layer 4 (Overlay)
//Storyboard Sound Samples

[TimingPoints]
247,250,4,1,0,10,1,0
247,-153.846153846154,4,1,0,10,0,0
40247,-111.111111111111,4,1,0,50,0,0
55247,-111.111111111111,4,1,0,65,0,0
56247,-100,4,1,0,80,0,1
70247,-100,4,1,0,85,0,1
71247,-100,4,1,0,90,0,1
71497,-102.564102564103,4,1,0,90,0,1
71747,-105.263157894737,4,1,0,90,0,1
72247,-111.111111111111,4,1,0,55,0,0
74247,-111.111111111111,4,1,0,50,0,0
75747,-114.285714285714,4,1,0,50,0,0
76247,-117.647058823529,4,1,0,50,0,0
76622,-117.647058823529,4,1,0,55,0,0
77122,-125,4,1,0,60,0,0
77580,-125,4,1,0,65,0,0
78080,-133.333333333333,4,1,0,70,0,0
78580,-135.593220338983,4,1,0,70,0,0
78913,-137.931034482759,4,1,0,70,0,0
79247,-142.857142857143,4,1,0,80,0,0
79913,-148.148148148148,4,1,0,80,0,0
80247,333.333333333333,6,1,0,60,1,0
80247,-111.111111111111,6,1,0,60,0,0
84497,-111.111111111111,6,1,0,50,0,0
88246,-111.111111111111,6,1,0,60,0,0
94913,-108.695652173913,6,1,0,60,0,0
95246,-106.382978723404,6,1,0,60,0,0
95580,-104.166666666667,6,1,0,60,0,0
95913,-102.040816326531,6,1,0,60,0,0
96246,-100,6,1,0,80,0,1
111246,-104.166666666667,6,1,0,80,0,1
111580,-106.382978723404,6,1,0,80,0,1
111913,-108.695652173913,6,1,0,80,0,1
112246,-111.111111111111,6,1,0,80,0,0
114246,-111.111111111111,6,1,0,65,0,0
116246,-111.111111111111,6,1,0,60,0,0
118246,-111.111111111111,6,1,0,55,0,0
120247,326.086956521739,6,1,0,50,1,0
121225,319.148936170213,6,1,0,50,1,8
122182,312.5,6,1,0,50,1,0
123119,306.122448979592,6,1,0,50,1,8
124037,300,6,1,0,50,1,0
124937,295.566502463054,6,1,0,50,1,8
125823,291.26213592233,6,1,0,50,1,0
126696,289.855072463768,6,1,0,50,1,8
126985,-100,6,1,0,70,0,8
127565,285.714285714286,7,1,0,60,1,0
135565,-111.111111111111,7,1,0,70,0,0
137565,-111.111111111111,7,1,0,75,0,0
139565,-111.111111111111,7,1,0,80,0,0
140565,-111.111111111111,7,1,0,85,0,0
141565,-111.111111111111,7,1,0,90,0,0
142565,-111.111111111111,7,1,0,95,0,0
143565,-111.111111111111,7,1,0,100,0,1
159565,-111.111111111111,7,1,0,50,0,0

[HitObjects]
256,192,40247,5,4,0:0:0:0:
256,192,41247,1,0,0:0:0:0:
256,192,41747,1,0,0:0:0:0:
256,192,41997,1,0,0:0:0:0:
256,192,42247,1,0,0:0:0:0:
256,192,43247,1,0,0:0:0:0:
256,192,43997,1,0,0:0:0:0:
256,192,44247,1,0,0:0:0:0:
256,192,45247,1,0,0:0:0:0:
256,192,45747,1,0,0:0:0:0:
256,192,45997,1,0,0:0:0:0:
256,192,46247,1,0,0:0:0:0:
256,192,47247,1,0,0:0:0:0:
256,192,47997,1,8,0:0:0:0:
256,192,48247,1,0,0:0:0:0:
256,192,49247,1,0,0:0:0:0:
256,192,49747,1,0,0:0:0:0:
256,192,49997,1,0,0:0:0:0:
256,192,50247,1,0,0:0:0:0:
256,192,51247,1,0,0:0:0:0:
256,192,51997,1,0,0:0:0:0:
256,192,52247,1,8,0:0:0:0:
256,192,53247,1,0,0:0:0:0:
256,192,53747,1,0,0:0:0:0:
256,192,53997,1,0,0:0:0:0:
256,192,54247,1,0,0:0:0:0:
256,192,54747,1,0,0:0:0:0:
256,192,55247,1,8,0:0:0:0:
256,192,55497,1,8,0:0:0:0:
256,192,55747,1,0,0:0:0:0:
256,192,56247,1,12,0:0:0:0:
256,192,57247,1,0,0:0:0:0:
256,192,57747,1,8,0:0:0:0:
256,192,58247,1,0,0:0:0:0:
256,192,59247,1,0,0:0:0:0:
256,192,59497,1,0,0:0:0:0:
256,192,59747,1,8,0:0:0:0:
256,192,60247,1,0,0:0:0:0:
256,192,61247,1,0,0:0:0:0:
256,192,61747,1,8,0:0:0:0:
256,192,62247,1,0,0:0:0:0:
256,192,63247,1,0,0:0:0:0:
256,192,63497,1,8,0:0:0:0:
256,192,63747,1,0,0:0:0:0:
256,192,64247,1,8,0:0:0:0:
256,192,65247,1,0,0:0:0:0:
256,192,65747,1,8,0:0:0:0:
256,192,66247,1,0,0:0:0:0:
256,192,67247,1,0,0:0:0:0:
256,192,67747,1,8,0:0:0:0:
256,192,67997,1,0,0:0:0:0:
256,192,68247,1,8,0:0:0:0:
256,192,69247,1,0,0:0:0:0:
256,192,69747,1,8,0:0:0:0:
256,192,70247,1,0,0:0:0:0:
256,192,71247,1,8,0:0:0:0:
256,192,71497,1,0,0:0:0:0:
256,192,71747,1,0,0:0:0:0:
256,192,72247,1,12,0:0:0:0:
256,192,73247,1,0,0:0:0:0:
256,192,73747,1,0,0:0:0:0:
256,192,74247,1,8,0:0:0:0:
256,192,75247,1,8,0:0:0:0:
256,192,75747,1,0,0:0:0:0:
256,192,76247,1,8,0:0:0:0:
256,192,77247,1,8,0:0:0:0:
256,192,78247,1,8,0:0:0:0:
256,192,78580,1,8,0:0:0:0:
256,192,78913,1,0,0:0:0:0:
256,192,79247,1,8,0:0:0:0:
256,192,79913,1,8,0:0:0:0:
256,192,80247,1,4,0:0:0:0:
256,192,81580,1,0,0:0:0:0:
256,192,82247,1,0,0:0:0:0:
256,192,83580,1,8,0:0:0:0:
256,192,84247,1,0,0:0:0:0:
256,192,85580,1,0,0:0:0:0:
256,192,86247,1,0,0:0:0:0:
256,192,86913,1,8,0:0:0:0:
256,192,87247,1,0,0:0:0:0:
256,192,87580,1,8,0:0:0:0:
256,192,87913,1,8,0:0:0:0:
256,192,88246,1,0,0:0:0:0:
256,192,89580,1,0,0:0:0:0:
256,192,90246,1,0,0:0:0:0:
256,192,91580,1,8,0:0:0:0:
256,192,92246,1,0,0:0:0:0:
256,192,93580,1,0,0:0:0:0:
256,192,94246,1,8,0:0:0:0:
256,192,94913,1,0,0:0:0:0:
256,192,95246,1,8,0:0:0:0:
256,192,95580,1,8,0:0:0:0:
256,192,95913,1,0,0:0:0:0:
256,192,96246,1,12,0:0:0:0:
256,192,96913,1,0,0:0:0:0:
256,192,97580,1,8,0:0:0:0:
256,192,98246,1,0,0:0:0:0:
256,192,99246,1,8,0:0:0:0:
256,192,99580,1,8,0:0:0:0:
256,192,100246,1,0,0:0:0:0:
256,192,100913,1,0,0:0:0:0:
256,192,101580,1,8,0:0:0:0:
256,192,102246,1,0,0:0:0:0:
256,192,103246,1,0,0:0:0:0:
256,192,103580,1,8,0:0:0:0:
256,192,103913,1,0,0:0:0:0:
256,192,104246,1,8,0:0:0:0:
256,192,104913,1,0,0:0:0:0:
256,192,105580,1,8,0:0:0:0:
256,192,106246,1,0,0:0:0:0:
256,192,107246,1,0,0:0:0:0:
256,192,107580,1,8,0:0:0:0:
256,192,107913,1,0,0:0:0:0:
256,192,108246,1,8,0:0:0:0:
256,192,108913,1,8,0:0:0:0:
256,192,109580,1,0,0:0:0:0:
256,192,110246,1,8,0:0:0:0:
256,192,111246,1,0,0:0:0:0:
256,192,111580,1,0,0:0:0:0:
256,192,111913,1,0,0:0:0:0:
256,192,112246,1,12,0:0:0:0:
256,192,120247,5,0,0:0:0:0:
256,192,120736,1,0,0:0:0:0:
256,192,121225,12,0,126985,0:0:0:0:
256,192,127565,5,0,0:0:0:0:
256,192,128136,1,0,0:0:0:0:
256,192,128565,1,0,0:0:0:0:
256,192,129565,1,0,0:0:0:0:
256,192,130136,1,0,0:0:0:0:
256,192,130565,1,0,0:0:0:0:
256,192,131565,1,8,0:0:0:0:
256,192,131850,1,8,0:0:0:0:
256,192,132136,1,8,0:0:0:0:
256,192,132565,1,0,0:0:0:0:
256,192,133565,1,8,0:0:0:0:
256,192,133850,1,8,0:0:0:0:
256,192,134136,1,8,0:0:0:0:
256,192,134565,1,0,0:0:0:0:
256,192,135565,1,0,0:0:0:0:
256,192,136136,1,0,0:0:0:0:
256,192,136565,1,8,0:0:0:0:
256,192,137565,1,0,0:0:0:0:
256,192,138136,1,0,0:0:0:0:
256,192,138565,1,8,0:0:0:0:
256,192,139565,1,0,0:0:0:0:
256,192,139850,1,0,0:0:0:0:
256,192,140136,1,0,0:0:0:0:
256,192,140565,1,8,0:0:0:0:
256,192,141565,1,0,0:0:0:0:
256,192,141850,1,0,0:0:0:0:
256,192,142136,1,0,0:0:0:0:
256,192,142565,1,8,0:0:0:0:
256,192,142993,1,8,0:0:0:0:
256,192,143279,1,8,0:0:0:0:
256,192,143565,1,0,0:0:0:0:
256,192,144136,1,0,0:0:0:0:
256,192,144565,1,8,0:0:0:0:
256,192,145565,1,0,0:0:0:0:
256,192,145850,1,0,0:0:0:0:
256,192,146136,1,0,0:0:0:0:
256,192,146565,1,8,0:0:0:0:
256,192,147565,1,8,0:0:0:0:
256,192,148136,1,0,0:0:0:0:
256,192,148565,1,8,0:0:0:0:
256,192,149565,1,8,0:0:0:0:
256,192,150136,1,0,0:0:0:0:
256,192,150565,1,8,0:0:0:0:
256,192,150993,1,0,0:0:0:0:
256,192,151279,1,0,0:0:0:0:
256,192,151565,1,8,0:0:0:0:
256,192,152136,1,8,0:0:0:0:
256,192,152565,1,0,0:0:0:0:
256,192,152993,1,0,0:0:0:0:
256,192,153279,1,0,0:0:0:0:
256,192,153565,1,8,0:0:0:0:
256,192,154136,1,8,0:0:0:0:
256,192,154565,1,0,0:0:0:0:
256,192,154993,1,0,0:0:0:0:
256,192,155279,1,0,0:0:0:0:
256,192,155565,1,8,0:0:0:0:
256,192,155850,1,8,0:0:0:0:
256,192,156136,1,0,0:0:0:0:
256,192,156565,1,0,0:0:0:0:
256,192,157279,1,0,0:0:0:0:
256,192,157565,1,8,0:0:0:0:
256,192,157850,1,8,0:0:0:0:
256,192,158136,1,0,0:0:0:0:
256,192,158565,1,0,0:0:0:0:
256,192,158993,1,0,0:0:0:0:
256,192,159279,1,8,0:0:0:0:
