osu file format v14

[General]
AudioFilename: audio.mp3
AudioLeadIn: 0
PreviewTime: 96246
Countdown: 0
SampleSet: Normal
StackLeniency: 0.2
Mode: 1
LetterboxInBreaks: 0
WidescreenStoryboard: 0

[Editor]
DistanceSpacing: 4
BeatDivisor: 4
GridSize: 32
TimelineZoom: 4.200001

[Metadata]
Title:theyaremanycolors
TitleUnicode:theyaremanycolors
Artist:Frums
ArtistUnicode:Frums
Creator:Genjuro
Version:Synesthesia
Source:
Tags:bms bofu2017 legenda est a semicolon breakcore densecore frenchcore speedcore psycore hard rave dark psytrance trance experimental vulkin nifty [_chichinya_] _yu68 theyaremanycolours
BeatmapID:2060740
BeatmapSetID:984900

[Difficulty]
HPDrainRate:6
CircleSize:2
OverallDifficulty:7
ApproachRate:9
SliderMultiplier:1.4
SliderTickRate:1

[Events]
//Background and Video events
0,0,"bg.jpg",0,0
//Break Periods
2,112446,119647
//Storyboard Layer 0 (Background)
//Storyboard Layer 1 (Fail)
//Storyboard Layer 2 (Pass)
//Storyboard Layer 3 (Foreground)
//Storyboard Layer 4 (Overlay)
//Storyboard Sound Samples

[TimingPoints]
247,250,4,1,0,10,1,0
247,-200,4,1,0,10,0,0
40247,-133.333333333333,4,1,0,50,0,0
54934,-130.612244897959,4,1,0,50,0,0
54997,-129.729785829097,4,1,0,50,0,0
55122,-128,4,1,0,50,0,0
55247,-126.315736288111,4,1,0,65,0,0
55309,-125.490196078431,4,1,0,65,0,0
55372,-124.675376488468,4,1,0,65,0,0
55434,-123.870916595234,4,1,0,65,0,0
55497,-123.076923076923,4,1,0,65,0,0
55622,-121.518938118911,4,1,0,65,0,0
55684,-120.754716981132,4,1,0,65,0,0
55747,-120.000048000019,4,1,0,65,0,0
55809,-119.254610979534,4,1,0,65,0,0
55872,-118.518518518519,4,1,0,65,0,0
55997,-117.073125044634,4,1,0,65,0,0
56038,-116.599175177435,4,1,0,65,0,0
56080,-116.129047242458,4,1,0,65,0,0
56122,-115.662695195256,4,1,0,65,0,0
56247,-114.285714285714,4,1,0,80,0,0
70247,-114.285714285714,4,1,0,85,0,0
70497,-112.2858708443,4,1,0,85,0,0
70622,-111.311843468833,4,1,0,85,0,0
70747,-110.354691012383,4,1,0,85,0,0
70872,-109.413859015866,4,1,0,85,0,0
70934,-108.949433299523,4,1,0,85,0,0
70997,-108.48893358633,4,1,0,85,0,0
71122,-107.579514708809,4,1,0,85,0,0
71247,-106.685101852267,4,1,0,90,0,0
71309,-106.243505865704,4,1,0,90,0,0
71372,-105.805550559182,4,1,0,90,0,0
71434,-105.37119109487,4,1,0,90,0,0
71497,-104.940383368209,4,1,0,90,0,0
71622,-104.089250286766,4,1,0,90,0,0
71663,-103.842159916926,4,1,0,90,0,0
71705,-103.51966873706,4,1,0,90,0,0
71747,-103.25181258557,4,1,0,90,0,0
71872,-102.427637434843,4,1,0,90,0,0
71997,-101.616618788303,4,1,0,90,0,0
72059,-101.215906687031,4,1,0,90,0,0
72122,-100.818342485959,4,1,0,90,0,0
72247,-100,4,1,0,55,0,0
72497,-102.233495168956,4,1,0,55,0,0
72559,-102.807466289432,4,1,0,55,0,0
72622,-103.388025598875,4,1,0,55,0,0
72684,-103.975070936992,4,1,0,55,0,0
72747,-104.5689302703,4,1,0,55,0,0
72997,-107.013676347837,4,1,0,55,0,0
73059,-107.642742349561,4,1,0,55,0,0
73122,-108.279365093115,4,1,0,55,0,0
73184,-108.923562889742,4,1,0,55,0,0
73247,-109.575351682091,4,1,0,55,0,0
73434,-111.578625552175,4,1,0,55,0,0
73622,-113.656511836189,4,1,0,55,0,0
73747,-115.085260915549,4,1,0,55,0,0
73830,-116.058019725221,4,1,0,55,0,0
73913,-117.047226214833,4,1,0,55,0,0
73997,-118.053440431414,4,1,0,55,0,0
74080,-119.077104806905,4,1,0,55,0,0
74163,-120.118677253126,4,1,0,55,0,0
74247,-121.178631844775,4,1,0,50,0,0
74497,-124.473942002611,4,1,0,50,0,0
74559,-125.326004268604,4,1,0,50,0,0
74622,-126.189652953216,4,1,0,50,0,0
74684,-127.065448871405,4,1,0,50,0,0
74747,-127.953486348643,4,1,0,50,0,0
74997,-131.632986173271,4,1,0,50,0,0
75059,-132.586253987532,4,1,0,50,0,0
75122,-133.553251020013,4,1,0,50,0,0
75184,-134.534637960563,4,1,0,50,0,0
75247,-135.530554685901,4,1,0,50,0,0
75434,-138.608591514936,4,1,0,50,0,0
75622,-141.829486917648,4,1,0,50,0,0
75747,-144.061496971827,4,1,0,50,0,0
75830,-145.588804803266,4,1,0,50,0,0
75913,-147.148843998682,4,1,0,50,0,0
75997,-148.742678141668,4,1,0,50,0,0
76080,-150.37141740098,4,1,0,50,0,0
76163,-152.036452259794,4,1,0,50,0,0
76247,-153.738536870345,4,1,0,50,0,0
76622,-148.148148148148,4,1,0,55,0,0
77122,-142.857142857143,4,1,0,60,0,0
77580,-137.931034482759,4,1,0,65,0,0
78080,-133.333333333333,4,1,0,70,0,0
79247,-133.333333333333,4,1,0,80,0,0
80247,333.333333333333,6,1,0,60,1,0
84497,-111.111111111111,6,1,0,50,0,0
87330,-109.090869421502,6,1,0,50,0,0
87413,-107.142895408177,6,1,0,50,0,0
87496,-105.263157894737,6,1,0,50,0,0
87580,-103.448240190262,6,1,0,50,0,0
87635,-102.272704028931,6,1,0,50,0,0
87691,-101.123584143418,6,1,0,50,0,0
87746,-100,6,1,0,50,0,0
87830,-98.3606234883202,6,1,0,50,0,0
87913,-96.774224765879,6,1,0,50,0,0
87969,-95.7447215934986,6,1,0,50,0,0
88024,-94.7368022160833,6,1,0,50,0,0
88080,-93.7499707031342,6,1,0,50,0,0
88163,-92.3077207100679,6,1,0,50,0,0
88246,-90.9090909090909,6,1,0,60,0,0
90246,-95.2380952380952,6,1,0,60,0,0
92246,-100,6,1,0,60,0,0
95330,-99.1791929987424,6,1,0,60,0,0
95413,-98.3717507810717,6,1,0,60,0,0
95496,-97.5773495650002,6,1,0,60,0,0
95580,-96.7957696376837,6,1,0,60,0,0
95635,-96.2815117352721,6,1,0,60,0,0
95691,-95.7727809925508,6,1,0,60,0,0
95746,-95.2693980403085,6,1,0,60,0,0
95830,-94.5241230288176,6,1,0,60,0,0
95913,-93.7904178081742,6,1,0,60,0,0
95996,-93.0680150360685,6,1,0,60,0,0
96080,-92.3566555438468,6,1,0,60,0,0
96246,-90.9661514950287,6,1,0,80,0,1
108413,-95.2380952380952,6,1,0,80,0,1
110413,-100,6,1,0,80,0,1
112246,-100,6,1,0,80,0,0
114246,-111.111111111111,6,1,0,65,0,0
116246,-142.857142857143,6,1,0,60,0,0
118246,-200,6,1,0,55,0,0
120247,326.086956521739,6,1,0,50,1,0
120247,-326.086956521739,6,1,0,50,0,0
121225,319.148936170213,6,1,0,50,1,8
121225,-279.255319148936,6,1,0,50,0,0
122182,312.5,6,1,0,50,1,0
122182,-243.055555555556,6,1,0,50,0,0
123119,306.122448979592,6,1,0,50,1,8
124037,300,6,1,0,50,1,0
124037,-190.909090909091,6,1,0,50,0,0
124937,295.566502463054,6,1,0,50,1,8
125823,291.26213592233,6,1,0,50,1,0
125823,-156.833457804332,6,1,0,50,0,0
126696,289.855072463768,6,1,0,50,1,8
126985,-144.230838572519,6,1,0,70,0,0
127058,-141.537006973528,6,1,0,70,0,0
127130,-138.941956997464,6,1,0,70,0,0
127203,-136.440353053058,6,1,0,70,0,0
127275,-134.027237015106,6,1,0,70,0,0
127348,-131.697995424812,6,1,0,70,0,0
127420,-129.448330051818,6,1,0,70,0,0
127493,-127.274393410241,6,1,0,70,0,0
127565,285.714285714286,7,1,0,60,1,0
127565,-126.811594202899,7,1,0,60,0,0
135136,-119.094547970688,7,1,0,60,0,0
135279,-116.346171745565,7,1,0,60,0,0
135350,-115.01907591374,7,1,0,60,0,0
135422,-113.721784203817,7,1,0,60,0,0
135565,-111.111111111111,7,1,0,70,0,0
137565,-111.111111111111,7,1,0,75,0,0
139565,-111.111111111111,7,1,0,80,0,0
139636,-110.891422881114,7,1,0,80,0,0
139707,-110.672601669386,7,1,0,80,0,0
139779,-110.454642353391,7,1,0,80,0,0
139850,-110.237539850871,7,1,0,80,0,0
139993,-109.805885156221,7,1,0,80,0,0
140136,-109.377597717946,7,1,0,80,0,0
140279,-108.952519581492,7,1,0,80,0,0
140422,-108.530850436891,7,1,0,80,0,0
140565,-108.112432605412,7,1,0,85,0,0
140636,-107.904431203372,7,1,0,85,0,0
140707,-107.697228627216,7,1,0,85,0,0
140850,-107.285201615715,7,1,0,85,0,0
140993,-106.876315246655,7,1,0,85,0,0
141065,-106.673038602839,7,1,0,85,0,0
141136,-106.470533747433,7,1,0,85,0,0
141279,-106.067821886671,7,1,0,85,0,0
141422,-105.668033306564,7,1,0,85,0,0
141493,-105.469322665463,7,1,0,85,0,0
141565,-105.271357979464,7,1,0,90,0,0
141707,-104.877649733821,7,1,0,90,0,0
141850,-104.486875403581,7,1,0,90,0,0
141922,-104.292578227256,7,1,0,90,0,0
141993,-104.099002315162,7,1,0,90,0,0
142065,-103.906143658556,7,1,0,90,0,0
142136,-103.713998278348,7,1,0,90,0,0
142279,-103.331831577381,7,1,0,90,0,0
142350,-103.141802444254,7,1,0,90,0,0
142422,-102.952470962256,7,1,0,90,0,0
142565,-102.575780422181,7,1,0,90,0,0
142612,-102.450933686584,7,1,0,95,0,0
142660,-102.326285780944,7,1,0,95,0,0
142707,-102.201940814856,7,1,0,95,0,0
142850,-101.830816245274,7,1,0,95,0,0
142922,-101.646262873499,7,1,0,95,0,0
142993,-101.462377243206,7,1,0,95,0,0
143136,-101.096594763399,7,1,0,95,0,0
143207,-100.914690757022,7,1,0,95,0,0
143279,-100.733440177936,7,1,0,95,0,0
143350,-100.552839511635,7,1,0,95,0,0
143422,-100.372885268774,7,1,0,95,0,0
143493,-100.193573984939,7,1,0,95,0,0
143565,-100.014902220431,7,1,0,100,0,0
150636,-99.2949068663421,7,1,0,100,0,0
150707,-98.5997844608712,7,1,0,100,0,0
150779,-97.9142310501693,7,1,0,100,0,0
150850,-97.2382395211211,7,1,0,100,0,0
150922,-96.5714247085716,7,1,0,100,0,0
150993,-95.9136930224707,7,1,0,100,0,0
151065,-95.2649508813913,7,1,0,100,0,0
151136,-94.6248361807524,7,1,0,100,0,0
151207,-93.9933546698248,7,1,0,100,0,0
151279,-93.3701585238552,7,1,0,100,0,0
151350,-92.7551717964915,7,1,0,100,0,0
151422,-92.1483182471178,7,1,0,100,0,0
151565,-90.9580428739831,7,1,0,100,0,1
158779,-89.8945896042301,7,1,0,100,0,1
158850,-88.9024810904423,7,1,0,100,0,1
158922,-87.9321093769922,7,1,0,100,0,1
158993,-86.9826165240877,7,1,0,100,0,1
159065,-86.0534099093944,7,1,0,100,0,1
159136,-85.1438462710827,7,1,0,100,0,1
159207,-84.2533092593544,7,1,0,100,0,1
159279,-83.3812775679349,7,1,0,100,0,1
159350,-82.5270441123556,7,1,0,100,0,1
159422,-81.6901362428092,7,1,0,100,0,1
159493,-80.8700321539248,7,1,0,100,0,1
159565,-80,7,1,0,5,0,0

[HitObjects]
256,192,40247,5,12,0:0:0:0:
256,192,40497,1,0,0:0:0:0:
256,192,40747,1,0,0:0:0:0:
256,192,40997,1,0,0:0:0:0:
256,192,41247,1,8,0:0:0:0:
256,192,41497,1,0,0:0:0:0:
256,192,41747,1,0,0:0:0:0:
256,192,41997,1,0,0:0:0:0:
256,192,42122,1,0,0:0:0:0:
256,192,42247,1,8,0:0:0:0:
256,192,42497,1,0,0:0:0:0:
256,192,42747,1,0,0:0:0:0:
256,192,42997,1,0,0:0:0:0:
256,192,43247,1,8,0:0:0:0:
256,192,43497,1,0,0:0:0:0:
256,192,43622,1,0,0:0:0:0:
256,192,43872,1,0,0:0:0:0:
256,192,43934,1,0,0:0:0:0:
256,192,43997,1,0,0:0:0:0:
256,192,44122,1,0,0:0:0:0:
256,192,44247,1,8,0:0:0:0:
256,192,44497,1,0,0:0:0:0:
256,192,44747,1,0,0:0:0:0:
256,192,44997,1,0,0:0:0:0:
256,192,45247,1,8,0:0:0:0:
256,192,45497,1,0,0:0:0:0:
256,192,45747,1,0,0:0:0:0:
256,192,45997,1,0,0:0:0:0:
256,192,46122,1,0,0:0:0:0:
256,192,46247,1,8,0:0:0:0:
256,192,46497,1,0,0:0:0:0:
256,192,46747,1,0,0:0:0:0:
256,192,46997,1,0,0:0:0:0:
256,192,47247,1,8,0:0:0:0:
256,192,47434,1,0,0:0:0:0:
256,192,47497,1,0,0:0:0:0:
256,192,47622,1,8,0:0:0:0:
256,192,47684,1,8,0:0:0:0:
256,192,47747,1,0,0:0:0:0:
256,192,47809,1,8,0:0:0:0:
256,192,47872,1,0,0:0:0:0:
256,192,47997,1,0,0:0:0:0:
256,192,48059,1,0,0:0:0:0:
256,192,48122,1,0,0:0:0:0:
256,192,48184,1,0,0:0:0:0:
256,192,48247,1,8,0:0:0:0:
256,192,48497,1,0,0:0:0:0:
256,192,48747,1,0,0:0:0:0:
256,192,48997,1,0,0:0:0:0:
256,192,49247,1,8,0:0:0:0:
256,192,49497,1,0,0:0:0:0:
256,192,49747,1,0,0:0:0:0:
256,192,49997,1,0,0:0:0:0:
256,192,50122,1,0,0:0:0:0:
256,192,50247,1,8,0:0:0:0:
256,192,50497,1,0,0:0:0:0:
256,192,50747,1,0,0:0:0:0:
256,192,50997,1,0,0:0:0:0:
256,192,51247,1,8,0:0:0:0:
256,192,51497,1,0,0:0:0:0:
256,192,51622,1,0,0:0:0:0:
256,192,51809,1,0,0:0:0:0:
256,192,51872,1,8,0:0:0:0:
256,192,51997,1,0,0:0:0:0:
256,192,52122,1,0,0:0:0:0:
256,192,52247,1,8,0:0:0:0:
256,192,52497,1,0,0:0:0:0:
256,192,52747,1,0,0:0:0:0:
256,192,52997,1,0,0:0:0:0:
256,192,53247,1,8,0:0:0:0:
256,192,53497,1,0,0:0:0:0:
256,192,53747,1,0,0:0:0:0:
256,192,53997,1,0,0:0:0:0:
256,192,54122,1,0,0:0:0:0:
256,192,54247,1,8,0:0:0:0:
256,192,54497,1,0,0:0:0:0:
256,192,54747,1,0,0:0:0:0:
256,192,54934,1,8,0:0:0:0:
256,192,54997,1,0,0:0:0:0:
256,192,55122,1,0,0:0:0:0:
256,192,55247,1,8,0:0:0:0:
256,192,55309,1,0,0:0:0:0:
256,192,55372,1,8,0:0:0:0:
256,192,55434,1,8,0:0:0:0:
256,192,55497,1,0,0:0:0:0:
256,192,55622,1,8,0:0:0:0:
256,192,55684,1,8,0:0:0:0:
256,192,55747,1,0,0:0:0:0:
256,192,55809,1,8,0:0:0:0:
256,192,55872,1,0,0:0:0:0:
256,192,55997,1,0,0:0:0:0:
256,192,56038,1,0,0:0:0:0:
256,192,56080,1,0,0:0:0:0:
256,192,56122,1,8,0:0:0:0:
256,192,56247,1,4,0:0:0:0:
256,192,56497,1,8,0:0:0:0:
256,192,56747,1,0,0:0:0:0:
256,192,56872,1,8,0:0:0:0:
256,192,56997,1,0,0:0:0:0:
256,192,57247,1,0,0:0:0:0:
256,192,57497,1,8,0:0:0:0:
256,192,57622,1,0,0:0:0:0:
256,192,57872,1,8,0:0:0:0:
256,192,57997,1,0,0:0:0:0:
256,192,58122,1,8,0:0:0:0:
256,192,58184,1,8,0:0:0:0:
256,192,58247,1,0,0:0:0:0:
256,192,58497,1,8,0:0:0:0:
256,192,58747,1,0,0:0:0:0:
256,192,58872,1,8,0:0:0:0:
256,192,58997,1,8,0:0:0:0:
256,192,59122,1,0,0:0:0:0:
256,192,59247,1,0,0:0:0:0:
256,192,59497,1,8,0:0:0:0:
256,192,59622,1,0,0:0:0:0:
256,192,59872,1,8,0:0:0:0:
256,192,59934,1,8,0:0:0:0:
256,192,59997,1,0,0:0:0:0:
256,192,60122,1,8,0:0:0:0:
256,192,60247,1,0,0:0:0:0:
256,192,60497,1,8,0:0:0:0:
256,192,60747,1,0,0:0:0:0:
256,192,60872,1,8,0:0:0:0:
256,192,61122,1,8,0:0:0:0:
256,192,61247,1,0,0:0:0:0:
256,192,61497,1,8,0:0:0:0:
256,192,61747,1,0,0:0:0:0:
256,192,61809,1,0,0:0:0:0:
256,192,61872,1,8,0:0:0:0:
256,192,61997,1,0,0:0:0:0:
256,192,62122,1,8,0:0:0:0:
256,192,62247,1,0,0:0:0:0:
256,192,62497,1,8,0:0:0:0:
256,192,62622,1,0,0:0:0:0:
256,192,62684,1,8,0:0:0:0:
256,192,62747,1,0,0:0:0:0:
256,192,62872,1,8,0:0:0:0:
256,192,62997,1,0,0:0:0:0:
256,192,63122,1,8,0:0:0:0:
256,192,63247,1,0,0:0:0:0:
256,192,63309,1,8,0:0:0:0:
256,192,63434,1,8,0:0:0:0:
256,192,63497,1,0,0:0:0:0:
256,192,63622,1,8,0:0:0:0:
256,192,63684,1,8,0:0:0:0:
256,192,63747,1,0,0:0:0:0:
256,192,63809,1,0,0:0:0:0:
256,192,63872,1,8,0:0:0:0:
256,192,63997,1,8,0:0:0:0:
256,192,64059,1,8,0:0:0:0:
256,192,64122,1,8,0:0:0:0:
256,192,64184,1,8,0:0:0:0:
256,192,64247,1,0,0:0:0:0:
256,192,64497,1,8,0:0:0:0:
256,192,64747,1,0,0:0:0:0:
256,192,64872,1,8,0:0:0:0:
256,192,64997,1,0,0:0:0:0:
256,192,65247,1,0,0:0:0:0:
256,192,65497,1,8,0:0:0:0:
256,192,65622,1,0,0:0:0:0:
256,192,65747,1,0,0:0:0:0:
256,192,65872,1,8,0:0:0:0:
256,192,65997,1,0,0:0:0:0:
256,192,66122,1,8,0:0:0:0:
256,192,66184,1,8,0:0:0:0:
256,192,66247,1,0,0:0:0:0:
256,192,66497,1,8,0:0:0:0:
256,192,66747,1,0,0:0:0:0:
256,192,66872,1,8,0:0:0:0:
256,192,66997,1,8,0:0:0:0:
256,192,67122,1,0,0:0:0:0:
256,192,67247,1,0,0:0:0:0:
256,192,67497,1,8,0:0:0:0:
256,192,67622,1,8,0:0:0:0:
256,192,67684,1,0,0:0:0:0:
256,192,67809,1,0,0:0:0:0:
256,192,67872,1,8,0:0:0:0:
256,192,67997,1,0,0:0:0:0:
256,192,68122,1,8,0:0:0:0:
256,192,68184,1,8,0:0:0:0:
256,192,68247,1,0,0:0:0:0:
256,192,68497,1,8,0:0:0:0:
256,192,68747,1,0,0:0:0:0:
256,192,68872,1,8,0:0:0:0:
256,192,68997,1,8,0:0:0:0:
256,192,69122,1,0,0:0:0:0:
256,192,69247,1,0,0:0:0:0:
256,192,69497,1,8,0:0:0:0:
256,192,69747,1,0,0:0:0:0:
256,192,69809,1,0,0:0:0:0:
256,192,69872,1,8,0:0:0:0:
256,192,69997,1,0,0:0:0:0:
256,192,70122,1,8,0:0:0:0:
256,192,70247,1,0,0:0:0:0:
256,192,70497,1,8,0:0:0:0:
256,192,70622,1,0,0:0:0:0:
256,192,70747,1,8,0:0:0:0:
256,192,70872,1,0,0:0:0:0:
256,192,70934,1,8,0:0:0:0:
256,192,70997,1,0,0:0:0:0:
256,192,71122,1,8,0:0:0:0:
256,192,71247,1,0,0:0:0:0:
256,192,71309,1,0,0:0:0:0:
256,192,71372,1,8,0:0:0:0:
256,192,71434,1,8,0:0:0:0:
256,192,71497,1,0,0:0:0:0:
256,192,71622,1,8,0:0:0:0:
256,192,71663,1,8,0:0:0:0:
256,192,71705,1,8,0:0:0:0:
256,192,71747,1,0,0:0:0:0:
256,192,71872,1,8,0:0:0:0:
256,192,71997,1,0,0:0:0:0:
256,192,72059,1,0,0:0:0:0:
256,192,72122,1,0,0:0:0:0:
256,192,72247,1,12,0:0:0:0:
256,192,72497,1,0,0:0:0:0:
256,192,72559,1,0,0:0:0:0:
256,192,72622,1,0,0:0:0:0:
256,192,72684,1,0,0:0:0:0:
256,192,72747,1,8,0:0:0:0:
256,192,72997,1,8,0:0:0:0:
256,192,73059,1,8,0:0:0:0:
256,192,73122,1,8,0:0:0:0:
256,192,73184,1,8,0:0:0:0:
256,192,73247,1,0,0:0:0:0:
256,192,73434,1,8,0:0:0:0:
256,192,73622,1,8,0:0:0:0:
256,192,73747,1,0,0:0:0:0:
256,192,73830,1,0,0:0:0:0:
256,192,73913,1,8,0:0:0:0:
256,192,73997,1,0,0:0:0:0:
256,192,74080,1,8,0:0:0:0:
256,192,74163,1,8,0:0:0:0:
256,192,74247,1,0,0:0:0:0:
256,192,74497,1,8,0:0:0:0:
256,192,74559,1,8,0:0:0:0:
256,192,74622,1,8,0:0:0:0:
256,192,74684,1,8,0:0:0:0:
256,192,74747,1,0,0:0:0:0:
256,192,74997,1,0,0:0:0:0:
256,192,75059,1,0,0:0:0:0:
256,192,75122,1,0,0:0:0:0:
256,192,75184,1,0,0:0:0:0:
256,192,75247,1,8,0:0:0:0:
256,192,75434,1,0,0:0:0:0:
256,192,75622,1,0,0:0:0:0:
256,192,75747,1,8,0:0:0:0:
256,192,75830,1,8,0:0:0:0:
256,192,75913,1,0,0:0:0:0:
256,192,75997,1,8,0:0:0:0:
256,192,76080,1,0,0:0:0:0:
256,192,76163,1,0,0:0:0:0:
256,192,76247,1,8,0:0:0:0:
256,192,76434,1,0,0:0:0:0:
256,192,76622,1,0,0:0:0:0:
256,192,76684,1,0,0:0:0:0:
256,192,76747,1,8,0:0:0:0:
256,192,76934,1,0,0:0:0:0:
256,192,77122,1,0,0:0:0:0:
256,192,77184,1,0,0:0:0:0:
256,192,77247,1,8,0:0:0:0:
256,192,77413,1,8,0:0:0:0:
256,192,77580,1,0,0:0:0:0:
256,192,77663,1,0,0:0:0:0:
256,192,77747,1,8,0:0:0:0:
256,192,77913,1,8,0:0:0:0:
256,192,78080,1,0,0:0:0:0:
256,192,78163,1,0,0:0:0:0:
256,192,78247,1,8,0:0:0:0:
256,192,78330,1,0,0:0:0:0:
256,192,78413,1,8,0:0:0:0:
256,192,78497,1,8,0:0:0:0:
256,192,78580,1,0,0:0:0:0:
256,192,78663,1,8,0:0:0:0:
256,192,78747,1,0,0:0:0:0:
256,192,78830,1,0,0:0:0:0:
256,192,78913,1,8,0:0:0:0:
256,192,78997,1,0,0:0:0:0:
256,192,79080,1,8,0:0:0:0:
256,192,79163,1,8,0:0:0:0:
256,192,79247,1,0,0:0:0:0:
256,192,79330,1,8,0:0:0:0:
256,192,79413,1,8,0:0:0:0:
256,192,79497,1,0,0:0:0:0:
256,192,79580,1,8,0:0:0:0:
256,192,79663,1,8,0:0:0:0:
256,192,79747,1,8,0:0:0:0:
256,192,79830,1,0,0:0:0:0:
256,192,79913,1,8,0:0:0:0:
256,192,79997,1,8,0:0:0:0:
256,192,80080,1,8,0:0:0:0:
256,192,80163,1,8,0:0:0:0:
256,192,80247,1,4,0:0:0:0:
256,192,80413,1,8,0:0:0:0:
256,192,80497,1,8,0:0:0:0:
256,192,80580,1,0,0:0:0:0:
256,192,80663,1,0,0:0:0:0:
256,192,80747,1,8,0:0:0:0:
256,192,80913,1,0,0:0:0:0:
256,192,81080,1,8,0:0:0:0:
256,192,81163,1,0,0:0:0:0:
256,192,81247,1,8,0:0:0:0:
256,192,81413,1,0,0:0:0:0:
256,192,81580,1,0,0:0:0:0:
256,192,81663,1,8,0:0:0:0:
256,192,81830,1,0,0:0:0:0:
256,192,81913,1,8,0:0:0:0:
256,192,82080,1,0,0:0:0:0:
256,192,82247,1,8,0:0:0:0:
256,192,82330,1,0,0:0:0:0:
256,192,82413,1,8,0:0:0:0:
256,192,82497,1,8,0:0:0:0:
256,192,82580,1,0,0:0:0:0:
256,192,82747,1,8,0:0:0:0:
256,192,82913,1,0,0:0:0:0:
256,192,82997,1,8,0:0:0:0:
256,192,83080,1,8,0:0:0:0:
256,192,83163,1,0,0:0:0:0:
256,192,83247,1,8,0:0:0:0:
256,192,83413,1,0,0:0:0:0:
256,192,83580,1,0,0:0:0:0:
256,192,83663,1,8,0:0:0:0:
256,192,83830,1,0,0:0:0:0:
256,192,83913,1,8,0:0:0:0:
256,192,83997,1,8,0:0:0:0:
256,192,84080,1,0,0:0:0:0:
256,192,84163,1,0,0:0:0:0:
256,192,84247,1,8,0:0:0:0:
256,192,84497,1,0,0:0:0:0:
256,192,84580,1,8,0:0:0:0:
256,192,84747,1,0,0:0:0:0:
256,192,84913,1,0,0:0:0:0:
256,192,84997,1,8,0:0:0:0:
256,192,85080,1,0,0:0:0:0:
256,192,85163,1,0,0:0:0:0:
256,192,85247,1,8,0:0:0:0:
256,192,85413,1,0,0:0:0:0:
256,192,85580,1,0,0:0:0:0:
256,192,85663,1,8,0:0:0:0:
256,192,85830,1,0,0:0:0:0:
256,192,85913,1,8,0:0:0:0:
256,192,86080,1,0,0:0:0:0:
256,192,86247,1,8,0:0:0:0:
256,192,86330,1,8,0:0:0:0:
256,192,86413,1,0,0:0:0:0:
256,192,86497,1,0,0:0:0:0:
256,192,86580,1,8,0:0:0:0:
256,192,86747,1,0,0:0:0:0:
256,192,86913,1,0,0:0:0:0:
256,192,86997,1,8,0:0:0:0:
256,192,87080,1,0,0:0:0:0:
256,192,87247,1,8,0:0:0:0:
256,192,87330,1,0,0:0:0:0:
256,192,87413,1,8,0:0:0:0:
256,192,87496,1,8,0:0:0:0:
256,192,87580,1,0,0:0:0:0:
256,192,87635,1,0,0:0:0:0:
256,192,87691,1,0,0:0:0:0:
256,192,87746,1,8,0:0:0:0:
256,192,87830,1,8,0:0:0:0:
256,192,87913,1,0,0:0:0:0:
256,192,87969,1,0,0:0:0:0:
256,192,88024,1,0,0:0:0:0:
256,192,88080,1,8,0:0:0:0:
256,192,88163,1,8,0:0:0:0:
256,192,88246,1,4,0:0:0:0:
256,192,88413,1,8,0:0:0:0:
256,192,88580,1,8,0:0:0:0:
256,192,88746,1,0,0:0:0:0:
256,192,88830,1,8,0:0:0:0:
256,192,88996,1,0,0:0:0:0:
256,192,89080,1,8,0:0:0:0:
256,192,89163,1,0,0:0:0:0:
256,192,89246,1,8,0:0:0:0:
256,192,89330,1,8,0:0:0:0:
256,192,89413,1,0,0:0:0:0:
256,192,89580,1,8,0:0:0:0:
256,192,89746,1,0,0:0:0:0:
256,192,89830,1,8,0:0:0:0:
256,192,89996,1,0,0:0:0:0:
256,192,90080,1,8,0:0:0:0:
256,192,90246,1,8,0:0:0:0:
256,192,90330,1,0,0:0:0:0:
256,192,90413,1,8,0:0:0:0:
256,192,90496,1,8,0:0:0:0:
256,192,90580,1,0,0:0:0:0:
256,192,90746,1,8,0:0:0:0:
256,192,90830,1,0,0:0:0:0:
256,192,90996,1,0,0:0:0:0:
256,192,91080,1,8,0:0:0:0:
256,192,91163,1,0,0:0:0:0:
256,192,91246,1,8,0:0:0:0:
256,192,91330,1,8,0:0:0:0:
256,192,91413,1,0,0:0:0:0:
256,192,91496,1,8,0:0:0:0:
256,192,91663,1,8,0:0:0:0:
256,192,91746,1,0,0:0:0:0:
256,192,91830,1,0,0:0:0:0:
256,192,91913,1,8,0:0:0:0:
256,192,92080,1,0,0:0:0:0:
256,192,92246,1,0,0:0:0:0:
256,192,92330,1,8,0:0:0:0:
256,192,92413,1,8,0:0:0:0:
256,192,92496,1,0,0:0:0:0:
256,192,92663,1,0,0:0:0:0:
256,192,92746,1,8,0:0:0:0:
256,192,92830,1,0,0:0:0:0:
256,192,92913,1,8,0:0:0:0:
256,192,93080,1,0,0:0:0:0:
256,192,93163,1,8,0:0:0:0:
256,192,93246,1,0,0:0:0:0:
256,192,93330,1,8,0:0:0:0:
256,192,93413,1,8,0:0:0:0:
256,192,93496,1,0,0:0:0:0:
256,192,93580,1,8,0:0:0:0:
256,192,93746,1,0,0:0:0:0:
256,192,93913,1,8,0:0:0:0:
256,192,93996,1,0,0:0:0:0:
256,192,94080,1,8,0:0:0:0:
256,192,94163,1,8,0:0:0:0:
256,192,94246,1,0,0:0:0:0:
256,192,94330,1,8,0:0:0:0:
256,192,94413,1,8,0:0:0:0:
256,192,94496,1,0,0:0:0:0:
256,192,94663,1,0,0:0:0:0:
256,192,94746,1,0,0:0:0:0:
256,192,94830,1,8,0:0:0:0:
256,192,94913,1,0,0:0:0:0:
256,192,94996,1,8,0:0:0:0:
256,192,95080,1,8,0:0:0:0:
256,192,95163,1,0,0:0:0:0:
256,192,95246,1,8,0:0:0:0:
256,192,95330,1,8,0:0:0:0:
256,192,95413,1,8,0:0:0:0:
256,192,95496,1,0,0:0:0:0:
256,192,95580,1,8,0:0:0:0:
256,192,95635,1,8,0:0:0:0:
256,192,95691,1,8,0:0:0:0:
256,192,95746,1,0,0:0:0:0:
256,192,95830,1,8,0:0:0:0:
256,192,95913,1,0,0:0:0:0:
256,192,95996,1,0,0:0:0:0:
256,192,96080,1,8,0:0:0:0:
256,192,96246,1,0,0:0:0:0:
256,192,96330,1,0,0:0:0:0:
256,192,96413,1,8,0:0:0:0:
256,192,96496,1,0,0:0:0:0:
256,192,96580,1,8,0:0:0:0:
256,192,96663,1,8,0:0:0:0:
256,192,96746,1,0,0:0:0:0:
256,192,96830,1,8,0:0:0:0:
256,192,96913,1,0,0:0:0:0:
256,192,96996,1,8,0:0:0:0:
256,192,97080,1,8,0:0:0:0:
256,192,97163,1,0,0:0:0:0:
256,192,97246,1,8,0:0:0:0:
256,192,97330,1,8,0:0:0:0:
256,192,97413,1,0,0:0:0:0:
256,192,97496,1,0,0:0:0:0:
256,192,97580,1,8,0:0:0:0:
256,192,97663,1,0,0:0:0:0:
256,192,97746,1,8,0:0:0:0:
256,192,97830,1,8,0:0:0:0:
256,192,97913,1,0,0:0:0:0:
256,192,97996,1,8,0:0:0:0:
256,192,98080,1,0,0:0:0:0:
256,192,98163,1,0,0:0:0:0:
256,192,98246,1,8,0:0:0:0:
256,192,98330,1,0,0:0:0:0:
256,192,98413,1,8,0:0:0:0:
256,192,98496,1,8,0:0:0:0:
256,192,98580,1,0,0:0:0:0:
256,192,98663,1,8,0:0:0:0:
256,192,98746,1,8,0:0:0:0:
256,192,98830,1,8,0:0:0:0:
256,192,98913,1,0,0:0:0:0:
256,192,98996,1,0,0:0:0:0:
256,192,99080,1,8,0:0:0:0:
256,192,99163,1,0,0:0:0:0:
256,192,99246,1,8,0:0:0:0:
256,192,99330,1,8,0:0:0:0:
256,192,99413,1,0,0:0:0:0:
256,192,99496,1,8,0:0:0:0:
256,192,99580,1,0,0:0:0:0:
256,192,99663,1,0,0:0:0:0:
256,192,99746,1,8,0:0:0:0:
256,192,99830,1,8,0:0:0:0:
256,192,99913,1,0,0:0:0:0:
256,192,99996,1,8,0:0:0:0:
256,192,100080,1,8,0:0:0:0:
256,192,100163,1,8,0:0:0:0:
256,192,100246,1,0,0:0:0:0:
256,192,100330,1,8,0:0:0:0:
256,192,100413,1,0,0:0:0:0:
256,192,100496,1,0,0:0:0:0:
256,192,100580,1,8,0:0:0:0:
256,192,100663,1,8,0:0:0:0:
256,192,100746,1,0,0:0:0:0:
256,192,100830,1,8,0:0:0:0:
256,192,100913,1,0,0:0:0:0:
256,192,100996,1,8,0:0:0:0:
256,192,101080,1,8,0:0:0:0:
256,192,101163,1,0,0:0:0:0:
256,192,101246,1,8,0:0:0:0:
256,192,101330,1,0,0:0:0:0:
256,192,101413,1,8,0:0:0:0:
256,192,101496,1,8,0:0:0:0:
256,192,101580,1,0,0:0:0:0:
256,192,101663,1,8,0:0:0:0:
256,192,101746,1,0,0:0:0:0:
256,192,101830,1,0,0:0:0:0:
256,192,101913,1,8,0:0:0:0:
256,192,101996,1,8,0:0:0:0:
256,192,102080,1,0,0:0:0:0:
256,192,102163,1,8,0:0:0:0:
256,192,102246,1,0,0:0:0:0:
256,192,102330,1,8,0:0:0:0:
256,192,102413,1,8,0:0:0:0:
256,192,102496,1,0,0:0:0:0:
256,192,102580,1,8,0:0:0:0:
256,192,102663,1,8,0:0:0:0:
256,192,102746,1,0,0:0:0:0:
256,192,102830,1,8,0:0:0:0:
256,192,102913,1,0,0:0:0:0:
256,192,102996,1,0,0:0:0:0:
256,192,103080,1,8,0:0:0:0:
256,192,103163,1,0,0:0:0:0:
256,192,103246,1,8,0:0:0:0:
256,192,103330,1,8,0:0:0:0:
256,192,103413,1,8,0:0:0:0:
256,192,103496,1,0,0:0:0:0:
256,192,103580,1,8,0:0:0:0:
256,192,103635,1,0,0:0:0:0:
256,192,103691,1,0,0:0:0:0:
256,192,103746,1,8,0:0:0:0:
256,192,103830,1,0,0:0:0:0:
256,192,103913,1,8,0:0:0:0:
256,192,103996,1,0,0:0:0:0:
256,192,104080,1,8,0:0:0:0:
256,192,104135,1,8,0:0:0:0:
256,192,104191,1,8,0:0:0:0:
256,192,104246,1,0,0:0:0:0:
256,192,104413,1,8,0:0:0:0:
256,192,104496,1,0,0:0:0:0:
256,192,104580,1,8,0:0:0:0:
256,192,104663,1,8,0:0:0:0:
256,192,104746,1,0,0:0:0:0:
256,192,104830,1,8,0:0:0:0:
256,192,104913,1,0,0:0:0:0:
256,192,104996,1,8,0:0:0:0:
256,192,105080,1,8,0:0:0:0:
256,192,105163,1,0,0:0:0:0:
256,192,105246,1,8,0:0:0:0:
256,192,105330,1,8,0:0:0:0:
256,192,105413,1,0,0:0:0:0:
256,192,105496,1,0,0:0:0:0:
256,192,105580,1,8,0:0:0:0:
256,192,105663,1,0,0:0:0:0:
256,192,105746,1,8,0:0:0:0:
256,192,105830,1,8,0:0:0:0:
256,192,105913,1,0,0:0:0:0:
256,192,105996,1,8,0:0:0:0:
256,192,106080,1,0,0:0:0:0:
256,192,106163,1,0,0:0:0:0:
256,192,106246,1,8,0:0:0:0:
256,192,106330,1,0,0:0:0:0:
256,192,106413,1,8,0:0:0:0:
256,192,106496,1,8,0:0:0:0:
256,192,106580,1,0,0:0:0:0:
256,192,106663,1,8,0:0:0:0:
256,192,106746,1,8,0:0:0:0:
256,192,106830,1,8,0:0:0:0:
256,192,106913,1,0,0:0:0:0:
256,192,106996,1,0,0:0:0:0:
256,192,107080,1,8,0:0:0:0:
256,192,107163,1,0,0:0:0:0:
256,192,107246,1,8,0:0:0:0:
256,192,107330,1,8,0:0:0:0:
256,192,107413,1,0,0:0:0:0:
256,192,107496,1,8,0:0:0:0:
256,192,107580,1,0,0:0:0:0:
256,192,107663,1,0,0:0:0:0:
256,192,107746,1,8,0:0:0:0:
256,192,107830,1,8,0:0:0:0:
256,192,107913,1,0,0:0:0:0:
256,192,107996,1,8,0:0:0:0:
256,192,108080,1,8,0:0:0:0:
256,192,108163,1,8,0:0:0:0:
256,192,108246,1,0,0:0:0:0:
256,192,108413,1,0,0:0:0:0:
256,192,108496,1,0,0:0:0:0:
256,192,108580,1,8,0:0:0:0:
256,192,108663,1,8,0:0:0:0:
256,192,108746,1,0,0:0:0:0:
256,192,108830,1,8,0:0:0:0:
256,192,108913,1,0,0:0:0:0:
256,192,108996,1,8,0:0:0:0:
256,192,109080,1,8,0:0:0:0:
256,192,109163,1,0,0:0:0:0:
256,192,109246,1,8,0:0:0:0:
256,192,109330,1,0,0:0:0:0:
256,192,109413,1,8,0:0:0:0:
256,192,109496,1,8,0:0:0:0:
256,192,109580,1,0,0:0:0:0:
256,192,109663,1,8,0:0:0:0:
256,192,109746,1,0,0:0:0:0:
256,192,109830,1,0,0:0:0:0:
256,192,109913,1,8,0:0:0:0:
256,192,109996,1,8,0:0:0:0:
256,192,110080,1,0,0:0:0:0:
256,192,110163,1,8,0:0:0:0:
256,192,110246,1,0,0:0:0:0:
256,192,110413,1,8,0:0:0:0:
256,192,110496,1,0,0:0:0:0:
256,192,110580,1,8,0:0:0:0:
256,192,110663,1,8,0:0:0:0:
256,192,110746,1,0,0:0:0:0:
256,192,110830,1,8,0:0:0:0:
256,192,110913,1,0,0:0:0:0:
256,192,110996,1,0,0:0:0:0:
256,192,111080,1,8,0:0:0:0:
256,192,111163,1,0,0:0:0:0:
256,192,111246,1,8,0:0:0:0:
256,192,111330,1,8,0:0:0:0:
256,192,111413,1,8,0:0:0:0:
256,192,111496,1,0,0:0:0:0:
256,192,111580,1,8,0:0:0:0:
256,192,111635,1,0,0:0:0:0:
256,192,111691,1,0,0:0:0:0:
256,192,111746,1,8,0:0:0:0:
256,192,111830,1,0,0:0:0:0:
256,192,111913,1,8,0:0:0:0:
256,192,111996,1,0,0:0:0:0:
256,192,112080,1,8,0:0:0:0:
256,192,112163,1,8,0:0:0:0:
256,192,112246,1,0,0:0:0:0:
256,192,120247,5,0,0:0:0:0:
256,192,120736,1,0,0:0:0:0:
256,192,121225,8,0,126840,0:0:0:0:
256,192,126985,5,0,0:0:0:0:
256,192,127058,1,0,0:0:0:0:
256,192,127130,1,0,0:0:0:0:
256,192,127203,1,0,0:0:0:0:
256,192,127275,1,8,0:0:0:0:
256,192,127348,1,8,0:0:0:0:
256,192,127420,1,8,0:0:0:0:
256,192,127493,1,8,0:0:0:0:
256,192,127565,1,0,0:0:0:0:
256,192,127850,1,0,0:0:0:0:
256,192,128136,1,0,0:0:0:0:
256,192,128422,1,0,0:0:0:0:
256,192,128565,1,0,0:0:0:0:
256,192,128850,1,0,0:0:0:0:
256,192,129136,1,0,0:0:0:0:
256,192,129422,1,8,0:0:0:0:
256,192,129565,1,0,0:0:0:0:
256,192,129850,1,0,0:0:0:0:
256,192,130136,1,0,0:0:0:0:
256,192,130422,1,0,0:0:0:0:
256,192,130565,1,0,0:0:0:0:
256,192,130850,1,0,0:0:0:0:
256,192,131136,1,0,0:0:0:0:
256,192,131422,1,8,0:0:0:0:
256,192,131565,1,0,0:0:0:0:
256,192,131850,1,0,0:0:0:0:
256,192,132136,1,0,0:0:0:0:
256,192,132422,1,0,0:0:0:0:
256,192,132565,1,0,0:0:0:0:
256,192,132850,1,0,0:0:0:0:
256,192,133136,1,0,0:0:0:0:
256,192,133422,1,8,0:0:0:0:
256,192,133565,1,0,0:0:0:0:
256,192,133850,1,0,0:0:0:0:
256,192,134136,1,0,0:0:0:0:
256,192,134422,1,0,0:0:0:0:
256,192,134565,1,8,0:0:0:0:
256,192,134850,1,0,0:0:0:0:
256,192,135136,1,8,0:0:0:0:
256,192,135279,1,0,0:0:0:0:
256,192,135350,1,0,0:0:0:0:
256,192,135422,1,8,0:0:0:0:
256,192,135565,1,8,0:0:0:0:
256,192,135707,1,0,0:0:0:0:
256,192,135850,1,8,0:0:0:0:
256,192,135993,1,0,0:0:0:0:
256,192,136136,1,8,0:0:0:0:
256,192,136279,1,0,0:0:0:0:
256,192,136422,1,8,0:0:0:0:
256,192,136565,1,8,0:0:0:0:
256,192,136707,1,0,0:0:0:0:
256,192,136850,1,8,0:0:0:0:
256,192,136993,1,0,0:0:0:0:
256,192,137136,1,8,0:0:0:0:
256,192,137279,1,0,0:0:0:0:
256,192,137422,1,8,0:0:0:0:
256,192,137565,1,8,0:0:0:0:
256,192,137707,1,0,0:0:0:0:
256,192,137850,1,8,0:0:0:0:
256,192,137993,1,0,0:0:0:0:
256,192,138136,1,8,0:0:0:0:
256,192,138279,1,0,0:0:0:0:
256,192,138422,1,8,0:0:0:0:
256,192,138565,1,8,0:0:0:0:
256,192,138707,1,0,0:0:0:0:
256,192,138850,1,8,0:0:0:0:
256,192,138993,1,0,0:0:0:0:
256,192,139136,1,8,0:0:0:0:
256,192,139279,1,0,0:0:0:0:
256,192,139422,1,8,0:0:0:0:
256,192,139565,1,8,0:0:0:0:
256,192,139636,1,8,0:0:0:0:
256,192,139707,1,0,0:0:0:0:
256,192,139779,1,0,0:0:0:0:
256,192,139850,1,8,0:0:0:0:
256,192,139993,1,0,0:0:0:0:
256,192,140136,1,8,0:0:0:0:
256,192,140279,1,0,0:0:0:0:
256,192,140422,1,8,0:0:0:0:
256,192,140565,1,8,0:0:0:0:
256,192,140636,1,8,0:0:0:0:
256,192,140707,1,0,0:0:0:0:
256,192,140850,1,8,0:0:0:0:
256,192,140993,1,0,0:0:0:0:
256,192,141065,1,0,0:0:0:0:
256,192,141136,1,8,0:0:0:0:
256,192,141279,1,0,0:0:0:0:
256,192,141422,1,8,0:0:0:0:
256,192,141493,1,0,0:0:0:0:
256,192,141565,1,8,0:0:0:0:
256,192,141707,1,0,0:0:0:0:
256,192,141850,1,8,0:0:0:0:
256,192,141922,1,8,0:0:0:0:
256,192,141993,1,0,0:0:0:0:
256,192,142065,1,0,0:0:0:0:
256,192,142136,1,8,0:0:0:0:
256,192,142279,1,0,0:0:0:0:
256,192,142350,1,0,0:0:0:0:
256,192,142422,1,8,0:0:0:0:
256,192,142565,1,8,0:0:0:0:
256,192,142612,1,8,0:0:0:0:
256,192,142660,1,8,0:0:0:0:
256,192,142707,1,0,0:0:0:0:
256,192,142850,1,8,0:0:0:0:
256,192,142922,1,8,0:0:0:0:
256,192,142993,1,0,0:0:0:0:
256,192,143136,1,8,0:0:0:0:
256,192,143207,1,8,0:0:0:0:
256,192,143279,1,0,0:0:0:0:
256,192,143350,1,0,0:0:0:0:
256,192,143422,1,8,0:0:0:0:
256,192,143493,1,0,0:0:0:0:
256,192,143565,1,8,0:0:0:0:
256,192,143707,1,0,0:0:0:0:
256,192,143779,1,8,0:0:0:0:
256,192,143850,1,0,0:0:0:0:
256,192,143922,1,0,0:0:0:0:
256,192,143993,1,8,0:0:0:0:
256,192,144065,1,8,0:0:0:0:
256,192,144136,1,0,0:0:0:0:
256,192,144279,1,0,0:0:0:0:
256,192,144350,1,0,0:0:0:0:
256,192,144422,1,8,0:0:0:0:
256,192,144565,1,8,0:0:0:0:
256,192,144636,1,0,0:0:0:0:
256,192,144707,1,8,0:0:0:0:
256,192,144779,1,8,0:0:0:0:
256,192,144850,1,0,0:0:0:0:
256,192,144993,1,8,0:0:0:0:
256,192,145136,1,0,0:0:0:0:
256,192,145207,1,0,0:0:0:0:
256,192,145279,1,8,0:0:0:0:
256,192,145422,1,8,0:0:0:0:
256,192,145565,1,0,0:0:0:0:
256,192,145636,1,0,0:0:0:0:
256,192,145707,1,8,0:0:0:0:
256,192,145850,1,8,0:0:0:0:
256,192,145993,1,0,0:0:0:0:
256,192,146065,1,8,0:0:0:0:
256,192,146136,1,8,0:0:0:0:
256,192,146207,1,0,0:0:0:0:
256,192,146279,1,8,0:0:0:0:
256,192,146350,1,0,0:0:0:0:
256,192,146422,1,8,0:0:0:0:
256,192,146565,1,8,0:0:0:0:
256,192,146707,1,0,0:0:0:0:
256,192,146779,1,0,0:0:0:0:
256,192,146850,1,8,0:0:0:0:
256,192,146922,1,8,0:0:0:0:
256,192,146993,1,8,0:0:0:0:
256,192,147065,1,0,0:0:0:0:
256,192,147136,1,8,0:0:0:0:
256,192,147279,1,0,0:0:0:0:
256,192,147350,1,0,0:0:0:0:
256,192,147422,1,8,0:0:0:0:
256,192,147565,1,8,0:0:0:0:
256,192,147636,1,8,0:0:0:0:
256,192,147708,1,0,0:0:0:0:
256,192,147779,1,0,0:0:0:0:
256,192,147850,1,8,0:0:0:0:
256,192,147993,1,0,0:0:0:0:
256,192,148065,1,0,0:0:0:0:
256,192,148136,1,8,0:0:0:0:
256,192,148207,1,8,0:0:0:0:
256,192,148279,1,0,0:0:0:0:
256,192,148422,1,8,0:0:0:0:
256,192,148565,1,8,0:0:0:0:
256,192,148636,1,0,0:0:0:0:
256,192,148707,1,8,0:0:0:0:
256,192,148779,1,8,0:0:0:0:
256,192,148850,1,0,0:0:0:0:
256,192,148993,1,0,0:0:0:0:
256,192,149065,1,0,0:0:0:0:
256,192,149136,1,8,0:0:0:0:
256,192,149207,1,0,0:0:0:0:
256,192,149279,1,8,0:0:0:0:
256,192,149350,1,8,0:0:0:0:
256,192,149422,1,0,0:0:0:0:
256,192,149565,1,8,0:0:0:0:
256,192,149707,1,0,0:0:0:0:
256,192,149779,1,8,0:0:0:0:
256,192,149850,1,0,0:0:0:0:
256,192,149993,1,8,0:0:0:0:
256,192,150065,1,8,0:0:0:0:
256,192,150136,1,0,0:0:0:0:
256,192,150207,1,8,0:0:0:0:
256,192,150279,1,0,0:0:0:0:
256,192,150350,1,0,0:0:0:0:
256,192,150422,1,8,0:0:0:0:
256,192,150565,1,8,0:0:0:0:
256,192,150636,1,8,0:0:0:0:
256,192,150707,1,0,0:0:0:0:
256,192,150779,1,0,0:0:0:0:
256,192,150850,1,8,0:0:0:0:
256,192,150922,1,8,0:0:0:0:
256,192,150993,1,0,0:0:0:0:
256,192,151065,1,8,0:0:0:0:
256,192,151136,1,0,0:0:0:0:
256,192,151207,1,8,0:0:0:0:
256,192,151279,1,8,0:0:0:0:
256,192,151350,1,8,0:0:0:0:
256,192,151422,1,0,0:0:0:0:
256,192,151565,1,8,0:0:0:0:
256,192,151636,1,0,0:0:0:0:
256,192,151707,1,8,0:0:0:0:
256,192,151779,1,8,0:0:0:0:
256,192,151850,1,0,0:0:0:0:
256,192,151922,1,8,0:0:0:0:
256,192,151993,1,0,0:0:0:0:
256,192,152065,1,0,0:0:0:0:
256,192,152136,1,8,0:0:0:0:
256,192,152207,1,8,0:0:0:0:
256,192,152279,1,8,0:0:0:0:
256,192,152350,1,0,0:0:0:0:
256,192,152422,1,8,0:0:0:0:
256,192,152493,1,8,0:0:0:0:
256,192,152565,1,0,0:0:0:0:
256,192,152636,1,8,0:0:0:0:
256,192,152707,1,0,0:0:0:0:
256,192,152779,1,0,0:0:0:0:
256,192,152850,1,8,0:0:0:0:
256,192,152922,1,0,0:0:0:0:
256,192,152993,1,8,0:0:0:0:
256,192,153065,1,8,0:0:0:0:
256,192,153136,1,0,0:0:0:0:
256,192,153207,1,0,0:0:0:0:
256,192,153279,1,8,0:0:0:0:
256,192,153350,1,8,0:0:0:0:
256,192,153422,1,8,0:0:0:0:
256,192,153493,1,0,0:0:0:0:
256,192,153565,1,8,0:0:0:0:
256,192,153636,1,0,0:0:0:0:
256,192,153707,1,8,0:0:0:0:
256,192,153779,1,8,0:0:0:0:
256,192,153850,1,0,0:0:0:0:
256,192,153922,1,8,0:0:0:0:
256,192,153993,1,0,0:0:0:0:
256,192,154065,1,0,0:0:0:0:
256,192,154136,1,8,0:0:0:0:
256,192,154207,1,8,0:0:0:0:
256,192,154279,1,8,0:0:0:0:
256,192,154350,1,0,0:0:0:0:
256,192,154422,1,8,0:0:0:0:
256,192,154493,1,8,0:0:0:0:
256,192,154565,1,0,0:0:0:0:
256,192,154636,1,8,0:0:0:0:
256,192,154707,1,0,0:0:0:0:
256,192,154779,1,0,0:0:0:0:
256,192,154850,1,8,0:0:0:0:
256,192,154922,1,0,0:0:0:0:
256,192,154993,1,8,0:0:0:0:
256,192,155065,1,8,0:0:0:0:
256,192,155136,1,0,0:0:0:0:
256,192,155207,1,0,0:0:0:0:
256,192,155279,1,8,0:0:0:0:
256,192,155350,1,8,0:0:0:0:
256,192,155422,1,8,0:0:0:0:
256,192,155493,1,0,0:0:0:0:
256,192,155565,1,8,0:0:0:0:
256,192,155636,1,8,0:0:0:0:
256,192,155707,1,0,0:0:0:0:
256,192,155779,1,8,0:0:0:0:
256,192,155850,1,0,0:0:0:0:
256,192,155922,1,0,0:0:0:0:
256,192,155993,1,8,0:0:0:0:
256,192,156065,1,0,0:0:0:0:
256,192,156136,1,8,0:0:0:0:
256,192,156207,1,8,0:0:0:0:
256,192,156279,1,8,0:0:0:0:
256,192,156350,1,0,0:0:0:0:
256,192,156422,1,8,0:0:0:0:
256,192,156493,1,0,0:0:0:0:
256,192,156565,1,8,0:0:0:0:
256,192,156636,1,8,0:0:0:0:
256,192,156707,1,0,0:0:0:0:
256,192,156779,1,8,0:0:0:0:
256,192,156850,1,0,0:0:0:0:
256,192,156922,1,0,0:0:0:0:
256,192,156993,1,8,0:0:0:0:
256,192,157065,1,8,0:0:0:0:
256,192,157136,1,8,0:0:0:0:
256,192,157207,1,0,0:0:0:0:
256,192,157279,1,8,0:0:0:0:
256,192,157350,1,8,0:0:0:0:
256,192,157422,1,0,0:0:0:0:
256,192,157493,1,0,0:0:0:0:
256,192,157565,1,8,0:0:0:0:
256,192,157636,1,8,0:0:0:0:
256,192,157707,1,0,0:0:0:0:
256,192,157779,1,8,0:0:0:0:
256,192,157850,1,0,0:0:0:0:
256,192,157922,1,0,0:0:0:0:
256,192,157993,1,8,0:0:0:0:
256,192,158065,1,0,0:0:0:0:
256,192,158136,1,8,0:0:0:0:
256,192,158207,1,8,0:0:0:0:
256,192,158279,1,8,0:0:0:0:
256,192,158350,1,0,0:0:0:0:
256,192,158422,1,8,0:0:0:0:
256,192,158493,1,0,0:0:0:0:
256,192,158565,1,8,0:0:0:0:
256,192,158636,1,8,0:0:0:0:
256,192,158707,1,0,0:0:0:0:
256,192,158779,1,8,0:0:0:0:
256,192,158850,1,0,0:0:0:0:
256,192,158922,1,0,0:0:0:0:
256,192,158993,1,8,0:0:0:0:
256,192,159065,1,8,0:0:0:0:
256,192,159136,1,8,0:0:0:0:
256,192,159207,1,0,0:0:0:0:
256,192,159279,1,8,0:0:0:0:
256,192,159350,1,8,0:0:0:0:
256,192,159422,1,8,0:0:0:0:
256,192,159493,1,8,0:0:0:0:
