osu file format v14

[General]
AudioFilename: audio.mp3
AudioLeadIn: 0
PreviewTime: 96246
Countdown: 0
SampleSet: Normal
StackLeniency: 0.2
Mode: 1
LetterboxInBreaks: 0
WidescreenStoryboard: 0

[Editor]
DistanceSpacing: 4
BeatDivisor: 4
GridSize: 32
TimelineZoom: 2.900001

[Metadata]
Title:theyaremanycolors
TitleUnicode:theyaremanycolors
Artist:Frums
ArtistUnicode:Frums
Creator:Genjuro
Version:Nifty's Inner Oni
Source:
Tags:bms bofu2017 legenda est a semicolon breakcore densecore frenchcore speedcore psycore hard rave dark psytrance trance experimental vulkin nifty [_chichinya_] _yu68 theyaremanycolours
BeatmapID:2111626
BeatmapSetID:984900

[Difficulty]
HPDrainRate:5
CircleSize:2
OverallDifficulty:6
ApproachRate:10
SliderMultiplier:1.4
SliderTickRate:1

[Events]
//Background and Video events
0,0,"bg.jpg",0,0
//Break Periods
2,112446,119797
//Storyboard Layer 0 (Background)
//Storyboard Layer 1 (Fail)
//Storyboard Layer 2 (Pass)
//Storyboard Layer 3 (Foreground)
//Storyboard Layer 4 (Overlay)
//Storyboard Sound Samples

[TimingPoints]
247,250,4,1,0,10,1,0
247,-200,4,1,0,10,0,0
40247,-133.333333333333,4,1,0,50,0,0
54934,-130.612244897959,4,1,0,50,0,0
54997,-129.729785829097,4,1,0,50,0,0
55122,-128,4,1,0,50,0,0
55247,-126.315736288111,4,1,0,65,0,0
55309,-125.490196078431,4,1,0,65,0,0
55372,-124.675376488468,4,1,0,65,0,0
55434,-123.870916595234,4,1,0,65,0,0
55497,-123.076923076923,4,1,0,65,0,0
55622,-121.518938118911,4,1,0,65,0,0
55684,-120.754716981132,4,1,0,65,0,0
55747,-120.000048000019,4,1,0,65,0,0
55872,-118.518518518519,4,1,0,65,0,0
55997,-117.073125044634,4,1,0,65,0,0
56059,-116.599175177435,4,1,0,65,0,0
56122,-116.129047242458,4,1,0,65,0,0
56184,-115.662695195256,4,1,0,65,0,0
56247,-114.285714285714,4,1,0,80,0,0
70247,-114.285714285714,4,1,0,85,0,0
70497,-112.2858708443,4,1,0,85,0,0
70622,-111.311843468833,4,1,0,85,0,0
70747,-110.354691012383,4,1,0,85,0,0
70872,-109.413859015866,4,1,0,85,0,0
70934,-108.949433299523,4,1,0,85,0,0
70997,-108.48893358633,4,1,0,85,0,0
71122,-107.579514708809,4,1,0,85,0,0
71247,-106.685101852267,4,1,0,90,0,0
71309,-106.243505865704,4,1,0,90,0,0
71372,-105.805550559182,4,1,0,90,0,0
71434,-105.37119109487,4,1,0,90,0,0
71497,-104.940383368209,4,1,0,90,0,0
71622,-104.089250286766,4,1,0,90,0,0
71684,-103.668840256684,4,1,0,90,0,0
71747,-103.25181258557,4,1,0,90,0,0
71809,-102.838020861721,4,1,0,90,0,0
71872,-102.427637434843,4,1,0,90,0,0
71997,-101.616618788303,4,1,0,90,0,0
72059,-101.215906687031,4,1,0,90,0,0
72122,-100.818342485959,4,1,0,90,0,0
72184,-100.423889236467,4,1,0,90,0,0
72247,-100,4,1,0,55,0,0
72497,-102.233495168956,4,1,0,55,0,0
72559,-102.807466289432,4,1,0,55,0,0
72622,-103.388025598875,4,1,0,55,0,0
72684,-103.975070936992,4,1,0,55,0,0
72747,-104.5689302703,4,1,0,55,0,0
72997,-107.013676347837,4,1,0,55,0,0
73059,-107.642742349561,4,1,0,55,0,0
73122,-108.279365093115,4,1,0,55,0,0
73184,-108.923562889742,4,1,0,55,0,0
73247,-109.575351682091,4,1,0,55,0,0
73434,-111.578625552175,4,1,0,55,0,0
73622,-113.656511836189,4,1,0,55,0,0
73747,-115.085260915549,4,1,0,55,0,0
73830,-116.058019725221,4,1,0,55,0,0
73913,-117.047226214833,4,1,0,55,0,0
73997,-118.053440431414,4,1,0,55,0,0
74080,-119.077104806905,4,1,0,55,0,0
74163,-120.118677253126,4,1,0,55,0,0
74247,-121.178631844775,4,1,0,50,0,0
74497,-124.473942002611,4,1,0,50,0,0
74559,-125.326004268604,4,1,0,50,0,0
74622,-126.189652953216,4,1,0,50,0,0
74684,-127.065448871405,4,1,0,50,0,0
74747,-127.953486348643,4,1,0,50,0,0
74997,-131.632986173271,4,1,0,50,0,0
75059,-132.586253987532,4,1,0,50,0,0
75122,-133.553251020013,4,1,0,50,0,0
75184,-134.534637960563,4,1,0,50,0,0
75247,-135.530554685901,4,1,0,50,0,0
75434,-138.608591514936,4,1,0,50,0,0
75622,-141.829486917648,4,1,0,50,0,0
75747,-144.061496971827,4,1,0,50,0,0
75830,-145.588804803266,4,1,0,50,0,0
75913,-147.148843998682,4,1,0,50,0,0
75997,-148.742678141668,4,1,0,50,0,0
76080,-150.37141740098,4,1,0,50,0,0
76163,-152.036452259794,4,1,0,50,0,0
76247,-153.738536870345,4,1,0,50,0,0
76622,-148.148148148148,4,1,0,55,0,0
77122,-142.857142857143,4,1,0,60,0,0
77580,-137.931034482759,4,1,0,65,0,0
78080,-133.333333333333,4,1,0,70,0,0
79247,-133.333333333333,4,1,0,80,0,0
80247,333.333333333333,6,1,0,60,1,0
84330,-111.111111111111,6,1,0,60,0,0
84497,-111.111111111111,6,1,0,50,0,0
87080,-111.111111111111,6,1,0,50,0,0
87163,-109.374965820323,6,1,0,50,0,0
87247,-107.692357396473,6,1,0,50,0,0
87330,-106.060622130397,6,1,0,50,0,0
87413,-104.477596346627,6,1,0,50,0,0
87496,-102.941131055383,6,1,0,50,0,0
87580,-101.449304767914,6,1,0,50,0,0
87663,-100,6,1,0,50,0,0
87830,-97.2222627314984,6,1,0,50,0,0
87913,-95.8904240945786,6,1,0,50,0,0
87996,-94.594581811543,6,1,0,50,0,0
88080,-93.3332960000149,6,1,0,50,0,0
88163,-92.1052873961283,6,1,0,50,0,0
88246,-90.9090909090909,6,1,0,60,0,0
90246,-95.2380952380952,6,1,0,60,0,0
92246,-100,6,1,0,60,0,0
94663,-100,6,1,0,60,0,0
94746,-99.4764554151501,6,1,0,60,0,0
94830,-98.9583642578222,6,1,0,60,0,0
94913,-98.4456417622164,6,1,0,60,0,0
94996,-97.938108991404,6,1,0,60,0,0
95080,-97.4358774490508,6,1,0,60,0,0
95163,-96.9387705643484,6,1,0,60,0,0
95246,-96.4467102991584,6,1,0,60,0,0
95330,-95.9596201918233,6,1,0,60,0,0
95413,-95.4774253175579,6,1,0,60,0,0
95496,-94.9999620000152,6,1,0,60,0,0
95580,-94.527339669816,6,1,0,60,0,0
95663,-94.0593966277825,6,1,0,60,0,0
95746,-93.596063723944,6,1,0,60,0,0
95830,-93.1372731641712,6,1,0,60,0,0
95913,-92.6829584771078,6,1,0,60,0,0
95996,-92.2329694127803,6,1,0,60,0,0
96080,-91.7874130084793,6,1,0,60,0,0
96163,-91.3461406712297,6,1,0,60,0,0
96246,-90.9661514950287,6,1,0,80,0,1
112246,-90.9090909090909,6,1,0,80,0,0
114246,-111.111111111111,6,1,0,65,0,0
116246,-142.857142857143,6,1,0,60,0,0
118246,-200,6,1,0,55,0,0
120247,326.086956521739,6,1,0,50,1,0
120247,-326.086956521739,6,1,0,50,0,0
121225,319.148936170213,6,1,0,50,1,8
121225,-333.333333333333,6,1,0,50,0,0
122182,312.5,6,1,0,50,1,0
122182,-243.055555555556,6,1,0,50,0,0
123119,306.122448979592,6,1,0,50,1,8
124037,300,6,1,0,50,1,0
124037,-190.909090909091,6,1,0,50,0,0
124937,295.566502463054,6,1,0,50,1,8
125823,291.26213592233,6,1,0,50,1,0
125823,-156.833457804332,6,1,0,50,0,0
126696,289.855072463768,6,1,0,50,1,8
126985,-144.230838572519,6,1,0,70,0,0
127058,-141.537006973528,6,1,0,70,0,0
127130,-138.941956997464,6,1,0,70,0,0
127203,-136.440353053058,6,1,0,70,0,0
127275,-134.027237015106,6,1,0,70,0,0
127348,-131.697995424812,6,1,0,70,0,0
127420,-129.448330051818,6,1,0,70,0,0
127493,-127.274393410241,6,1,0,70,0,0
127565,285.714285714286,7,1,0,60,1,0
127565,-126.582278481013,7,1,0,60,0,0
135136,-119.094547970688,7,1,0,60,0,0
135279,-116.346171745565,7,1,0,60,0,0
135422,-115.01907591374,7,1,0,60,0,0
135493,-113.721784203817,7,1,0,60,0,0
135565,-111.111111111111,7,1,0,70,0,0
137565,-111.111111111111,7,1,0,75,0,0
139565,-111.111111111111,7,1,0,80,0,0
139707,-110.672601669386,7,1,0,80,0,0
139850,-110.237539850871,7,1,0,80,0,0
139993,-109.805885156221,7,1,0,80,0,0
140136,-109.377597717946,7,1,0,80,0,0
140422,-108.530850436891,7,1,0,80,0,0
140565,-108.112432605412,7,1,0,85,0,0
140779,-107.490820283948,7,1,0,85,0,0
140850,-107.285201615715,7,1,0,85,0,0
140993,-106.876315246655,7,1,0,85,0,0
141136,-106.470533747433,7,1,0,85,0,0
141207,-106.268796293344,7,1,0,85,0,0
141279,-106.067821886671,7,1,0,85,0,0
141422,-105.668033306564,7,1,0,85,0,0
141565,-105.271357979464,7,1,0,90,0,0
141707,-104.877649733821,7,1,0,90,0,0
141779,-104.681897882809,7,1,0,90,0,0
141850,-104.486875403581,7,1,0,90,0,0
141993,-104.099002315162,7,1,0,90,0,0
142136,-103.713998278348,7,1,0,90,0,0
142279,-103.331831577381,7,1,0,90,0,0
142422,-102.952470962256,7,1,0,90,0,0
142565,-102.575780422181,7,1,0,95,0,0
142636,-102.388519380099,7,1,0,95,0,0
142707,-102.201940814856,7,1,0,95,0,0
142850,-101.830816245274,7,1,0,95,0,0
142993,-101.462377243206,7,1,0,95,0,0
143065,-101.279155736958,7,1,0,95,0,0
143136,-101.096594763399,7,1,0,95,0,0
143207,-100.914690757022,7,1,0,95,0,0
143279,-100.733440177936,7,1,0,95,0,0
143422,-100.372885268774,7,1,0,95,0,0
143565,-100.014902220431,7,1,0,100,0,0
150636,-99.2949068663421,7,1,0,100,0,0
150707,-98.5997844608712,7,1,0,100,0,0
150779,-97.9142310501693,7,1,0,100,0,0
150850,-97.2382395211211,7,1,0,100,0,0
150922,-96.5714247085716,7,1,0,100,0,0
150993,-95.9136930224707,7,1,0,100,0,0
151065,-95.2649508813913,7,1,0,100,0,0
151136,-94.6248361807524,7,1,0,100,0,0
151279,-93.3701585238552,7,1,0,100,0,0
151350,-92.7551717964915,7,1,0,100,0,0
151422,-92.1483182471178,7,1,0,100,0,0
151493,-91.324200913242,7,1,0,100,0,0
151565,-90.9580428739831,7,1,0,100,0,1
158779,-89.8945896042301,7,1,0,100,0,1
158850,-88.9024810904423,7,1,0,100,0,1
158922,-87.9321093769922,7,1,0,100,0,1
158993,-86.9826165240877,7,1,0,100,0,1
159136,-85.1438462710827,7,1,0,100,0,1
159207,-84.2533092593544,7,1,0,100,0,1
159279,-83.3812775679349,7,1,0,100,0,1
159350,-82.5270441123556,7,1,0,100,0,1
159422,-81.6901362428092,7,1,0,100,0,1
159493,-80.8700321539248,7,1,0,100,0,1
159565,-80,7,1,0,50,0,0

[HitObjects]
327,115,40247,5,12,0:0:0:0:
332,135,40497,1,0,0:0:0:0:
332,135,40747,1,0,0:0:0:0:
332,135,40997,1,0,0:0:0:0:
332,135,41247,1,8,0:0:0:0:
336,113,41497,1,0,0:0:0:0:
337,102,41747,1,0,0:0:0:0:
337,102,41997,1,0,0:0:0:0:
336,101,42122,1,0,0:0:0:0:
337,102,42247,1,8,0:0:0:0:
333,100,42497,1,0,0:0:0:0:
337,102,42747,1,0,0:0:0:0:
337,102,42997,1,0,0:0:0:0:
337,102,43247,1,8,0:0:0:0:
327,89,43497,1,0,0:0:0:0:
327,89,43622,1,0,0:0:0:0:
328,89,43872,1,0,0:0:0:0:
327,92,43934,1,0,0:0:0:0:
328,89,43997,1,0,0:0:0:0:
330,92,44122,1,0,0:0:0:0:
330,92,44247,1,8,0:0:0:0:
327,89,44497,1,0,0:0:0:0:
328,89,44747,1,0,0:0:0:0:
328,89,44997,1,0,0:0:0:0:
330,92,45247,1,8,0:0:0:0:
334,83,45497,1,0,0:0:0:0:
333,82,45747,1,0,0:0:0:0:
333,83,45997,1,0,0:0:0:0:
333,83,46122,1,0,0:0:0:0:
333,83,46247,1,8,0:0:0:0:
334,83,46497,1,0,0:0:0:0:
333,82,46747,1,0,0:0:0:0:
333,83,46997,1,0,0:0:0:0:
333,83,47247,1,8,0:0:0:0:
326,86,47434,1,0,0:0:0:0:
326,86,47497,1,0,0:0:0:0:
333,82,47622,1,8,0:0:0:0:
333,82,47684,1,8,0:0:0:0:
333,82,47747,1,0,0:0:0:0:
333,83,47809,1,0,0:0:0:0:
333,83,47872,1,0,0:0:0:0:
333,83,47997,1,8,0:0:0:0:
333,83,48059,1,0,0:0:0:0:
333,83,48122,1,8,0:0:0:0:
333,83,48184,1,0,0:0:0:0:
333,83,48247,1,8,0:0:0:0:
326,86,48497,1,0,0:0:0:0:
333,82,48747,1,0,0:0:0:0:
333,83,48997,1,0,0:0:0:0:
333,83,49247,1,8,0:0:0:0:
326,86,49497,1,0,0:0:0:0:
327,95,49747,1,0,0:0:0:0:
327,95,49997,1,0,0:0:0:0:
333,83,50122,1,0,0:0:0:0:
333,83,50247,1,8,0:0:0:0:
326,86,50497,1,0,0:0:0:0:
328,82,50747,1,0,0:0:0:0:
321,81,50997,1,0,0:0:0:0:
321,80,51247,1,8,0:0:0:0:
331,92,51497,1,0,0:0:0:0:
331,92,51622,1,0,0:0:0:0:
321,81,51809,1,0,0:0:0:0:
328,83,51872,1,0,0:0:0:0:
329,71,51997,1,0,0:0:0:0:
331,72,52122,1,0,0:0:0:0:
331,68,52247,1,8,0:0:0:0:
336,70,52497,1,0,0:0:0:0:
336,69,52747,1,0,0:0:0:0:
336,69,52997,1,0,0:0:0:0:
331,68,53247,1,8,0:0:0:0:
332,62,53497,1,0,0:0:0:0:
332,62,53747,1,0,0:0:0:0:
332,62,53997,1,0,0:0:0:0:
331,68,54122,1,0,0:0:0:0:
331,68,54247,1,8,0:0:0:0:
338,64,54497,1,0,0:0:0:0:
338,64,54747,1,0,0:0:0:0:
338,65,54934,1,8,0:0:0:0:
338,65,54997,1,0,0:0:0:0:
336,51,55122,1,0,0:0:0:0:
337,54,55247,1,8,0:0:0:0:
337,54,55309,1,0,0:0:0:0:
337,54,55372,1,8,0:0:0:0:
337,55,55434,1,8,0:0:0:0:
337,55,55497,1,0,0:0:0:0:
350,56,55622,1,8,0:0:0:0:
350,56,55684,1,8,0:0:0:0:
350,56,55747,1,0,0:0:0:0:
350,56,55872,1,0,0:0:0:0:
350,56,55997,1,8,0:0:0:0:
350,56,56059,1,8,0:0:0:0:
349,51,56122,1,0,0:0:0:0:
350,55,56184,1,0,0:0:0:0:
349,51,56247,1,12,0:0:0:0:
344,51,56497,1,8,0:0:0:0:
350,56,56622,1,8,0:0:0:0:
350,56,56747,1,0,0:0:0:0:
350,56,56872,1,0,0:0:0:0:
350,56,56997,1,8,0:0:0:0:
352,49,57122,1,0,0:0:0:0:
349,51,57247,1,8,0:0:0:0:
350,41,57372,1,8,0:0:0:0:
352,41,57497,1,0,0:0:0:0:
352,41,57622,1,8,0:0:0:0:
352,41,57747,1,0,0:0:0:0:
352,42,57872,1,8,0:0:0:0:
352,41,57997,1,0,0:0:0:0:
352,41,58122,1,0,0:0:0:0:
355,38,58247,1,8,0:0:0:0:
350,41,58372,1,0,0:0:0:0:
352,41,58497,1,8,0:0:0:0:
352,41,58622,1,8,0:0:0:0:
352,41,58747,1,0,0:0:0:0:
367,39,58872,1,0,0:0:0:0:
352,28,58997,1,8,0:0:0:0:
352,28,59122,1,0,0:0:0:0:
359,45,59247,1,8,0:0:0:0:
360,34,59372,1,8,0:0:0:0:
360,34,59497,1,0,0:0:0:0:
366,32,59622,1,8,0:0:0:0:
357,27,59747,1,0,0:0:0:0:
359,24,59872,1,8,0:0:0:0:
359,24,59934,1,8,0:0:0:0:
359,23,59997,1,0,0:0:0:0:
359,23,60122,1,0,0:0:0:0:
359,23,60247,1,8,0:0:0:0:
359,23,60372,1,0,0:0:0:0:
359,23,60497,1,8,0:0:0:0:
353,38,60622,1,8,0:0:0:0:
353,38,60747,1,0,0:0:0:0:
356,40,60872,1,0,0:0:0:0:
356,40,60997,1,8,0:0:0:0:
357,40,61122,1,0,0:0:0:0:
357,40,61247,1,8,0:0:0:0:
356,40,61372,1,8,0:0:0:0:
356,40,61497,1,0,0:0:0:0:
353,38,61622,1,8,0:0:0:0:
353,38,61747,1,0,0:0:0:0:
356,40,61872,1,8,0:0:0:0:
356,40,61997,1,0,0:0:0:0:
351,34,62122,1,0,0:0:0:0:
351,34,62247,1,8,0:0:0:0:
356,40,62372,1,0,0:0:0:0:
356,40,62497,1,8,0:0:0:0:
359,43,62622,1,8,0:0:0:0:
359,43,62747,1,0,0:0:0:0:
356,40,62872,1,0,0:0:0:0:
356,40,62997,1,8,0:0:0:0:
360,44,63122,1,0,0:0:0:0:
360,44,63247,1,8,0:0:0:0:
361,46,63372,1,0,0:0:0:0:
361,46,63434,1,0,0:0:0:0:
361,46,63497,1,8,0:0:0:0:
359,43,63622,1,0,0:0:0:0:
359,43,63747,1,8,0:0:0:0:
359,47,63809,1,8,0:0:0:0:
361,46,63872,1,0,0:0:0:0:
361,46,63934,1,0,0:0:0:0:
360,45,63997,1,8,0:0:0:0:
360,44,64122,1,0,0:0:0:0:
360,44,64247,1,12,0:0:0:0:
367,42,64497,1,8,0:0:0:0:
366,41,64622,1,0,0:0:0:0:
366,42,64747,1,0,0:0:0:0:
367,43,64872,1,8,0:0:0:0:
367,43,64997,1,0,0:0:0:0:
363,50,65122,1,8,0:0:0:0:
375,46,65247,1,0,0:0:0:0:
374,46,65372,1,8,0:0:0:0:
373,45,65434,1,8,0:0:0:0:
374,45,65497,1,8,0:0:0:0:
373,45,65622,1,0,0:0:0:0:
373,45,65747,1,8,0:0:0:0:
372,37,65872,1,8,0:0:0:0:
372,37,65997,1,0,0:0:0:0:
372,32,66122,1,8,0:0:0:0:
390,40,66247,1,0,0:0:0:0:
374,46,66372,1,8,0:0:0:0:
368,40,66497,1,8,0:0:0:0:
373,45,66622,1,0,0:0:0:0:
373,45,66747,1,8,0:0:0:0:
384,38,66872,1,0,0:0:0:0:
384,38,66997,1,8,0:0:0:0:
382,41,67122,1,8,0:0:0:0:
380,42,67247,1,0,0:0:0:0:
380,43,67372,1,8,0:0:0:0:
380,43,67434,1,8,0:0:0:0:
380,43,67497,1,0,0:0:0:0:
380,43,67622,1,8,0:0:0:0:
380,43,67747,1,0,0:0:0:0:
384,38,67809,1,0,0:0:0:0:
384,38,67872,1,0,0:0:0:0:
384,38,67997,1,8,0:0:0:0:
382,41,68122,1,8,0:0:0:0:
382,34,68247,1,4,0:0:0:0:
380,43,68497,1,8,0:0:0:0:
380,43,68622,1,0,0:0:0:0:
380,43,68747,1,0,0:0:0:0:
380,45,68872,1,8,0:0:0:0:
380,45,68997,1,0,0:0:0:0:
382,41,69122,1,8,0:0:0:0:
382,34,69247,1,0,0:0:0:0:
380,43,69372,1,0,0:0:0:0:
380,43,69497,1,8,0:0:0:0:
384,37,69622,1,8,0:0:0:0:
380,43,69747,1,0,0:0:0:0:
383,37,69872,1,8,0:0:0:0:
392,46,69997,1,0,0:0:0:0:
392,46,70122,1,8,0:0:0:0:
392,46,70247,1,0,0:0:0:0:
392,46,70372,1,0,0:0:0:0:
392,46,70497,1,8,0:0:0:0:
392,46,70622,1,8,0:0:0:0:
392,46,70747,1,0,0:0:0:0:
392,46,70872,1,8,0:0:0:0:
392,46,70934,1,8,0:0:0:0:
392,46,70997,1,0,0:0:0:0:
399,33,71122,1,0,0:0:0:0:
402,49,71247,1,8,0:0:0:0:
401,32,71309,1,0,0:0:0:0:
401,49,71372,1,0,0:0:0:0:
355,54,71434,1,0,0:0:0:0:
403,34,71497,1,8,0:0:0:0:
403,34,71622,1,0,0:0:0:0:
404,34,71684,1,0,0:0:0:0:
404,34,71747,1,8,0:0:0:0:
405,34,71809,1,0,0:0:0:0:
405,34,71872,1,8,0:0:0:0:
373,47,71934,1,8,0:0:0:0:
399,42,71997,1,0,0:0:0:0:
403,41,72059,1,0,0:0:0:0:
399,33,72122,1,8,0:0:0:0:
400,41,72184,1,8,0:0:0:0:
398,41,72247,1,0,0:0:0:0:
397,43,72497,1,0,0:0:0:0:
398,42,72559,1,0,0:0:0:0:
403,34,72622,1,8,0:0:0:0:
399,44,72684,1,8,0:0:0:0:
399,44,72747,1,0,0:0:0:0:
374,53,72997,1,8,0:0:0:0:
374,53,73059,1,8,0:0:0:0:
371,54,73122,1,8,0:0:0:0:
371,54,73184,1,8,0:0:0:0:
374,52,73247,1,0,0:0:0:0:
385,45,73434,1,0,0:0:0:0:
400,47,73622,1,8,0:0:0:0:
399,44,73747,1,8,0:0:0:0:
396,48,73913,1,0,0:0:0:0:
395,49,73997,1,8,0:0:0:0:
395,49,74080,1,0,0:0:0:0:
394,49,74163,1,8,0:0:0:0:
395,51,74247,1,0,0:0:0:0:
384,52,74497,1,8,0:0:0:0:
400,47,74559,1,0,0:0:0:0:
397,56,74622,1,8,0:0:0:0:
397,56,74684,1,8,0:0:0:0:
397,56,74747,1,0,0:0:0:0:
395,49,74997,1,8,0:0:0:0:
395,49,75059,1,0,0:0:0:0:
394,49,75122,1,8,0:0:0:0:
400,45,75184,1,0,0:0:0:0:
395,51,75247,1,8,0:0:0:0:
406,49,75434,1,0,0:0:0:0:
406,43,75622,1,0,0:0:0:0:
405,44,75684,1,0,0:0:0:0:
406,49,75747,1,8,0:0:0:0:
408,43,75913,1,0,0:0:0:0:
411,46,75997,1,0,0:0:0:0:
411,46,76080,1,8,0:0:0:0:
411,46,76163,1,8,0:0:0:0:
409,44,76247,1,0,0:0:0:0:
414,41,76434,1,8,0:0:0:0:
391,45,76622,1,0,0:0:0:0:
393,44,76684,1,0,0:0:0:0:
397,40,76747,1,8,0:0:0:0:
397,40,76934,1,8,0:0:0:0:
397,40,77122,1,0,0:0:0:0:
397,40,77184,1,0,0:0:0:0:
400,41,77247,1,8,0:0:0:0:
397,39,77434,1,8,0:0:0:0:
390,55,77580,1,0,0:0:0:0:
389,54,77663,1,0,0:0:0:0:
390,54,77747,1,8,0:0:0:0:
372,68,77913,1,8,0:0:0:0:
359,78,78080,1,0,0:0:0:0:
359,78,78163,1,0,0:0:0:0:
357,77,78247,1,8,0:0:0:0:
363,61,78413,1,0,0:0:0:0:
363,61,78497,1,8,0:0:0:0:
363,62,78580,1,8,0:0:0:0:
363,62,78663,1,0,0:0:0:0:
362,62,78747,1,8,0:0:0:0:
363,62,78913,1,0,0:0:0:0:
362,62,78997,1,8,0:0:0:0:
362,62,79080,1,0,0:0:0:0:
362,62,79163,1,0,0:0:0:0:
493,112,79247,1,8,0:0:0:0:
378,61,79372,1,0,0:0:0:0:
378,61,79434,1,0,0:0:0:0:
377,61,79497,1,8,0:0:0:0:
373,61,79559,1,8,0:0:0:0:
373,62,79622,1,0,0:0:0:0:
373,62,79747,1,8,0:0:0:0:
373,62,79809,1,0,0:0:0:0:
372,62,79872,1,8,0:0:0:0:
371,62,79934,1,8,0:0:0:0:
362,62,79997,1,0,0:0:0:0:
362,62,80059,1,0,0:0:0:0:
362,62,80122,1,8,0:0:0:0:
361,67,80247,1,4,0:0:0:0:
400,67,80413,1,8,0:0:0:0:
399,67,80497,1,0,0:0:0:0:
398,68,80580,1,8,0:0:0:0:
398,68,80663,1,8,0:0:0:0:
398,68,80747,1,0,0:0:0:0:
398,68,80913,1,8,0:0:0:0:
397,68,81080,1,0,0:0:0:0:
400,67,81163,1,0,0:0:0:0:
397,67,81247,1,8,0:0:0:0:
400,67,81413,1,0,0:0:0:0:
399,67,81497,1,0,0:0:0:0:
398,68,81580,1,8,0:0:0:0:
392,74,81663,1,8,0:0:0:0:
392,74,81747,1,0,0:0:0:0:
392,74,81830,1,8,0:0:0:0:
399,60,81913,1,8,0:0:0:0:
399,60,82080,1,0,0:0:0:0:
399,60,82247,1,8,0:0:0:0:
395,54,82330,1,0,0:0:0:0:
388,52,82413,1,0,0:0:0:0:
388,52,82497,1,8,0:0:0:0:
388,52,82580,1,0,0:0:0:0:
393,47,82747,1,8,0:0:0:0:
394,47,82830,1,8,0:0:0:0:
394,47,82913,1,0,0:0:0:0:
394,47,83080,1,8,0:0:0:0:
394,47,83163,1,0,0:0:0:0:
394,47,83247,1,8,0:0:0:0:
394,47,83413,1,0,0:0:0:0:
394,47,83497,1,0,0:0:0:0:
394,47,83580,1,8,0:0:0:0:
393,47,83663,1,8,0:0:0:0:
393,47,83747,1,0,0:0:0:0:
394,47,83830,1,8,0:0:0:0:
394,47,83913,1,0,0:0:0:0:
394,47,83997,1,0,0:0:0:0:
394,47,84080,1,0,0:0:0:0:
394,47,84163,1,0,0:0:0:0:
394,47,84247,1,8,0:0:0:0:
394,47,84413,1,0,0:0:0:0:
394,47,84497,1,0,0:0:0:0:
393,47,84663,1,8,0:0:0:0:
393,47,84747,1,0,0:0:0:0:
394,47,84830,1,0,0:0:0:0:
394,47,84913,1,8,0:0:0:0:
394,47,85080,1,0,0:0:0:0:
381,23,85163,1,0,0:0:0:0:
383,35,85247,1,8,0:0:0:0:
383,35,85413,1,0,0:0:0:0:
384,38,85580,1,8,0:0:0:0:
385,39,85663,1,8,0:0:0:0:
385,39,85747,1,0,0:0:0:0:
385,39,85830,1,8,0:0:0:0:
385,39,85913,1,0,0:0:0:0:
377,45,85997,1,8,0:0:0:0:
376,46,86080,1,0,0:0:0:0:
385,39,86163,1,0,0:0:0:0:
376,46,86247,1,8,0:0:0:0:
376,46,86413,1,0,0:0:0:0:
376,36,86497,1,0,0:0:0:0:
376,36,86580,1,8,0:0:0:0:
354,37,86663,1,0,0:0:0:0:
379,46,86830,1,0,0:0:0:0:
376,43,86913,1,8,0:0:0:0:
362,34,87080,1,0,0:0:0:0:
368,38,87163,1,8,0:0:0:0:
369,38,87247,1,0,0:0:0:0:
369,38,87330,1,0,0:0:0:0:
369,38,87413,1,0,0:0:0:0:
376,36,87496,1,0,0:0:0:0:
376,36,87580,1,8,0:0:0:0:
377,37,87663,1,8,0:0:0:0:
373,38,87830,1,0,0:0:0:0:
373,35,87913,1,8,0:0:0:0:
373,35,87996,1,8,0:0:0:0:
372,35,88080,1,0,0:0:0:0:
368,38,88163,1,0,0:0:0:0:
381,43,88246,1,8,0:0:0:0:
376,39,88413,1,0,0:0:0:0:
376,36,88496,1,0,0:0:0:0:
377,37,88580,1,8,0:0:0:0:
373,38,88746,1,0,0:0:0:0:
389,39,88830,1,8,0:0:0:0:
389,39,88996,1,8,0:0:0:0:
389,40,89080,1,0,0:0:0:0:
390,41,89163,1,0,0:0:0:0:
390,40,89246,1,8,0:0:0:0:
388,41,89330,1,0,0:0:0:0:
387,41,89413,1,8,0:0:0:0:
386,41,89580,1,8,0:0:0:0:
366,41,89746,1,0,0:0:0:0:
366,41,89830,1,8,0:0:0:0:
366,41,89996,1,0,0:0:0:0:
366,41,90080,1,8,0:0:0:0:
366,41,90246,1,0,0:0:0:0:
366,41,90330,1,0,0:0:0:0:
366,41,90413,1,0,0:0:0:0:
366,41,90496,1,0,0:0:0:0:
363,41,90580,1,8,0:0:0:0:
366,41,90746,1,0,0:0:0:0:
366,41,90830,1,8,0:0:0:0:
366,41,90996,1,8,0:0:0:0:
366,41,91080,1,0,0:0:0:0:
366,41,91163,1,0,0:0:0:0:
366,41,91246,1,8,0:0:0:0:
366,41,91330,1,8,0:0:0:0:
366,41,91413,1,0,0:0:0:0:
366,41,91496,1,8,0:0:0:0:
358,43,91663,1,0,0:0:0:0:
366,41,91746,1,0,0:0:0:0:
366,41,91830,1,0,0:0:0:0:
366,41,91913,1,8,0:0:0:0:
366,41,92080,1,8,0:0:0:0:
366,41,92246,1,0,0:0:0:0:
366,41,92330,1,8,0:0:0:0:
366,41,92413,1,0,0:0:0:0:
366,41,92496,1,0,0:0:0:0:
353,24,92663,1,0,0:0:0:0:
353,24,92746,1,8,0:0:0:0:
352,23,92830,1,8,0:0:0:0:
359,30,92913,1,0,0:0:0:0:
356,23,93080,1,8,0:0:0:0:
356,23,93163,1,0,0:0:0:0:
357,23,93246,1,8,0:0:0:0:
357,23,93330,1,8,0:0:0:0:
357,23,93413,1,0,0:0:0:0:
357,24,93496,1,8,0:0:0:0:
353,24,93580,1,0,0:0:0:0:
353,24,93746,1,8,0:0:0:0:
357,22,93913,1,8,0:0:0:0:
356,23,93996,1,0,0:0:0:0:
368,26,94080,1,0,0:0:0:0:
368,26,94163,1,0,0:0:0:0:
365,24,94246,1,8,0:0:0:0:
357,23,94330,1,8,0:0:0:0:
357,23,94413,1,0,0:0:0:0:
357,24,94496,1,0,0:0:0:0:
353,24,94663,1,8,0:0:0:0:
353,24,94746,1,0,0:0:0:0:
357,22,94830,1,8,0:0:0:0:
357,22,94913,1,8,0:0:0:0:
356,23,94996,1,0,0:0:0:0:
353,22,95080,1,8,0:0:0:0:
353,22,95163,1,0,0:0:0:0:
351,22,95246,1,8,0:0:0:0:
357,23,95330,1,8,0:0:0:0:
357,23,95413,1,0,0:0:0:0:
357,24,95496,1,0,0:0:0:0:
353,24,95580,1,8,0:0:0:0:
353,24,95663,1,0,0:0:0:0:
353,24,95746,1,0,0:0:0:0:
346,22,95830,1,0,0:0:0:0:
346,22,95913,1,8,0:0:0:0:
346,22,95996,1,0,0:0:0:0:
353,22,96080,1,8,0:0:0:0:
353,22,96163,1,8,0:0:0:0:
351,22,96246,1,4,0:0:0:0:
360,55,96413,1,0,0:0:0:0:
367,50,96496,1,0,0:0:0:0:
367,50,96580,1,8,0:0:0:0:
367,50,96663,1,8,0:0:0:0:
362,54,96746,1,0,0:0:0:0:
355,55,96913,1,8,0:0:0:0:
348,61,96996,1,0,0:0:0:0:
350,52,97080,1,8,0:0:0:0:
350,52,97163,1,8,0:0:0:0:
343,46,97246,1,0,0:0:0:0:
346,45,97330,1,8,0:0:0:0:
342,40,97496,1,8,0:0:0:0:
339,42,97580,1,0,0:0:0:0:
350,44,97663,1,8,0:0:0:0:
355,55,97830,1,0,0:0:0:0:
349,49,97913,1,8,0:0:0:0:
350,52,98080,1,8,0:0:0:0:
343,46,98246,1,0,0:0:0:0:
363,50,98330,1,8,0:0:0:0:
362,50,98413,1,0,0:0:0:0:
361,50,98496,1,0,0:0:0:0:
361,50,98580,1,8,0:0:0:0:
349,62,98663,1,0,0:0:0:0:
359,49,98830,1,8,0:0:0:0:
370,58,98913,1,8,0:0:0:0:
358,49,98996,1,0,0:0:0:0:
359,49,99080,1,8,0:0:0:0:
359,49,99163,1,0,0:0:0:0:
357,48,99246,1,8,0:0:0:0:
363,50,99330,1,8,0:0:0:0:
361,50,99496,1,0,0:0:0:0:
355,56,99580,1,0,0:0:0:0:
359,49,99746,1,8,0:0:0:0:
359,49,99830,1,8,0:0:0:0:
361,47,99913,1,0,0:0:0:0:
358,49,99996,1,0,0:0:0:0:
359,49,100080,1,0,0:0:0:0:
359,49,100163,1,0,0:0:0:0:
357,48,100246,1,8,0:0:0:0:
363,50,100330,1,0,0:0:0:0:
361,50,100496,1,8,0:0:0:0:
352,44,100580,1,0,0:0:0:0:
354,43,100663,1,0,0:0:0:0:
354,43,100746,1,8,0:0:0:0:
354,43,100830,1,8,0:0:0:0:
354,42,100913,1,0,0:0:0:0:
354,41,100996,1,8,0:0:0:0:
354,42,101163,1,8,0:0:0:0:
357,48,101246,1,0,0:0:0:0:
362,40,101330,1,8,0:0:0:0:
359,38,101413,1,8,0:0:0:0:
357,37,101580,1,0,0:0:0:0:
356,34,101663,1,8,0:0:0:0:
355,34,101746,1,0,0:0:0:0:
352,34,101913,1,8,0:0:0:0:
351,32,101996,1,0,0:0:0:0:
352,32,102080,1,8,0:0:0:0:
352,32,102163,1,8,0:0:0:0:
353,32,102246,1,0,0:0:0:0:
352,32,102330,1,0,0:0:0:0:
352,33,102413,1,8,0:0:0:0:
350,32,102580,1,0,0:0:0:0:
352,25,102663,1,8,0:0:0:0:
348,26,102746,1,8,0:0:0:0:
352,34,102913,1,0,0:0:0:0:
352,32,103080,1,8,0:0:0:0:
345,23,103163,1,0,0:0:0:0:
346,14,103246,1,8,0:0:0:0:
346,14,103330,1,8,0:0:0:0:
346,15,103413,1,0,0:0:0:0:
346,15,103496,1,0,0:0:0:0:
346,15,103580,1,8,0:0:0:0:
347,14,103663,1,8,0:0:0:0:
347,14,103746,1,0,0:0:0:0:
347,14,103830,1,8,0:0:0:0:
347,14,103913,1,8,0:0:0:0:
348,14,103996,1,0,0:0:0:0:
337,18,104080,1,0,0:0:0:0:
336,18,104163,1,8,0:0:0:0:
331,23,104246,1,0,0:0:0:0:
409,120,104413,1,0,0:0:0:0:
339,77,104496,1,8,0:0:0:0:
339,77,104580,1,0,0:0:0:0:
343,57,104663,1,0,0:0:0:0:
325,50,104830,1,8,0:0:0:0:
338,57,104913,1,0,0:0:0:0:
343,34,104996,1,0,0:0:0:0:
343,34,105080,1,8,0:0:0:0:
343,34,105163,1,8,0:0:0:0:
343,34,105246,1,0,0:0:0:0:
342,33,105330,1,8,0:0:0:0:
342,33,105413,1,8,0:0:0:0:
343,33,105496,1,8,0:0:0:0:
347,35,105663,1,0,0:0:0:0:
347,34,105746,1,8,0:0:0:0:
346,34,105830,1,0,0:0:0:0:
345,31,105913,1,0,0:0:0:0:
343,34,105996,1,8,0:0:0:0:
343,34,106163,1,8,0:0:0:0:
343,34,106246,1,0,0:0:0:0:
342,33,106330,1,8,0:0:0:0:
343,33,106496,1,0,0:0:0:0:
338,34,106580,1,8,0:0:0:0:
347,34,106746,1,0,0:0:0:0:
346,34,106830,1,0,0:0:0:0:
345,31,106913,1,8,0:0:0:0:
343,34,106996,1,0,0:0:0:0:
343,34,107163,1,8,0:0:0:0:
343,34,107246,1,0,0:0:0:0:
342,33,107330,1,8,0:0:0:0:
343,33,107413,1,0,0:0:0:0:
343,33,107496,1,0,0:0:0:0:
338,34,107580,1,8,0:0:0:0:
347,34,107746,1,0,0:0:0:0:
346,34,107830,1,0,0:0:0:0:
345,31,107913,1,8,0:0:0:0:
343,34,107996,1,8,0:0:0:0:
343,34,108080,1,0,0:0:0:0:
343,34,108163,1,0,0:0:0:0:
343,34,108246,1,8,0:0:0:0:
329,49,108413,1,0,0:0:0:0:
350,48,108496,1,8,0:0:0:0:
349,47,108580,1,0,0:0:0:0:
349,47,108663,1,0,0:0:0:0:
349,47,108746,1,8,0:0:0:0:
342,49,108913,1,0,0:0:0:0:
342,50,109080,1,8,0:0:0:0:
342,50,109163,1,8,0:0:0:0:
342,50,109246,1,0,0:0:0:0:
342,50,109330,1,8,0:0:0:0:
339,55,109413,1,0,0:0:0:0:
338,56,109496,1,8,0:0:0:0:
338,56,109580,1,0,0:0:0:0:
336,55,109663,1,0,0:0:0:0:
300,47,109746,1,8,0:0:0:0:
337,54,109913,1,0,0:0:0:0:
342,50,109996,1,8,0:0:0:0:
342,50,110080,1,8,0:0:0:0:
342,50,110163,1,0,0:0:0:0:
342,50,110246,1,8,0:0:0:0:
342,50,110330,1,0,0:0:0:0:
339,55,110413,1,0,0:0:0:0:
342,50,110496,1,8,0:0:0:0:
343,49,110580,1,8,0:0:0:0:
343,49,110663,1,0,0:0:0:0:
343,49,110746,1,8,0:0:0:0:
343,49,110830,1,8,0:0:0:0:
343,49,110913,1,0,0:0:0:0:
342,50,110996,1,8,0:0:0:0:
342,50,111080,1,0,0:0:0:0:
342,50,111163,1,0,0:0:0:0:
342,50,111246,1,8,0:0:0:0:
342,50,111330,1,0,0:0:0:0:
341,47,111413,1,8,0:0:0:0:
342,50,111496,1,8,0:0:0:0:
343,49,111580,1,0,0:0:0:0:
343,49,111663,1,8,0:0:0:0:
343,49,111746,1,8,0:0:0:0:
343,49,111830,1,8,0:0:0:0:
343,49,111913,1,0,0:0:0:0:
342,50,111996,1,8,0:0:0:0:
343,38,112080,1,8,0:0:0:0:
342,50,112163,1,8,0:0:0:0:
343,40,112246,1,0,0:0:0:0:
296,131,120247,5,0,0:0:0:0:
296,131,120736,1,0,0:0:0:0:
256,192,121225,12,0,126840,0:0:0:0:
278,110,126985,5,0,0:0:0:0:
278,110,127058,1,0,0:0:0:0:
278,110,127130,1,0,0:0:0:0:
278,110,127203,1,0,0:0:0:0:
285,101,127275,1,8,0:0:0:0:
285,101,127348,1,8,0:0:0:0:
287,101,127420,1,8,0:0:0:0:
284,101,127493,1,8,0:0:0:0:
282,101,127565,1,0,0:0:0:0:
279,99,127850,1,0,0:0:0:0:
279,99,128136,1,0,0:0:0:0:
274,99,128422,1,0,0:0:0:0:
274,99,128565,1,0,0:0:0:0:
279,99,128850,1,0,0:0:0:0:
268,109,129136,1,0,0:0:0:0:
268,105,129422,1,0,0:0:0:0:
268,105,129565,1,0,0:0:0:0:
259,103,129850,1,0,0:0:0:0:
259,103,130136,1,0,0:0:0:0:
259,103,130422,1,0,0:0:0:0:
259,103,130565,1,0,0:0:0:0:
259,103,130850,1,0,0:0:0:0:
259,103,131136,1,0,0:0:0:0:
259,103,131422,1,0,0:0:0:0:
259,103,131565,1,8,0:0:0:0:
317,93,131707,1,0,0:0:0:0:
296,97,131850,1,8,0:0:0:0:
269,95,132136,1,8,0:0:0:0:
259,111,132422,1,0,0:0:0:0:
259,111,132565,1,0,0:0:0:0:
258,111,132850,1,0,0:0:0:0:
259,111,133136,1,0,0:0:0:0:
259,111,133422,1,0,0:0:0:0:
291,68,133565,1,8,0:0:0:0:
291,68,133707,1,0,0:0:0:0:
291,68,133850,1,8,0:0:0:0:
298,76,134136,1,8,0:0:0:0:
291,68,134422,1,8,0:0:0:0:
259,111,134565,1,0,0:0:0:0:
258,111,134850,1,0,0:0:0:0:
259,111,135136,1,0,0:0:0:0:
284,59,135279,1,0,0:0:0:0:
259,111,135422,1,0,0:0:0:0:
284,59,135493,1,0,0:0:0:0:
284,59,135565,1,8,0:0:0:0:
297,67,135850,1,0,0:0:0:0:
279,70,135993,1,0,0:0:0:0:
294,66,136136,1,0,0:0:0:0:
293,64,136422,1,0,0:0:0:0:
294,65,136565,1,0,0:0:0:0:
294,64,136850,1,0,0:0:0:0:
273,94,136993,1,0,0:0:0:0:
286,72,137136,1,0,0:0:0:0:
281,79,137422,1,0,0:0:0:0:
294,65,137565,1,0,0:0:0:0:
294,64,137850,1,0,0:0:0:0:
299,64,137993,1,0,0:0:0:0:
299,64,138136,1,0,0:0:0:0:
299,64,138422,1,0,0:0:0:0:
294,65,138565,1,0,0:0:0:0:
294,64,138850,1,0,0:0:0:0:
299,64,138993,1,0,0:0:0:0:
299,64,139136,1,0,0:0:0:0:
299,64,139279,1,0,0:0:0:0:
291,62,139350,1,0,0:0:0:0:
291,62,139422,1,0,0:0:0:0:
294,65,139565,1,8,0:0:0:0:
294,64,139707,1,0,0:0:0:0:
294,64,139850,1,8,0:0:0:0:
299,64,139993,1,0,0:0:0:0:
299,64,140136,1,8,0:0:0:0:
291,62,140422,1,0,0:0:0:0:
294,65,140565,1,8,0:0:0:0:
294,64,140779,1,8,0:0:0:0:
294,64,140850,1,0,0:0:0:0:
292,60,140993,1,8,0:0:0:0:
291,60,141136,1,0,0:0:0:0:
291,62,141207,1,0,0:0:0:0:
291,62,141279,1,8,0:0:0:0:
291,62,141422,1,0,0:0:0:0:
288,54,141565,1,8,0:0:0:0:
288,52,141707,1,0,0:0:0:0:
287,53,141779,1,0,0:0:0:0:
288,52,141850,1,0,0:0:0:0:
298,46,141993,1,0,0:0:0:0:
298,46,142136,1,8,0:0:0:0:
296,45,142279,1,0,0:0:0:0:
294,33,142422,1,8,0:0:0:0:
294,33,142565,1,8,0:0:0:0:
294,33,142636,1,8,0:0:0:0:
294,33,142707,1,0,0:0:0:0:
296,45,142850,1,8,0:0:0:0:
298,46,142993,1,0,0:0:0:0:
288,42,143065,1,8,0:0:0:0:
288,43,143136,1,0,0:0:0:0:
288,43,143207,1,0,0:0:0:0:
288,43,143279,1,8,0:0:0:0:
292,49,143422,1,0,0:0:0:0:
292,49,143565,1,8,0:0:0:0:
292,48,143707,1,8,0:0:0:0:
296,45,143779,1,0,0:0:0:0:
296,45,143850,1,8,0:0:0:0:
298,46,143993,1,0,0:0:0:0:
288,43,144065,1,8,0:0:0:0:
291,29,144207,1,8,0:0:0:0:
286,31,144279,1,0,0:0:0:0:
291,29,144350,1,0,0:0:0:0:
286,31,144422,1,8,0:0:0:0:
285,30,144565,1,0,0:0:0:0:
286,33,144707,1,8,0:0:0:0:
287,33,144779,1,8,0:0:0:0:
287,34,144850,1,0,0:0:0:0:
287,35,144993,1,8,0:0:0:0:
287,35,145136,1,0,0:0:0:0:
288,35,145207,1,0,0:0:0:0:
286,31,145279,1,8,0:0:0:0:
287,34,145350,1,8,0:0:0:0:
286,31,145422,1,0,0:0:0:0:
285,30,145565,1,8,0:0:0:0:
286,33,145636,1,0,0:0:0:0:
286,33,145707,1,8,0:0:0:0:
276,33,145850,1,0,0:0:0:0:
276,34,145993,1,8,0:0:0:0:
276,34,146065,1,8,0:0:0:0:
276,34,146136,1,0,0:0:0:0:
275,38,146207,1,8,0:0:0:0:
289,41,146350,1,0,0:0:0:0:
286,31,146422,1,8,0:0:0:0:
282,39,146565,1,8,0:0:0:0:
282,39,146707,1,0,0:0:0:0:
274,42,146779,1,0,0:0:0:0:
274,42,146850,1,8,0:0:0:0:
268,40,146922,1,0,0:0:0:0:
269,40,146993,1,8,0:0:0:0:
276,34,147136,1,8,0:0:0:0:
270,36,147279,1,0,0:0:0:0:
270,35,147350,1,0,0:0:0:0:
270,35,147422,1,8,0:0:0:0:
270,35,147493,1,8,0:0:0:0:
270,35,147565,1,0,0:0:0:0:
270,35,147707,1,8,0:0:0:0:
264,34,147779,1,0,0:0:0:0:
264,34,147850,1,8,0:0:0:0:
268,40,147922,1,8,0:0:0:0:
269,40,147993,1,0,0:0:0:0:
264,34,148136,1,8,0:0:0:0:
270,36,148279,1,0,0:0:0:0:
270,35,148350,1,0,0:0:0:0:
270,35,148422,1,8,0:0:0:0:
270,35,148565,1,0,0:0:0:0:
277,23,148707,1,8,0:0:0:0:
276,38,148779,1,8,0:0:0:0:
279,40,148850,1,0,0:0:0:0:
279,40,148993,1,8,0:0:0:0:
279,40,149136,1,0,0:0:0:0:
278,40,149207,1,0,0:0:0:0:
279,40,149279,1,0,0:0:0:0:
277,40,149350,1,0,0:0:0:0:
277,40,149422,1,8,0:0:0:0:
270,42,149493,1,8,0:0:0:0:
270,35,149565,1,0,0:0:0:0:
269,40,149707,1,8,0:0:0:0:
276,31,149779,1,8,0:0:0:0:
276,31,149850,1,0,0:0:0:0:
279,40,149993,1,8,0:0:0:0:
279,40,150136,1,0,0:0:0:0:
279,40,150279,1,8,0:0:0:0:
277,40,150350,1,0,0:0:0:0:
277,40,150422,1,8,0:0:0:0:
279,38,150565,1,0,0:0:0:0:
269,40,150636,1,0,0:0:0:0:
274,35,150707,1,8,0:0:0:0:
276,31,150779,1,0,0:0:0:0:
276,31,150850,1,8,0:0:0:0:
279,40,150922,1,8,0:0:0:0:
279,40,150993,1,0,0:0:0:0:
279,40,151065,1,0,0:0:0:0:
279,40,151136,1,8,0:0:0:0:
279,40,151279,1,0,0:0:0:0:
277,40,151350,1,0,0:0:0:0:
277,40,151422,1,8,0:0:0:0:
279,38,151493,1,8,0:0:0:0:
279,38,151565,1,0,0:0:0:0:
279,86,151707,1,0,0:0:0:0:
270,41,151850,1,8,0:0:0:0:
269,41,151922,1,8,0:0:0:0:
269,41,151993,1,0,0:0:0:0:
269,41,152065,1,8,0:0:0:0:
269,41,152136,1,0,0:0:0:0:
267,42,152279,1,8,0:0:0:0:
268,42,152422,1,0,0:0:0:0:
269,42,152493,1,8,0:0:0:0:
269,42,152565,1,0,0:0:0:0:
270,41,152636,1,0,0:0:0:0:
270,41,152707,1,8,0:0:0:0:
265,46,152850,1,0,0:0:0:0:
269,41,152922,1,0,0:0:0:0:
269,41,152993,1,8,0:0:0:0:
269,41,153065,1,8,0:0:0:0:
269,41,153136,1,0,0:0:0:0:
267,42,153207,1,8,0:0:0:0:
267,42,153279,1,0,0:0:0:0:
268,42,153350,1,0,0:0:0:0:
268,42,153422,1,8,0:0:0:0:
260,47,153493,1,8,0:0:0:0:
260,47,153565,1,0,0:0:0:0:
260,47,153707,1,0,0:0:0:0:
265,46,153850,1,8,0:0:0:0:
269,49,153922,1,0,0:0:0:0:
266,49,153993,1,0,0:0:0:0:
266,49,154065,1,8,0:0:0:0:
266,49,154136,1,0,0:0:0:0:
266,49,154207,1,8,0:0:0:0:
266,49,154279,1,0,0:0:0:0:
268,49,154350,1,0,0:0:0:0:
268,49,154422,1,8,0:0:0:0:
268,47,154565,1,0,0:0:0:0:
260,47,154707,1,8,0:0:0:0:
265,46,154779,1,0,0:0:0:0:
265,46,154850,1,8,0:0:0:0:
262,45,154922,1,8,0:0:0:0:
266,49,154993,1,0,0:0:0:0:
266,49,155136,1,8,0:0:0:0:
266,49,155207,1,8,0:0:0:0:
266,49,155279,1,0,0:0:0:0:
268,49,155350,1,0,0:0:0:0:
260,45,155422,1,8,0:0:0:0:
268,47,155493,1,0,0:0:0:0:
260,45,155565,1,8,0:0:0:0:
292,56,155707,1,0,0:0:0:0:
291,55,155779,1,8,0:0:0:0:
291,55,155850,1,0,0:0:0:0:
290,52,155922,1,0,0:0:0:0:
289,50,155993,1,8,0:0:0:0:
289,50,156065,1,8,0:0:0:0:
289,50,156136,1,0,0:0:0:0:
289,50,156207,1,8,0:0:0:0:
292,51,156350,1,8,0:0:0:0:
293,51,156422,1,0,0:0:0:0:
293,52,156493,1,0,0:0:0:0:
293,52,156565,1,8,0:0:0:0:
292,56,156707,1,0,0:0:0:0:
291,62,156779,1,8,0:0:0:0:
299,58,156850,1,0,0:0:0:0:
299,62,156922,1,0,0:0:0:0:
299,58,156993,1,8,0:0:0:0:
289,50,157065,1,8,0:0:0:0:
289,50,157136,1,0,0:0:0:0:
292,51,157279,1,8,0:0:0:0:
292,51,157350,1,8,0:0:0:0:
289,44,157422,1,0,0:0:0:0:
288,44,157493,1,0,0:0:0:0:
289,45,157565,1,8,0:0:0:0:
290,46,157707,1,0,0:0:0:0:
291,46,157779,1,8,0:0:0:0:
290,46,157850,1,0,0:0:0:0:
290,46,157922,1,8,0:0:0:0:
289,46,157993,1,8,0:0:0:0:
289,50,158065,1,0,0:0:0:0:
289,50,158136,1,8,0:0:0:0:
292,51,158279,1,0,0:0:0:0:
292,51,158350,1,0,0:0:0:0:
289,44,158422,1,8,0:0:0:0:
288,44,158493,1,8,0:0:0:0:
289,45,158565,1,0,0:0:0:0:
290,46,158636,1,8,0:0:0:0:
290,46,158707,1,0,0:0:0:0:
291,46,158779,1,0,0:0:0:0:
290,46,158850,1,0,0:0:0:0:
290,46,158922,1,0,0:0:0:0:
289,46,158993,1,8,0:0:0:0:
289,50,159136,1,0,0:0:0:0:
298,48,159207,1,0,0:0:0:0:
298,48,159279,1,8,0:0:0:0:
300,51,159350,1,0,0:0:0:0:
283,52,159422,1,8,0:0:0:0:
272,50,159493,1,8,0:0:0:0:
