osu file format v14

[General]
AudioFilename: audio.mp3
AudioLeadIn: 0
PreviewTime: 96246
Countdown: 0
SampleSet: Normal
StackLeniency: 0.2
Mode: 1
LetterboxInBreaks: 0
WidescreenStoryboard: 1

[Editor]
DistanceSpacing: 4
BeatDivisor: 2
GridSize: 32
TimelineZoom: 3.400001

[Metadata]
Title:theyaremanycolors
TitleUnicode:theyaremanycolors
Artist:Frums
ArtistUnicode:Frums
Creator:Genjuro
Version:Futsuu
Source:
Tags:bms bofu2017 legenda est a semicolon breakcore densecore frenchcore speedcore psycore hard rave dark psytrance trance experimental vulkin nifty [_chichinya_] _yu68 theyaremanycolours
BeatmapID:2112653
BeatmapSetID:984900

[Difficulty]
HPDrainRate:7
CircleSize:2
OverallDifficulty:4
ApproachRate:9
SliderMultiplier:1.4
SliderTickRate:1

[Events]
//Background and Video events
0,0,"bg.jpg",0,0
//Break Periods
2,112446,119647
//Storyboard Layer 0 (Background)
//Storyboard Layer 1 (Fail)
//Storyboard Layer 2 (Pass)
//Storyboard Layer 3 (Foreground)
//Storyboard Layer 4 (Overlay)
//Storyboard Sound Samples

[TimingPoints]
247,250,4,1,0,10,1,0
247,-133.333333333333,4,1,0,10,0,0
40247,-133.333333333333,4,1,0,50,0,0
55247,-133.333333333333,4,1,0,65,0,0
56247,-133.333333333333,4,1,0,80,0,0
70247,-133.333333333333,4,1,0,85,0,0
71247,-133.333333333333,4,1,0,90,0,0
72247,-133.333333333333,4,1,0,55,0,0
74247,-133.333333333333,4,1,0,50,0,0
76622,-133.333333333333,4,1,0,55,0,0
77122,-133.333333333333,4,1,0,60,0,0
77580,-133.333333333333,4,1,0,65,0,0
78080,-133.333333333333,4,1,0,70,0,0
79247,-133.333333333333,4,1,0,80,0,0
80247,333.333333333333,6,1,0,60,1,0
84497,-100,6,1,0,50,0,0
88246,-100,6,1,0,60,0,0
96246,-100,6,1,0,80,0,1
112246,-100,6,1,0,80,0,0
114246,-100,6,1,0,65,0,0
116246,-100,6,1,0,60,0,0
118246,-100,6,1,0,55,0,0
120247,326.086956521739,6,1,0,50,1,0
121225,319.148936170213,6,1,0,50,1,8
122182,312.5,6,1,0,50,1,0
123119,306.122448979592,6,1,0,50,1,8
124037,300,6,1,0,50,1,0
124937,295.566502463054,6,1,0,50,1,8
125823,291.26213592233,6,1,0,50,1,0
126696,289.855072463768,6,1,0,50,1,8
126985,-98.5714285714286,6,1,0,70,0,0
127565,285.714285714286,7,1,0,60,1,0
135565,-100,7,1,0,70,0,0
137565,-100,7,1,0,75,0,0
139565,-100,7,1,0,80,0,0
140565,-100,7,1,0,85,0,0
141565,-100,7,1,0,90,0,0
142565,-100,7,1,0,95,0,0
143565,-100,7,1,0,100,0,0
151565,-100,7,1,0,100,0,1
159565,-100,7,1,0,50,0,0

[HitObjects]
256,192,40247,5,12,0:0:0:0:
256,192,40747,1,0,0:0:0:0:
256,192,41247,1,8,0:0:0:0:
256,192,41747,1,0,0:0:0:0:
256,192,41997,1,0,0:0:0:0:
256,192,42247,1,8,0:0:0:0:
256,192,42747,1,0,0:0:0:0:
256,192,43247,1,8,0:0:0:0:
256,192,43622,1,0,0:0:0:0:
256,192,43997,1,0,0:0:0:0:
256,192,44247,1,8,0:0:0:0:
256,192,44747,1,0,0:0:0:0:
256,192,45247,1,8,0:0:0:0:
256,192,45747,1,0,0:0:0:0:
256,192,45997,1,0,0:0:0:0:
256,192,46247,1,8,0:0:0:0:
256,192,46747,1,0,0:0:0:0:
256,192,47247,1,8,0:0:0:0:
256,192,47622,1,8,0:0:0:0:
256,192,47997,1,0,0:0:0:0:
256,192,48247,1,8,0:0:0:0:
256,192,48747,1,0,0:0:0:0:
256,192,49247,1,8,0:0:0:0:
256,192,49747,1,0,0:0:0:0:
256,192,49997,1,0,0:0:0:0:
256,192,50247,1,8,0:0:0:0:
256,192,50747,1,0,0:0:0:0:
256,192,51247,1,8,0:0:0:0:
256,192,51622,1,0,0:0:0:0:
256,192,51997,1,0,0:0:0:0:
256,192,52247,1,8,0:0:0:0:
256,192,52747,1,0,0:0:0:0:
256,192,53247,1,8,0:0:0:0:
256,192,53747,1,0,0:0:0:0:
256,192,53997,1,0,0:0:0:0:
256,192,54247,1,8,0:0:0:0:
256,192,54747,1,0,0:0:0:0:
256,192,55247,1,8,0:0:0:0:
256,192,55622,1,8,0:0:0:0:
256,192,55997,1,0,0:0:0:0:
256,192,56247,1,12,0:0:0:0:
256,192,56872,1,8,0:0:0:0:
256,192,57247,1,0,0:0:0:0:
256,192,57747,1,0,0:0:0:0:
256,192,57997,1,8,0:0:0:0:
256,192,58247,1,0,0:0:0:0:
256,192,58497,1,8,0:0:0:0:
256,192,58872,1,8,0:0:0:0:
256,192,59247,1,0,0:0:0:0:
256,192,59497,1,8,0:0:0:0:
256,192,59622,1,0,0:0:0:0:
256,192,59872,1,8,0:0:0:0:
256,192,60247,1,0,0:0:0:0:
256,192,60872,1,8,0:0:0:0:
256,192,61247,1,0,0:0:0:0:
256,192,61747,1,8,0:0:0:0:
256,192,61997,1,8,0:0:0:0:
256,192,62247,1,0,0:0:0:0:
256,192,62497,1,8,0:0:0:0:
256,192,62872,1,8,0:0:0:0:
256,192,63247,1,0,0:0:0:0:
256,192,63622,1,8,0:0:0:0:
256,192,63872,1,8,0:0:0:0:
256,192,63997,1,0,0:0:0:0:
256,192,64247,1,8,0:0:0:0:
256,192,64872,1,8,0:0:0:0:
256,192,65247,1,0,0:0:0:0:
256,192,65747,1,0,0:0:0:0:
256,192,65997,1,8,0:0:0:0:
256,192,66247,1,0,0:0:0:0:
256,192,66497,1,8,0:0:0:0:
256,192,66872,1,8,0:0:0:0:
256,192,67247,1,0,0:0:0:0:
256,192,67497,1,8,0:0:0:0:
256,192,67622,1,0,0:0:0:0:
256,192,67872,1,8,0:0:0:0:
256,192,68122,1,0,0:0:0:0:
256,192,68247,1,8,0:0:0:0:
256,192,68872,1,0,0:0:0:0:
256,192,69247,1,8,0:0:0:0:
256,192,69747,1,0,0:0:0:0:
256,192,69997,1,0,0:0:0:0:
256,192,70247,1,8,0:0:0:0:
256,192,70747,1,8,0:0:0:0:
256,192,71247,1,8,0:0:0:0:
256,192,71497,1,8,0:0:0:0:
256,192,71747,1,0,0:0:0:0:
256,192,71997,1,0,0:0:0:0:
256,192,72247,1,8,0:0:0:0:
256,192,72747,1,0,0:0:0:0:
256,192,73247,1,8,0:0:0:0:
256,192,73622,1,0,0:0:0:0:
256,192,73747,1,8,0:0:0:0:
256,192,74247,1,0,0:0:0:0:
256,192,74747,1,8,0:0:0:0:
256,192,75247,1,8,0:0:0:0:
256,192,75622,1,0,0:0:0:0:
256,192,75747,1,8,0:0:0:0:
256,192,76247,1,8,0:0:0:0:
256,192,76747,1,8,0:0:0:0:
256,192,77247,1,8,0:0:0:0:
256,192,77747,1,8,0:0:0:0:
256,192,78247,1,8,0:0:0:0:
256,192,78580,1,8,0:0:0:0:
256,192,78913,1,8,0:0:0:0:
256,192,79247,1,0,0:0:0:0:
256,192,79580,1,0,0:0:0:0:
256,192,79913,1,0,0:0:0:0:
256,192,80247,1,12,0:0:0:0:
256,192,80913,1,0,0:0:0:0:
256,192,81580,1,8,0:0:0:0:
256,192,81913,1,8,0:0:0:0:
256,192,82247,1,0,0:0:0:0:
256,192,82913,1,0,0:0:0:0:
256,192,83580,1,8,0:0:0:0:
256,192,83913,1,0,0:0:0:0:
256,192,84080,1,0,0:0:0:0:
256,192,84247,1,8,0:0:0:0:
256,192,84913,1,0,0:0:0:0:
256,192,85580,1,0,0:0:0:0:
256,192,85913,1,8,0:0:0:0:
256,192,86247,1,0,0:0:0:0:
256,192,86913,1,0,0:0:0:0:
256,192,87247,1,0,0:0:0:0:
256,192,87413,1,8,0:0:0:0:
256,192,87580,1,0,0:0:0:0:
256,192,87913,1,8,0:0:0:0:
256,192,88080,1,8,0:0:0:0:
256,192,88246,1,0,0:0:0:0:
256,192,88580,1,8,0:0:0:0:
256,192,89246,1,8,0:0:0:0:
256,192,89580,1,0,0:0:0:0:
256,192,89913,1,8,0:0:0:0:
256,192,90580,1,8,0:0:0:0:
256,192,91080,1,0,0:0:0:0:
256,192,91246,1,8,0:0:0:0:
256,192,91580,1,0,0:0:0:0:
256,192,91913,1,0,0:0:0:0:
256,192,92080,1,8,0:0:0:0:
256,192,92246,1,0,0:0:0:0:
256,192,92580,1,8,0:0:0:0:
256,192,93246,1,8,0:0:0:0:
256,192,93580,1,0,0:0:0:0:
256,192,93746,1,8,0:0:0:0:
256,192,94080,1,8,0:0:0:0:
256,192,94246,1,0,0:0:0:0:
256,192,94580,1,8,0:0:0:0:
256,192,94913,1,0,0:0:0:0:
256,192,95246,1,8,0:0:0:0:
256,192,95413,1,8,0:0:0:0:
256,192,95580,1,0,0:0:0:0:
256,192,95746,1,0,0:0:0:0:
256,192,95913,1,8,0:0:0:0:
256,192,96246,1,4,0:0:0:0:
256,192,96913,1,8,0:0:0:0:
256,192,97246,1,0,0:0:0:0:
256,192,97580,1,8,0:0:0:0:
256,192,98080,1,0,0:0:0:0:
256,192,98246,1,8,0:0:0:0:
256,192,98913,1,0,0:0:0:0:
256,192,99246,1,8,0:0:0:0:
256,192,99580,1,0,0:0:0:0:
256,192,99913,1,8,0:0:0:0:
256,192,100080,1,8,0:0:0:0:
256,192,100246,1,0,0:0:0:0:
256,192,100913,1,8,0:0:0:0:
256,192,101246,1,8,0:0:0:0:
256,192,101580,1,0,0:0:0:0:
256,192,102080,1,8,0:0:0:0:
256,192,102246,1,0,0:0:0:0:
256,192,102913,1,0,0:0:0:0:
256,192,103246,1,0,0:0:0:0:
256,192,103413,1,0,0:0:0:0:
256,192,103580,1,8,0:0:0:0:
256,192,103913,1,8,0:0:0:0:
256,192,104080,1,8,0:0:0:0:
256,192,104246,1,0,0:0:0:0:
256,192,104913,1,8,0:0:0:0:
256,192,105080,1,0,0:0:0:0:
256,192,105246,1,0,0:0:0:0:
256,192,105413,1,8,0:0:0:0:
256,192,105746,1,0,0:0:0:0:
256,192,106080,1,0,0:0:0:0:
256,192,106246,1,8,0:0:0:0:
256,192,106746,1,8,0:0:0:0:
256,192,107246,1,0,0:0:0:0:
256,192,107913,1,8,0:0:0:0:
256,192,108080,1,8,0:0:0:0:
256,192,108246,1,0,0:0:0:0:
256,192,108913,1,0,0:0:0:0:
256,192,109246,1,0,0:0:0:0:
256,192,109580,1,8,0:0:0:0:
256,192,109913,1,0,0:0:0:0:
256,192,110080,1,8,0:0:0:0:
256,192,110246,1,0,0:0:0:0:
256,192,110913,1,8,0:0:0:0:
256,192,111246,1,0,0:0:0:0:
256,192,111413,1,0,0:0:0:0:
256,192,111580,1,8,0:0:0:0:
256,192,111913,1,8,0:0:0:0:
256,192,112080,1,8,0:0:0:0:
256,192,112246,1,0,0:0:0:0:
256,192,120247,5,0,0:0:0:0:
256,192,120736,1,0,0:0:0:0:
256,192,121225,8,0,126696,0:0:0:0:
256,192,126985,5,0,0:0:0:0:
256,192,127275,1,8,0:0:0:0:
256,192,127565,1,0,0:0:0:0:
256,192,128565,1,0,0:0:0:0:
256,192,129422,1,8,0:0:0:0:
256,192,129565,1,0,0:0:0:0:
256,192,130565,1,0,0:0:0:0:
256,192,131422,1,0,0:0:0:0:
256,192,131565,1,8,0:0:0:0:
256,192,132565,1,0,0:0:0:0:
256,192,133422,1,8,0:0:0:0:
256,192,133565,1,0,0:0:0:0:
256,192,134422,1,0,0:0:0:0:
256,192,134565,1,8,0:0:0:0:
256,192,135136,1,8,0:0:0:0:
256,192,135279,1,0,0:0:0:0:
256,192,135565,1,8,0:0:0:0:
256,192,136136,1,0,0:0:0:0:
256,192,136565,1,8,0:0:0:0:
256,192,137136,1,0,0:0:0:0:
256,192,137422,1,8,0:0:0:0:
256,192,137565,1,0,0:0:0:0:
256,192,138136,1,0,0:0:0:0:
256,192,138565,1,8,0:0:0:0:
256,192,139136,1,0,0:0:0:0:
256,192,139422,1,0,0:0:0:0:
256,192,139565,1,8,0:0:0:0:
256,192,140136,1,0,0:0:0:0:
256,192,140422,1,8,0:0:0:0:
256,192,140565,1,8,0:0:0:0:
256,192,140850,1,0,0:0:0:0:
256,192,141136,1,8,0:0:0:0:
256,192,141422,1,8,0:0:0:0:
256,192,141565,1,0,0:0:0:0:
256,192,141850,1,8,0:0:0:0:
256,192,142136,1,0,0:0:0:0:
256,192,142422,1,8,0:0:0:0:
256,192,142565,1,8,0:0:0:0:
256,192,142707,1,0,0:0:0:0:
256,192,142850,1,8,0:0:0:0:
256,192,143136,1,0,0:0:0:0:
256,192,143279,1,0,0:0:0:0:
256,192,143422,1,0,0:0:0:0:
256,192,143565,1,8,0:0:0:0:
256,192,144136,1,0,0:0:0:0:
256,192,144422,1,8,0:0:0:0:
256,192,144565,1,8,0:0:0:0:
256,192,144850,1,0,0:0:0:0:
256,192,145136,1,0,0:0:0:0:
256,192,145279,1,8,0:0:0:0:
256,192,145422,1,8,0:0:0:0:
256,192,145565,1,0,0:0:0:0:
256,192,145850,1,8,0:0:0:0:
256,192,146136,1,0,0:0:0:0:
256,192,146422,1,0,0:0:0:0:
256,192,146565,1,8,0:0:0:0:
256,192,146850,1,0,0:0:0:0:
256,192,147136,1,8,0:0:0:0:
256,192,147279,1,0,0:0:0:0:
256,192,147565,1,8,0:0:0:0:
256,192,148136,1,0,0:0:0:0:
256,192,148422,1,0,0:0:0:0:
256,192,148565,1,8,0:0:0:0:
256,192,148850,1,0,0:0:0:0:
256,192,149136,1,8,0:0:0:0:
256,192,149422,1,8,0:0:0:0:
256,192,149565,1,0,0:0:0:0:
256,192,149850,1,8,0:0:0:0:
256,192,149993,1,0,0:0:0:0:
256,192,150136,1,8,0:0:0:0:
256,192,150422,1,0,0:0:0:0:
256,192,150565,1,8,0:0:0:0:
256,192,150850,1,0,0:0:0:0:
256,192,151136,1,8,0:0:0:0:
256,192,151279,1,0,0:0:0:0:
256,192,151422,1,0,0:0:0:0:
256,192,151565,1,8,0:0:0:0:
256,192,152136,1,0,0:0:0:0:
256,192,152422,1,8,0:0:0:0:
256,192,152565,1,0,0:0:0:0:
256,192,152850,1,0,0:0:0:0:
256,192,153136,1,8,0:0:0:0:
256,192,153422,1,8,0:0:0:0:
256,192,153565,1,0,0:0:0:0:
256,192,153850,1,0,0:0:0:0:
256,192,154136,1,8,0:0:0:0:
256,192,154422,1,0,0:0:0:0:
256,192,154565,1,8,0:0:0:0:
256,192,154850,1,8,0:0:0:0:
256,192,155136,1,0,0:0:0:0:
256,192,155279,1,8,0:0:0:0:
256,192,155422,1,8,0:0:0:0:
256,192,155565,1,0,0:0:0:0:
256,192,155850,1,0,0:0:0:0:
256,192,156136,1,8,0:0:0:0:
256,192,156422,1,8,0:0:0:0:
256,192,156565,1,0,0:0:0:0:
256,192,156850,1,0,0:0:0:0:
256,192,157136,1,8,0:0:0:0:
256,192,157422,1,8,0:0:0:0:
256,192,157565,1,0,0:0:0:0:
256,192,157850,1,8,0:0:0:0:
256,192,158136,1,0,0:0:0:0:
256,192,158279,1,8,0:0:0:0:
256,192,158422,1,8,0:0:0:0:
256,192,158565,1,0,0:0:0:0:
256,192,158850,1,8,0:0:0:0:
256,192,158993,1,8,0:0:0:0:
256,192,159136,1,0,0:0:0:0:
256,192,159279,1,8,0:0:0:0:
256,192,159422,1,8,0:0:0:0:
