osu file format v14

[General]
AudioFilename: audio.mp3
AudioLeadIn: 0
PreviewTime: 39603
Countdown: 0
SampleSet: Soft
StackLeniency: 0.6
Mode: 0
LetterboxInBreaks: 0
EpilepsyWarning: 1
WidescreenStoryboard: 0

[Editor]
Bookmarks: 12083,40249,77999,112249,127567
DistanceSpacing: 0.7
BeatDivisor: 4
GridSize: 32
TimelineZoom: 2.4

[Metadata]
Title:theyaremanycolors
TitleUnicode:theyaremanycolors
Artist:Frums
ArtistUnicode:Frums
Creator:Ancelysia
Version:extra
Source:BOFU2017 - LEGENDA EST A MYTH -
Tags:ancel THE BMS OF FIGHTERS ULTIMATE 2017 semicolon breakcore densecore frenchcore speedcore psycore hard rave dark psytrance trance experimental therearemanycolors therearemanycolours theyaremanycolours they there are many colors colours tamc frums.xyz frumsdotxyz electronic instrumental featured artist fa vanchanical dementation ancul skubi cptsqbany
BeatmapID:3029278
BeatmapSetID:1416051

[Difficulty]
HPDrainRate:5
CircleSize:3.8
OverallDifficulty:8
ApproachRate:9.4
SliderMultiplier:2.5
SliderTickRate:1

[Events]
//Background and Video events
0,0,"BG.png",0,0
Video,-940,"test.mp4" S,0,-940,,1.875
//Break Periods
2,28583,33543
2,116249,119709
2,125141,126450
//Storyboard Layer 0 (Background)
//Storyboard Layer 1 (Fail)
//Storyboard Layer 2 (Pass)
//Storyboard Layer 3 (Foreground)
//Storyboard Layer 4 (Overlay)
//Storyboard Sound Samples

[TimingPoints]
83,500,4,2,0,50,1,0
12083,-200,4,2,0,50,0,0
34083,-1000,4,2,98,50,0,0
39583,333.333333333333,4,2,0,70,1,0
40249,500,4,2,0,80,1,0
40249,-80,4,2,0,80,0,0
55249,-66.6666666666667,4,3,0,80,0,0
55999,-33.3333333333333,4,3,0,80,0,0
56249,-66.6666666666667,4,3,0,80,0,0
72249,-50,4,3,0,80,0,0
76249,-66.6666666666667,4,3,0,80,0,0
78249,-66.6666666666667,4,2,0,80,0,0
79290,-66.6666666666667,4,2,0,40,0,0
79332,-66.6666666666667,4,2,0,80,0,0
79374,-66.6666666666667,4,2,0,40,0,0
79415,-66.6666666666667,4,2,0,80,0,0
79457,-66.6666666666667,4,2,0,40,0,0
79499,-66.6666666666667,4,2,0,80,0,0
79540,-66.6666666666667,4,2,0,40,0,0
79582,-66.6666666666667,4,2,0,80,0,0
79624,-66.6666666666667,4,2,0,40,0,0
79665,-66.6666666666667,4,2,0,80,0,0
79707,-66.6666666666667,4,2,0,40,0,0
79749,-66.6666666666667,4,2,0,80,0,0
79790,-66.6666666666667,4,2,0,40,0,0
79832,-66.6666666666667,4,2,0,100,0,0
79874,-66.6666666666667,4,2,0,40,0,0
79915,-66.6666666666667,4,2,0,100,0,0
79957,-66.6666666666667,4,2,0,50,0,0
79999,-66.6666666666667,4,2,0,100,0,0
80040,-66.6666666666667,4,2,0,60,0,0
80082,-66.6666666666667,4,2,0,100,0,0
80124,-66.6666666666667,4,2,0,70,0,0
80165,-66.6666666666667,4,2,0,100,0,0
80207,-66.6666666666667,4,2,0,80,0,0
80250,333.333333333333,3,2,0,90,1,1
80250,-125,3,2,0,90,0,1
84416,-125,3,3,0,80,0,0
87916,-100,3,2,1,100,0,0
88249,-100,7,1,1,80,0,0
88416,-100,7,1,2,80,0,0
92083,-100,7,1,3,80,0,0
92499,-100,7,1,4,80,0,0
93749,-100,7,1,5,80,0,0
94499,-100,7,1,6,80,0,0
94666,-100,7,1,1,80,0,0
95249,-100,7,1,0,80,0,0
96249,-125,7,1,2,80,0,1
96416,-125,7,1,0,80,0,1
96999,-125,7,2,0,80,0,1
98083,-125,7,2,0,80,0,0
112583,-125,7,2,10,70,0,0
112916,-125,7,2,0,60,0,0
113249,-125,7,2,10,50,0,0
113583,-125,7,2,0,40,0,0
113916,-125,7,2,10,30,0,0
114249,-125,7,2,0,20,0,0
120250,326.086956521739,3,3,0,70,1,0
120250,-200,3,3,0,70,0,0
121228,319.148936170213,3,2,0,70,1,0
121228,-130.718954248366,3,2,0,70,0,0
122185,312.5,3,2,0,70,1,0
122185,-133.333333333333,3,2,0,70,0,0
123123,306.122448979592,3,2,0,60,1,0
123123,-136.239782016349,3,2,0,60,0,0
124041,300,3,2,0,50,1,0
124041,-138.888888888889,3,2,0,50,0,0
124941,295.566502463054,3,2,0,40,1,0
124941,-141.043723554302,3,2,0,40,0,0
125828,291.26213592233,3,2,0,70,1,0
125828,-143.061516452074,3,2,0,70,0,0
126702,288.461538461538,3,2,0,70,1,0
126702,-144.508670520231,3,2,0,70,0,0
127278,-72.463768115942,3,2,0,70,0,0
127567,285.714285714286,7,3,0,70,1,0
127567,-100,7,3,0,70,0,0
127638,-100,7,3,0,50,0,0
127852,-166.666666666667,7,3,0,50,0,0
135567,-125,7,3,1,50,0,0
139567,-142.857142857143,7,3,1,50,0,0
139995,-142.857142857143,7,3,1,60,0,0
141567,-142.857142857143,7,3,1,70,0,0
141852,-166.666666666667,7,3,1,70,0,0
142567,-83.3333333333333,7,3,1,70,0,0
142709,-142.857142857143,7,3,1,80,0,0
143567,-100,7,3,1,100,0,0
143709,-133.333333333333,7,3,1,100,0,0
144567,-100,7,3,1,100,0,1
151138,-100,7,3,0,100,0,1
151567,-90.9090909090909,7,3,1,100,0,1
159138,-100,7,3,1,100,0,1
159567,-10000,7,2,11,30,0,0
161299,-10000,7,2,0,30,0,0
161477,-10000,7,2,99,5,0,0

[Colours]
Combo1 : 192,192,192
Combo2 : 242,24,57
Combo3 : 255,192,0
Combo4 : 0,202,0
Combo5 : 88,209,137
Combo6 : 100,219,244
Combo7 : 18,124,255
Combo8 : 106,106,106

[HitObjects]
12,300,12083,102,0,P|32:332|136:332,1,125,0|2,0:0|0:0,0:0:0:0:
132,172,13083,2,0,P|100:192|100:296,1,125,0|2,0:0|0:0,0:0:0:0:
260,292,14083,2,0,P|240:260|136:260,1,125,0|2,0:0|0:0,0:0:0:0:
159,245,14833,1,2,0:0:0:0:
128,320,15083,2,0,P|148:352|252:352,1,125,0|2,0:0|0:0,0:0:0:0:
228,367,16083,6,0,P|167:365|127:319,1,125,0|2,0:0|0:0,0:0:0:0:
159,244,17083,2,0,P|219:245|259:291,1,125,0|2,0:0|0:0,0:0:0:0:
84,272,18084,2,0,P|85:211|131:171,1,125,0|2,0:0|0:0,0:0:0:0:
232,104,18958,2,0,L|244:216,1,93.75,2|0,0:0|3:0,0:0:0:0:
320,264,19583,2,0,P|361:247|416:238,1,93.75,2|0,0:0|3:0,0:0:0:0:
496,160,20083,102,0,P|452:154|400:134,1,93.75,0|0,0:0|3:0,0:0:0:0:
362,74,20583,2,0,L|366:53,5,20.8333333333333,2|2|2|2|2|2,0:0|0:0|0:0|0:0|0:0|0:0,0:0:0:0:
305,2,21083,2,0,P|261:8|209:28,1,93.75,0|0,0:0|3:0,0:0:0:0:
171,88,21583,2,0,L|175:109,5,20.8333333333333,2|2|2|2|2|2,0:0|0:0|0:0|0:0|0:0|0:0,0:0:0:0:
136,175,22083,2,0,P|92:169|40:149,1,93.75,0|0,0:0|3:0,0:0:0:0:
16,79,22583,2,0,L|20:58,2,20.8333333333333,2|2|2,0:0|0:0|0:0,0:0:0:0:
94,71,22833,2,0,L|90:92,2,20.8333333333333,2|2|2,0:0|0:0|0:0,0:0:0:0:
45,152,23083,2,0,P|74:184|101:233,1,93.75,0|0,0:0|3:0,0:0:0:0:
58,293,23583,2,0,L|37:289,5,20.8333333333333,2|2|2|2|2|2,0:0|0:0|0:0|0:0|0:0|0:0,0:0:0:0:
175,368,24083,6,0,B|197:380|197:380|225:358|274:359,1,93.75,2|0,0:3|3:0,0:0:0:0:
312,298,24583,2,0,L|308:277,5,20.8333333333333,2|2|2|2|2|2,0:0|0:0|0:0|0:0|0:0|0:0,0:0:0:0:
378,384,25083,2,0,P|384:340|404:288,1,93.75,0|0,0:0|3:0,0:0:0:0:
464,250,25583,2,0,L|485:254,5,20.8333333333333,2|2|2|2|2|2,0:0|0:0|0:0|0:0|0:0|0:0,0:0:0:0:
512,166,26083,2,0,P|506:122|486:70,1,93.75,0|0,0:0|3:0,0:0:0:0:
426,33,26583,2,0,L|408:40,2,20.8333333333333,2|2|2,0:0|0:0|0:0,0:0:0:0:
344,100,26874,102,0,L|317:97,3,20.8333333333333,2|2|2|2,0:0|0:0|0:0|0:0,0:0:0:0:
313,173,27208,2,0,L|296:186,3,20.8333333333333,2|2|2|2,0:0|0:0|0:0|0:0,0:0:0:0:
361,242,27541,6,0,L|360:252,5,10.4166666666667,2|2|2|2|2|2,0:0|0:0|0:0|0:0|0:0|0:0,0:0:0:0:
438,259,27833,2,0,L|440:268,4,10.4166666666667,2|2|2|2|2,0:0|0:0|0:0|0:0|0:0,0:0:0:0:
495,206,28083,1,2,0:0:0:0:
4,368,34083,102,0,L|133:385,1,125
179,226,37083,6,0,L|59:210,1,118.75,2|0,0:3|0:0,0:0:0:0:
3,258,39583,101,2,0:3:0:0:
457,98,40249,22,0,P|465:146|492:221,1,78.125,4|0,1:2|0:0,0:0:0:0:
291,235,40499,2,0,P|281:185|254:110,1,78.125,0|0,1:0|0:0,0:0:0:0:
480,176,40749,2,0,P|451:216|416:288,1,78.125,0|0,1:0|0:0,0:0:0:0:
266,157,40999,2,0,P|293:115|328:43,1,78.125,0|0,1:0|0:0,0:0:0:0:
443,249,41249,102,0,P|393:257|318:284,1,78.125,0|0,1:0|0:0,0:0:0:0:
303,84,41499,2,0,P|351:74|426:47,1,78.125,0|0,1:0|0:0,0:0:0:0:
411,162,41749,2,0,P|361:170|286:197,1,78.125,0|0,1:0|0:0,0:0:0:0:
198,88,41999,1,0,1:0:0:0:
198,88,42124,1,0,1:0:0:0:
61,167,42249,6,0,P|69:215|70:295,1,78.125,0|0,1:0|0:0,0:0:0:0:
263,240,42499,2,0,P|255:190|254:110,1,78.125,0|0,1:0|0:0,0:0:0:0:
65,249,42749,2,0,P|105:277|163:333,1,78.125,0|0,1:0|0:0,0:0:0:0:
260,159,42999,2,0,P|220:129|162:73,1,78.125,0|0,1:0|0:0,0:0:0:0:
126,305,43249,102,0,P|175:296|255:295,1,78.125,0|0,1:0|0:0,0:0:0:0:
340,201,43499,1,0,1:0:0:0:
155,189,43624,1,0,1:0:0:0:
155,189,43874,5,0,1:0:0:0:
155,189,43936,1,0,1:0:0:0:
155,189,43999,1,0,1:0:0:0:
325,94,44124,1,0,1:0:0:0:
208,24,44249,102,0,L|184:128,1,78.125,0|0,1:0|0:0,0:0:0:0:
235,257,44499,2,0,L|259:153,1,78.125,0|0,1:0|0:0,0:0:0:0:
90,92,44749,2,0,L|152:191,1,78.125,0|0,1:0|0:0,0:0:0:0:
295,247,44999,2,0,L|232:147,1,78.125,0|0,1:0|0:0,0:0:0:0:
48,240,45249,2,0,L|173:269,1,78.125,0|0,1:0|0:0,0:0:0:0:
330,199,45499,2,0,L|204:169,1,78.125,0|0,1:0|0:0,0:0:0:0:
149,371,45749,2,0,L|258:302,1,78.125,0|0,1:0|0:0,0:0:0:0:
316,120,45999,1,0,1:0:0:0:
316,120,46124,1,0,1:0:0:0:
48,240,46249,6,0,L|173:269,1,78.125,0|0,1:0|0:0,0:0:0:0:
330,199,46499,2,0,L|204:169,1,78.125,0|0,1:0|0:0,0:0:0:0:
90,92,46749,2,0,L|152:191,1,78.125,0|0,1:0|0:0,0:0:0:0:
295,247,46999,2,0,L|232:147,1,78.125,0|0,1:0|0:0,0:0:0:0:
208,24,47249,102,0,L|184:128,1,78.125,0|0,1:0|0:0,0:0:0:0:
204,120,47436,1,0,1:0:0:0:
204,120,47499,1,0,1:0:0:0:
285,108,47624,2,0,L|333:100,1,39.0625,0|0,1:0|1:0,0:0:0:0:
404,92,47749,2,0,L|412:136,2,39.0625,0|0|0,1:0|1:0|1:0,0:0:0:0:
512,180,47999,6,0,B|469:182|469:182|444:204|444:204|395:210,1,117.1875,2|0,0:3|0:0,1:0:0:0:
376,220,48249,102,0,P|358:262|375:303,1,78.125,2|0,1:3|0:0,0:0:0:0:
433,381,48499,2,0,P|451:339|434:298,1,78.125,0|0,1:0|0:0,0:0:0:0:
275,279,48749,2,0,P|302:315|346:321,1,78.125,0|0,1:0|0:0,0:0:0:0:
442,309,48999,2,0,P|414:272|370:266,1,78.125,0|0,1:0|0:0,0:0:0:0:
255,374,49249,2,0,P|300:376|333:346,1,78.125,0|0,1:0|0:0,0:0:0:0:
384,264,49499,2,0,P|338:261|305:291,1,78.125,0|0,1:0|0:0,0:0:0:0:
255,374,49749,2,0,P|216:378|184:358,1,78.125,0|0,1:0|0:0,0:0:0:0:
24,272,49999,1,0,1:0:0:0:
24,272,50124,1,0,1:0:0:0:
139,132,50249,6,0,P|191:144|211:180,1,78.125,0|0,1:0|0:0,0:0:0:0:
357,205,50499,2,0,P|321:244|280:244,1,78.125,0|0,1:0|0:0,0:0:0:0:
184,358,50749,2,0,P|168:307|189:271,1,78.125,0|0,1:0|0:0,0:0:0:0:
269,105,50999,2,0,P|285:156|264:192,1,78.125,0|0,1:0|0:0,0:0:0:0:
315,332,51249,2,0,P|263:320|243:284,1,78.125,0|0,1:0|0:0,0:0:0:0:
140,220,51499,1,0,1:0:0:0:
298,247,51624,1,0,1:0:0:0:
132,136,51811,101,0,1:0:0:0:
132,136,51874,1,0,1:0:0:0:
52,196,51999,1,0,1:0:0:0:
80,288,52124,1,0,1:0:0:0:
216,168,52249,6,0,P|224:128|192:72,1,78.125,0|0,1:0|0:0,0:0:0:0:
112,48,52499,2,0,P|73:61|40:116,1,78.125,0|0,1:0|0:0,0:0:0:0:
232,188,52749,2,0,P|270:174|303:119,1,78.125,0|0,1:0|0:0,0:0:0:0:
283,37,52999,2,0,P|252:10|187:9,1,78.125,0|0,1:0|0:0,0:0:0:0:
212,216,53249,2,0,P|242:242|307:243,1,78.125,0|0,1:0|0:0,0:0:0:0:
384,184,53499,2,0,P|392:143|360:87,1,78.125,0|0,1:0|0:0,0:0:0:0:
280,48,53749,2,0,P|241:61|208:116,1,78.125,0|0,1:0|0:0,0:0:0:0:
294,146,53999,1,0,1:0:0:0:
294,146,54124,1,0,1:0:0:0:
452,40,54249,102,0,P|453:92|474:145,1,78.125,0|0,1:0|0:0,0:0:0:0:
412,296,54499,2,0,P|410:243|389:190,1,78.125,0|0,1:0|0:0,0:0:0:0:
294,146,54749,2,0,P|346:144|399:123,1,78.125,0|0,1:0|0:0,0:0:0:0:
377,126,54936,1,0,1:0:0:0:
381,114,54999,2,0,L|377:54,1,39.0625,0|0,1:0|0:0,0:0:0:0:
296,16,55124,2,0,L|292:76,1,39.0625,0|0,1:0|0:0,0:0:0:0:
204,156,55249,6,0,P|212:116|192:80,1,46.8750017881394,2|2,0:0|0:0,0:0:0:0:
208,104,55374,2,0,P|188:68|149:53,1,46.8750017881394,2|2,0:0|0:0,0:0:0:0:
176,60,55499,2,0,P|137:45|99:58,1,46.8750017881394,2|2,0:0|0:0,0:0:0:0:
124,48,55624,2,0,P|85:61|64:96,1,46.8750017881394,2|2,0:0|0:0,0:0:0:0:
63,92,55749,102,0,P|75:124|75:148,1,46.8750017881394,0|0,1:0|0:0,0:0:0:0:
93,164,55874,6,0,P|81:196|81:220,1,46.8750017881394,0|0,1:0|0:0,0:0:0:0:
64,252,55999,102,0,P|76:284|76:308,6,46.8750017881394,2|0|2|0|2|0|2,1:2|0:0|1:2|0:0|1:2|0:0|1:2,0:0:0:0:
188,260,56249,6,0,B|258:272|258:272|277:304|277:304|387:323,1,187.500007152558,2|2,1:3|1:3,0:0:0:0:
444,264,56624,2,0,P|448:215|420:154,1,93.7500035762788,0|4,1:0|0:0,0:0:0:0:
328,24,56874,2,0,P|323:72|351:133,1,93.7500035762788,0|4,1:0|0:0,0:0:0:0:
509,156,57124,2,0,P|469:127|402:121,1,93.7500035762788,0|4,1:0|0:0,0:0:0:0:
244,135,57374,2,0,P|283:163|350:169,1,93.7500035762788,0|6,1:0|0:0,0:0:0:0:
449,44,57624,2,0,P|404:64|365:119,1,93.7500035762788,0|4,1:0|0:0,0:0:0:0:
299,264,57874,2,0,P|343:243|382:188,1,93.7500035762788,0|4,1:0|0:0,0:0:0:0:
340,48,58124,2,0,P|299:20|232:14,1,93.7500035762788,0|4,1:0|0:0,0:0:0:0:
120,112,58374,102,0,P|116:161|144:222,1,93.7500035762788,0|6,1:0|0:0,0:0:0:0:
237,316,58624,2,0,P|196:288|129:282,1,93.7500035762788,0|4,1:0|0:0,0:0:0:0:
2,316,58874,2,0,P|46:294|85:239,1,93.7500035762788,0|4,1:0|0:0,0:0:0:0:
237,180,59124,2,0,P|192:201|153:256,1,93.7500035762788,0|4,1:0|0:0,0:0:0:0:
120,384,59374,2,0,P|123:334|95:273,1,93.7500035762788,0|6,1:0|0:0,0:0:0:0:
2,180,59624,2,0,P|43:208|109:214,1,93.7500035762788,0|4,1:0|0:0,0:0:0:0:
236,180,59874,5,4,1:3:0:0:
236,180,59936,1,0,1:0:0:0:
236,180,59998,1,0,1:0:0:0:
124,56,60124,1,4,1:3:0:0:
85,216,60249,2,0,B|97:286|97:286|129:305|129:305|148:415,1,187.500007152558,4|6,1:3|0:0,0:0:0:0:
237,316,60624,102,0,P|281:312|345:384,1,93.7500035762788,0|4,1:0|0:0,0:0:0:0:
464,243,60874,2,0,P|417:247|377:224,1,93.7500035762788,0|4,1:0|0:0,0:0:0:0:
380,382,61124,2,0,P|377:336|400:296,1,93.7500035762788,0|4,1:0|0:0,0:0:0:0:
317,176,61374,2,0,P|321:220|249:284,1,93.7500035762788,0|6,1:0|0:3,0:0:0:0:
192,236,61624,2,0,P|188:192|260:128,1,93.7500035762788,0|4,1:0|0:0,0:0:0:0:
119,8,61874,2,0,P|123:55|100:95,1,93.7500035762788,0|4,1:0|0:0,0:0:0:0:
260,88,62124,2,0,P|213:92|173:69,1,93.7500035762788,4|4,1:3|1:3,0:0:0:0:
52,156,62374,2,0,P|96:152|160:224,1,93.7500035762788,0|6,1:0|0:0,0:0:0:0:
324,384,62624,6,0,P|298:347|328:256,1,93.7500035762788,0|4,1:0|1:3,0:0:0:0:
388,37,62874,2,0,P|369:77|275:96,1,93.7500035762788,2|4,1:3|1:3,0:0:0:0:
52,156,63124,1,2,1:3:0:0:
156,248,63249,102,0,P|192:232|204:148,1,93.7500035762788,4|2,1:3|1:0,0:0:0:0:
212,172,63436,1,2,1:2:0:0:
212,172,63499,1,2,1:2:0:0:
164,104,63624,2,0,L|168:44,1,46.8750017881394,2|0,1:3|1:0,0:0:0:0:
232,12,63749,2,0,L|292:20,2,46.8750017881394,0|0|0,1:0|1:0|1:0,0:0:0:0:
296,100,63999,6,0,B|347:98|347:98|372:76|372:76|436:72,1,140.625005364418,2|0,0:3|0:0,1:0:0:0:
455,87,64249,102,0,B|447:157|447:157|417:178|417:178|406:289,1,187.500007152558,2|0,1:3|0:0,0:0:0:0:
432,372,64624,2,0,P|452:348|532:328,1,93.7500035762788,0|4,1:0|0:0,0:0:0:0:
454,181,64874,2,0,P|421:214|410:259,1,93.7500035762788,0|4,1:0|0:0,0:0:0:0:
332,372,65124,2,0,P|321:342|343:263,1,93.7500035762788,0|4,1:0|0:0,0:0:0:0:
216,156,65374,2,0,P|229:200|262:233,1,93.7500035762788,0|6,1:0|0:0,0:0:0:0:
224,368,65624,2,0,P|193:362|135:303,1,93.7500035762788,0|4,1:0|0:0,0:0:0:0:
8,244,65874,2,0,P|53:254|97:242,1,93.7500035762788,0|4,1:0|0:0,0:0:0:0:
216,156,66124,1,0,1:0:0:0:
56,84,66249,1,0,1:0:0:0:
188,4,66374,6,0,P|162:74|168:117,1,93.7500035762788,0|6,1:0|0:0,0:0:0:0:
345,286,66624,2,0,P|370:215|364:172,1,93.7500035762788,0|4,1:0|0:0,0:0:0:0:
125,104,66874,2,0,P|156:170|191:197,1,93.7500035762788,0|4,1:0|0:0,0:0:0:0:
407,185,67124,2,0,P|374:117|339:89,1,93.7500035762788,0|4,1:0|0:0,0:0:0:0:
164,208,67374,2,0,P|234:233|278:226,1,93.7500035762788,0|6,1:0|0:0,0:0:0:0:
368,82,67624,2,0,P|297:56|254:62,1,93.7500035762788,0|4,1:0|0:0,0:0:0:0:
272,244,67874,2,0,P|338:211|365:176,1,93.7500035762788,0|4,1:0|0:0,0:0:0:0:
256,44,68124,1,2,1:3:0:0:
100,268,68249,102,0,P|4:220|52:108,1,187.500007152558,6|0,1:3|0:0,0:0:0:0:
96,24,68624,2,0,L|80:144,1,93.7500035762788,0|4,1:0|0:0,0:0:0:0:
180,216,68874,2,0,L|164:96,1,93.7500035762788,0|4,1:0|0:0,0:0:0:0:
256,44,69124,1,0,1:0:0:0:
412,268,69249,6,0,P|508:220|460:108,1,187.500007152558,6|6,1:3|0:0,0:0:0:0:
416,24,69624,2,0,L|432:144,1,93.7500035762788,0|4,1:0|0:0,0:0:0:0:
332,216,69874,2,0,L|348:96,1,93.7500035762788,0|4,1:0|0:0,0:0:0:0:
256,44,70124,1,0,1:0:0:0:
100,268,70249,101,4,0:0:0:0:
40,188,70374,2,0,P|81:167|102:126,1,93.7500035762788,2|4,1:3|0:0,0:0:0:0:
367,6,70624,2,0,P|364:52|388:91,1,93.7500035762788,2|6,1:3|0:0,0:0:0:0:
360,381,70874,2,0,P|322:355|276:357,1,93.7500035762788,2|4,1:3|0:0,0:0:0:0:
100,268,71124,1,2,1:3:0:0:
286,205,71249,6,0,P|321:224|335:262,1,46.8750017881394,4|4,1:3|1:3,1:0:0:0:
348,236,71374,2,0,P|362:273|349:312,1,46.8750017881394,4|4,1:3|1:3,1:0:0:0:
352,304,71499,1,4,0:3:0:0:
196,384,71624,101,2,1:3:0:0:
196,384,71749,2,0,L|200:332,1,46.8750017881394,4|0,1:3|0:0,0:0:0:0:
276,324,71874,2,0,L|280:272,1,46.8750017881394,4|0,1:3|0:0,0:0:0:0:
220,224,71999,2,0,L|224:172,1,46.8750017881394,2|0,1:0|0:0,0:0:0:0:
300,164,72124,2,0,L|304:112,1,46.8750017881394,2|0,1:0|0:0,0:0:0:0:
244,56,72249,5,4,1:3:0:0:
444,248,72499,2,0,P|450:245|476:192,3,62.5,2|2|2|2,0:0|0:0|0:0|0:0,0:0:0:0:
400,188,72749,2,0,L|304:196,1,62.5,4|0,1:3|2:0,0:0:0:0:
68,248,72999,2,0,P|62:245|36:192,3,62.5,2|2|2|2,0:0|0:0|0:0|0:0,0:0:0:0:
112,188,73249,102,0,B|253:197|253:197|284:248,2,187.5,4|4|4,1:3|1:3|1:3,0:0:0:0:
400,196,73749,2,0,B|259:187|259:187|228:136,2,187.5,4|4|4,1:3|1:3|1:3,0:0:0:0:
268,56,74249,5,4,1:3:0:0:
68,248,74499,2,0,P|62:245|36:192,3,62.5,2|2|2|2,0:0|0:0|0:0|0:0,0:0:0:0:
112,188,74749,2,0,L|208:196,1,62.5,4|0,1:3|2:0,0:0:0:0:
444,248,74999,2,0,P|450:245|476:192,3,62.5,2|2|2|2,0:2|0:2|0:2|0:2,0:0:0:0:
416,148,75249,102,0,B|358:152|332:197|345:211|311:253|229:257,2,187.5,4|4|4,1:3|1:3|1:3,0:0:0:0:
96,148,75749,2,0,B|154:152|180:197|167:211|201:253|283:257,2,187.5,4|4|4,1:3|1:3|1:3,0:0:0:0:
68,348,76249,6,0,B|108:359|136:335|131:323|164:303|220:320,1,140.625005364418,4|4,1:3|0:0,0:0:0:0:
432,268,76624,101,0,1:0:0:0:
432,268,76686,1,0,1:0:0:0:
432,268,76749,2,0,B|391:279|363:255|368:243|335:223|280:240,1,140.625005364418,4|8,1:3|0:0,0:0:0:0:
24,164,77124,5,2,1:2:0:0:
24,164,77186,1,2,1:2:0:0:
24,164,77249,2,0,B|72:172|88:160|84:144|116:124|172:132,1,125.000004768372,8|10,1:3|0:0,0:0:0:0:
291,34,77582,101,2,1:2:0:0:
274,10,77665,1,2,1:2:0:0:
252,0,77749,2,0,B|244:48|256:64|272:60|292:92|284:148,1,125.000004768372,10|10,1:3|0:0,0:0:0:0:
396,216,78082,5,2,1:2:0:0:
432,225,78165,1,2,1:2:0:0:
468,216,78249,101,2,3:2:0:0:
499,189,78332,1,2,3:2:0:0:
512,151,78415,1,2,3:2:0:0:
506,110,78498,1,2,3:2:0:0:
480,79,78582,1,2,3:2:0:0:
441,66,78665,1,2,3:2:0:0:
400,74,78748,1,2,3:2:0:0:
374,100,78832,1,2,3:2:0:0:
355,139,78915,1,2,3:2:0:0:
328,174,78999,1,2,3:2:0:0:
288,191,79082,1,2,3:2:0:0:
245,183,79165,1,2,3:2:0:0:
216,149,79249,22,0,P|212:112|228:80,3,62.5000023841859,2|2|2|2,3:2|3:2|3:2|3:2,3:0:0:0:
124,200,79582,2,0,P|87:191|63:165,3,62.5000023841859,2|2|2|2,3:2|3:2|3:2|3:2,3:0:0:0:
156,308,79915,2,0,P|135:338|102:353,3,62.5000023841859,0|0|0|0,1:0|1:0|1:0|1:0,3:0:0:0:
299,291,80250,5,4,1:2:0:0:
327,324,80333,1,0,0:0:0:0:
370,336,80416,1,0,0:0:0:0:
413,326,80499,1,2,0:3:0:0:
444,295,80583,1,4,1:3:0:0:
455,252,80666,1,0,0:0:0:0:
442,210,80749,1,2,0:3:0:0:
409,180,80833,1,0,0:0:0:0:
370,159,80916,69,4,1:3:0:0:
343,121,81000,1,2,0:3:0:0:
351,77,81083,1,0,0:0:0:0:
380,43,81166,1,0,0:0:0:0:
425,40,81250,1,4,1:3:0:0:
463,62,81333,1,0,0:0:0:0:
478,104,81416,1,0,0:0:0:0:
464,147,81500,1,2,0:3:0:0:
418,172,81583,37,4,1:3:0:0:
418,172,81666,2,0,L|352:153,1,50,8|2,0:1|0:3,0:0:0:0:
304,32,81833,1,4,1:3:0:0:
304,32,81916,2,0,L|319:97,1,50,4|0,1:3|0:0,0:0:0:0:
280,164,82083,2,0,L|244:199,1,50,4|0,1:3|0:0,0:0:0:0:
184,248,82250,69,6,1:3:0:0:
140,261,82333,1,0,0:0:0:0:
99,250,82416,1,0,0:0:0:0:
68,217,82499,1,2,0:3:0:0:
64,173,82583,1,4,1:3:0:0:
85,134,82666,1,0,0:0:0:0:
125,114,82750,1,2,0:3:0:0:
170,111,82833,1,0,0:0:0:0:
211,123,82916,37,4,1:3:0:0:
247,149,83000,1,2,0:3:0:0:
273,186,83083,1,0,0:0:0:0:
307,213,83166,1,0,0:0:0:0:
352,223,83250,1,4,1:3:0:0:
396,215,83333,1,0,0:0:0:0:
431,187,83416,1,0,0:0:0:0:
452,146,83500,1,2,0:3:0:0:
458,106,83583,69,4,1:3:0:0:
458,106,83666,2,0,L|446:40,1,50,8|2,0:1|0:3,0:0:0:0:
304,0,83833,1,4,1:3:0:0:
304,0,83916,2,0,L|292:66,3,50,4|6|4|4,1:3|1:3|1:3|1:3,0:0:0:0:
212,124,84250,37,4,1:3:0:0:
180,148,84333,1,2,0:0:0:0:
140,145,84416,2,0,P|116:127|107:102,1,50,0|2,0:0|0:0,0:0:0:0:
40,0,84583,70,0,P|36:28|28:64,3,50,8|0|2|0,0:1|0:0|0:2|0:0,0:0:0:0:
108,109,84916,2,0,P|111:136|120:173,3,50,4|2|0|0,0:0|0:0|0:0|0:0,0:0:0:0:
24,216,85250,2,0,P|20:247|12:280,3,50,8|0|2|0,0:1|0:0|0:0|0:0,0:0:0:0:
109,355,85583,37,4,0:0:0:0:
109,355,85666,2,0,P|139:346|175:357,1,50,8|0,0:1|0:0,0:0:0:0:
224,288,85833,1,4,0:0:0:0:
224,288,85916,2,0,P|250:305|264:339,1,50,8|2,0:1|0:0,0:0:0:0:
328,376,86083,2,0,P|348:361|360:339,1,50,4|0,0:0|0:0,0:0:0:0:
432,288,86250,69,6,0:0:0:0:
413,258,86333,1,0,0:0:0:0:
404,224,86416,1,0,0:0:0:0:
407,188,86500,1,2,0:0:0:0:
424,157,86583,2,0,P|448:132|480:120,1,50,8|0,0:1|0:0,0:0:0:0:
432,24,86750,2,0,P|400:20|370:1,1,50,2|0,0:0|0:0,0:0:0:0:
304,84,86916,1,4,0:0:0:0:
304,84,87000,2,0,P|316:112|315:148,2,50,2|0|0,0:0|0:0|0:0,0:0:0:0:
220,16,87250,38,0,L|208:92,1,50,8|4,1:0|1:3,0:0:0:0:
76,80,87416,2,0,L|88:156,1,50,4|4,1:3|1:3,0:0:0:0:
196,192,87583,2,4,L|204:152,2,25,4|4|4,1:3|1:3|1:3,1:3:0:0:
112,224,87749,2,0,L|124:300,1,50,4|0,0:0|0:0,0:0:0:0:
192,347,87916,70,2,B|236:339|236:339|260:318|260:318|401:293,1,187.5,8|0,1:0|3:0,1:0:0:0:
488,260,88249,38,2,P|472:220|428:204,1,62.5,4|2,0:3|0:2,0:0:0:0:
416,144,88416,2,2,P|372:145|342:181,1,62.5,0|2,0:0|0:3,0:0:0:0:
280,144,88583,2,2,P|266:184|289:225,1,62.5,8|2,0:0|0:2,0:0:0:0:
312,272,88749,1,2,0:3:0:0:
312,272,88833,2,2,L|304:352,1,62.5,2|4,0:2|0:3,0:0:0:0:
204,384,88999,69,2,0:3:0:0:
192,347,89082,1,2,0:2:0:0:
167,317,89165,1,2,0:2:0:0:
132,300,89248,1,8,0:0:0:0:
93,299,89332,1,2,0:2:0:0:
59,315,89416,2,2,P|20:304|0:240,1,62.5,2|2,0:2|0:3,0:0:0:0:
48,220,89583,2,2,P|44:179|98:138,1,62.5,4|2,0:3|0:2,0:0:0:0:
176,200,89749,37,2,0:3:0:0:
176,200,89833,2,2,P|215:189|235:125,1,62.5,2|8,0:2|0:0,0:0:0:0:
187,105,89999,1,2,0:3:0:0:
187,105,90083,2,2,P|190:64|136:23,1,62.5,4|2,0:3|0:2,0:0:0:0:
280,0,90249,69,4,0:3:0:0:
299,33,90332,1,2,0:2:0:0:
330,56,90415,1,2,0:2:0:0:
369,64,90499,1,2,0:2:0:0:
405,54,90583,2,2,P|436:36|452:0,1,62.5,8|2,0:0|0:2,0:0:0:0:
512,156,90749,1,2,0:2:0:0:
512,156,90833,2,2,P|483:144|452:148,1,62.5,2|4,0:2|0:3,0:0:0:0:
332,165,90999,37,2,0:2:0:0:
314,201,91082,1,2,0:2:0:0:
318,241,91165,1,2,0:2:0:0:
341,276,91248,1,8,0:0:0:0:
376,295,91332,1,2,0:2:0:0:
417,295,91415,1,2,0:2:0:0:
449,274,91499,2,2,P|469:246|468:207,1,62.5,2|4,0:2|0:3,0:0:0:0:
360,140,91666,69,2,0:2:0:0:
332,165,91749,1,2,0:2:0:0:
294,165,91833,1,4,0:3:0:0:
260,148,91916,2,2,P|238:137|195:139,1,62.5,8|4,0:0|0:3,0:0:0:0:
32,228,92083,2,2,P|54:218|80:183,1,62.5,2|4,0:0|0:3,0:0:0:0:
92,8,92249,37,4,0:3:0:0:
66,26,92333,1,2,0:2:0:0:
54,55,92416,1,2,0:2:0:0:
61,85,92499,2,2,P|100:92|134:76,1,62.5,2|8,0:2|0:1,0:0:0:0:
276,76,92666,1,2,0:2:0:0:
277,44,92750,1,2,0:2:0:0:
261,17,92833,1,2,0:2:0:0:
233,3,92916,2,2,P|202:28|192:64,1,62.5,4|2,0:3|0:3,0:0:0:0:
294,165,93083,69,2,0:2:0:0:
323,194,93166,1,2,0:2:0:0:
333,232,93249,1,8,0:1:0:0:
323,274,93332,1,2,0:2:0:0:
297,304,93416,1,2,0:2:0:0:
258,317,93499,1,2,0:2:0:0:
220,310,93583,2,2,P|197:288|194:245,1,62.5,4|2,0:3|0:2,0:0:0:0:
136,204,93749,2,2,P|143:173|179:148,1,62.5,2|4,0:2|0:3,0:0:0:0:
276,76,93916,37,8,0:0:0:0:
313,73,93999,1,2,0:2:0:0:
350,70,94083,1,4,0:3:0:0:
387,67,94166,1,2,0:2:0:0:
424,64,94249,69,4,0:3:0:0:
456,82,94333,1,2,0:2:0:0:
472,112,94416,1,2,0:2:0:0:
484,148,94499,2,2,L|463:243,1,62.5,2|8,0:2|0:0,0:0:0:0:
440,324,94666,37,2,0:2:0:0:
420,291,94749,1,2,0:2:0:0:
390,267,94833,1,0,0:0:0:0:
354,255,94916,2,0,L|276:260,1,62.5,4|2,0:3|0:2,0:0:0:0:
220,336,95083,2,0,L|142:331,1,62.5,2|2,0:2|0:2,0:0:0:0:
59,269,95249,69,4,0:3:0:0:
42,228,95333,1,4,0:3:0:0:
45,184,95416,1,8,0:3:0:0:
71,149,95499,1,8,0:3:0:0:
112,133,95583,1,8,0:3:0:0:
155,135,95666,1,8,0:3:0:0:
193,154,95749,1,8,0:3:0:0:
222,187,95833,1,8,0:3:0:0:
253,216,95916,1,2,0:3:0:0:
294,228,95999,1,2,0:3:0:0:
335,214,96083,1,2,0:3:0:0:
361,179,96166,1,2,0:3:0:0:
359,139,96249,38,0,L|345:32,1,100,6|0,0:0|0:0,0:0:0:0:
244,24,96499,69,0,0:0:0:0:
244,24,96583,2,0,L|252:100,1,50,4|0,0:3|3:0,0:0:0:0:
188,124,96749,1,0,0:0:0:0:
188,124,96833,2,0,L|112:116,1,50,0|4,3:0|0:3,0:0:0:0:
19,211,96999,37,2,0:0:0:0:
52,201,97082,1,2,0:1:0:0:
86,206,97165,1,2,0:1:0:0:
116,223,97249,2,0,L|110:272,1,50,4|2,1:3|0:0,0:0:0:0:
189,323,97416,1,2,0:3:0:0:
189,323,97499,2,0,L|180:403,1,50,2|4,0:1|1:3,0:0:0:0:
271,383,97666,2,0,L|276:333,1,50,2|0,0:1|0:0,0:0:0:0:
351,303,97833,2,0,L|466:293,1,100,4|0,1:3|0:0,0:0:0:0:
487,223,98083,2,0,L|387:214,1,100,2|4,0:1|1:3,2:0:0:0:
359,139,98333,2,0,L|423:131,1,50,2|0,2:0|2:0,2:0:0:0:
431,127,98499,2,0,P|447:87|407:31,1,100,2|2,2:1|2:0,2:0:0:0:
343,27,98749,1,2,2:0:0:0:
319,23,98833,2,0,P|281:54|279:91,1,50,2|4,2:1|1:3,2:0:0:0:
247,123,98999,1,2,0:3:0:0:
216,140,99083,1,2,0:3:0:0:
180,141,99166,1,2,0:3:0:0:
151,119,99249,2,0,L|163:-13,1,100,6|2,1:3|0:0,0:0:0:0:
83,11,99499,2,0,L|71:143,1,100,2|0,0:1|0:0,0:0:0:0:
27,175,99749,2,0,P|79:199|99:251,1,100,2|0,0:1|0:0,0:0:0:0:
119,311,99999,2,0,P|162:334|210:326,1,100,4|0,1:3|0:0,0:0:0:0:
352,276,100249,69,4,1:3:0:0:
384,262,100333,1,2,0:1:0:0:
418,263,100416,1,2,0:1:0:0:
449,276,100499,2,2,B|504:304|492:384|400:408|224:372|364:188|40:164|-20:212|-116:356|8:360|64:384|144:388|220:364|232:324|185:246|301:233,1,850,2|4,0:0|1:3,0:1:0:0:
397,168,101999,37,2,0:0:0:0:
435,192,102083,1,4,1:3:0:0:
455,232,102166,1,2,0:1:0:0:
449,276,102249,2,0,P|413:297|387:294,1,50,4|0,1:3|0:0,0:0:0:0:
344,384,102416,2,2,B|326:269|229:199|93:137|-12:190|32:340|119:326|194:318|264:212,1,600,2|4,0:0|1:3,0:1:0:0:
300,161,103583,2,0,P|298:133|268:97,1,50,2|0,1:0|1:0,0:0:0:0:
204,105,103749,1,2,1:2:0:0:
204,105,103833,2,0,P|180:119|164:164,1,50,2|0,1:0|1:0,0:0:0:0:
204,216,104000,2,0,P|228:228|275:220,1,50,2|0,1:0|0:0,0:0:0:0:
291,303,104166,70,2,P|347:287|443:283,1,150,4|0,1:3|0:0,0:1:0:0:
499,203,104499,2,2,P|424:201|351:182,1,150,0|0,0:0|0:0,0:1:0:0:
228,112,104833,1,2,0:1:0:0:
218,78,104916,1,4,1:3:0:0:
223,43,104999,1,2,0:1:0:0:
254,10,105083,1,2,0:1:0:0:
297,0,105166,1,2,0:1:0:0:
338,16,105249,1,4,1:3:0:0:
360,55,105333,1,2,0:0:0:0:
362,99,105416,2,2,P|336:166|224:209,1,150,2|0,0:0|0:0,0:1:0:0:
224,268,105749,2,2,P|180:267|133:212,1,100,2|4,0:0|1:3,0:1:0:0:
88,172,105999,2,2,P|44:172|-2:227,1,100,2|0,0:1|0:0,0:1:0:0:
104,315,106249,38,2,P|104:271|159:224,1,100,2|0,0:1|0:0,0:1:0:0:
198,179,106499,2,2,P|197:135|142:88,1,100,2|0,0:1|0:0,0:1:0:0:
3,209,106749,2,2,P|39:175|88:172,1,100,2|4,0:0|1:3,0:1:0:0:
139,230,106999,2,2,P|175:264|224:268,1,100,2|0,0:1|0:0,0:1:0:0:
292,232,107249,70,2,P|326:268|328:304,1,50,4|0,1:3|0:0,0:1:0:0:
340,364,107416,2,2,B|336:244|472:304|528:264|500:168|432:128|356:172|384:248,1,350,2|0,0:0|0:0,0:1:0:0:
468,356,108083,37,4,1:3:0:0:
442,318,108166,1,4,1:3:0:0:
401,298,108249,2,2,P|296:304|245:322,1,150,4|0,1:3|0:0,0:1:0:0:
196,372,108583,1,4,1:3:0:0:
165,339,108666,1,2,0:0:0:0:
122,325,108749,1,2,0:3:0:0:
84,299,108833,1,2,0:3:0:0:
69,256,108916,2,0,P|83:231|123:215,1,50,4|2,1:3|0:3,0:0:0:0:
136,148,109083,1,2,0:3:0:0:
136,148,109166,2,0,P|164:147|198:174,1,50,2|4,0:3|1:3,0:0:0:0:
248,204,109333,2,0,P|284:196|340:204,1,50,2|2,0:0|0:3,0:0:0:0:
360,144,109499,2,0,P|380:92|328:36,1,100,2|0,0:3|0:0,0:0:0:0:
288,32,109749,2,0,P|242:49|198:29,1,100,2|4,0:0|1:3,0:0:0:0:
124,8,109999,1,2,0:0:0:0:
124,8,110083,2,0,P|88:72|92:92,1,50,4|0,1:3|0:0,0:0:0:0:
0,160,110249,69,4,1:3:0:0:
17,196,110333,1,2,0:0:0:0:
47,221,110416,1,2,0:3:0:0:
86,222,110499,1,2,0:0:0:0:
123,207,110583,1,4,1:3:0:0:
149,177,110666,1,2,0:0:0:0:
182,154,110749,1,2,0:3:0:0:
221,148,110833,1,2,0:3:0:0:
258,162,110916,1,4,1:3:0:0:
283,192,110999,1,2,0:0:0:0:
287,232,111083,1,2,0:3:0:0:
265,265,111166,1,2,0:3:0:0:
228,281,111249,2,0,L|163:266,1,50,4|6,1:3|1:3,0:0:0:0:
320,376,111416,2,0,L|385:361,1,50,6|4,1:3|1:3,0:0:0:0:
475,287,111583,37,6,1:3:0:0:
490,239,111666,1,2,1:2:0:0:
480,190,111749,1,2,1:2:0:0:
448,150,111833,1,2,1:2:0:0:
400,135,111916,1,2,3:2:0:0:
353,153,111999,1,2,3:2:0:0:
307,175,112083,1,2,3:2:0:0:
258,162,112166,1,2,3:2:0:0:
234,118,112249,2,2,L|243:46,24,50,2|2|2|2|2|2|2|2|2|2|2|2|2|2|2|2|2|2|2|2|2|2|2|2|2,1:0|0:0|0:0|0:0|0:0|0:0|0:0|0:0|0:0|0:0|0:0|0:0|0:0|0:0|0:0|0:0|0:0|0:0|0:0|0:0|0:0|0:0|0:0|0:0|0:0,0:1:0:0:
64,192,120249,5,2,1:3:0:0:
448,192,120739,5,0,1:0:0:0:
192,320,121228,2,0,B|164:257|232:199|243:256|329:183|277:113,1,239.062510761023,2|0,0:3|0:0,0:0:0:0:
275,120,121706,37,2,0:0:0:0:
256,192,122185,12,0,124941,0:0:0:0:
412,312,126990,70,0,P|396:306|403:323,1,43.2500010559082,0|0,3:0|3:0,3:0:0:0:
338,263,127134,2,0,P|322:269|329:252,1,43.2500010559082,0|0,1:0|3:0,3:0:0:0:
286,351,127278,38,0,P|281:328|270:361,1,86.5000021118165,2|2,3:0|3:0,3:0:0:0:
210,247,127423,2,0,P|205:270|194:237,1,86.5000021118165,2|2,3:0|3:0,3:0:0:0:
116,384,127567,86,0,P|78:256|36:223,1,187.5,4|0,1:2|2:0,0:0:0:0:
24,218,127852,2,0,P|6:232|-2:252,3,37.4999988555909,4|0|0|0,0:0|0:0|0:0|2:0,0:0:0:0:
67,282,128138,2,0,P|62:304|68:325,3,37.4999988555909,4|0|0|0,0:0|0:0|0:0|2:0,0:0:0:0:
140,303,128424,2,0,P|154:320|174:329,1,37.4999988555909,4|0,0:0|0:0,0:0:0:0:
67,282,128567,22,0,P|62:304|68:325,3,37.4999988555909,4|0|0|0,0:0|0:0|0:0|2:0,0:0:0:0:
140,303,128852,2,0,P|154:320|174:329,3,37.4999988555909,4|0|0|0,0:0|0:0|0:0|2:0,0:0:0:0:
205,261,129138,2,0,P|227:261|247:251,3,37.4999988555909,4|0|0|0,0:0|0:0|0:0|2:0,0:0:0:0:
215,182,129424,2,0,P|230:165|235:143,1,37.4999988555909,2|0,1:3|0:0,0:0:0:0:
107,27,129567,86,0,P|93:10|74:0,3,37.4999988555909,4|0|0|0,0:0|0:0|0:0|2:0,0:0:0:0:
46,65,129853,2,0,P|24:61|3:67,3,37.4999988555909,4|0|0|0,0:0|0:0|0:0|2:0,0:0:0:0:
23,138,130139,2,0,P|6:152|-2:173,3,37.4999988555909,4|0|0|0,0:0|0:0|0:0|2:0,0:0:0:0:
66,203,130424,2,0,P|65:226|76:246,1,37.4999988555909,4|0,0:0|0:0,0:0:0:0:
23,138,130567,22,0,P|6:152|-2:173,3,37.4999988555909,4|0|0|0,0:0|0:0|0:0|2:0,0:0:0:0:
66,203,130852,2,0,P|65:226|76:246,3,37.4999988555909,4|0|0|0,0:0|0:0|0:0|2:0,0:0:0:0:
144,212,131138,2,0,P|162:227|183:233,3,37.4999988555909,4|0|0|0,0:0|0:0|0:0|2:0,0:0:0:0:
199,160,131424,2,0,P|222:157|240:143,1,37.4999988555909,4|0,0:0|0:0,0:0:0:0:
276,24,131567,85,0,0:0:0:0:
287,39,131638,1,0,0:0:0:0:
301,50,131709,1,2,0:2:0:0:
319,56,131781,1,2,0:2:0:0:
338,57,131852,2,0,P|367:45|373:33,3,37.4999988555909,0|0|2|2,0:0|0:0|0:2|0:2,0:0:0:0:
428,104,132138,2,0,P|438:73|432:61,3,37.4999988555909,4|0|0|0,0:0|0:0|0:0|2:0,0:0:0:0:
512,48,132424,2,0,P|495:20|482:16,1,37.4999988555909,4|0,0:0|0:0,0:0:0:0:
428,104,132567,22,0,P|438:73|432:61,3,37.4999988555909,4|0|0|0,0:0|0:0|0:0|2:0,0:0:0:0:
452,180,132852,2,0,P|481:168|487:156,3,37.4999988555909,4|0|0|0,0:0|0:0|0:0|2:0,0:0:0:0:
404,244,133138,2,0,P|432:259|445:256,3,37.4999988555909,4|0|0|0,0:0|0:0|0:0|2:0,0:0:0:0:
328,256,133424,2,0,P|334:287|345:295,1,37.4999988555909,2|0,1:3|0:0,0:0:0:0:
236,360,133567,85,0,0:0:0:0:
224,344,133638,1,0,0:0:0:0:
210,333,133709,1,2,0:2:0:0:
192,327,133781,1,2,0:2:0:0:
173,326,133852,2,0,P|143:337|137:349,3,37.4999988555909,0|0|2|2,0:0|0:0|0:2|0:2,0:0:0:0:
84,280,134138,2,0,P|73:310|79:322,3,37.4999988555909,4|0|0|0,0:0|0:0|0:0|2:0,0:0:0:0:
0,336,134424,2,0,P|16:363|29:367,1,37.4999988555909,4|0,0:0|0:0,0:0:0:0:
84,280,134567,22,0,P|73:310|79:322,3,37.4999988555909,4|0|0|0,0:0|0:0|0:0|0:0,0:0:0:0:
60,204,134852,2,0,P|30:215|24:227,3,37.4999988555909,4|0|0|0,0:0|0:0|0:0|0:0,0:0:0:0:
108,140,135138,86,0,L|72:116,1,37.4999988555909,4|0,0:0|0:0,0:0:0:0:
84,40,135281,2,0,L|124:20,1,37.4999988555909,4|4,0:0|0:0,0:0:0:0:
184,68,135424,2,0,L|172:132,1,37.4999988555909,4|4,0:0|0:0,0:0:0:0:
236,216,135567,22,0,P|268:232|320:212,3,50,4|0|0|0,0:0|0:0|0:0|0:0,0:0:0:0:
288,324,135852,2,0,P|320:309|338:257,3,50,4|0|0|0,0:0|0:0|0:0|0:0,0:0:0:0:
412,336,136138,2,0,P|422:301|393:253,3,50,4|0|0|0,0:0|0:0|0:0|0:0,0:0:0:0:
509,266,136423,2,0,P|489:236|434:227,1,50,2|0,0:0|0:0,0:0:0:0:
412,336,136567,86,0,P|422:301|393:253,3,50,4|0|0|0,0:0|0:0|0:0|0:0,0:0:0:0:
509,266,136852,2,0,P|489:236|434:227,3,50,4|0|0|0,0:0|0:0|0:0|0:0,0:0:0:0:
504,144,137138,2,0,P|468:139|426:176,3,50,4|0|0|0,0:0|0:0|0:0|0:0,0:0:0:0:
418,60,137424,2,0,P|392:84|393:140,1,50,4|2,1:3|0:2,0:0:0:0:
281,232,137567,22,0,P|245:229|210:186,3,50,4|0|0|0,0:0|0:0|0:0|0:0,0:0:0:0:
181,299,137852,2,0,P|160:270|171:215,3,50,4|0|0|0,0:0|0:0|0:0|0:0,0:0:0:0:
68,247,138138,2,0,P|76:211|125:184,3,50,4|0|0|0,0:0|0:0|0:0|0:0,0:0:0:0:
19,138,138423,2,0,P|51:122|103:141,1,50,2|0,0:0|0:0,0:0:0:0:
68,247,138567,86,0,P|76:211|125:184,3,50,4|0|0|0,0:0|0:0|0:0|0:0,0:0:0:0:
19,138,138852,2,0,P|51:122|103:141,3,50,4|0|0|0,0:0|0:0|0:0|0:0,0:0:0:0:
84,35,139138,2,0,P|117:48|135:101,3,50,4|2|0|4,0:0|0:0|0:0|0:0,0:0:0:0:
201,5,139423,2,0,P|211:38|182:86,1,50,4|0,0:0|0:0,0:0:0:0:
280,144,139567,21,4,0:0:0:0:
307,160,139638,1,2,0:2:0:0:
340,163,139709,1,2,0:2:0:0:
370,151,139781,1,2,0:2:0:0:
393,128,139852,2,0,P|397:97|386:68,3,43.749998664856,2|2|0|0,0:0|0:2|0:0|0:0,0:0:0:0:
468,168,140138,2,0,P|494:151|509:124,3,43.749998664856,4|0|0|0,0:0|0:0|0:0|0:0,0:0:0:0:
436,252,140424,2,0,P|465:261|496:255,1,43.749998664856,2|0,0:0|0:0,0:0:0:0:
468,168,140567,86,0,P|494:151|509:124,3,43.749998664856,2|0|0|0,0:0|0:0|0:0|0:0,0:0:0:0:
436,252,140852,2,0,P|465:261|496:255,3,43.749998664856,4|2|0|4,0:0|0:0|0:0|0:0,0:0:0:0:
368,316,141138,2,0,P|379:344|404:363,3,43.749998664856,2|0|4|2,0:0|0:0|0:0|0:0,0:0:0:0:
280,332,141424,2,0,P|266:358|266:390,1,43.749998664856,4|4,0:0|0:0,0:0:0:0:
176,324,141567,22,0,B|128:315|128:315|99:294|99:294|44:284,1,131.249995994568,8|8,0:0|0:0,0:0:0:0:
4,224,141852,2,0,L|16:160,3,37.4999988555909,2|0|0|0,0:0|0:0|0:0|0:0,0:0:0:0:
120,176,142138,2,0,L|108:112,3,37.4999988555909,4|0|0|0,0:0|0:0|0:0|0:0,0:0:0:0:
48,88,142424,2,0,L|56:40,1,37.4999988555909,2|0,0:0|0:0,0:0:0:0:
120,8,142567,2,0,L|168:16,2,37.4999988555909,2|2|2,0:0|0:0|0:0,0:0:0:0:
208,96,142709,85,4,0:0:0:0:
208,96,142781,1,4,0:0:0:0:
208,96,142852,2,0,L|273:86,1,43.749998664856,4|4,0:0|0:0,0:0:0:0:
340,28,142995,1,4,0:0:0:0:
340,28,143067,1,4,0:0:0:0:
340,28,143138,2,0,L|405:38,1,43.749998664856,4|8,0:0|0:0,0:0:0:0:
464,152,143281,1,8,0:0:0:0:
464,152,143352,1,8,0:0:0:0:
464,152,143424,2,0,L|454:217,1,43.749998664856,8|8,0:0|0:0,0:0:0:0:
400,256,143567,22,0,B|355:247|355:247|332:222|332:222|266:211,1,125,2|4,1:0|0:0,0:0:0:0:
236,280,143781,1,0,0:0:0:0:
236,280,143852,1,4,0:0:0:0:
236,280,143924,2,0,L|152:288,1,46.8750017881394,2|0,0:0|0:0,0:0:0:0:
40,208,144138,2,0,P|80:156|136:164,1,93.7500035762788,4|0,0:0|0:0,0:0:0:0:
160,104,144352,1,8,0:0:0:0:
160,104,144424,2,0,L|164:44,1,46.8750017881394,8|0,0:0|0:0,0:0:0:0:
228,16,144567,86,0,P|268:64|360:64,1,125,4|2,1:2|0:0,0:0:0:0:
396,24,144780,1,8,0:0:0:0:
396,24,144852,2,0,L|406:116,1,62.5,4|0,0:0|0:0,0:0:0:0:
472,112,144995,2,0,L|462:204,1,62.5,2|0,0:2|0:0,0:0:0:0:
416,236,145138,2,0,P|384:210|287:205,1,125,4|2,0:0|0:0,0:0:0:0:
152,264,145424,2,0,L|164:344,1,62.5,4|0,0:0|0:0,0:0:0:0:
112,384,145567,22,0,P|40:352|44:272,1,125,4|2,1:3|0:0,0:0:0:0:
156,184,145852,2,0,P|228:216|224:296,1,125,4|2,1:2|0:0,0:0:0:0:
60,224,146138,2,0,L|40:28,1,187.5,4|4,0:0|0:0,0:0:0:0:
64,20,146424,1,2,0:0:0:0:
144,120,146567,86,0,B|184:132|264:88|187:56|260:8|322:26,1,187.5,2|0,0:0|0:0,0:0:0:0:
344,80,146852,2,0,L|356:184,1,62.5,4|0,0:0|0:0,0:0:0:0:
504,196,146995,2,0,L|511:133,1,62.5,2|0,0:0|0:0,0:0:0:0:
424,60,147138,2,0,L|436:288,1,187.5,2|4,0:0|0:0,0:0:0:0:
392,316,147424,2,0,P|357:308|329:269,1,62.5,4|0,0:0|0:0,0:0:0:0:
244,232,147567,21,4,0:0:0:0:
231,240,147638,1,2,0:2:0:0:
220,252,147709,1,2,0:2:0:0:
213,266,147781,1,2,0:2:0:0:
210,281,147852,2,0,P|212:316|236:344,3,62.5,2|0|8|0,0:0|0:0|0:0|0:0,0:0:0:0:
140,332,148138,2,0,P|114:357|108:393,3,62.5,4|0|0|4,0:0|0:0|0:0|0:0,0:0:0:0:
64,300,148424,2,0,P|28:296|-3:315,1,62.5,2|0,0:0|0:0,0:0:0:0:
0,208,148567,86,0,P|3:130|112:64,1,187.5,4|0,1:2|0:0,0:0:0:0:
144,16,148852,2,0,P|176:40|232:48,1,62.5,2|0,0:0|0:0,0:0:0:0:
244,108,148995,2,0,P|276:84|332:76,1,62.5
392,36,149138,2,0,P|360:156|352:240,1,187.5,4|0,0:0|0:0,0:0:0:0:
424,256,149424,2,0,P|416:285|395:308,1,62.5,2|0,0:0|0:0,0:0:0:0:
280,368,149567,22,0,P|252:347|246:299,3,62.5,4|0|2|0,1:3|0:0|0:0|0:0,0:0:0:0:
177,277,149852,2,0,P|193:243|238:230,3,62.5,4|0|2|0,1:3|0:0|0:0|0:0,0:0:0:0:
293,235,150138,2,0,P|321:214|327:166,1,62.5,4|0,0:0|0:0,0:0:0:0:
396,144,150281,2,0,P|380:110|335:97,1,62.5,2|2,0:2|0:2,0:0:0:0:
312,36,150424,2,0,L|236:44,1,62.5,4|0,0:0|0:0,0:0:0:0:
200,108,150567,86,0,L|124:100,3,62.5,4|0|0|0,1:3|0:0|0:0|0:0,0:0:0:0:
0,204,150852,2,0,L|76:196,3,62.5,4|0|0|0,1:3|0:0|0:0|0:0,0:0:0:0:
160,268,151138,21,8,1:3:0:0:
157,284,151209,1,8,1:3:0:0:
155,302,151281,1,8,1:3:0:0:
153,319,151352,1,8,1:3:0:0:
151,336,151424,1,8,1:3:0:0:
149,353,151495,1,8,1:3:0:0:
148,376,151567,70,0,P|215:342|328:360,1,137.500004196167,4|2,1:3|1:2,0:0:0:0:
468,376,151852,2,0,P|405:334|364:228,1,137.500004196167,2|0,0:0|0:0,0:0:0:0:
316,104,152138,2,0,P|311:179|239:267,1,137.500004196167,8|0,1:3|0:0,0:0:0:0:
208,344,152424,38,0,P|163:340|135:291,1,68.7500020980836,2|0,0:0|0:0,0:0:0:0:
76,356,152567,2,0,P|49:321|68:268,1,68.7500020980836,4|0,1:3|0:0,0:0:0:0:
8,236,152709,1,2,0:0:0:0:
216,176,152852,86,0,P|238:119|219:81,1,68.7500020980836,8|0,0:0|0:0,0:0:0:0:
176,48,152995,1,2,0:0:0:0:
176,48,153067,2,0,B|160:96|160:96|356:64,1,206.250006294251,4|0,1:2|0:0,0:0:0:0:
492,40,153424,2,0,P|476:126|485:140,1,68.7500020980836,2|0,0:0|0:0,0:0:0:0:
391,116,153567,2,0,P|434:192|450:196,1,68.7500020980836,4|0,1:2|0:0,0:0:0:0:
496,256,153709,21,4,0:0:0:0:
496,256,153781,1,8,0:0:0:0:
496,256,153852,2,0,B|472:228|472:228|340:248,1,137.500004196167,4|0,1:2|0:0,0:0:0:0:
276,356,154138,2,0,L|440:328,1,137.500004196167,4|0,0:0|0:0,0:0:0:0:
248,152,154424,2,0,L|232:244,1,68.7500020980836,2|0,0:0|0:0,0:0:0:0:
180,276,154567,70,0,P|136:256|96:260,1,68.7500020980836,4|0,1:3|0:0,0:0:0:0:
44,292,154709,2,0,P|24:180|4:120,1,137.500004196167,2|8,0:0|0:0,0:0:0:0:
128,0,154995,2,0,P|148:43|135:84,1,68.7500020980836,4|0,1:2|0:0,0:0:0:0:
72,96,155138,2,0,P|120:88|296:96,1,206.250006294251,4|4,0:0|0:0,0:0:0:0:
308,68,155424,1,4,0:0:0:0:
376,168,155567,37,4,0:0:0:0:
396,164,155638,1,2,0:2:0:0:
416,156,155709,1,2,0:2:0:0:
434,143,155781,1,2,0:2:0:0:
449,127,155852,2,0,L|442:213,3,68.7500020980836,2|0|4|0,0:0|0:0|0:0|0:0,0:0:0:0:
384,248,156138,2,0,P|372:282|392:326,1,68.7500020980836,4|0,1:3|0:0,0:0:0:0:
327,372,156281,2,0,P|362:364|390:325,1,68.7500020980836,2|4,0:0|0:0,0:0:0:0:
463,357,156424,2,0,P|439:330|391:324,1,68.7500020980836,2|0,0:0|0:0,0:0:0:0:
312,384,156567,86,0,P|276:312|160:288,1,206.250006294251,4|0,1:2|0:0,0:0:0:0:
100,332,156852,2,0,P|61:310|52:276,1,68.7500020980836,2|0,0:0|0:0,0:0:0:0:
0,232,156995,2,0,P|7:188|36:167,1,68.7500020980836,8|0,0:0|0:0,0:0:0:0:
0,100,157138,2,0,P|58:155|175:138,1,206.250006294251,4|0,0:0|0:0,0:0:0:0:
228,80,157423,2,0,P|271:78|296:104,1,68.7500020980836,8|0,0:0|0:0,0:0:0:0:
312,168,157567,22,0,L|300:336,1,137.500004196167,8|2,0:0|0:2,0:0:0:0:
380,384,157852,2,0,P|379:350|398:322,1,68.7500020980836,12|0,1:3|0:0,0:0:0:0:
472,308,157995,2,0,P|445:286|436:253,1,68.7500020980836,8|0,1:3|0:0,0:0:0:0:
508,236,158138,2,0,P|448:216|440:92,1,137.500004196167,8|2,1:3|1:3,0:0:0:0:
353,17,158424,69,8,1:3:0:0:
353,17,158495,1,0,0:0:0:0:
353,17,158567,2,0,P|337:82|281:118,1,137.500004196167,8|2,1:3|0:0,0:0:0:0:
200,220,158852,2,0,P|134:203|98:147,1,137.500004196167,2|4,0:0|0:3,0:0:0:0:
20,4,159138,6,0,L|30:97,1,62.5,4|4,1:3|1:3,0:0:0:0:
140,120,159281,102,0,L|128:216,1,62.5,2|2,1:2|1:2,0:0:0:0:
0,212,159424,6,0,L|13:300,1,62.5,2|2,1:2|1:2,0:0:0:0:
136,352,159567,6,0,B|147:360|147:360|163:352|163:352|178:349|178:349|184:352|184:352|207:351|207:351|235:318|235:318|244:319|244:319|264:312|264:312|260:320|260:320|264:332,1,168.75,0|0,0:0|0:0,1:0:0:0:
