osu file format v14

[General]
AudioFilename: audio.mp3
AudioLeadIn: 0
PreviewTime: 46682
Countdown: 0
SampleSet: Soft
StackLeniency: 0.7
Mode: 3
LetterboxInBreaks: 0
SpecialStyle: 0
WidescreenStoryboard: 1
SamplesMatchPlaybackRate: 1

[Editor]
Bookmarks: 20400,20663,20926,21189,21452,21715,21847,22110,22242,22505,22636,22900,23031,23294,23426,23689,23821,23952,24215,24347,24478,24742,24873,25005,25268,25400,25531,25794,25926,26057,26321,26452,26584,26715,26978,27110,27242,27373,27636,27768,27900,28031,28294,28426,28557,28689,28952,29084,29215,29347,29610,29742,29873,30005,30136,30400,30531,30663,30794,30926,31189,31321,31452,31584,31715,31978,32110,32242,32373,32505,32768,32900,33031,33163,33294,33426,33689,33821,33952,34084,34215,34347,34610,34742,34873,35005,35136,35268,35531,35663,35794,35926,36057,36189,36452,36584,36715,36847,36978,37110,37373,37505,37636,37768,37900,38031,38163,38426,38557,38689,38821,38952,39084,39215,39478,39610,39742,39873,40005,40136,40268,40531,40663,40794,40926,41057,41189,41321,41584,41715,41847,41978,42110,42242,42373,42636,42768,42899,43031,43163,43294,43426,43557
DistanceSpacing: 1
BeatDivisor: 16
GridSize: 4
TimelineZoom: 2.550002

[Metadata]
Title:sing sing red indigo
TitleUnicode:sing sing red indigo
Artist:Frums
ArtistUnicode:Frums
Creator:Ucitysm
Version:pendulum oscillation
Source:A Dance of Fire and Ice
Tags:t2-x fa featured artist 7th beat games adofai neo cosmos ost drill and bass drill & bass work video game music idm intelligent dance music footwork frums.xyz frumsdotxyz electronic instrumental indoroid tigerinity diamant66 baddragon himitsuhiketsu zirconescalus
BeatmapID:4105383
BeatmapSetID:1977616

[Difficulty]
HPDrainRate:8
CircleSize:4
OverallDifficulty:8
ApproachRate:5
SliderMultiplier:1.4
SliderTickRate:1

[Events]
//Background and Video events
0,0,"sing_sing_red_indigo.jpg",0,0
//Break Periods
//Storyboard Layer 0 (Background)
//Storyboard Layer 1 (Fail)
//Storyboard Layer 2 (Pass)
//Storyboard Layer 3 (Foreground)
//Storyboard Layer 4 (Overlay)
//Storyboard Sound Samples
Sample,46715,0,"sndHeldbeatLoopFuse_1.ogg",70
Sample,46715,0,"sndHeldbeatStartFuse.ogg",70
Sample,47767,0,"sndHeldbeatEndFuse.ogg",70
Sample,48820,0,"sndHeldbeatLoopFuse_1.ogg",70
Sample,48820,0,"sndHeldbeatStartFuse.ogg",70
Sample,49872,0,"sndHeldbeatEndFuse.ogg",70
Sample,50925,0,"sndHeldbeatStartFuse.ogg",70
Sample,50925,0,"sndHeldbeatLoopFuse_1.ogg",70
Sample,51978,0,"sndHeldbeatEndFuse.ogg",70
Sample,53030,0,"sndHeldbeatStartFuse.ogg",70
Sample,53030,0,"sndHeldbeatLoopFuse_2.ogg",70
Sample,53820,0,"sndHeldbeatEndFuse.ogg",70
Sample,55136,0,"sndHeldbeatLoopFuse_1.ogg",70
Sample,55136,0,"sndHeldbeatStartFuse.ogg",70
Sample,56188,0,"sndHeldbeatEndFuse.ogg",70
Sample,57241,0,"sndHeldbeatStartFuse.ogg",70
Sample,57241,0,"sndHeldbeatLoopFuse_1.ogg",70
Sample,58293,0,"sndHeldbeatEndFuse.ogg",70
Sample,59346,0,"sndHeldbeatLoopFuse_1.ogg",70
Sample,59346,0,"sndHeldbeatStartFuse.ogg",70
Sample,60399,0,"sndHeldbeatEndFuse.ogg",70
Sample,61451,0,"sndHeldbeatLoopFuse_2.ogg",70
Sample,61451,0,"sndHeldbeatStartFuse.ogg",70
Sample,62241,0,"sndHeldbeatEndFuse.ogg",70

[TimingPoints]
400,526.315789473684,4,2,1,15,1,0
10926,-100,4,2,1,15,0,1
19347,-100,4,2,1,15,0,0
20400,526.315789473684,3,2,1,15,1,0
46715,526.315789473684,4,2,1,15,1,0
46715,-100,4,2,1,15,0,1
47767,-100,4,2,1,15,0,0
48820,-100,4,2,1,15,0,1
50136,-100,4,2,1,15,0,0
50925,-100,4,2,1,15,0,1
51978,-100,4,2,1,15,0,0
53030,-100,4,2,1,15,0,1
53820,-100,4,2,1,15,0,0
55136,-100,4,2,1,15,0,1
56188,-100,4,2,1,15,0,0
57241,-100,4,2,1,15,0,1
58557,-100,4,2,1,15,0,0
59346,-100,4,2,1,15,0,1
60399,-100,4,2,1,15,0,0
61451,-100,4,2,1,15,0,1
62241,-100,4,2,1,15,0,0
80399,526.315789473684,5,2,1,15,1,0
80399,-100,5,2,1,15,0,1
96056,-100,5,2,1,15,0,0
96188,-100,5,2,1,15,0,1
96451,-100,5,2,1,15,0,0
96583,-100,5,2,1,15,0,1
96846,-100,5,2,1,15,0,0
96977,-100,5,2,1,15,0,1
97241,-100,5,2,1,15,0,0
97372,-100,5,2,1,15,0,1
97635,-100,5,2,1,15,0,0
97767,-100,5,2,1,15,0,1
98030,-100,5,2,1,15,0,0
98162,-100,5,2,1,15,0,1
98425,-100,5,2,1,15,0,0
98556,-100,5,2,1,15,0,1
98688,-100,5,2,1,15,0,0
98820,-100,5,2,1,15,0,1
98951,-100,5,2,1,15,0,0
99083,-100,5,2,1,15,0,1
99214,-100,5,2,1,15,0,0
99872,307.692307692308,3,2,1,15,1,0
99872,-172.413793103448,3,2,1,15,0,0
103564,255.31914893617,4,2,1,15,1,0
103564,-204.081632653061,4,2,1,15,0,0
104074,545.454545454546,4,2,1,15,1,0
104074,-96.1538461538461,4,2,1,15,0,0
106255,540.540540540541,4,2,1,15,1,0
106255,-97.0873786407767,4,2,1,15,0,0
108417,566.037735849057,4,2,1,15,1,0
108417,-92.5925925925926,4,2,1,15,0,0
110681,576.923076923077,4,2,1,15,1,0
110681,-90.9090909090909,4,2,1,15,0,0
112988,618.556701030928,4,2,1,15,1,0
112988,-84.7457627118644,4,2,1,15,0,0
115462,631.578947368421,4,2,1,15,1,0
115462,-83.3333333333333,4,2,1,15,0,0
117988,714.285714285714,4,2,1,15,1,0
117988,-73.5294117647059,4,2,1,15,0,0
120845,714.285714285714,4,2,1,15,1,0
120845,-73.5294117647059,4,2,1,15,0,0
123702,864.304235090752,4,2,1,15,1,0
123702,-60.9756097560976,4,2,1,15,0,0

[HitObjects]
64,192,2505,128,0,2768:0:0:0:60:kick.wav
448,192,2505,1,0,0:0:0:0:
320,192,2636,128,0,2768:0:0:0:0:
192,192,2768,128,0,2899:0:0:0:0:
320,192,2899,128,0,3031:0:0:0:60:kick.wav
448,192,2899,128,0,3031:0:0:0:0:
64,192,3031,1,0,0:0:0:0:
64,192,3163,1,0,0:0:0:0:
320,192,3426,1,0,0:0:0:60:kick.wav
448,192,3426,1,0,0:0:0:0:
192,192,3689,1,0,0:0:0:0:
320,192,3821,1,0,0:0:0:60:kick.wav
448,192,3821,1,0,0:0:0:0:
64,192,3952,1,0,0:0:0:0:
320,192,4084,1,0,0:0:0:60:kick.wav
448,192,4084,1,0,0:0:0:0:
192,192,4215,1,0,0:0:0:0:
320,192,4347,1,0,0:0:0:0:
192,192,4478,1,0,0:0:0:0:
64,192,4610,1,0,0:0:0:60:kick.wav
448,192,4610,128,0,4873:0:0:0:0:
192,192,4742,128,0,4873:0:0:0:0:
320,192,4873,128,0,5005:0:0:0:0:
64,192,5005,128,0,5136:0:0:0:60:kick.wav
192,192,5005,128,0,5136:0:0:0:0:
448,192,5136,1,0,0:0:0:0:
64,192,5531,1,0,0:0:0:60:kick.wav
192,192,5531,1,0,0:0:0:0:
320,192,5794,1,0,0:0:0:0:
64,192,5926,1,0,0:0:0:60:kick.wav
192,192,5926,1,0,0:0:0:0:
448,192,6057,1,0,0:0:0:0:
64,192,6189,1,0,0:0:0:60:kick.wav
192,192,6189,1,0,0:0:0:0:
320,192,6321,1,0,0:0:0:0:
64,192,6452,1,0,0:0:0:60:kick.wav
448,192,6452,1,0,0:0:0:0:
192,192,6584,1,0,0:0:0:0:
320,192,6715,1,0,0:0:0:60:kick.wav
448,192,6715,128,0,6978:0:0:0:0:
64,192,6847,128,0,6978:0:0:0:0:
192,192,6978,128,0,7110:0:0:0:0:
320,192,7110,128,0,7242:0:0:0:60:kick.wav
448,192,7110,128,0,7242:0:0:0:0:
64,192,7242,1,0,0:0:0:0:
64,192,7373,128,0,7505:0:0:0:0:
448,192,7505,128,0,7636:0:0:0:0:
64,192,7636,1,0,0:0:0:60:kick.wav
192,192,7636,1,0,0:0:0:0:
192,192,7899,1,0,0:0:0:0:
320,192,8031,1,0,0:0:0:60:kick.wav
448,192,8031,1,0,0:0:0:0:
64,192,8163,1,0,0:0:0:0:
320,192,8294,1,0,0:0:0:60:kick.wav
448,192,8294,1,0,0:0:0:0:
192,192,8426,1,0,0:0:0:0:
448,192,8557,1,0,0:0:0:0:
192,192,8689,1,0,0:0:0:0:
64,192,8821,128,0,9084:0:0:0:60:kick.wav
320,192,8821,1,0,0:0:0:0:
448,192,8952,128,0,9084:0:0:0:0:
320,192,9084,128,0,9215:0:0:0:0:
64,192,9215,128,0,9347:0:0:0:60:kick.wav
192,192,9215,128,0,9347:0:0:0:0:
448,192,9347,1,0,0:0:0:0:
448,192,9478,128,0,9610:0:0:0:0:
64,192,9610,128,0,9742:0:0:0:0:
320,192,9742,128,0,9873:0:0:0:60:kick.wav
448,192,9742,128,0,10005:0:0:0:0:
320,192,10005,1,0,0:0:0:0:
64,192,10136,1,0,0:0:0:60:kick.wav
192,192,10136,1,0,0:0:0:0:
448,192,10268,1,0,0:0:0:0:
448,192,10334,1,0,0:0:0:0:
64,192,10399,1,0,0:0:0:60:kick.wav
192,192,10399,1,0,0:0:0:0:
320,192,10531,1,0,0:0:0:0:
64,192,10663,1,0,0:0:0:60:kick.wav
448,192,10663,1,0,0:0:0:0:
192,192,10794,128,0,10926:0:0:0:0:
64,192,10860,128,0,10926:0:0:0:0:
320,192,10926,128,0,11255:0:0:0:60:kick.wav
448,192,10926,1,0,0:0:0:0:
192,192,11057,1,0,0:0:0:0:
448,192,11189,1,0,0:0:0:0:
64,192,11321,1,0,0:0:0:60:kick.wav
320,192,11321,128,0,11452:0:0:0:0:
448,192,11386,128,0,11452:0:0:0:0:
64,192,11452,128,0,11518:0:0:0:0:
192,192,11452,1,0,0:0:0:0:
192,192,11584,128,0,11649:0:0:0:0:
448,192,11715,128,0,11781:0:0:0:0:
64,192,11847,1,0,0:0:0:60:kick.wav
320,192,11847,128,0,11913:0:0:0:0:
192,192,11913,1,0,0:0:0:0:
64,192,11978,128,0,12044:0:0:0:0:
448,192,12110,128,0,12176:0:0:0:0:
64,192,12242,1,0,0:0:0:60:kick.wav
192,192,12242,128,0,12307:0:0:0:0:
320,192,12373,128,0,12571:0:0:0:0:
64,192,12505,1,0,0:0:0:60:kick.wav
192,192,12505,1,0,0:0:0:0:
192,192,12636,128,0,12834:0:0:0:0:
320,192,12768,1,0,0:0:0:0:
64,192,12899,1,0,0:0:0:0:
448,192,12899,128,0,12965:0:0:0:0:
64,192,12965,1,0,0:0:0:0:
320,192,13031,1,0,0:0:0:60:kick.wav
448,192,13031,1,0,0:0:0:0:
192,192,13163,1,0,0:0:0:0:
64,192,13294,128,0,13360:0:0:0:0:
320,192,13294,128,0,13426:0:0:0:0:
64,192,13426,128,0,13623:0:0:0:60:kick.wav
192,192,13426,128,0,13492:0:0:0:0:
448,192,13557,1,0,0:0:0:0:
320,192,13689,128,0,13755:0:0:0:0:
448,192,13689,128,0,13886:0:0:0:0:
64,192,13952,128,0,14149:0:0:0:60:kick.wav
448,192,13952,1,0,0:0:0:0:
448,192,14018,1,0,0:0:0:0:
192,192,14084,1,0,0:0:0:0:
320,192,14084,1,0,0:0:0:0:
64,192,14215,128,0,14281:0:0:0:0:
448,192,14215,128,0,14347:0:0:0:0:
192,192,14347,128,0,14413:0:0:0:60:kick.wav
320,192,14347,128,0,14413:0:0:0:0:
64,192,14478,128,0,14544:0:0:0:0:
192,192,14478,128,0,14676:0:0:0:0:
64,192,14610,1,0,0:0:0:60:kick.wav
320,192,14610,1,0,0:0:0:0:
320,192,14742,128,0,14807:0:0:0:0:
192,192,14807,128,0,14873:0:0:0:0:
64,192,14873,1,0,0:0:0:60:kick.wav
448,192,14873,1,0,0:0:0:0:
320,192,14939,1,0,0:0:0:0:
448,192,15005,1,0,0:0:0:0:
192,192,15071,1,0,0:0:0:0:
320,192,15136,1,0,0:0:0:60:kick.wav
448,192,15136,1,0,0:0:0:0:
320,192,15268,128,0,15334:0:0:0:0:
192,192,15399,128,0,15465:0:0:0:0:
320,192,15531,1,0,0:0:0:60:kick.wav
448,192,15531,128,0,15597:0:0:0:0:
64,192,15663,128,0,15728:0:0:0:0:
192,192,15663,1,0,0:0:0:0:
192,192,15794,128,0,15860:0:0:0:0:
448,192,15926,128,0,15992:0:0:0:0:
64,192,15959,128,0,16057:0:0:0:0:
192,192,16057,1,0,0:0:0:60:kick.wav
448,192,16057,1,0,0:0:0:0:
320,192,16123,1,0,0:0:0:0:
192,192,16189,128,0,16255:0:0:0:0:
320,192,16321,128,0,16386:0:0:0:0:
64,192,16452,1,0,0:0:0:60:kick.wav
448,192,16452,128,0,16715:0:0:0:0:
320,192,16584,128,0,16847:0:0:0:0:
64,192,16715,1,0,0:0:0:60:kick.wav
192,192,16715,1,0,0:0:0:0:
64,192,16847,128,0,16913:0:0:0:0:
448,192,16880,128,0,16946:0:0:0:0:
192,192,16978,1,0,0:0:0:0:
64,192,17044,1,0,0:0:0:0:
192,192,17110,1,0,0:0:0:0:
448,192,17176,1,0,0:0:0:0:
64,192,17242,1,0,0:0:0:60:kick.wav
192,192,17242,1,0,0:0:0:0:
448,192,17373,128,0,17439:0:0:0:0:
64,192,17505,128,0,17571:0:0:0:0:
192,192,17636,1,0,0:0:0:60:kick.wav
320,192,17636,128,0,17834:0:0:0:0:
64,192,17768,1,0,0:0:0:0:
448,192,17768,1,0,0:0:0:0:
64,192,17899,128,0,17965:0:0:0:0:
448,192,17899,1,0,0:0:0:0:
448,192,17965,1,0,0:0:0:0:
192,192,18031,1,0,0:0:0:0:
320,192,18097,1,0,0:0:0:0:
64,192,18163,1,0,0:0:0:60:kick.wav
192,192,18163,1,0,0:0:0:0:
320,192,18228,1,0,0:0:0:0:
64,192,18294,1,0,0:0:0:0:
320,192,18426,128,0,18492:0:0:0:0:
64,192,18557,1,0,0:0:0:60:kick.wav
448,192,18557,128,0,18623:0:0:0:0:
192,192,18689,128,0,18755:0:0:0:0:
320,192,18689,1,0,0:0:0:0:
320,192,18755,1,0,0:0:0:0:
64,192,18821,1,0,0:0:0:60:kick.wav
192,192,18821,1,0,0:0:0:0:
448,192,18886,1,0,0:0:0:0:
64,192,18952,128,0,19281:0:0:0:0:
320,192,19084,1,0,0:0:0:60:kick.wav
448,192,19084,1,0,0:0:0:0:
192,192,19149,1,0,0:0:0:0:
448,192,19215,1,0,0:0:0:0:
320,192,19281,1,0,0:0:0:0:
64,192,19347,1,0,0:0:0:70:kick_minor.wav
448,192,19347,1,0,0:0:0:0:
64,192,19478,1,0,0:0:0:0:
64,192,19610,1,0,0:0:0:0:
192,192,19676,1,0,0:0:0:0:
64,192,19742,1,0,0:0:0:70:kick_minor.wav
448,192,19742,1,0,0:0:0:0:
448,192,19873,1,0,0:0:0:0:
192,192,20005,1,0,0:0:0:70:clap.wav
192,192,20071,1,0,0:0:0:70:clap.wav
320,192,20136,1,0,0:0:0:70:kick_minor.wav
448,192,20136,1,0,0:0:0:70:clap_echo.wav
64,192,20268,1,0,0:0:0:70:clap.wav
448,192,20268,1,0,0:0:0:0:
64,192,20400,1,0,0:0:0:60:kick.wav
192,192,20400,1,0,0:0:0:0:
320,192,20531,1,0,0:0:0:0:
320,192,20597,1,0,0:0:0:0:
64,192,20663,1,0,0:0:0:0:
320,192,20794,1,0,0:0:0:60:kick.wav
448,192,20794,1,0,0:0:0:0:
192,192,20926,1,0,0:0:0:0:
448,192,21057,1,0,0:0:0:0:
64,192,21189,1,0,0:0:0:0:
320,192,21255,1,0,0:0:0:0:
64,192,21321,1,0,0:0:0:60:kick.wav
192,192,21321,1,0,0:0:0:0:
448,192,21386,1,0,0:0:0:0:
192,192,21452,1,0,0:0:0:0:
64,192,21584,1,0,0:0:0:0:
320,192,21584,1,0,0:0:0:0:
320,192,21715,1,0,0:0:0:60:kick.wav
448,192,21715,1,0,0:0:0:0:
192,192,21847,1,0,0:0:0:0:
448,192,21847,1,0,0:0:0:0:
64,192,21978,1,0,0:0:0:60:kick.wav
320,192,21978,1,0,0:0:0:0:
192,192,22110,1,0,0:0:0:0:
192,192,22176,1,0,0:0:0:0:
448,192,22242,1,0,0:0:0:0:
64,192,22373,1,0,0:0:0:60:kick.wav
192,192,22373,1,0,0:0:0:0:
320,192,22505,1,0,0:0:0:0:
64,192,22636,1,0,0:0:0:0:
448,192,22768,1,0,0:0:0:0:
192,192,22834,1,0,0:0:0:0:
64,192,22900,1,0,0:0:0:60:kick.wav
320,192,22900,1,0,0:0:0:0:
448,192,22965,1,0,0:0:0:0:
192,192,23031,1,0,0:0:0:0:
64,192,23163,1,0,0:0:0:0:
448,192,23163,1,0,0:0:0:0:
320,192,23294,1,0,0:0:0:60:kick.wav
448,192,23294,1,0,0:0:0:0:
64,192,23426,1,0,0:0:0:0:
320,192,23426,1,0,0:0:0:0:
64,192,23557,1,0,0:0:0:60:kick.wav
192,192,23557,1,0,0:0:0:0:
448,192,23689,1,0,0:0:0:0:
448,192,23755,1,0,0:0:0:0:
192,192,23821,1,0,0:0:0:0:
64,192,23952,1,0,0:0:0:60:kick.wav
320,192,23952,1,0,0:0:0:0:
448,192,24084,1,0,0:0:0:0:
64,192,24215,1,0,0:0:0:0:
64,192,24347,1,0,0:0:0:0:
320,192,24413,1,0,0:0:0:0:
192,192,24478,1,0,0:0:0:60:kick.wav
448,192,24478,1,0,0:0:0:0:
64,192,24544,1,0,0:0:0:0:
320,192,24610,1,0,0:0:0:0:
64,192,24742,1,0,0:0:0:0:
192,192,24742,1,0,0:0:0:0:
64,192,24873,1,0,0:0:0:60:kick.wav
448,192,24873,1,0,0:0:0:0:
320,192,25005,1,0,0:0:0:0:
448,192,25005,1,0,0:0:0:0:
64,192,25136,1,0,0:0:0:60:kick.wav
320,192,25136,1,0,0:0:0:0:
192,192,25268,1,0,0:0:0:0:
192,192,25334,1,0,0:0:0:0:
448,192,25400,1,0,0:0:0:0:
64,192,25531,1,0,0:0:0:60:kick.wav
320,192,25531,1,0,0:0:0:0:
192,192,25663,1,0,0:0:0:0:
448,192,25794,1,0,0:0:0:0:
320,192,25926,1,0,0:0:0:0:
192,192,25992,1,0,0:0:0:0:
320,192,26057,1,0,0:0:0:60:kick.wav
448,192,26057,1,0,0:0:0:0:
64,192,26123,1,0,0:0:0:0:
448,192,26189,1,0,0:0:0:0:
192,192,26321,1,0,0:0:0:0:
320,192,26321,1,0,0:0:0:0:
64,192,26452,1,0,0:0:0:60:kick.wav
320,192,26452,1,0,0:0:0:0:
192,192,26584,1,0,0:0:0:0:
448,192,26584,1,0,0:0:0:0:
64,192,26715,1,0,0:0:0:60:kick.wav
192,192,26715,1,0,0:0:0:0:
320,192,26847,1,0,0:0:0:0:
320,192,26913,1,0,0:0:0:0:
64,192,26978,1,0,0:0:0:0:
192,192,27110,1,0,0:0:0:60:kick.wav
448,192,27110,1,0,0:0:0:0:
320,192,27242,1,0,0:0:0:0:
64,192,27373,1,0,0:0:0:0:
192,192,27505,1,0,0:0:0:0:
320,192,27571,1,0,0:0:0:0:
64,192,27636,1,0,0:0:0:60:kick.wav
192,192,27636,1,0,0:0:0:0:
448,192,27702,1,0,0:0:0:0:
320,192,27768,1,0,0:0:0:0:
192,192,27900,1,0,0:0:0:0:
320,192,27900,1,0,0:0:0:0:
64,192,28031,1,0,0:0:0:60:kick.wav
448,192,28031,1,0,0:0:0:0:
64,192,28163,1,0,0:0:0:0:
192,192,28163,1,0,0:0:0:0:
320,192,28294,1,0,0:0:0:60:kick.wav
448,192,28294,1,0,0:0:0:0:
64,192,28426,1,0,0:0:0:0:
64,192,28492,1,0,0:0:0:0:
448,192,28557,1,0,0:0:0:0:
192,192,28689,1,0,0:0:0:60:kick.wav
320,192,28689,1,0,0:0:0:0:
64,192,28821,1,0,0:0:0:0:
448,192,28952,1,0,0:0:0:0:
192,192,29084,1,0,0:0:0:0:
320,192,29150,1,0,0:0:0:0:
192,192,29215,1,0,0:0:0:60:kick.wav
448,192,29215,1,0,0:0:0:0:
320,192,29281,1,0,0:0:0:0:
64,192,29347,1,0,0:0:0:0:
192,192,29478,1,0,0:0:0:0:
448,192,29478,1,0,0:0:0:0:
320,192,29610,1,0,0:0:0:60:kick.wav
448,192,29610,1,0,0:0:0:0:
64,192,29742,1,0,0:0:0:0:
320,192,29742,1,0,0:0:0:0:
64,192,29873,1,0,0:0:0:60:kick.wav
192,192,29873,1,0,0:0:0:0:
448,192,30005,1,0,0:0:0:0:
448,192,30071,1,0,0:0:0:0:
64,192,30136,1,0,0:0:0:0:
320,192,30268,1,0,0:0:0:60:kick.wav
448,192,30268,1,0,0:0:0:0:
64,192,30400,1,0,0:0:0:0:
320,192,30531,1,0,0:0:0:0:
320,192,30663,1,0,0:0:0:0:
192,192,30728,1,0,0:0:0:0:
320,192,30794,1,0,0:0:0:60:kick.wav
448,192,30794,1,0,0:0:0:0:
64,192,30860,1,0,0:0:0:0:
192,192,30926,1,0,0:0:0:0:
64,192,31057,1,0,0:0:0:0:
448,192,31057,1,0,0:0:0:0:
64,192,31189,1,0,0:0:0:60:kick.wav
320,192,31189,1,0,0:0:0:0:
192,192,31321,1,0,0:0:0:0:
448,192,31321,1,0,0:0:0:0:
320,192,31452,1,0,0:0:0:60:kick.wav
448,192,31452,1,0,0:0:0:0:
192,192,31584,1,0,0:0:0:0:
192,192,31649,1,0,0:0:0:0:
320,192,31715,1,0,0:0:0:0:
64,192,31847,1,0,0:0:0:60:kick.wav
192,192,31847,1,0,0:0:0:0:
448,192,31978,1,0,0:0:0:0:
64,192,32110,1,0,0:0:0:0:
320,192,32242,1,0,0:0:0:0:
192,192,32307,1,0,0:0:0:0:
64,192,32373,1,0,0:0:0:60:kick.wav
320,192,32373,1,0,0:0:0:0:
192,192,32439,1,0,0:0:0:0:
448,192,32505,1,0,0:0:0:0:
64,192,32636,1,0,0:0:0:0:
320,192,32636,1,0,0:0:0:0:
192,192,32768,1,0,0:0:0:60:kick.wav
320,192,32768,1,0,0:0:0:0:
64,192,32900,1,0,0:0:0:0:
448,192,32900,1,0,0:0:0:0:
64,192,33031,1,0,0:0:0:60:kick.wav
192,192,33031,1,0,0:0:0:0:
320,192,33163,1,0,0:0:0:0:
320,192,33228,1,0,0:0:0:0:
64,192,33294,1,0,0:0:0:0:
320,192,33426,1,0,0:0:0:60:kick.wav
448,192,33426,1,0,0:0:0:0:
192,192,33557,1,0,0:0:0:0:
448,192,33689,1,0,0:0:0:0:
64,192,33821,1,0,0:0:0:0:
320,192,33886,1,0,0:0:0:0:
64,192,33952,1,0,0:0:0:60:kick.wav
192,192,33952,1,0,0:0:0:0:
448,192,34018,1,0,0:0:0:0:
192,192,34084,1,0,0:0:0:0:
64,192,34215,1,0,0:0:0:0:
320,192,34215,1,0,0:0:0:0:
320,192,34347,1,0,0:0:0:60:kick.wav
448,192,34347,1,0,0:0:0:0:
192,192,34478,1,0,0:0:0:0:
448,192,34478,1,0,0:0:0:0:
64,192,34610,1,0,0:0:0:60:kick.wav
320,192,34610,1,0,0:0:0:0:
192,192,34742,1,0,0:0:0:0:
192,192,34807,1,0,0:0:0:0:
448,192,34873,1,0,0:0:0:0:
64,192,35005,1,0,0:0:0:60:kick.wav
192,192,35005,1,0,0:0:0:0:
64,192,35136,1,0,0:0:0:0:
320,192,35268,1,0,0:0:0:0:
448,192,35400,1,0,0:0:0:0:
192,192,35465,1,0,0:0:0:0:
64,192,35531,1,0,0:0:0:60:kick.wav
320,192,35531,1,0,0:0:0:0:
448,192,35597,1,0,0:0:0:0:
192,192,35663,1,0,0:0:0:0:
64,192,35794,1,0,0:0:0:0:
448,192,35794,1,0,0:0:0:0:
320,192,35926,1,0,0:0:0:60:kick.wav
448,192,35926,1,0,0:0:0:0:
64,192,36057,1,0,0:0:0:0:
320,192,36057,1,0,0:0:0:0:
64,192,36189,1,0,0:0:0:60:kick.wav
192,192,36189,1,0,0:0:0:0:
448,192,36321,1,0,0:0:0:0:
448,192,36386,1,0,0:0:0:0:
192,192,36452,1,0,0:0:0:0:
64,192,36584,1,0,0:0:0:60:kick.wav
320,192,36584,1,0,0:0:0:0:
448,192,36715,1,0,0:0:0:0:
192,192,36847,1,0,0:0:0:0:
64,192,36978,1,0,0:0:0:0:
320,192,37044,1,0,0:0:0:0:
192,192,37110,1,0,0:0:0:60:kick.wav
448,192,37110,1,0,0:0:0:0:
64,192,37176,1,0,0:0:0:0:
320,192,37242,1,0,0:0:0:0:
64,192,37373,1,0,0:0:0:0:
192,192,37373,1,0,0:0:0:0:
64,192,37505,1,0,0:0:0:60:kick.wav
448,192,37505,1,0,0:0:0:0:
320,192,37636,1,0,0:0:0:0:
448,192,37636,1,0,0:0:0:0:
64,192,37768,1,0,0:0:0:60:kick.wav
320,192,37768,1,0,0:0:0:0:
192,192,37900,1,0,0:0:0:0:
192,192,37965,1,0,0:0:0:0:
448,192,38031,1,0,0:0:0:0:
64,192,38163,1,0,0:0:0:60:kick.wav
320,192,38163,1,0,0:0:0:0:
192,192,38294,1,0,0:0:0:0:
448,192,38426,1,0,0:0:0:0:
320,192,38557,1,0,0:0:0:0:
192,192,38623,1,0,0:0:0:0:
320,192,38689,1,0,0:0:0:60:kick.wav
448,192,38689,1,0,0:0:0:0:
64,192,38755,1,0,0:0:0:0:
448,192,38821,1,0,0:0:0:0:
192,192,38952,1,0,0:0:0:0:
320,192,38952,1,0,0:0:0:0:
64,192,39084,1,0,0:0:0:60:kick.wav
320,192,39084,1,0,0:0:0:0:
192,192,39215,1,0,0:0:0:0:
448,192,39215,1,0,0:0:0:0:
64,192,39347,1,0,0:0:0:60:kick.wav
192,192,39347,1,0,0:0:0:0:
320,192,39478,1,0,0:0:0:0:
320,192,39544,1,0,0:0:0:0:
64,192,39610,1,0,0:0:0:0:
192,192,39742,1,0,0:0:0:60:kick.wav
448,192,39742,1,0,0:0:0:0:
448,192,39873,1,0,0:0:0:0:
64,192,40005,1,0,0:0:0:0:
192,192,40136,1,0,0:0:0:0:
320,192,40202,1,0,0:0:0:0:
64,192,40268,1,0,0:0:0:60:kick.wav
192,192,40268,1,0,0:0:0:0:
448,192,40334,1,0,0:0:0:0:
320,192,40400,1,0,0:0:0:0:
192,192,40531,1,0,0:0:0:0:
320,192,40531,1,0,0:0:0:0:
64,192,40663,1,0,0:0:0:60:kick.wav
448,192,40663,1,0,0:0:0:0:
64,192,40794,1,0,0:0:0:0:
192,192,40794,1,0,0:0:0:0:
320,192,40926,1,0,0:0:0:60:kick.wav
448,192,40926,1,0,0:0:0:0:
64,192,41057,1,0,0:0:0:0:
64,192,41123,1,0,0:0:0:0:
448,192,41189,1,0,0:0:0:0:
192,192,41321,1,0,0:0:0:60:kick.wav
320,192,41321,1,0,0:0:0:0:
64,192,41452,1,0,0:0:0:0:
448,192,41584,1,0,0:0:0:0:
192,192,41715,1,0,0:0:0:0:
320,192,41781,1,0,0:0:0:0:
192,192,41847,1,0,0:0:0:60:kick.wav
448,192,41847,1,0,0:0:0:0:
320,192,41913,1,0,0:0:0:0:
64,192,41978,1,0,0:0:0:0:
192,192,42110,1,0,0:0:0:0:
448,192,42110,1,0,0:0:0:0:
320,192,42242,1,0,0:0:0:60:kick.wav
448,192,42242,1,0,0:0:0:0:
64,192,42373,1,0,0:0:0:0:
320,192,42373,1,0,0:0:0:0:
64,192,42505,1,0,0:0:0:60:kick.wav
192,192,42505,1,0,0:0:0:0:
448,192,42636,1,0,0:0:0:0:
448,192,42702,1,0,0:0:0:0:
64,192,42768,1,0,0:0:0:0:
192,192,42899,1,0,0:0:0:60:kick.wav
320,192,42899,1,0,0:0:0:0:
448,192,43031,1,0,0:0:0:0:
64,192,43163,1,0,0:0:0:0:
320,192,43294,1,0,0:0:0:0:
192,192,43360,1,0,0:0:0:0:
320,192,43426,1,0,0:0:0:60:kick.wav
448,192,43426,1,0,0:0:0:0:
64,192,43492,1,0,0:0:0:0:
192,192,43557,1,0,0:0:0:0:
64,192,43689,1,0,0:0:0:0:
448,192,43689,1,0,0:0:0:0:
64,192,43821,1,0,0:0:0:60:kick.wav
320,192,43821,1,0,0:0:0:0:
192,192,43952,1,0,0:0:0:0:
448,192,43952,1,0,0:0:0:0:
64,192,44084,1,0,0:0:0:60:kick.wav
320,192,44084,1,0,0:0:0:0:
448,192,44084,1,0,0:0:0:0:
192,192,44215,1,0,0:0:0:0:
448,192,44347,1,0,0:0:0:0:
64,192,44478,1,0,0:0:0:0:
320,192,44610,1,0,0:0:0:0:
192,192,44742,1,0,0:0:0:0:
448,192,44873,1,0,0:0:0:0:
448,192,45005,1,0,0:0:0:0:
64,192,45136,1,0,0:0:0:0:
320,192,45268,1,0,0:0:0:0:
64,192,45312,1,0,0:0:0:0:
192,192,45370,1,0,0:0:0:0:
448,192,45429,1,0,0:0:0:0:
192,192,45487,1,0,0:0:0:0:
320,192,45546,1,0,0:0:0:0:
64,192,45604,1,0,0:0:0:0:
448,192,45663,1,0,0:0:0:0:
192,192,45750,1,0,0:0:0:0:
320,192,45926,1,0,0:0:0:0:
64,192,46101,1,0,0:0:0:0:
320,192,46189,1,0,0:0:0:0:
448,192,46189,1,0,0:0:0:0:
64,192,46255,1,0,0:0:0:0:
192,192,46255,1,0,0:0:0:0:
192,192,46386,1,0,0:0:0:0:
448,192,46386,1,0,0:0:0:0:
320,192,46518,1,0,0:0:0:0:
320,192,46584,1,0,0:0:0:0:
64,192,46649,1,0,0:0:0:0:
320,192,46715,1,0,0:0:0:60:kick.wav
448,192,46715,1,0,0:0:0:0:
192,192,46773,1,0,0:0:0:0:
64,192,46831,1,0,0:0:0:0:
448,192,46890,1,0,0:0:0:0:
320,192,46948,1,0,0:0:0:0:
192,192,47007,1,0,0:0:0:0:
448,192,47065,1,0,0:0:0:0:
64,192,47124,1,0,0:0:0:0:
320,192,47182,1,0,0:0:0:0:
192,192,47241,1,0,0:0:0:0:
320,192,47299,1,0,0:0:0:0:
448,192,47358,1,0,0:0:0:0:
64,192,47416,1,0,0:0:0:0:
64,192,47504,1,0,0:0:0:0:
448,192,47592,1,0,0:0:0:0:
448,192,47679,1,0,0:0:0:0:
64,192,47767,128,0,47833:0:0:0:60:kick.wav
192,192,47767,1,0,0:0:0:0:
320,192,47899,128,0,47986:0:0:0:0:
192,192,48096,128,0,48228:0:0:0:0:
64,192,48293,1,0,0:0:0:70:clap.wav
448,192,48293,1,0,0:0:0:0:
64,192,48820,1,0,0:0:0:60:kick.wav
192,192,48820,1,0,0:0:0:0:
448,192,48886,1,0,0:0:0:0:
192,192,48951,1,0,0:0:0:0:
64,192,49017,1,0,0:0:0:0:
192,192,49083,1,0,0:0:0:0:
320,192,49149,1,0,0:0:0:0:
448,192,49215,1,0,0:0:0:0:
448,192,49280,1,0,0:0:0:0:
64,192,49346,1,0,0:0:0:0:
320,192,49412,1,0,0:0:0:0:
64,192,49478,1,0,0:0:0:0:
192,192,49543,1,0,0:0:0:0:
448,192,49609,1,0,0:0:0:0:
64,192,49675,1,0,0:0:0:0:
448,192,49741,1,0,0:0:0:0:
320,192,49807,1,0,0:0:0:0:
64,192,49872,1,0,0:0:0:60:kick.wav
448,192,49905,1,0,0:0:0:0:
192,192,50004,1,0,0:0:0:60:kick.wav
64,192,50037,1,0,0:0:0:0:
320,192,50136,1,0,0:0:0:0:
320,192,50201,1,0,0:0:0:0:
192,192,50267,1,0,0:0:0:0:
320,192,50399,1,0,0:0:0:0:
448,192,50399,1,0,0:0:0:0:
64,192,50530,1,0,0:0:0:70:clap.wav
448,192,50530,1,0,0:0:0:0:
64,192,50793,1,0,0:0:0:0:
192,192,50793,1,0,0:0:0:0:
192,192,50925,1,0,0:0:0:60:kick.wav
448,192,50925,1,0,0:0:0:0:
448,192,51013,1,0,0:0:0:0:
64,192,51100,1,0,0:0:0:0:
64,192,51188,1,0,0:0:0:0:
448,192,51287,1,0,0:0:0:0:
192,192,51344,1,0,0:0:0:0:
64,192,51402,1,0,0:0:0:0:
320,192,51460,1,0,0:0:0:0:
64,192,51517,1,0,0:0:0:0:
192,192,51575,1,0,0:0:0:0:
448,192,51649,1,0,0:0:0:0:
64,192,51693,1,0,0:0:0:0:
320,192,51736,1,0,0:0:0:0:
448,192,51780,1,0,0:0:0:0:
192,192,51846,1,0,0:0:0:0:
320,192,51912,1,0,0:0:0:0:
448,192,51978,1,0,0:0:0:60:kick.wav
64,192,52002,1,0,0:0:0:0:
448,192,52153,1,0,0:0:0:0:
192,192,52175,1,0,0:0:0:0:
448,192,52331,1,0,0:0:0:0:
64,192,52350,1,0,0:0:0:0:
192,192,52504,1,0,0:0:0:70:clap.wav
448,192,52504,1,0,0:0:0:0:
64,192,52562,1,0,0:0:0:0:
320,192,52562,1,0,0:0:0:0:
448,192,52767,128,0,52866:0:0:0:0:
320,192,52833,128,0,52965:0:0:0:0:
64,192,53030,1,0,0:0:0:60:kick.wav
192,192,53030,1,0,0:0:0:0:
448,192,53096,1,0,0:0:0:0:
192,192,53162,1,0,0:0:0:0:
64,192,53228,1,0,0:0:0:0:
192,192,53293,1,0,0:0:0:0:
320,192,53359,1,0,0:0:0:0:
64,192,53425,1,0,0:0:0:0:
64,192,53491,1,0,0:0:0:0:
448,192,53557,1,0,0:0:0:60:kick.wav
192,192,53600,1,0,0:0:0:0:
320,192,53644,1,0,0:0:0:0:
448,192,53688,1,0,0:0:0:60:kick.wav
192,192,53732,1,0,0:0:0:0:
448,192,53776,1,0,0:0:0:0:
64,192,53820,1,0,0:0:0:60:kick.wav
320,192,53820,1,0,0:0:0:0:
192,192,53951,128,0,54034:0:0:0:0:
192,192,54083,1,0,0:0:0:0:
448,192,54215,1,0,0:0:0:0:
448,192,54346,1,0,0:0:0:0:
64,192,54478,1,0,0:0:0:70:clap_echo.wav
192,192,54478,1,0,0:0:0:0:
64,192,54593,1,0,0:0:0:50:clap.wav
192,192,54593,1,0,0:0:0:0:
320,192,54708,1,0,0:0:0:30:clap.wav
64,192,54785,1,0,0:0:0:0:
320,192,54823,1,0,0:0:0:10:clap.wav
192,192,54872,1,0,0:0:0:0:
448,192,54916,1,0,0:0:0:0:
192,192,54960,1,0,0:0:0:0:
64,192,55004,1,0,0:0:0:0:
320,192,55048,1,0,0:0:0:0:
448,192,55094,1,0,0:0:0:0:
64,192,55136,1,0,0:0:0:60:kick.wav
192,192,55136,1,0,0:0:0:0:
320,192,55194,1,0,0:0:0:0:
448,192,55253,1,0,0:0:0:0:
64,192,55311,1,0,0:0:0:0:
192,192,55369,1,0,0:0:0:0:
320,192,55428,1,0,0:0:0:0:
64,192,55486,1,0,0:0:0:0:
448,192,55545,1,0,0:0:0:0:
192,192,55603,1,0,0:0:0:0:
320,192,55662,1,0,0:0:0:0:
192,192,55720,1,0,0:0:0:0:
448,192,55779,1,0,0:0:0:0:
64,192,55837,1,0,0:0:0:0:
64,192,55925,1,0,0:0:0:0:
448,192,56013,1,0,0:0:0:0:
448,192,56100,1,0,0:0:0:0:
64,192,56188,1,0,0:0:0:60:kick.wav
192,192,56188,1,0,0:0:0:0:
320,192,56295,1,0,0:0:0:0:
64,192,56361,1,0,0:0:0:0:
448,192,56468,1,0,0:0:0:0:
192,192,56534,1,0,0:0:0:0:
320,192,56640,1,0,0:0:0:0:
64,192,56715,1,0,0:0:0:70:clap.wav
192,192,56715,1,0,0:0:0:0:
320,192,56978,128,0,57175:0:0:0:0:
448,192,56978,128,0,57175:0:0:0:0:
64,192,57241,1,0,0:0:0:60:kick.wav
192,192,57241,1,0,0:0:0:0:
448,192,57307,1,0,0:0:0:0:
64,192,57372,1,0,0:0:0:0:
320,192,57438,1,0,0:0:0:0:
64,192,57504,1,0,0:0:0:0:
192,192,57570,1,0,0:0:0:0:
448,192,57636,1,0,0:0:0:0:
448,192,57701,1,0,0:0:0:0:
64,192,57767,1,0,0:0:0:0:
320,192,57833,1,0,0:0:0:0:
448,192,57899,1,0,0:0:0:0:
192,192,57965,1,0,0:0:0:0:
448,192,58030,1,0,0:0:0:0:
64,192,58096,1,0,0:0:0:0:
320,192,58162,1,0,0:0:0:0:
192,192,58228,1,0,0:0:0:0:
448,192,58293,1,0,0:0:0:60:kick.wav
64,192,58326,1,0,0:0:0:0:
320,192,58425,1,0,0:0:0:60:kick.wav
448,192,58458,1,0,0:0:0:0:
192,192,58557,1,0,0:0:0:0:
192,192,58622,1,0,0:0:0:0:
320,192,58688,1,0,0:0:0:0:
64,192,58820,1,0,0:0:0:0:
192,192,58820,1,0,0:0:0:0:
64,192,58951,1,0,0:0:0:70:clap.wav
448,192,58951,1,0,0:0:0:0:
320,192,59182,1,0,0:0:0:0:
448,192,59182,1,0,0:0:0:0:
64,192,59346,1,0,0:0:0:60:kick.wav
320,192,59346,1,0,0:0:0:0:
64,192,59434,1,0,0:0:0:0:
448,192,59522,1,0,0:0:0:0:
448,192,59609,1,0,0:0:0:0:
64,192,59708,1,0,0:0:0:0:
320,192,59765,1,0,0:0:0:0:
448,192,59823,1,0,0:0:0:0:
192,192,59881,1,0,0:0:0:0:
448,192,59938,1,0,0:0:0:0:
320,192,59996,1,0,0:0:0:0:
64,192,60070,1,0,0:0:0:0:
448,192,60114,1,0,0:0:0:0:
192,192,60157,1,0,0:0:0:0:
64,192,60201,1,0,0:0:0:0:
320,192,60267,1,0,0:0:0:0:
192,192,60333,1,0,0:0:0:0:
64,192,60399,1,0,0:0:0:60:kick.wav
448,192,60423,1,0,0:0:0:0:
64,192,60530,1,0,0:0:0:0:
320,192,60552,1,0,0:0:0:0:
64,192,60662,1,0,0:0:0:0:
448,192,60684,1,0,0:0:0:0:
64,192,60793,1,0,0:0:0:0:
320,192,60815,1,0,0:0:0:0:
192,192,60925,1,0,0:0:0:70:clap.wav
448,192,60925,1,0,0:0:0:0:
64,192,60984,1,0,0:0:0:0:
320,192,60984,1,0,0:0:0:0:
448,192,61188,1,0,0:0:0:0:
320,192,61254,1,0,0:0:0:0:
448,192,61320,1,0,0:0:0:0:
192,192,61386,1,0,0:0:0:0:
320,192,61451,1,0,0:0:0:60:kick.wav
448,192,61451,1,0,0:0:0:0:
64,192,61517,1,0,0:0:0:0:
320,192,61583,1,0,0:0:0:0:
64,192,61649,1,0,0:0:0:0:
192,192,61715,1,0,0:0:0:0:
320,192,61780,1,0,0:0:0:0:
448,192,61846,1,0,0:0:0:0:
448,192,61912,1,0,0:0:0:0:
64,192,61978,1,0,0:0:0:60:kick.wav
192,192,61978,1,0,0:0:0:0:
320,192,62065,1,0,0:0:0:0:
64,192,62109,1,0,0:0:0:60:kick.wav
192,192,62109,1,0,0:0:0:0:
448,192,62153,1,0,0:0:0:0:
192,192,62241,1,0,0:0:0:60:kick.wav
320,192,62241,1,0,0:0:0:0:
64,192,62307,1,0,0:0:0:0:
448,192,62372,128,0,62455:0:0:0:0:
448,192,62504,1,0,0:0:0:0:
64,192,62677,1,0,0:0:0:0:
64,192,62858,1,0,0:0:0:0:
320,192,62899,1,0,0:0:0:40:clap_echo.wav
448,192,62899,1,0,0:0:0:0:
320,192,63014,1,0,0:0:0:30:clap.wav
448,192,63014,1,0,0:0:0:0:
192,192,63129,1,0,0:0:0:20:clap.wav
192,192,63244,1,0,0:0:0:10:clap.wav
448,192,63293,1,0,0:0:0:0:
320,192,63359,1,0,0:0:0:0:
64,192,63425,1,0,0:0:0:0:
192,192,63491,1,0,0:0:0:0:
320,192,63557,128,0,63622:0:0:0:0:
448,192,63557,128,0,63622:0:0:0:0:
320,192,63688,1,0,0:0:0:0:
448,192,63688,1,0,0:0:0:0:
64,192,63820,1,0,0:0:0:60:kick.wav
448,192,63820,128,0,67372:0:0:0:0:
64,192,63951,1,0,0:0:0:60:kick.wav
320,192,64083,1,0,0:0:0:0:
192,192,64215,1,0,0:0:0:0:
64,192,64346,1,0,0:0:0:60:kick.wav
64,192,64741,1,0,0:0:0:60:kick.wav
64,192,65136,1,0,0:0:0:60:kick.wav
320,192,65530,1,0,0:0:0:60:kick.wav
320,192,65662,1,0,0:0:0:60:kick.wav
192,192,65793,1,0,0:0:0:0:
320,192,66057,1,0,0:0:0:60:kick.wav
320,192,66451,1,0,0:0:0:60:kick.wav
320,192,66846,1,0,0:0:0:60:kick.wav
64,192,67109,1,0,0:0:0:0:
192,192,67175,1,0,0:0:0:0:
320,192,67241,1,0,0:0:0:60:kick.wav
64,192,67372,1,0,0:0:0:0:
448,192,67504,1,0,0:0:0:0:
192,192,67570,1,0,0:0:0:0:
64,192,67636,1,0,0:0:0:60:kick.wav
320,192,67636,1,0,0:0:0:0:
448,192,67701,1,0,0:0:0:0:
64,192,67767,1,0,0:0:0:60:kick.wav
192,192,67767,1,0,0:0:0:0:
448,192,67899,1,0,0:0:0:0:
64,192,68030,1,0,0:0:0:0:
64,192,68162,1,0,0:0:0:60:kick.wav
192,192,68162,1,0,0:0:0:0:
448,192,68293,1,0,0:0:0:0:
64,192,68425,1,0,0:0:0:0:
64,192,68557,1,0,0:0:0:60:kick.wav
192,192,68557,1,0,0:0:0:0:
448,192,68688,1,0,0:0:0:0:
64,192,68820,1,0,0:0:0:0:
64,192,68951,1,0,0:0:0:60:kick.wav
192,192,68951,1,0,0:0:0:0:
192,192,69083,1,0,0:0:0:0:
448,192,69215,1,0,0:0:0:0:
64,192,69346,1,0,0:0:0:60:kick.wav
192,192,69346,1,0,0:0:0:0:
448,192,69478,1,0,0:0:0:0:
64,192,69609,1,0,0:0:0:0:
64,192,69741,1,0,0:0:0:60:kick.wav
192,192,69741,1,0,0:0:0:0:
320,192,69872,1,0,0:0:0:60:kick.wav
448,192,69872,1,0,0:0:0:0:
64,192,70004,1,0,0:0:0:0:
448,192,70136,1,0,0:0:0:0:
320,192,70267,1,0,0:0:0:60:kick.wav
448,192,70267,1,0,0:0:0:0:
64,192,70399,1,0,0:0:0:0:
448,192,70530,1,0,0:0:0:0:
320,192,70662,1,0,0:0:0:60:kick.wav
448,192,70662,1,0,0:0:0:0:
64,192,70793,1,0,0:0:0:0:
448,192,70925,1,0,0:0:0:0:
320,192,71057,1,0,0:0:0:60:kick.wav
448,192,71057,1,0,0:0:0:0:
320,192,71188,1,0,0:0:0:0:
64,192,71320,1,0,0:0:0:0:
320,192,71451,1,0,0:0:0:60:kick.wav
448,192,71451,1,0,0:0:0:0:
192,192,71583,1,0,0:0:0:0:
448,192,71649,1,0,0:0:0:0:
64,192,71715,1,0,0:0:0:0:
320,192,71715,1,0,0:0:0:0:
192,192,71846,1,0,0:0:0:60:kick.wav
448,192,71846,1,0,0:0:0:0:
64,192,71978,1,0,0:0:0:60:kick.wav
192,192,71978,1,0,0:0:0:0:
320,192,72109,1,0,0:0:0:0:
320,192,72241,1,0,0:0:0:0:
64,192,72372,1,0,0:0:0:60:kick.wav
192,192,72372,1,0,0:0:0:0:
64,192,72504,1,0,0:0:0:0:
448,192,72636,1,0,0:0:0:0:
192,192,72767,1,0,0:0:0:60:kick.wav
448,192,72767,1,0,0:0:0:0:
320,192,72899,1,0,0:0:0:0:
64,192,73030,1,0,0:0:0:0:
64,192,73162,1,0,0:0:0:60:kick.wav
192,192,73162,1,0,0:0:0:0:
192,192,73293,1,0,0:0:0:0:
448,192,73425,1,0,0:0:0:0:
64,192,73557,1,0,0:0:0:60:kick.wav
192,192,73557,1,0,0:0:0:0:
448,192,73688,1,0,0:0:0:0:
192,192,73820,1,0,0:0:0:0:
64,192,73951,1,0,0:0:0:60:kick.wav
448,192,73951,1,0,0:0:0:0:
320,192,74083,1,0,0:0:0:60:kick.wav
448,192,74083,1,0,0:0:0:0:
192,192,74215,1,0,0:0:0:0:
192,192,74346,1,0,0:0:0:0:
64,192,74478,1,0,0:0:0:60:kick.wav
320,192,74478,1,0,0:0:0:0:
320,192,74609,1,0,0:0:0:0:
448,192,74741,1,0,0:0:0:0:
320,192,74872,1,0,0:0:0:60:kick.wav
448,192,74872,1,0,0:0:0:0:
64,192,75004,1,0,0:0:0:0:
448,192,75136,1,0,0:0:0:0:
320,192,75267,1,0,0:0:0:60:kick.wav
448,192,75267,1,0,0:0:0:0:
320,192,75399,1,0,0:0:0:0:
64,192,75530,1,0,0:0:0:0:
192,192,75596,1,0,0:0:0:0:
320,192,75662,1,0,0:0:0:60:kick.wav
448,192,75662,1,0,0:0:0:0:
192,192,75793,1,0,0:0:0:0:
448,192,75859,1,0,0:0:0:0:
64,192,75925,1,0,0:0:0:0:
320,192,75925,1,0,0:0:0:0:
192,192,76057,1,0,0:0:0:60:kick.wav
448,192,76057,1,0,0:0:0:0:
64,192,76188,1,0,0:0:0:60:kick.wav
192,192,76188,1,0,0:0:0:0:
448,192,76320,1,0,0:0:0:0:
64,192,76451,1,0,0:0:0:0:
64,192,76583,1,0,0:0:0:60:kick.wav
192,192,76583,1,0,0:0:0:0:
448,192,76715,1,0,0:0:0:0:
64,192,76846,1,0,0:0:0:0:
64,192,76978,1,0,0:0:0:60:kick.wav
192,192,76978,1,0,0:0:0:0:
448,192,77109,1,0,0:0:0:0:
64,192,77241,1,0,0:0:0:0:
64,192,77372,1,0,0:0:0:60:kick.wav
192,192,77372,1,0,0:0:0:0:
192,192,77504,1,0,0:0:0:0:
448,192,77636,1,0,0:0:0:0:
64,192,77767,1,0,0:0:0:60:kick.wav
192,192,77767,1,0,0:0:0:0:
448,192,77899,1,0,0:0:0:0:
64,192,78030,1,0,0:0:0:0:
64,192,78162,1,0,0:0:0:60:kick.wav
192,192,78162,1,0,0:0:0:0:
320,192,78293,1,0,0:0:0:60:kick.wav
448,192,78293,1,0,0:0:0:0:
64,192,78425,1,0,0:0:0:0:
448,192,78557,1,0,0:0:0:0:
320,192,78688,1,0,0:0:0:60:kick.wav
448,192,78688,1,0,0:0:0:0:
64,192,78820,1,0,0:0:0:0:
448,192,78951,1,0,0:0:0:0:
320,192,79083,1,0,0:0:0:60:kick.wav
448,192,79083,1,0,0:0:0:0:
64,192,79215,1,0,0:0:0:0:
448,192,79346,1,0,0:0:0:0:
320,192,79478,1,0,0:0:0:60:kick.wav
448,192,79478,1,0,0:0:0:0:
64,192,79609,1,0,0:0:0:0:
448,192,79675,1,0,0:0:0:0:
192,192,79741,128,0,79807:0:0:0:0:
64,192,79807,128,0,79872:0:0:0:0:
320,192,79872,128,0,79960:0:0:0:60:kick.wav
448,192,79872,1,0,0:0:0:0:
192,192,80004,1,0,0:0:0:0:
448,192,80048,128,0,80179:0:0:0:0:
64,192,80136,128,0,80267:0:0:0:20:C#4.wav
320,192,80136,1,0,0:0:0:0:
192,192,80201,1,0,0:0:0:20:C#4.wav
320,192,80267,1,0,0:0:0:60:kick.wav
448,192,80267,1,0,0:0:0:20:C#4.wav
192,192,80333,1,0,0:0:0:20:C#4.wav
64,192,80399,1,0,0:0:0:60:kick.wav
448,192,80399,1,0,0:0:0:50:C#4.wav
320,192,80530,1,0,0:0:0:0:
192,192,80596,1,0,0:0:0:50:C#5.wav
320,192,80662,1,0,0:0:0:0:
64,192,80793,1,0,0:0:0:60:kick.wav
448,192,80793,1,0,0:0:0:50:C#4.wav
64,192,80925,1,0,0:0:0:50:C#5.wav
192,192,80925,1,0,0:0:0:0:
448,192,81056,1,0,0:0:0:50:C#4.wav
192,192,81188,1,0,0:0:0:60:kick.wav
448,192,81188,1,0,0:0:0:50:C#4.wav
64,192,81320,1,0,0:0:0:0:
448,192,81451,1,0,0:0:0:50:C#4.wav
320,192,81583,1,0,0:0:0:60:kick.wav
448,192,81583,1,0,0:0:0:50:C#5.wav
64,192,81714,1,0,0:0:0:50:C#4.wav
64,192,81846,1,0,0:0:0:50:C#4.wav
320,192,81977,1,0,0:0:0:60:kick.wav
448,192,81977,1,0,0:0:0:0:
64,192,82109,1,0,0:0:0:50:C#4.wav
64,192,82241,1,0,0:0:0:50:C#5.wav
192,192,82241,1,0,0:0:0:0:
320,192,82372,1,0,0:0:0:60:kick.wav
448,192,82372,1,0,0:0:0:50:C#4.wav
448,192,82504,1,0,0:0:0:50:C#4.wav
64,192,82635,1,0,0:0:0:0:
192,192,82767,1,0,0:0:0:60:kick.wav
448,192,82767,1,0,0:0:0:50:C#4.wav
320,192,82899,1,0,0:0:0:50:C#5.wav
448,192,82899,1,0,0:0:0:0:
64,192,83030,1,0,0:0:0:60:kick.wav
192,192,83030,1,0,0:0:0:50:C#4.wav
64,192,83162,1,0,0:0:0:50:C#4.wav
448,192,83227,1,0,0:0:0:0:
192,192,83293,1,0,0:0:0:0:
64,192,83425,1,0,0:0:0:60:kick.wav
448,192,83425,1,0,0:0:0:50:C#4.wav
64,192,83556,1,0,0:0:0:50:C#5.wav
192,192,83556,1,0,0:0:0:0:
448,192,83688,1,0,0:0:0:50:C#4.wav
192,192,83820,1,0,0:0:0:60:kick.wav
448,192,83820,1,0,0:0:0:50:C#4.wav
64,192,83951,1,0,0:0:0:0:
448,192,84083,1,0,0:0:0:50:C#4.wav
320,192,84214,1,0,0:0:0:60:kick.wav
448,192,84214,1,0,0:0:0:50:C#5.wav
64,192,84346,1,0,0:0:0:50:C#4.wav
64,192,84477,1,0,0:0:0:50:C#4.wav
320,192,84609,1,0,0:0:0:60:kick.wav
448,192,84609,1,0,0:0:0:0:
64,192,84741,1,0,0:0:0:50:C#4.wav
64,192,84872,1,0,0:0:0:50:C#5.wav
192,192,84872,1,0,0:0:0:0:
320,192,85004,1,0,0:0:0:60:kick.wav
448,192,85004,1,0,0:0:0:50:C#4.wav
448,192,85135,1,0,0:0:0:50:C#4.wav
64,192,85267,1,0,0:0:0:0:
192,192,85399,1,0,0:0:0:60:kick.wav
448,192,85399,1,0,0:0:0:50:C#4.wav
320,192,85530,1,0,0:0:0:50:C#5.wav
448,192,85530,1,0,0:0:0:0:
64,192,85662,1,0,0:0:0:60:kick.wav
192,192,85662,1,0,0:0:0:50:C#4.wav
192,192,85793,1,0,0:0:0:50:C#4.wav
320,192,85925,1,0,0:0:0:0:
192,192,86056,1,0,0:0:0:60:kick.wav
448,192,86056,1,0,0:0:0:50:C#4.wav
64,192,86188,1,0,0:0:0:50:C#5.wav
192,192,86188,1,0,0:0:0:0:
320,192,86320,1,0,0:0:0:50:C#4.wav
192,192,86451,1,0,0:0:0:60:kick.wav
320,192,86451,1,0,0:0:0:50:C#4.wav
64,192,86583,1,0,0:0:0:0:
320,192,86714,1,0,0:0:0:50:C#4.wav
320,192,86846,1,0,0:0:0:60:kick.wav
448,192,86846,1,0,0:0:0:50:C#5.wav
192,192,86977,1,0,0:0:0:50:C#4.wav
192,192,87109,1,0,0:0:0:50:C#4.wav
320,192,87241,1,0,0:0:0:60:kick.wav
448,192,87241,1,0,0:0:0:0:
192,192,87372,1,0,0:0:0:50:C#4.wav
64,192,87504,1,0,0:0:0:50:C#5.wav
192,192,87504,1,0,0:0:0:0:
320,192,87635,1,0,0:0:0:60:kick.wav
448,192,87635,1,0,0:0:0:50:C#4.wav
320,192,87767,1,0,0:0:0:50:C#4.wav
64,192,87899,1,0,0:0:0:0:
192,192,88030,1,0,0:0:0:60:kick.wav
320,192,88030,1,0,0:0:0:50:C#4.wav
320,192,88162,1,0,0:0:0:50:C#5.wav
448,192,88162,1,0,0:0:0:0:
64,192,88293,1,0,0:0:0:60:kick.wav
192,192,88293,1,0,0:0:0:50:C#4.wav
192,192,88425,1,0,0:0:0:50:C#4.wav
320,192,88556,1,0,0:0:0:0:
192,192,88688,1,0,0:0:0:60:kick.wav
448,192,88688,1,0,0:0:0:50:C#4.wav
64,192,88820,1,0,0:0:0:50:C#5.wav
192,192,88820,1,0,0:0:0:0:
320,192,88951,1,0,0:0:0:50:C#4.wav
448,192,89017,1,0,0:0:0:0:
192,192,89083,1,0,0:0:0:60:kick.wav
320,192,89083,1,0,0:0:0:50:C#4.wav
64,192,89214,1,0,0:0:0:0:
320,192,89346,1,0,0:0:0:50:C#4.wav
192,192,89434,1,0,0:0:0:0:
320,192,89477,1,0,0:0:0:60:kick.wav
448,192,89477,1,0,0:0:0:50:C#5.wav
64,192,89521,1,0,0:0:0:0:
192,192,89609,1,0,0:0:0:50:C#4.wav
192,192,89741,1,0,0:0:0:50:C#4.wav
320,192,89872,1,0,0:0:0:60:kick.wav
448,192,89872,1,0,0:0:0:0:
192,192,90004,1,0,0:0:0:50:C#4.wav
64,192,90135,1,0,0:0:0:50:C#5.wav
192,192,90135,1,0,0:0:0:0:
320,192,90267,1,0,0:0:0:60:kick.wav
448,192,90267,1,0,0:0:0:50:C#4.wav
320,192,90399,1,0,0:0:0:50:C#4.wav
64,192,90530,1,0,0:0:0:0:
192,192,90662,1,0,0:0:0:60:kick.wav
320,192,90662,1,0,0:0:0:50:C#4.wav
320,192,90793,1,0,0:0:0:50:C#5.wav
448,192,90793,1,0,0:0:0:0:
64,192,90925,1,0,0:0:0:60:kick.wav
192,192,90925,1,0,0:0:0:50:C#4.wav
64,192,91056,1,0,0:0:0:50:C#4.wav
320,192,91188,1,0,0:0:0:0:
64,192,91320,1,0,0:0:0:60:kick.wav
448,192,91320,1,0,0:0:0:50:C#4.wav
64,192,91451,1,0,0:0:0:50:C#5.wav
192,192,91451,1,0,0:0:0:0:
448,192,91583,1,0,0:0:0:50:C#4.wav
64,192,91649,1,0,0:0:0:0:
192,192,91714,1,0,0:0:0:60:kick.wav
448,192,91714,1,0,0:0:0:50:C#4.wav
64,192,91846,1,0,0:0:0:0:
448,192,91977,1,0,0:0:0:50:C#4.wav
320,192,92109,1,0,0:0:0:60:kick.wav
448,192,92109,1,0,0:0:0:50:C#5.wav
64,192,92241,1,0,0:0:0:50:C#4.wav
64,192,92372,1,0,0:0:0:50:C#4.wav
320,192,92438,1,0,0:0:0:0:
192,192,92504,1,0,0:0:0:60:kick.wav
448,192,92504,1,0,0:0:0:0:
64,192,92635,1,0,0:0:0:50:C#4.wav
64,192,92767,1,0,0:0:0:50:C#5.wav
192,192,92767,1,0,0:0:0:0:
320,192,92899,1,0,0:0:0:60:kick.wav
448,192,92899,1,0,0:0:0:50:C#4.wav
448,192,93030,1,0,0:0:0:50:C#4.wav
64,192,93162,1,0,0:0:0:0:
192,192,93293,1,0,0:0:0:60:kick.wav
448,192,93293,1,0,0:0:0:50:C#4.wav
320,192,93425,1,0,0:0:0:50:C#5.wav
448,192,93425,1,0,0:0:0:0:
64,192,93556,1,0,0:0:0:60:kick.wav
192,192,93556,1,0,0:0:0:50:C#4.wav
64,192,93688,1,0,0:0:0:50:C#4.wav
320,192,93820,1,0,0:0:0:0:
64,192,93951,1,0,0:0:0:60:kick.wav
448,192,93951,1,0,0:0:0:50:C#4.wav
64,192,94083,1,0,0:0:0:50:C#5.wav
192,192,94083,1,0,0:0:0:0:
448,192,94214,1,0,0:0:0:50:C#4.wav
192,192,94346,1,0,0:0:0:60:kick.wav
448,192,94346,1,0,0:0:0:50:C#4.wav
64,192,94477,1,0,0:0:0:0:
320,192,94565,1,0,0:0:0:0:
448,192,94609,1,0,0:0:0:50:C#4.wav
320,192,94741,1,0,0:0:0:60:kick.wav
448,192,94741,1,0,0:0:0:50:C#5.wav
64,192,94872,1,0,0:0:0:50:C#4.wav
64,192,95004,1,0,0:0:0:50:C#4.wav
320,192,95135,1,0,0:0:0:60:kick.wav
448,192,95135,1,0,0:0:0:0:
64,192,95267,1,0,0:0:0:50:C#4.wav
64,192,95399,1,0,0:0:0:50:C#5.wav
192,192,95399,1,0,0:0:0:0:
320,192,95530,1,0,0:0:0:60:kick.wav
448,192,95530,1,0,0:0:0:50:C#4.wav
192,192,95596,1,0,0:0:0:0:
448,192,95662,1,0,0:0:0:50:C#4.wav
64,192,95793,1,0,0:0:0:0:
192,192,95925,1,0,0:0:0:60:kick.wav
448,192,95925,1,0,0:0:0:50:C#4.wav
320,192,96056,1,0,0:0:0:50:C#5.wav
448,192,96056,1,0,0:0:0:0:
64,192,96188,128,0,96451:0:0:0:60:kick.wav
192,192,96188,128,0,96451:0:0:0:0:
192,192,96583,128,0,96846:0:0:0:60:kick.wav
320,192,96583,128,0,96846:0:0:0:0:
320,192,96977,128,0,97241:0:0:0:60:kick.wav
448,192,96977,128,0,97241:0:0:0:0:
192,192,97372,128,0,97635:0:0:0:60:kick.wav
320,192,97372,128,0,97635:0:0:0:0:
64,192,97767,128,0,98030:0:0:0:60:kick.wav
192,192,97767,128,0,98030:0:0:0:0:
192,192,98162,128,0,98425:0:0:0:60:kick.wav
320,192,98162,128,0,98425:0:0:0:0:
320,192,98556,128,0,98688:0:0:0:60:kick.wav
448,192,98556,128,0,98688:0:0:0:0:
192,192,98820,128,0,98951:0:0:0:60:kick.wav
320,192,98820,128,0,98951:0:0:0:0:
64,192,99083,128,0,99214:0:0:0:60:kick.wav
192,192,99083,128,0,99214:0:0:0:0:
448,192,99346,1,0,0:0:0:40:clap.wav
192,192,99477,1,0,0:0:0:0:
320,192,99521,1,0,0:0:0:0:
64,192,99565,1,0,0:0:0:0:
448,192,99609,1,0,0:0:0:40:clap.wav
64,192,99872,1,0,0:0:0:70:crash_loud.wav
192,192,99872,1,0,0:0:0:10:click.wav
448,192,99872,1,0,0:0:0:0:
320,192,100179,1,0,0:0:0:10:click.wav
192,192,100333,1,0,0:0:0:20:tick.wav
448,192,100487,1,0,0:0:0:10:click.wav
64,192,100795,1,0,0:0:0:10:click.wav
320,192,100795,1,0,0:0:0:0:
192,192,101102,1,0,0:0:0:10:click.wav
320,192,101256,1,0,0:0:0:20:tick.wav
64,192,101410,1,0,0:0:0:10:click.wav
448,192,101513,1,0,0:0:0:0:
192,192,101615,1,0,0:0:0:0:
64,192,101718,1,0,0:0:0:10:click.wav
320,192,101795,1,0,0:0:0:0:
448,192,101872,1,0,0:0:0:0:
192,192,101948,1,0,0:0:0:0:
448,192,102025,1,0,0:0:0:10:click.wav
64,192,102102,1,0,0:0:0:0:
320,192,102179,1,0,0:0:0:20:tick.wav
192,192,102256,1,0,0:0:0:0:
448,192,102333,1,0,0:0:0:10:click.wav
320,192,102410,1,0,0:0:0:0:
192,192,102487,1,0,0:0:0:0:
448,192,102564,1,0,0:0:0:0:
64,192,102641,1,0,0:0:0:10:click.wav
320,192,102718,1,0,0:0:0:0:
192,192,102795,1,0,0:0:0:0:
64,192,102872,1,0,0:0:0:0:
448,192,102948,1,0,0:0:0:10:click.wav
192,192,103025,1,0,0:0:0:0:
448,192,103102,1,0,0:0:0:20:tick.wav
320,192,103179,1,0,0:0:0:0:
64,192,103256,1,0,0:0:0:10:click.wav
448,192,103333,1,0,0:0:0:0:
64,192,103410,1,0,0:0:0:0:
192,192,103487,1,0,0:0:0:0:
320,192,103564,1,0,0:0:0:0:
448,192,103564,1,0,0:0:0:0:
320,192,103691,1,0,0:0:0:0:
192,192,103819,1,0,0:0:0:0:
192,192,103946,1,0,0:0:0:0:
64,192,104074,128,0,104210:0:0:0:10:kick.wav
320,192,104074,1,0,0:0:0:40:crash_loud.wav
448,192,104074,1,0,0:0:0:0:
64,192,104346,1,0,0:0:0:10:kick.wav
192,192,104710,1,0,0:0:0:0:
320,192,104801,1,0,0:0:0:0:
192,192,104892,1,0,0:0:0:0:
448,192,104983,1,0,0:0:0:0:
64,192,105074,1,0,0:0:0:0:
320,192,105164,1,0,0:0:0:40:clap_echo.wav
448,192,105164,128,0,106119:0:0:0:0:
192,192,105528,1,0,0:0:0:50:kick_minor.wav
64,192,105642,1,0,0:0:0:50:kick_minor.wav
64,192,106255,1,0,0:0:0:10:kick.wav
448,192,106255,128,0,106390:0:0:0:0:
448,192,106525,1,0,0:0:0:10:kick.wav
64,192,106795,1,0,0:0:0:0:
320,192,106885,1,0,0:0:0:0:
192,192,106975,1,0,0:0:0:0:
320,192,107065,1,0,0:0:0:0:
64,192,107155,1,0,0:0:0:0:
448,192,107245,1,0,0:0:0:0:
64,192,107336,128,0,108282:0:0:0:40:clap_echo.wav
192,192,107336,1,0,0:0:0:0:
448,192,108011,1,0,0:0:0:0:
192,192,108079,1,0,0:0:0:0:
320,192,108146,1,0,0:0:0:0:
320,192,108282,1,0,0:0:0:0:
64,192,108417,128,0,108558:0:0:0:30:kick.wav
448,192,108417,1,0,0:0:0:20:crash_loud.wav
64,192,108700,1,0,0:0:0:30:kick.wav
448,192,109077,1,0,0:0:0:0:
320,192,109171,1,0,0:0:0:0:
192,192,109266,1,0,0:0:0:0:
448,192,109360,1,0,0:0:0:0:
64,192,109454,1,0,0:0:0:0:
320,192,109549,1,0,0:0:0:40:clap_echo.wav
448,192,109549,128,0,110539:0:0:0:0:
192,192,109926,1,0,0:0:0:50:kick_minor.wav
64,192,110044,1,0,0:0:0:50:kick_minor.wav
64,192,110681,1,0,0:0:0:30:kick.wav
448,192,110681,128,0,110825:0:0:0:0:
448,192,110969,1,0,0:0:0:30:kick.wav
64,192,111257,1,0,0:0:0:0:
320,192,111354,1,0,0:0:0:0:
192,192,111450,1,0,0:0:0:0:
320,192,111546,1,0,0:0:0:0:
64,192,111642,1,0,0:0:0:0:
448,192,111738,1,0,0:0:0:0:
64,192,111834,128,0,112844:0:0:0:40:clap_echo.wav
192,192,111834,1,0,0:0:0:0:
448,192,112027,1,0,0:0:0:0:
448,192,112219,1,0,0:0:0:0:
192,192,112556,1,0,0:0:0:0:
448,192,112628,1,0,0:0:0:0:
320,192,112700,1,0,0:0:0:0:
320,192,112844,1,0,0:0:0:0:
64,192,112988,128,0,113142:0:0:0:30:kick.wav
448,192,112988,1,0,0:0:0:20:crash_loud.wav
64,192,113297,1,0,0:0:0:30:kick.wav
64,192,113606,1,0,0:0:0:0:
448,192,113709,1,0,0:0:0:0:
320,192,113812,1,0,0:0:0:0:
192,192,113915,1,0,0:0:0:0:
448,192,114018,1,0,0:0:0:0:
64,192,114122,1,0,0:0:0:0:
320,192,114225,1,0,0:0:0:40:clap_echo.wav
448,192,114225,128,0,115307:0:0:0:0:
192,192,114637,1,0,0:0:0:50:kick_minor.wav
64,192,114766,1,0,0:0:0:50:kick_minor.wav
64,192,115462,1,0,0:0:0:30:kick.wav
448,192,115462,128,0,115619:0:0:0:0:
448,192,115777,1,0,0:0:0:30:kick.wav
64,192,116093,1,0,0:0:0:0:
320,192,116198,1,0,0:0:0:0:
192,192,116304,1,0,0:0:0:0:
320,192,116409,1,0,0:0:0:0:
64,192,116514,1,0,0:0:0:0:
448,192,116619,1,0,0:0:0:0:
64,192,116725,128,0,117830:0:0:0:40:clap_echo.wav
192,192,116725,1,0,0:0:0:0:
448,192,117514,1,0,0:0:0:0:
192,192,117593,1,0,0:0:0:0:
320,192,117672,1,0,0:0:0:0:
320,192,117830,1,0,0:0:0:0:
64,192,117988,128,0,118166:0:0:0:30:kick.wav
448,192,117988,1,0,0:0:0:20:crash_loud.wav
64,192,118345,1,0,0:0:0:30:kick.wav
448,192,118702,1,0,0:0:0:0:
192,192,118821,1,0,0:0:0:0:
320,192,118940,1,0,0:0:0:0:
192,192,119059,1,0,0:0:0:0:
448,192,119178,1,0,0:0:0:0:
64,192,119297,1,0,0:0:0:0:
320,192,119416,1,0,0:0:0:40:clap_echo.wav
448,192,119416,128,0,120666:0:0:0:0:
192,192,119892,1,0,0:0:0:50:kick_minor.wav
64,192,120041,1,0,0:0:0:50:kick_minor.wav
64,192,120845,1,0,0:0:0:30:kick.wav
448,192,120845,128,0,121023:0:0:0:0:
448,192,121202,1,0,0:0:0:30:kick.wav
448,192,121559,1,0,0:0:0:0:
320,192,121678,1,0,0:0:0:0:
192,192,121797,1,0,0:0:0:0:
448,192,121916,1,0,0:0:0:0:
64,192,122035,1,0,0:0:0:0:
320,192,122154,1,0,0:0:0:0:
64,192,122273,128,0,123523:0:0:0:40:clap_echo.wav
192,192,122273,1,0,0:0:0:0:
448,192,122511,1,0,0:0:0:0:
448,192,122749,1,0,0:0:0:0:
448,192,123166,1,0,0:0:0:0:
192,192,123255,1,0,0:0:0:0:
320,192,123345,1,0,0:0:0:0:
320,192,123523,1,0,0:0:0:0:
64,192,123702,1,0,0:0:0:0:
448,192,123702,1,0,0:0:0:0:
64,192,124566,1,0,0:0:0:0:
64,192,125430,1,0,0:0:0:0:
320,192,126294,1,0,0:0:0:0:
320,192,126356,1,0,0:0:0:0:
64,192,126418,1,0,0:0:0:0:
448,192,126480,1,0,0:0:0:0:
