osu file format v14

[General]
AudioFilename: 1ofcut120.mp3
AudioLeadIn: 0
PreviewTime: 35458
Countdown: 0
SampleSet: Normal
StackLeniency: 0.7
Mode: 3
LetterboxInBreaks: 0
SpecialStyle: 0
WidescreenStoryboard: 0

[Editor]
DistanceSpacing: 0.8
BeatDivisor: 2
GridSize: 32
TimelineZoom: 1

[Metadata]
Title:one of none
TitleUnicode:one of none
Artist:Frums
ArtistUnicode:Frums
Creator:aeoliancarp
Version:observer 1.2x (144bpm)
Source:
Tags:works.11 idm sequencer & tracker minimal techno visd
BeatmapID:3135908
BeatmapSetID:1533448

[Difficulty]
HPDrainRate:8.5
CircleSize:4
OverallDifficulty:8.7
ApproachRate:5
SliderMultiplier:1.4
SliderTickRate:1

[Events]
//Background and Video events
0,0,"syncny2.jpg",0,0
//Break Periods
//Storyboard Layer 0 (Background)
//Storyboard Layer 1 (Fail)
//Storyboard Layer 2 (Pass)
//Storyboard Layer 3 (Foreground)
//Storyboard Layer 4 (Overlay)
//Storyboard Sound Samples

[TimingPoints]
529,416.666666666667,4,1,0,25,1,0

[HitObjects]
192,192,529,5,0,0:0:0:0:
320,192,738,1,0,0:0:0:0:
64,192,945,1,0,0:0:0:0:
448,192,1259,128,0,1571:0:0:0:0:
320,192,1571,128,0,1883:0:0:0:0:
192,192,1883,128,0,2196:0:0:0:0:
64,192,2196,128,0,5529:0:0:0:0:
320,192,5529,1,0,0:0:0:0:
448,192,5738,1,0,0:0:0:0:
192,192,5945,1,0,0:0:0:0:
448,192,6259,128,0,8446:0:0:0:0:
320,192,6571,128,0,8446:0:0:0:0:
192,192,6883,128,0,8446:0:0:0:0:
64,192,7196,128,0,8446:0:0:0:0:
448,192,8550,1,0,0:0:0:0:
64,192,8654,1,0,0:0:0:0:
448,192,8759,1,0,0:0:0:0:
320,192,8811,1,0,0:0:0:0:
64,192,8863,1,0,0:0:0:0:
192,192,8863,1,0,0:0:0:0:
448,192,8863,1,0,0:0:0:0:
320,192,8967,1,0,0:0:0:0:
192,192,9019,1,0,0:0:0:0:
448,192,9071,1,0,0:0:0:0:
192,192,9175,1,0,0:0:0:0:
192,192,9279,1,0,0:0:0:0:
320,192,9279,1,0,0:0:0:0:
448,192,9383,1,0,0:0:0:0:
192,192,9436,1,0,0:0:0:0:
320,192,9488,1,0,0:0:0:0:
192,192,9592,1,0,0:0:0:0:
64,192,9696,1,0,0:0:0:0:
320,192,9696,1,0,0:0:0:0:
192,192,9749,1,0,0:0:0:0:
448,192,9800,1,0,0:0:0:0:
192,192,9904,1,0,0:0:0:0:
192,192,10009,1,0,0:0:0:0:
192,192,10113,1,0,0:0:0:0:
320,192,10113,1,0,0:0:0:0:
448,192,10217,1,0,0:0:0:0:
192,192,10269,1,0,0:0:0:0:
320,192,10321,1,0,0:0:0:0:
192,192,10425,1,0,0:0:0:0:
192,192,10529,1,0,0:0:0:0:
320,192,10529,1,0,0:0:0:0:
448,192,10633,1,0,0:0:0:0:
192,192,10686,1,0,0:0:0:0:
320,192,10738,1,0,0:0:0:0:
192,192,10842,1,0,0:0:0:0:
64,192,10946,1,0,0:0:0:0:
192,192,10946,1,0,0:0:0:0:
448,192,11050,1,0,0:0:0:0:
192,192,11103,1,0,0:0:0:0:
320,192,11154,1,0,0:0:0:0:
192,192,11259,1,0,0:0:0:0:
64,192,11363,1,0,0:0:0:0:
320,192,11363,1,0,0:0:0:0:
192,192,11415,1,0,0:0:0:0:
448,192,11467,1,0,0:0:0:0:
192,192,11571,1,0,0:0:0:0:
192,192,11675,1,0,0:0:0:0:
192,192,11779,1,0,0:0:0:0:
320,192,11779,1,0,0:0:0:0:
448,192,11883,1,0,0:0:0:0:
192,192,11936,1,0,0:0:0:0:
320,192,11988,1,0,0:0:0:0:
192,192,12092,1,0,0:0:0:0:
64,192,12196,1,0,0:0:0:0:
320,192,12196,1,0,0:0:0:0:
448,192,12196,1,0,0:0:0:0:
192,192,12300,1,0,0:0:0:0:
320,192,12353,1,0,0:0:0:0:
448,192,12404,1,0,0:0:0:0:
320,192,12509,1,0,0:0:0:0:
192,192,12613,1,0,0:0:0:0:
320,192,12613,1,0,0:0:0:0:
64,192,12717,1,0,0:0:0:0:
320,192,12769,1,0,0:0:0:0:
192,192,12821,1,0,0:0:0:0:
320,192,12925,1,0,0:0:0:0:
192,192,13029,1,0,0:0:0:0:
448,192,13029,1,0,0:0:0:0:
320,192,13082,1,0,0:0:0:0:
64,192,13133,1,0,0:0:0:0:
320,192,13238,1,0,0:0:0:0:
320,192,13342,1,0,0:0:0:0:
192,192,13446,1,0,0:0:0:0:
320,192,13446,1,0,0:0:0:0:
64,192,13550,1,0,0:0:0:0:
320,192,13603,1,0,0:0:0:0:
192,192,13654,1,0,0:0:0:0:
320,192,13759,1,0,0:0:0:0:
192,192,13863,1,0,0:0:0:0:
320,192,13863,1,0,0:0:0:0:
64,192,13967,1,0,0:0:0:0:
320,192,14019,1,0,0:0:0:0:
192,192,14071,1,0,0:0:0:0:
320,192,14175,1,0,0:0:0:0:
320,192,14279,1,0,0:0:0:0:
448,192,14279,1,0,0:0:0:0:
64,192,14383,1,0,0:0:0:0:
320,192,14436,1,0,0:0:0:0:
192,192,14488,1,0,0:0:0:0:
320,192,14592,1,0,0:0:0:0:
192,192,14696,1,0,0:0:0:0:
448,192,14696,1,0,0:0:0:0:
320,192,14749,1,0,0:0:0:0:
64,192,14800,1,0,0:0:0:0:
320,192,14904,1,0,0:0:0:0:
320,192,15009,1,0,0:0:0:0:
192,192,15113,1,0,0:0:0:0:
320,192,15113,1,0,0:0:0:0:
64,192,15217,1,0,0:0:0:0:
320,192,15269,1,0,0:0:0:0:
192,192,15321,1,0,0:0:0:0:
320,192,15425,1,0,0:0:0:0:
64,192,15478,1,0,0:0:0:0:
192,192,15529,1,0,0:0:0:0:
320,192,15529,1,0,0:0:0:0:
448,192,15529,1,0,0:0:0:0:
192,192,15686,1,0,0:0:0:0:
320,192,15738,1,0,0:0:0:0:
192,192,15842,1,0,0:0:0:0:
192,192,15946,1,0,0:0:0:0:
320,192,15946,1,0,0:0:0:0:
448,192,16050,1,0,0:0:0:0:
192,192,16103,1,0,0:0:0:0:
320,192,16154,1,0,0:0:0:0:
192,192,16259,1,0,0:0:0:0:
448,192,16259,1,0,0:0:0:0:
64,192,16363,1,0,0:0:0:0:
320,192,16363,1,0,0:0:0:0:
192,192,16415,1,0,0:0:0:0:
320,192,16467,1,0,0:0:0:0:
448,192,16467,1,0,0:0:0:0:
64,192,16571,1,0,0:0:0:0:
192,192,16571,1,0,0:0:0:0:
192,192,16675,1,0,0:0:0:0:
192,192,16779,1,0,0:0:0:0:
320,192,16779,1,0,0:0:0:0:
448,192,16883,1,0,0:0:0:0:
192,192,16936,1,0,0:0:0:0:
320,192,16988,1,0,0:0:0:0:
192,192,17092,1,0,0:0:0:0:
448,192,17092,1,0,0:0:0:0:
192,192,17196,1,0,0:0:0:0:
320,192,17196,1,0,0:0:0:0:
64,192,17300,1,0,0:0:0:0:
448,192,17300,1,0,0:0:0:0:
192,192,17353,1,0,0:0:0:0:
320,192,17404,1,0,0:0:0:0:
192,192,17509,1,0,0:0:0:0:
64,192,17613,1,0,0:0:0:0:
192,192,17613,1,0,0:0:0:0:
448,192,17717,1,0,0:0:0:0:
192,192,17769,1,0,0:0:0:0:
320,192,17821,1,0,0:0:0:0:
192,192,17925,1,0,0:0:0:0:
448,192,17925,1,0,0:0:0:0:
64,192,18029,1,0,0:0:0:0:
320,192,18029,1,0,0:0:0:0:
192,192,18082,1,0,0:0:0:0:
64,192,18133,1,0,0:0:0:0:
448,192,18133,1,0,0:0:0:0:
192,192,18238,1,0,0:0:0:0:
320,192,18238,1,0,0:0:0:0:
192,192,18342,1,0,0:0:0:0:
192,192,18446,1,0,0:0:0:0:
320,192,18446,1,0,0:0:0:0:
448,192,18550,1,0,0:0:0:0:
192,192,18603,1,0,0:0:0:0:
320,192,18654,1,0,0:0:0:0:
64,192,18759,1,0,0:0:0:0:
192,192,18759,1,0,0:0:0:0:
64,192,18863,1,0,0:0:0:0:
320,192,18863,1,0,0:0:0:0:
448,192,18863,1,0,0:0:0:0:
192,192,18967,1,0,0:0:0:0:
320,192,19019,1,0,0:0:0:0:
448,192,19071,1,0,0:0:0:0:
320,192,19175,1,0,0:0:0:0:
192,192,19279,1,0,0:0:0:0:
320,192,19279,1,0,0:0:0:0:
64,192,19383,1,0,0:0:0:0:
320,192,19436,1,0,0:0:0:0:
192,192,19488,1,0,0:0:0:0:
64,192,19592,1,0,0:0:0:0:
320,192,19592,1,0,0:0:0:0:
192,192,19696,1,0,0:0:0:0:
448,192,19696,1,0,0:0:0:0:
320,192,19749,1,0,0:0:0:0:
64,192,19800,1,0,0:0:0:0:
448,192,19800,1,0,0:0:0:0:
192,192,19904,1,0,0:0:0:0:
320,192,19904,1,0,0:0:0:0:
320,192,20009,1,0,0:0:0:0:
192,192,20113,1,0,0:0:0:0:
320,192,20113,1,0,0:0:0:0:
64,192,20217,1,0,0:0:0:0:
320,192,20269,1,0,0:0:0:0:
192,192,20321,1,0,0:0:0:0:
320,192,20425,1,0,0:0:0:0:
448,192,20425,1,0,0:0:0:0:
192,192,20529,1,0,0:0:0:0:
320,192,20529,1,0,0:0:0:0:
64,192,20633,1,0,0:0:0:0:
448,192,20633,1,0,0:0:0:0:
320,192,20686,1,0,0:0:0:0:
192,192,20738,1,0,0:0:0:0:
448,192,20738,1,0,0:0:0:0:
320,192,20842,1,0,0:0:0:0:
320,192,20946,1,0,0:0:0:0:
448,192,20946,1,0,0:0:0:0:
64,192,21050,1,0,0:0:0:0:
320,192,21103,1,0,0:0:0:0:
192,192,21154,1,0,0:0:0:0:
64,192,21259,1,0,0:0:0:0:
320,192,21259,1,0,0:0:0:0:
192,192,21363,1,0,0:0:0:0:
448,192,21363,1,0,0:0:0:0:
320,192,21415,1,0,0:0:0:0:
64,192,21467,1,0,0:0:0:0:
448,192,21467,1,0,0:0:0:0:
192,192,21571,1,0,0:0:0:0:
320,192,21571,1,0,0:0:0:0:
320,192,21675,1,0,0:0:0:0:
192,192,21779,1,0,0:0:0:0:
320,192,21779,1,0,0:0:0:0:
64,192,21883,1,0,0:0:0:0:
320,192,21936,1,0,0:0:0:0:
192,192,21988,1,0,0:0:0:0:
64,192,22092,1,0,0:0:0:0:
320,192,22092,1,0,0:0:0:0:
448,192,22144,1,0,0:0:0:0:
64,192,22196,1,0,0:0:0:0:
192,192,22196,1,0,0:0:0:0:
320,192,22196,1,0,0:0:0:0:
192,192,22353,1,0,0:0:0:0:
320,192,22404,1,0,0:0:0:0:
192,192,22509,1,0,0:0:0:0:
192,192,22613,1,0,0:0:0:0:
320,192,22613,1,0,0:0:0:0:
448,192,22717,1,0,0:0:0:0:
192,192,22769,1,0,0:0:0:0:
320,192,22821,1,0,0:0:0:0:
192,192,22925,1,0,0:0:0:0:
448,192,22925,1,0,0:0:0:0:
64,192,23029,1,0,0:0:0:0:
320,192,23029,1,0,0:0:0:0:
192,192,23082,1,0,0:0:0:0:
320,192,23133,1,0,0:0:0:0:
448,192,23133,1,0,0:0:0:0:
192,192,23238,1,0,0:0:0:0:
320,192,23238,1,0,0:0:0:0:
192,192,23342,1,0,0:0:0:0:
192,192,23446,1,0,0:0:0:0:
320,192,23446,1,0,0:0:0:0:
64,192,23550,1,0,0:0:0:0:
192,192,23603,1,0,0:0:0:0:
320,192,23654,1,0,0:0:0:0:
192,192,23759,1,0,0:0:0:0:
320,192,23759,1,0,0:0:0:0:
192,192,23863,1,0,0:0:0:0:
320,192,23863,1,0,0:0:0:0:
64,192,23967,1,0,0:0:0:0:
448,192,23967,1,0,0:0:0:0:
192,192,24019,1,0,0:0:0:0:
320,192,24071,1,0,0:0:0:0:
192,192,24175,1,0,0:0:0:0:
192,192,24279,1,0,0:0:0:0:
320,192,24279,1,0,0:0:0:0:
448,192,24383,1,0,0:0:0:0:
192,192,24436,1,0,0:0:0:0:
320,192,24488,1,0,0:0:0:0:
192,192,24592,1,0,0:0:0:0:
448,192,24592,1,0,0:0:0:0:
64,192,24696,1,0,0:0:0:0:
320,192,24696,1,0,0:0:0:0:
192,192,24749,1,0,0:0:0:0:
320,192,24800,1,0,0:0:0:0:
448,192,24800,1,0,0:0:0:0:
192,192,24904,1,0,0:0:0:0:
320,192,24904,1,0,0:0:0:0:
192,192,25009,1,0,0:0:0:0:
192,192,25113,1,0,0:0:0:0:
320,192,25113,1,0,0:0:0:0:
448,192,25217,1,0,0:0:0:0:
192,192,25269,1,0,0:0:0:0:
320,192,25321,1,0,0:0:0:0:
64,192,25425,1,0,0:0:0:0:
192,192,25425,1,0,0:0:0:0:
64,192,25529,1,0,0:0:0:0:
320,192,25529,1,0,0:0:0:0:
448,192,25529,1,0,0:0:0:0:
192,192,25633,1,0,0:0:0:0:
320,192,25686,1,0,0:0:0:0:
448,192,25738,1,0,0:0:0:0:
320,192,25842,1,0,0:0:0:0:
192,192,25946,1,0,0:0:0:0:
320,192,25946,1,0,0:0:0:0:
64,192,26050,1,0,0:0:0:0:
320,192,26103,1,0,0:0:0:0:
192,192,26154,1,0,0:0:0:0:
64,192,26259,1,0,0:0:0:0:
320,192,26259,1,0,0:0:0:0:
192,192,26363,1,0,0:0:0:0:
448,192,26363,1,0,0:0:0:0:
320,192,26415,1,0,0:0:0:0:
64,192,26467,1,0,0:0:0:0:
192,192,26467,1,0,0:0:0:0:
192,192,26571,1,0,0:0:0:0:
320,192,26571,1,0,0:0:0:0:
320,192,26675,1,0,0:0:0:0:
192,192,26779,1,0,0:0:0:0:
320,192,26779,1,0,0:0:0:0:
64,192,26883,1,0,0:0:0:0:
320,192,26935,1,0,0:0:0:0:
192,192,26988,1,0,0:0:0:0:
192,192,27092,1,0,0:0:0:0:
320,192,27092,1,0,0:0:0:0:
192,192,27196,1,0,0:0:0:0:
320,192,27196,1,0,0:0:0:0:
64,192,27300,1,0,0:0:0:0:
448,192,27300,1,0,0:0:0:0:
320,192,27353,1,0,0:0:0:0:
192,192,27404,1,0,0:0:0:0:
448,192,27404,1,0,0:0:0:0:
320,192,27509,1,0,0:0:0:0:
192,192,27613,1,0,0:0:0:0:
320,192,27613,1,0,0:0:0:0:
64,192,27717,1,0,0:0:0:0:
320,192,27769,1,0,0:0:0:0:
192,192,27821,1,0,0:0:0:0:
64,192,27925,1,0,0:0:0:0:
320,192,27925,1,0,0:0:0:0:
192,192,28029,1,0,0:0:0:0:
448,192,28029,1,0,0:0:0:0:
320,192,28082,1,0,0:0:0:0:
64,192,28133,1,0,0:0:0:0:
192,192,28133,1,0,0:0:0:0:
192,192,28238,1,0,0:0:0:0:
320,192,28238,1,0,0:0:0:0:
320,192,28342,1,0,0:0:0:0:
192,192,28446,1,0,0:0:0:0:
320,192,28446,1,0,0:0:0:0:
64,192,28550,1,0,0:0:0:0:
320,192,28603,1,0,0:0:0:0:
192,192,28654,1,0,0:0:0:0:
64,192,28759,1,0,0:0:0:0:
320,192,28759,1,0,0:0:0:0:
448,192,28811,1,0,0:0:0:0:
64,192,28863,1,0,0:0:0:0:
192,192,28863,1,0,0:0:0:0:
320,192,28863,1,0,0:0:0:0:
192,192,29019,1,0,0:0:0:0:
320,192,29071,1,0,0:0:0:0:
192,192,29175,1,0,0:0:0:0:
192,192,29279,1,0,0:0:0:0:
320,192,29279,1,0,0:0:0:0:
448,192,29383,1,0,0:0:0:0:
192,192,29436,1,0,0:0:0:0:
320,192,29488,1,0,0:0:0:0:
192,192,29592,1,0,0:0:0:0:
448,192,29592,1,0,0:0:0:0:
64,192,29696,1,0,0:0:0:0:
320,192,29696,1,0,0:0:0:0:
192,192,29749,1,0,0:0:0:0:
320,192,29800,1,0,0:0:0:0:
448,192,29800,1,0,0:0:0:0:
192,192,29904,1,0,0:0:0:0:
320,192,29904,1,0,0:0:0:0:
192,192,30009,1,0,0:0:0:0:
192,192,30113,1,0,0:0:0:0:
320,192,30113,1,0,0:0:0:0:
64,192,30217,1,0,0:0:0:0:
192,192,30269,1,0,0:0:0:0:
320,192,30321,1,0,0:0:0:0:
192,192,30425,1,0,0:0:0:0:
320,192,30425,1,0,0:0:0:0:
192,192,30529,1,0,0:0:0:0:
320,192,30529,1,0,0:0:0:0:
64,192,30633,1,0,0:0:0:0:
448,192,30633,1,0,0:0:0:0:
192,192,30686,1,0,0:0:0:0:
320,192,30738,1,0,0:0:0:0:
192,192,30842,1,0,0:0:0:0:
192,192,30946,1,0,0:0:0:0:
320,192,30946,1,0,0:0:0:0:
448,192,31050,1,0,0:0:0:0:
192,192,31103,1,0,0:0:0:0:
320,192,31154,1,0,0:0:0:0:
192,192,31259,1,0,0:0:0:0:
448,192,31259,1,0,0:0:0:0:
64,192,31363,1,0,0:0:0:0:
320,192,31363,1,0,0:0:0:0:
192,192,31415,1,0,0:0:0:0:
320,192,31467,1,0,0:0:0:0:
448,192,31467,1,0,0:0:0:0:
192,192,31571,1,0,0:0:0:0:
320,192,31571,1,0,0:0:0:0:
192,192,31675,1,0,0:0:0:0:
192,192,31779,1,0,0:0:0:0:
320,192,31779,1,0,0:0:0:0:
448,192,31883,1,0,0:0:0:0:
192,192,31936,1,0,0:0:0:0:
320,192,31988,1,0,0:0:0:0:
64,192,32092,1,0,0:0:0:0:
192,192,32092,1,0,0:0:0:0:
64,192,32196,1,0,0:0:0:0:
320,192,32196,1,0,0:0:0:0:
448,192,32196,1,0,0:0:0:0:
192,192,32300,1,0,0:0:0:0:
320,192,32353,1,0,0:0:0:0:
448,192,32404,1,0,0:0:0:0:
320,192,32509,1,0,0:0:0:0:
192,192,32613,1,0,0:0:0:0:
320,192,32613,1,0,0:0:0:0:
64,192,32717,1,0,0:0:0:0:
320,192,32769,1,0,0:0:0:0:
192,192,32821,1,0,0:0:0:0:
64,192,32925,1,0,0:0:0:0:
320,192,32925,1,0,0:0:0:0:
192,192,33029,1,0,0:0:0:0:
448,192,33029,1,0,0:0:0:0:
320,192,33082,1,0,0:0:0:0:
64,192,33133,1,0,0:0:0:0:
192,192,33133,1,0,0:0:0:0:
192,192,33238,1,0,0:0:0:0:
320,192,33238,1,0,0:0:0:0:
320,192,33342,1,0,0:0:0:0:
192,192,33446,1,0,0:0:0:0:
320,192,33446,1,0,0:0:0:0:
64,192,33550,1,0,0:0:0:0:
320,192,33603,1,0,0:0:0:0:
192,192,33654,1,0,0:0:0:0:
192,192,33759,1,0,0:0:0:0:
320,192,33759,1,0,0:0:0:0:
192,192,33863,1,0,0:0:0:0:
320,192,33863,1,0,0:0:0:0:
64,192,33967,1,0,0:0:0:0:
448,192,33967,1,0,0:0:0:0:
320,192,34019,1,0,0:0:0:0:
192,192,34071,1,0,0:0:0:0:
448,192,34071,1,0,0:0:0:0:
320,192,34175,1,0,0:0:0:0:
192,192,34279,1,0,0:0:0:0:
320,192,34279,1,0,0:0:0:0:
64,192,34383,1,0,0:0:0:0:
320,192,34436,1,0,0:0:0:0:
192,192,34488,1,0,0:0:0:0:
64,192,34592,1,0,0:0:0:0:
320,192,34592,1,0,0:0:0:0:
192,192,34696,1,0,0:0:0:0:
448,192,34696,1,0,0:0:0:0:
320,192,34749,1,0,0:0:0:0:
64,192,34800,1,0,0:0:0:0:
192,192,34800,1,0,0:0:0:0:
192,192,34904,1,0,0:0:0:0:
320,192,34904,1,0,0:0:0:0:
320,192,35009,1,0,0:0:0:0:
192,192,35113,1,0,0:0:0:0:
320,192,35113,1,0,0:0:0:0:
64,192,35217,1,0,0:0:0:0:
320,192,35269,1,0,0:0:0:0:
192,192,35321,1,0,0:0:0:0:
64,192,35425,1,0,0:0:0:0:
192,192,35425,1,0,0:0:0:0:
320,192,35478,1,0,0:0:0:0:
64,192,35529,1,0,0:0:0:0:
448,192,35529,1,0,0:0:0:0:
192,192,35582,1,0,0:0:0:0:
448,192,35633,1,0,0:0:0:0:
192,192,35686,1,0,0:0:0:0:
64,192,35738,1,0,0:0:0:0:
192,192,35842,1,0,0:0:0:0:
320,192,35842,1,0,0:0:0:0:
64,192,35946,1,0,0:0:0:0:
448,192,35946,1,0,0:0:0:0:
320,192,36050,1,0,0:0:0:0:
64,192,36154,1,0,0:0:0:0:
320,192,36259,1,0,0:0:0:0:
64,192,36363,1,0,0:0:0:0:
448,192,36363,1,0,0:0:0:0:
64,192,36467,1,0,0:0:0:0:
64,192,36571,1,0,0:0:0:0:
320,192,36571,1,0,0:0:0:0:
192,192,36675,1,0,0:0:0:0:
320,192,36675,1,0,0:0:0:0:
64,192,36779,1,0,0:0:0:0:
448,192,36779,1,0,0:0:0:0:
320,192,36883,1,0,0:0:0:0:
64,192,36988,1,0,0:0:0:0:
64,192,37092,1,0,0:0:0:0:
64,192,37196,1,0,0:0:0:0:
448,192,37196,1,0,0:0:0:0:
320,192,37300,1,0,0:0:0:0:
64,192,37404,1,0,0:0:0:0:
192,192,37509,1,0,0:0:0:0:
320,192,37509,1,0,0:0:0:0:
64,192,37613,1,0,0:0:0:0:
448,192,37613,1,0,0:0:0:0:
320,192,37717,1,0,0:0:0:0:
64,192,37821,1,0,0:0:0:0:
320,192,37925,1,0,0:0:0:0:
64,192,38029,1,0,0:0:0:0:
448,192,38029,1,0,0:0:0:0:
64,192,38133,1,0,0:0:0:0:
64,192,38238,1,0,0:0:0:0:
320,192,38238,1,0,0:0:0:0:
192,192,38342,1,0,0:0:0:0:
320,192,38342,1,0,0:0:0:0:
64,192,38446,1,0,0:0:0:0:
448,192,38446,1,0,0:0:0:0:
192,192,38550,1,0,0:0:0:0:
64,192,38603,1,0,0:0:0:0:
320,192,38654,1,0,0:0:0:0:
64,192,38759,1,0,0:0:0:0:
64,192,38863,1,0,0:0:0:0:
192,192,38863,1,0,0:0:0:0:
448,192,38863,1,0,0:0:0:0:
320,192,38915,1,0,0:0:0:0:
192,192,38967,1,0,0:0:0:0:
320,192,39019,1,0,0:0:0:0:
64,192,39071,1,0,0:0:0:0:
192,192,39175,1,0,0:0:0:0:
448,192,39175,1,0,0:0:0:0:
64,192,39279,1,0,0:0:0:0:
320,192,39279,1,0,0:0:0:0:
448,192,39383,1,0,0:0:0:0:
64,192,39488,1,0,0:0:0:0:
448,192,39592,1,0,0:0:0:0:
64,192,39696,1,0,0:0:0:0:
320,192,39696,1,0,0:0:0:0:
64,192,39800,1,0,0:0:0:0:
64,192,39904,1,0,0:0:0:0:
448,192,39904,1,0,0:0:0:0:
192,192,40009,1,0,0:0:0:0:
448,192,40009,1,0,0:0:0:0:
64,192,40113,1,0,0:0:0:0:
320,192,40113,1,0,0:0:0:0:
448,192,40217,1,0,0:0:0:0:
64,192,40321,1,0,0:0:0:0:
64,192,40425,1,0,0:0:0:0:
64,192,40529,1,0,0:0:0:0:
320,192,40529,1,0,0:0:0:0:
192,192,40633,1,0,0:0:0:0:
64,192,40738,1,0,0:0:0:0:
192,192,40842,1,0,0:0:0:0:
448,192,40842,1,0,0:0:0:0:
64,192,40946,1,0,0:0:0:0:
320,192,40946,1,0,0:0:0:0:
192,192,41050,1,0,0:0:0:0:
64,192,41154,1,0,0:0:0:0:
192,192,41259,1,0,0:0:0:0:
64,192,41363,1,0,0:0:0:0:
320,192,41363,1,0,0:0:0:0:
64,192,41467,1,0,0:0:0:0:
64,192,41571,1,0,0:0:0:0:
448,192,41571,1,0,0:0:0:0:
192,192,41675,1,0,0:0:0:0:
448,192,41675,1,0,0:0:0:0:
64,192,41779,1,0,0:0:0:0:
320,192,41779,1,0,0:0:0:0:
448,192,41883,1,0,0:0:0:0:
64,192,41936,1,0,0:0:0:0:
192,192,41988,1,0,0:0:0:0:
64,192,42092,1,0,0:0:0:0:
320,192,42144,1,0,0:0:0:0:
64,192,42196,1,0,0:0:0:0:
448,192,42196,1,0,0:0:0:0:
192,192,42249,1,0,0:0:0:0:
448,192,42300,1,0,0:0:0:0:
192,192,42353,1,0,0:0:0:0:
320,192,42404,1,0,0:0:0:0:
64,192,42509,1,0,0:0:0:0:
448,192,42509,1,0,0:0:0:0:
192,192,42613,1,0,0:0:0:0:
320,192,42613,1,0,0:0:0:0:
64,192,42717,1,0,0:0:0:0:
320,192,42821,1,0,0:0:0:0:
64,192,42925,1,0,0:0:0:0:
192,192,43029,1,0,0:0:0:0:
320,192,43029,1,0,0:0:0:0:
320,192,43133,1,0,0:0:0:0:
64,192,43238,1,0,0:0:0:0:
320,192,43238,1,0,0:0:0:0:
448,192,43341,1,0,0:0:0:0:
64,192,43342,1,0,0:0:0:0:
192,192,43446,1,0,0:0:0:0:
320,192,43446,1,0,0:0:0:0:
64,192,43550,1,0,0:0:0:0:
320,192,43654,1,0,0:0:0:0:
320,192,43759,1,0,0:0:0:0:
192,192,43863,1,0,0:0:0:0:
320,192,43863,1,0,0:0:0:0:
64,192,43967,1,0,0:0:0:0:
320,192,44071,1,0,0:0:0:0:
64,192,44175,1,0,0:0:0:0:
448,192,44175,1,0,0:0:0:0:
192,192,44279,1,0,0:0:0:0:
320,192,44279,1,0,0:0:0:0:
64,192,44383,1,0,0:0:0:0:
320,192,44488,1,0,0:0:0:0:
64,192,44592,1,0,0:0:0:0:
192,192,44696,1,0,0:0:0:0:
320,192,44696,1,0,0:0:0:0:
320,192,44800,1,0,0:0:0:0:
64,192,44904,1,0,0:0:0:0:
320,192,44904,1,0,0:0:0:0:
448,192,45008,1,0,0:0:0:0:
64,192,45009,1,0,0:0:0:0:
192,192,45113,1,0,0:0:0:0:
320,192,45113,1,0,0:0:0:0:
64,192,45217,1,0,0:0:0:0:
320,192,45269,1,0,0:0:0:0:
448,192,45321,1,0,0:0:0:0:
320,192,45425,1,0,0:0:0:0:
64,192,45529,1,0,0:0:0:0:
192,192,45529,1,0,0:0:0:0:
320,192,45529,1,0,0:0:0:0:
448,192,45582,1,0,0:0:0:0:
64,192,45633,1,0,0:0:0:0:
448,192,45686,1,0,0:0:0:0:
320,192,45738,1,0,0:0:0:0:
192,192,45842,1,0,0:0:0:0:
448,192,45842,1,0,0:0:0:0:
64,192,45946,1,0,0:0:0:0:
320,192,45946,1,0,0:0:0:0:
192,192,46050,1,0,0:0:0:0:
320,192,46154,1,0,0:0:0:0:
192,192,46259,1,0,0:0:0:0:
64,192,46363,1,0,0:0:0:0:
320,192,46363,1,0,0:0:0:0:
320,192,46467,1,0,0:0:0:0:
192,192,46571,1,0,0:0:0:0:
320,192,46571,1,0,0:0:0:0:
192,192,46675,1,0,0:0:0:0:
448,192,46675,1,0,0:0:0:0:
64,192,46779,1,0,0:0:0:0:
320,192,46779,1,0,0:0:0:0:
192,192,46883,1,0,0:0:0:0:
320,192,46988,1,0,0:0:0:0:
320,192,47092,1,0,0:0:0:0:
64,192,47196,1,0,0:0:0:0:
320,192,47196,1,0,0:0:0:0:
448,192,47300,1,0,0:0:0:0:
320,192,47404,1,0,0:0:0:0:
192,192,47509,1,0,0:0:0:0:
448,192,47509,1,0,0:0:0:0:
64,192,47613,1,0,0:0:0:0:
320,192,47613,1,0,0:0:0:0:
448,192,47717,1,0,0:0:0:0:
320,192,47821,1,0,0:0:0:0:
192,192,47925,1,0,0:0:0:0:
64,192,48029,1,0,0:0:0:0:
320,192,48029,1,0,0:0:0:0:
320,192,48133,1,0,0:0:0:0:
192,192,48238,1,0,0:0:0:0:
320,192,48238,1,0,0:0:0:0:
192,192,48342,1,0,0:0:0:0:
448,192,48342,1,0,0:0:0:0:
64,192,48446,1,0,0:0:0:0:
320,192,48446,1,0,0:0:0:0:
192,192,48550,1,0,0:0:0:0:
320,192,48603,1,0,0:0:0:0:
448,192,48654,1,0,0:0:0:0:
320,192,48759,1,0,0:0:0:0:
192,192,48811,1,0,0:0:0:0:
64,192,48863,1,0,0:0:0:0:
448,192,48863,1,0,0:0:0:0:
320,192,48915,1,0,0:0:0:0:
64,192,48967,1,0,0:0:0:0:
320,192,49019,1,0,0:0:0:0:
192,192,49071,1,0,0:0:0:0:
64,192,49175,1,0,0:0:0:0:
448,192,49175,1,0,0:0:0:0:
192,192,49279,1,0,0:0:0:0:
320,192,49279,1,0,0:0:0:0:
448,192,49383,1,0,0:0:0:0:
64,192,49488,1,0,0:0:0:0:
192,192,49488,1,0,0:0:0:0:
320,192,49592,1,0,0:0:0:0:
448,192,49592,1,0,0:0:0:0:
192,192,49696,1,0,0:0:0:0:
320,192,49696,1,0,0:0:0:0:
192,192,49800,1,0,0:0:0:0:
192,192,49904,1,0,0:0:0:0:
448,192,49904,1,0,0:0:0:0:
64,192,50008,1,0,0:0:0:0:
448,192,50009,1,0,0:0:0:0:
192,192,50113,1,0,0:0:0:0:
320,192,50113,1,0,0:0:0:0:
448,192,50217,1,0,0:0:0:0:
192,192,50321,1,0,0:0:0:0:
192,192,50425,1,0,0:0:0:0:
192,192,50529,1,0,0:0:0:0:
320,192,50529,1,0,0:0:0:0:
448,192,50633,1,0,0:0:0:0:
192,192,50738,1,0,0:0:0:0:
64,192,50842,1,0,0:0:0:0:
448,192,50842,1,0,0:0:0:0:
192,192,50946,1,0,0:0:0:0:
320,192,50946,1,0,0:0:0:0:
448,192,51050,1,0,0:0:0:0:
192,192,51154,1,0,0:0:0:0:
448,192,51259,1,0,0:0:0:0:
192,192,51363,1,0,0:0:0:0:
320,192,51363,1,0,0:0:0:0:
192,192,51467,1,0,0:0:0:0:
192,192,51571,1,0,0:0:0:0:
448,192,51571,1,0,0:0:0:0:
64,192,51674,1,0,0:0:0:0:
448,192,51675,1,0,0:0:0:0:
192,192,51779,1,0,0:0:0:0:
320,192,51779,1,0,0:0:0:0:
448,192,51883,1,0,0:0:0:0:
192,192,51936,1,0,0:0:0:0:
64,192,51988,1,0,0:0:0:0:
192,192,52092,1,0,0:0:0:0:
192,192,52196,1,0,0:0:0:0:
320,192,52196,1,0,0:0:0:0:
448,192,52196,1,0,0:0:0:0:
64,192,52249,1,0,0:0:0:0:
448,192,52300,1,0,0:0:0:0:
64,192,52353,1,0,0:0:0:0:
192,192,52404,1,0,0:0:0:0:
64,192,52509,1,0,0:0:0:0:
320,192,52509,1,0,0:0:0:0:
192,192,52613,1,0,0:0:0:0:
448,192,52613,1,0,0:0:0:0:
64,192,52717,1,0,0:0:0:0:
192,192,52821,1,0,0:0:0:0:
320,192,52821,1,0,0:0:0:0:
64,192,52925,1,0,0:0:0:0:
448,192,52925,1,0,0:0:0:0:
192,192,53029,1,0,0:0:0:0:
448,192,53029,1,0,0:0:0:0:
192,192,53133,1,0,0:0:0:0:
192,192,53238,1,0,0:0:0:0:
320,192,53238,1,0,0:0:0:0:
64,192,53342,1,0,0:0:0:0:
320,192,53342,1,0,0:0:0:0:
192,192,53446,1,0,0:0:0:0:
448,192,53446,1,0,0:0:0:0:
320,192,53550,1,0,0:0:0:0:
192,192,53654,1,0,0:0:0:0:
192,192,53759,1,0,0:0:0:0:
192,192,53863,1,0,0:0:0:0:
448,192,53863,1,0,0:0:0:0:
64,192,53967,1,0,0:0:0:0:
192,192,54071,1,0,0:0:0:0:
64,192,54175,1,0,0:0:0:0:
320,192,54175,1,0,0:0:0:0:
192,192,54279,1,0,0:0:0:0:
448,192,54279,1,0,0:0:0:0:
64,192,54383,1,0,0:0:0:0:
192,192,54488,1,0,0:0:0:0:
320,192,54592,1,0,0:0:0:0:
192,192,54696,1,0,0:0:0:0:
448,192,54696,1,0,0:0:0:0:
192,192,54800,1,0,0:0:0:0:
192,192,54904,1,0,0:0:0:0:
320,192,54904,1,0,0:0:0:0:
64,192,55009,1,0,0:0:0:0:
320,192,55009,1,0,0:0:0:0:
192,192,55113,1,0,0:0:0:0:
448,192,55113,1,0,0:0:0:0:
320,192,55217,1,0,0:0:0:0:
192,192,55269,1,0,0:0:0:0:
64,192,55321,1,0,0:0:0:0:
320,192,55425,1,0,0:0:0:0:
64,192,55478,1,0,0:0:0:0:
192,192,55529,1,0,0:0:0:0:
448,192,55529,1,0,0:0:0:0:
320,192,55582,1,0,0:0:0:0:
192,192,55633,1,0,0:0:0:0:
320,192,55686,1,0,0:0:0:0:
448,192,55738,1,0,0:0:0:0:
192,192,55842,1,0,0:0:0:0:
320,192,55842,1,0,0:0:0:0:
64,192,55946,1,0,0:0:0:0:
448,192,55946,1,0,0:0:0:0:
320,192,56050,1,0,0:0:0:0:
192,192,56154,1,0,0:0:0:0:
448,192,56154,1,0,0:0:0:0:
64,192,56259,1,0,0:0:0:0:
192,192,56259,1,0,0:0:0:0:
64,192,56363,1,0,0:0:0:0:
448,192,56363,1,0,0:0:0:0:
448,192,56467,1,0,0:0:0:0:
192,192,56571,1,0,0:0:0:0:
448,192,56571,1,0,0:0:0:0:
192,192,56675,1,0,0:0:0:0:
320,192,56675,1,0,0:0:0:0:
64,192,56779,1,0,0:0:0:0:
448,192,56779,1,0,0:0:0:0:
192,192,56883,1,0,0:0:0:0:
448,192,56988,1,0,0:0:0:0:
448,192,57092,1,0,0:0:0:0:
64,192,57196,1,0,0:0:0:0:
448,192,57196,1,0,0:0:0:0:
192,192,57300,1,0,0:0:0:0:
448,192,57404,1,0,0:0:0:0:
192,192,57509,1,0,0:0:0:0:
320,192,57509,1,0,0:0:0:0:
64,192,57613,1,0,0:0:0:0:
448,192,57613,1,0,0:0:0:0:
192,192,57717,1,0,0:0:0:0:
448,192,57821,1,0,0:0:0:0:
192,192,57925,1,0,0:0:0:0:
64,192,58029,1,0,0:0:0:0:
448,192,58029,1,0,0:0:0:0:
448,192,58133,1,0,0:0:0:0:
192,192,58238,1,0,0:0:0:0:
448,192,58238,1,0,0:0:0:0:
192,192,58342,1,0,0:0:0:0:
320,192,58342,1,0,0:0:0:0:
64,192,58446,1,0,0:0:0:0:
448,192,58446,1,0,0:0:0:0:
192,192,58550,1,0,0:0:0:0:
448,192,58603,1,0,0:0:0:0:
320,192,58654,1,0,0:0:0:0:
448,192,58759,1,0,0:0:0:0:
64,192,58863,1,0,0:0:0:0:
320,192,58863,1,0,0:0:0:0:
448,192,58863,1,0,0:0:0:0:
192,192,58915,1,0,0:0:0:0:
320,192,58967,1,0,0:0:0:0:
192,192,59019,1,0,0:0:0:0:
448,192,59071,1,0,0:0:0:0:
64,192,59175,1,0,0:0:0:0:
320,192,59175,1,0,0:0:0:0:
192,192,59279,1,0,0:0:0:0:
448,192,59279,1,0,0:0:0:0:
320,192,59383,1,0,0:0:0:0:
64,192,59488,1,0,0:0:0:0:
448,192,59488,1,0,0:0:0:0:
192,192,59592,1,0,0:0:0:0:
320,192,59592,1,0,0:0:0:0:
192,192,59696,1,0,0:0:0:0:
448,192,59696,1,0,0:0:0:0:
448,192,59800,1,0,0:0:0:0:
64,192,59904,1,0,0:0:0:0:
448,192,59904,1,0,0:0:0:0:
64,192,60009,1,0,0:0:0:0:
320,192,60009,1,0,0:0:0:0:
192,192,60113,1,0,0:0:0:0:
448,192,60113,1,0,0:0:0:0:
64,192,60217,1,0,0:0:0:0:
448,192,60321,1,0,0:0:0:0:
448,192,60425,1,0,0:0:0:0:
192,192,60529,1,0,0:0:0:0:
448,192,60529,1,0,0:0:0:0:
320,192,60633,1,0,0:0:0:0:
448,192,60738,1,0,0:0:0:0:
64,192,60842,1,0,0:0:0:0:
320,192,60842,1,0,0:0:0:0:
192,192,60946,1,0,0:0:0:0:
448,192,60946,1,0,0:0:0:0:
320,192,61050,1,0,0:0:0:0:
448,192,61154,1,0,0:0:0:0:
64,192,61259,1,0,0:0:0:0:
192,192,61363,1,0,0:0:0:0:
448,192,61363,1,0,0:0:0:0:
448,192,61467,1,0,0:0:0:0:
64,192,61571,1,0,0:0:0:0:
448,192,61571,1,0,0:0:0:0:
64,192,61675,1,0,0:0:0:0:
320,192,61675,1,0,0:0:0:0:
192,192,61779,1,0,0:0:0:0:
448,192,61779,1,0,0:0:0:0:
64,192,61883,1,0,0:0:0:0:
448,192,61936,1,0,0:0:0:0:
320,192,61988,1,0,0:0:0:0:
448,192,62092,1,0,0:0:0:0:
64,192,62196,1,0,0:0:0:0:
192,192,62196,1,0,0:0:0:0:
448,192,62249,1,0,0:0:0:0:
320,192,62300,1,0,0:0:0:0:
448,192,62404,1,0,0:0:0:0:
64,192,62509,1,0,0:0:0:0:
192,192,62509,1,0,0:0:0:0:
448,192,62561,1,0,0:0:0:0:
320,192,62613,1,0,0:0:0:0:
448,192,62717,1,0,0:0:0:0:
64,192,62821,1,0,0:0:0:0:
192,192,62821,1,0,0:0:0:0:
448,192,62873,1,0,0:0:0:0:
320,192,62925,1,0,0:0:0:0:
448,192,63029,1,0,0:0:0:0:
64,192,63133,1,0,0:0:0:0:
192,192,63133,1,0,0:0:0:0:
448,192,63186,1,0,0:0:0:0:
320,192,63238,1,0,0:0:0:0:
448,192,63342,1,0,0:0:0:0:
64,192,63446,1,0,0:0:0:0:
192,192,63446,1,0,0:0:0:0:
448,192,63499,1,0,0:0:0:0:
320,192,63550,1,0,0:0:0:0:
448,192,63654,1,0,0:0:0:0:
192,192,63759,1,0,0:0:0:0:
64,192,63863,1,0,0:0:0:0:
320,192,63863,1,0,0:0:0:0:
448,192,63863,1,0,0:0:0:0:
192,192,63915,1,0,0:0:0:0:
320,192,63967,1,0,0:0:0:0:
192,192,64019,1,0,0:0:0:0:
64,192,64071,1,0,0:0:0:0:
448,192,64123,1,0,0:0:0:0:
192,192,64175,1,0,0:0:0:0:
320,192,64175,1,0,0:0:0:0:
64,192,64228,1,0,0:0:0:0:
448,192,64279,1,0,0:0:0:0:
64,192,64332,1,0,0:0:0:0:
192,192,64383,1,0,0:0:0:0:
320,192,64383,1,0,0:0:0:0:
448,192,64436,1,0,0:0:0:0:
320,192,64488,1,0,0:0:0:0:
192,192,64540,1,0,0:0:0:0:
448,192,64592,1,0,0:0:0:0:
64,192,64644,1,0,0:0:0:0:
192,192,64696,1,0,0:0:0:0:
320,192,64696,1,0,0:0:0:0:
448,192,64749,1,0,0:0:0:0:
192,192,64800,1,0,0:0:0:0:
320,192,64853,1,0,0:0:0:0:
192,192,64904,1,0,0:0:0:0:
448,192,64957,1,0,0:0:0:0:
320,192,65009,1,0,0:0:0:0:
192,192,65061,1,0,0:0:0:0:
64,192,65113,1,0,0:0:0:0:
448,192,65113,1,0,0:0:0:0:
320,192,65165,1,0,0:0:0:0:
64,192,65217,1,0,0:0:0:0:
448,192,65269,1,0,0:0:0:0:
192,192,65321,1,0,0:0:0:0:
64,192,65373,1,0,0:0:0:0:
448,192,65425,1,0,0:0:0:0:
320,192,65478,1,0,0:0:0:0:
64,192,65529,1,0,0:0:0:0:
192,192,65529,1,0,0:0:0:0:
448,192,65582,1,0,0:0:0:0:
192,192,65633,1,0,0:0:0:0:
320,192,65686,1,0,0:0:0:0:
448,192,65738,1,0,0:0:0:0:
64,192,65790,1,0,0:0:0:0:
192,192,65842,1,0,0:0:0:0:
320,192,65842,1,0,0:0:0:0:
448,192,65894,1,0,0:0:0:0:
64,192,65946,1,0,0:0:0:0:
448,192,65999,1,0,0:0:0:0:
192,192,66050,1,0,0:0:0:0:
320,192,66050,1,0,0:0:0:0:
64,192,66103,1,0,0:0:0:0:
192,192,66154,1,0,0:0:0:0:
320,192,66207,1,0,0:0:0:0:
64,192,66259,1,0,0:0:0:0:
448,192,66311,1,0,0:0:0:0:
192,192,66363,1,0,0:0:0:0:
320,192,66363,1,0,0:0:0:0:
64,192,66415,1,0,0:0:0:0:
320,192,66467,1,0,0:0:0:0:
192,192,66519,1,0,0:0:0:0:
320,192,66571,1,0,0:0:0:0:
64,192,66623,1,0,0:0:0:0:
192,192,66675,1,0,0:0:0:0:
320,192,66728,1,0,0:0:0:0:
64,192,66779,1,0,0:0:0:0:
448,192,66779,1,0,0:0:0:0:
192,192,66832,1,0,0:0:0:0:
448,192,66883,1,0,0:0:0:0:
64,192,66936,1,0,0:0:0:0:
320,192,66988,1,0,0:0:0:0:
448,192,67040,1,0,0:0:0:0:
192,192,67092,1,0,0:0:0:0:
64,192,67144,1,0,0:0:0:0:
320,192,67196,1,0,0:0:0:0:
448,192,67196,1,0,0:0:0:0:
192,192,67249,1,0,0:0:0:0:
448,192,67300,1,0,0:0:0:0:
192,192,67353,1,0,0:0:0:0:
64,192,67404,1,0,0:0:0:0:
320,192,67457,1,0,0:0:0:0:
192,192,67509,1,0,0:0:0:0:
448,192,67509,1,0,0:0:0:0:
64,192,67561,1,0,0:0:0:0:
320,192,67613,1,0,0:0:0:0:
64,192,67665,1,0,0:0:0:0:
192,192,67717,1,0,0:0:0:0:
448,192,67717,1,0,0:0:0:0:
320,192,67769,1,0,0:0:0:0:
448,192,67821,1,0,0:0:0:0:
192,192,67873,1,0,0:0:0:0:
320,192,67925,1,0,0:0:0:0:
64,192,67978,1,0,0:0:0:0:
192,192,68029,1,0,0:0:0:0:
448,192,68029,1,0,0:0:0:0:
320,192,68082,1,0,0:0:0:0:
192,192,68133,1,0,0:0:0:0:
448,192,68186,1,0,0:0:0:0:
192,192,68238,1,0,0:0:0:0:
320,192,68290,1,0,0:0:0:0:
448,192,68342,1,0,0:0:0:0:
192,192,68394,1,0,0:0:0:0:
64,192,68446,1,0,0:0:0:0:
320,192,68446,1,0,0:0:0:0:
448,192,68499,1,0,0:0:0:0:
64,192,68550,1,0,0:0:0:0:
320,192,68603,1,0,0:0:0:0:
192,192,68654,1,0,0:0:0:0:
64,192,68707,1,0,0:0:0:0:
448,192,68759,1,0,0:0:0:0:
320,192,68811,1,0,0:0:0:0:
64,192,68863,1,0,0:0:0:0:
192,192,68863,1,0,0:0:0:0:
448,192,68915,1,0,0:0:0:0:
64,192,68967,1,0,0:0:0:0:
320,192,69019,1,0,0:0:0:0:
448,192,69071,1,0,0:0:0:0:
192,192,69123,1,0,0:0:0:0:
64,192,69175,1,0,0:0:0:0:
320,192,69175,1,0,0:0:0:0:
448,192,69228,1,0,0:0:0:0:
192,192,69279,1,0,0:0:0:0:
448,192,69332,1,0,0:0:0:0:
64,192,69383,1,0,0:0:0:0:
320,192,69383,1,0,0:0:0:0:
192,192,69436,1,0,0:0:0:0:
64,192,69488,1,0,0:0:0:0:
320,192,69540,1,0,0:0:0:0:
192,192,69592,1,0,0:0:0:0:
448,192,69644,1,0,0:0:0:0:
64,192,69696,1,0,0:0:0:0:
320,192,69696,1,0,0:0:0:0:
192,192,69749,1,0,0:0:0:0:
320,192,69800,1,0,0:0:0:0:
64,192,69853,1,0,0:0:0:0:
320,192,69904,1,0,0:0:0:0:
192,192,69957,1,0,0:0:0:0:
64,192,70009,1,0,0:0:0:0:
320,192,70061,1,0,0:0:0:0:
192,192,70113,1,0,0:0:0:0:
448,192,70113,1,0,0:0:0:0:
64,192,70165,1,0,0:0:0:0:
448,192,70217,1,0,0:0:0:0:
192,192,70269,1,0,0:0:0:0:
320,192,70321,1,0,0:0:0:0:
448,192,70373,1,0,0:0:0:0:
64,192,70425,1,0,0:0:0:0:
192,192,70425,1,0,0:0:0:0:
320,192,70478,1,0,0:0:0:0:
448,192,70478,1,0,0:0:0:0:
64,192,70529,1,0,0:0:0:0:
192,192,70529,1,0,0:0:0:0:
320,192,70582,1,0,0:0:0:0:
192,192,70633,1,0,0:0:0:0:
320,192,70686,1,0,0:0:0:0:
448,192,70738,1,0,0:0:0:0:
192,192,70790,1,0,0:0:0:0:
64,192,70842,1,0,0:0:0:0:
448,192,70842,1,0,0:0:0:0:
320,192,70894,1,0,0:0:0:0:
192,192,70946,1,0,0:0:0:0:
320,192,70999,1,0,0:0:0:0:
64,192,71050,1,0,0:0:0:0:
448,192,71050,1,0,0:0:0:0:
192,192,71103,1,0,0:0:0:0:
64,192,71154,1,0,0:0:0:0:
448,192,71207,1,0,0:0:0:0:
192,192,71259,1,0,0:0:0:0:
320,192,71311,1,0,0:0:0:0:
64,192,71363,1,0,0:0:0:0:
448,192,71363,1,0,0:0:0:0:
192,192,71415,1,0,0:0:0:0:
448,192,71467,1,0,0:0:0:0:
64,192,71519,1,0,0:0:0:0:
448,192,71571,1,0,0:0:0:0:
192,192,71623,1,0,0:0:0:0:
64,192,71675,1,0,0:0:0:0:
448,192,71728,1,0,0:0:0:0:
192,192,71779,1,0,0:0:0:0:
320,192,71779,1,0,0:0:0:0:
64,192,71832,1,0,0:0:0:0:
320,192,71883,1,0,0:0:0:0:
192,192,71936,1,0,0:0:0:0:
448,192,71988,1,0,0:0:0:0:
320,192,72040,1,0,0:0:0:0:
192,192,72092,1,0,0:0:0:0:
64,192,72144,1,0,0:0:0:0:
320,192,72196,1,0,0:0:0:0:
448,192,72196,1,0,0:0:0:0:
192,192,72249,1,0,0:0:0:0:
320,192,72300,1,0,0:0:0:0:
64,192,72353,1,0,0:0:0:0:
192,192,72404,1,0,0:0:0:0:
320,192,72457,1,0,0:0:0:0:
64,192,72509,1,0,0:0:0:0:
448,192,72509,1,0,0:0:0:0:
192,192,72561,1,0,0:0:0:0:
320,192,72613,1,0,0:0:0:0:
192,192,72665,1,0,0:0:0:0:
64,192,72717,1,0,0:0:0:0:
448,192,72717,1,0,0:0:0:0:
320,192,72769,1,0,0:0:0:0:
448,192,72821,1,0,0:0:0:0:
64,192,72873,1,0,0:0:0:0:
320,192,72925,1,0,0:0:0:0:
192,192,72978,1,0,0:0:0:0:
64,192,73029,1,0,0:0:0:0:
448,192,73029,1,0,0:0:0:0:
320,192,73082,1,0,0:0:0:0:
64,192,73133,1,0,0:0:0:0:
448,192,73186,1,0,0:0:0:0:
64,192,73238,1,0,0:0:0:0:
320,192,73290,1,0,0:0:0:0:
448,192,73342,1,0,0:0:0:0:
64,192,73394,1,0,0:0:0:0:
192,192,73446,1,0,0:0:0:0:
320,192,73446,1,0,0:0:0:0:
448,192,73499,1,0,0:0:0:0:
192,192,73550,1,0,0:0:0:0:
320,192,73603,1,0,0:0:0:0:
64,192,73654,1,0,0:0:0:0:
192,192,73707,1,0,0:0:0:0:
320,192,73759,1,0,0:0:0:0:
448,192,73811,1,0,0:0:0:0:
64,192,73863,1,0,0:0:0:0:
192,192,73863,1,0,0:0:0:0:
320,192,73915,1,0,0:0:0:0:
192,192,73967,1,0,0:0:0:0:
320,192,74019,1,0,0:0:0:0:
448,192,74071,1,0,0:0:0:0:
64,192,74123,1,0,0:0:0:0:
192,192,74175,1,0,0:0:0:0:
320,192,74175,1,0,0:0:0:0:
448,192,74228,1,0,0:0:0:0:
64,192,74279,1,0,0:0:0:0:
448,192,74332,1,0,0:0:0:0:
192,192,74383,1,0,0:0:0:0:
320,192,74383,1,0,0:0:0:0:
64,192,74436,1,0,0:0:0:0:
192,192,74488,1,0,0:0:0:0:
320,192,74540,1,0,0:0:0:0:
64,192,74592,1,0,0:0:0:0:
448,192,74644,1,0,0:0:0:0:
192,192,74696,1,0,0:0:0:0:
320,192,74696,1,0,0:0:0:0:
64,192,74749,1,0,0:0:0:0:
320,192,74800,1,0,0:0:0:0:
192,192,74853,1,0,0:0:0:0:
320,192,74904,1,0,0:0:0:0:
64,192,74957,1,0,0:0:0:0:
192,192,75009,1,0,0:0:0:0:
320,192,75061,1,0,0:0:0:0:
64,192,75113,1,0,0:0:0:0:
448,192,75113,1,0,0:0:0:0:
192,192,75165,1,0,0:0:0:0:
448,192,75217,1,0,0:0:0:0:
64,192,75269,1,0,0:0:0:0:
192,192,75321,1,0,0:0:0:0:
320,192,75373,1,0,0:0:0:0:
64,192,75425,1,0,0:0:0:0:
192,192,75478,1,0,0:0:0:0:
320,192,75529,1,0,0:0:0:0:
448,192,75529,1,0,0:0:0:0:
64,192,75582,1,0,0:0:0:0:
320,192,75633,1,0,0:0:0:0:
192,192,75686,1,0,0:0:0:0:
64,192,75738,1,0,0:0:0:0:
448,192,75790,1,0,0:0:0:0:
192,192,75842,1,0,0:0:0:0:
320,192,75842,1,0,0:0:0:0:
64,192,75894,1,0,0:0:0:0:
448,192,75946,1,0,0:0:0:0:
64,192,75999,1,0,0:0:0:0:
192,192,76050,1,0,0:0:0:0:
320,192,76050,1,0,0:0:0:0:
448,192,76103,1,0,0:0:0:0:
320,192,76154,1,0,0:0:0:0:
192,192,76207,1,0,0:0:0:0:
448,192,76259,1,0,0:0:0:0:
64,192,76311,1,0,0:0:0:0:
192,192,76363,1,0,0:0:0:0:
320,192,76363,1,0,0:0:0:0:
448,192,76415,1,0,0:0:0:0:
192,192,76467,1,0,0:0:0:0:
320,192,76519,1,0,0:0:0:0:
192,192,76571,1,0,0:0:0:0:
448,192,76623,1,0,0:0:0:0:
320,192,76675,1,0,0:0:0:0:
192,192,76728,1,0,0:0:0:0:
64,192,76779,1,0,0:0:0:0:
448,192,76779,1,0,0:0:0:0:
320,192,76832,1,0,0:0:0:0:
64,192,76883,1,0,0:0:0:0:
448,192,76936,1,0,0:0:0:0:
192,192,76988,1,0,0:0:0:0:
64,192,77040,1,0,0:0:0:0:
320,192,77092,1,0,0:0:0:0:
448,192,77092,1,0,0:0:0:0:
64,192,77144,1,0,0:0:0:0:
192,192,77144,1,0,0:0:0:0:
320,192,77196,1,0,0:0:0:0:
448,192,77196,1,0,0:0:0:0:
192,192,77249,1,0,0:0:0:0:
448,192,77300,1,0,0:0:0:0:
64,192,77353,1,0,0:0:0:0:
192,192,77404,1,0,0:0:0:0:
320,192,77404,1,0,0:0:0:0:
192,192,77509,1,0,0:0:0:0:
448,192,77509,1,0,0:0:0:0:
64,192,77613,1,0,0:0:0:0:
192,192,77717,1,0,0:0:0:0:
320,192,77717,1,0,0:0:0:0:
64,192,77821,1,0,0:0:0:0:
448,192,77821,1,0,0:0:0:0:
64,192,77925,1,0,0:0:0:0:
192,192,77925,1,0,0:0:0:0:
192,192,78029,1,0,0:0:0:0:
320,192,78029,1,0,0:0:0:0:
448,192,78133,1,0,0:0:0:0:
192,192,78186,1,0,0:0:0:0:
64,192,78238,1,0,0:0:0:0:
320,192,78238,1,0,0:0:0:0:
448,192,78290,1,0,0:0:0:0:
64,192,78342,1,0,0:0:0:0:
192,192,78342,1,0,0:0:0:0:
320,192,78446,1,0,0:0:0:0:
448,192,78446,1,0,0:0:0:0:
448,192,78550,1,0,0:0:0:0:
64,192,78654,1,0,0:0:0:0:
192,192,78654,1,0,0:0:0:0:
320,192,78707,1,0,0:0:0:0:
64,192,78759,1,0,0:0:0:0:
448,192,78759,1,0,0:0:0:0:
192,192,78863,1,0,0:0:0:0:
320,192,78863,1,0,0:0:0:0:
448,192,78967,1,0,0:0:0:0:
64,192,79071,1,0,0:0:0:0:
320,192,79071,1,0,0:0:0:0:
192,192,79175,1,0,0:0:0:0:
320,192,79175,1,0,0:0:0:0:
64,192,79279,1,0,0:0:0:0:
192,192,79383,1,0,0:0:0:0:
320,192,79383,1,0,0:0:0:0:
64,192,79488,1,0,0:0:0:0:
448,192,79488,1,0,0:0:0:0:
64,192,79592,1,0,0:0:0:0:
192,192,79592,1,0,0:0:0:0:
192,192,79696,1,0,0:0:0:0:
320,192,79696,1,0,0:0:0:0:
448,192,79800,1,0,0:0:0:0:
192,192,79853,1,0,0:0:0:0:
64,192,79904,1,0,0:0:0:0:
320,192,79904,1,0,0:0:0:0:
448,192,79957,1,0,0:0:0:0:
64,192,80009,1,0,0:0:0:0:
192,192,80009,1,0,0:0:0:0:
320,192,80113,1,0,0:0:0:0:
448,192,80113,1,0,0:0:0:0:
448,192,80217,1,0,0:0:0:0:
64,192,80321,1,0,0:0:0:0:
192,192,80321,1,0,0:0:0:0:
320,192,80373,1,0,0:0:0:0:
192,192,80425,1,0,0:0:0:0:
448,192,80425,1,0,0:0:0:0:
64,192,80529,1,0,0:0:0:0:
448,192,80529,1,0,0:0:0:0:
320,192,80582,1,0,0:0:0:0:
64,192,80633,1,0,0:0:0:0:
320,192,80686,1,0,0:0:0:0:
192,192,80738,1,0,0:0:0:0:
448,192,80738,1,0,0:0:0:0:
64,192,80842,1,0,0:0:0:0:
448,192,80842,1,0,0:0:0:0:
192,192,80946,1,0,0:0:0:0:
64,192,81050,1,0,0:0:0:0:
448,192,81050,1,0,0:0:0:0:
192,192,81154,1,0,0:0:0:0:
320,192,81154,1,0,0:0:0:0:
64,192,81259,1,0,0:0:0:0:
320,192,81259,1,0,0:0:0:0:
64,192,81363,1,0,0:0:0:0:
448,192,81363,1,0,0:0:0:0:
320,192,81467,1,0,0:0:0:0:
64,192,81519,1,0,0:0:0:0:
192,192,81571,1,0,0:0:0:0:
448,192,81571,1,0,0:0:0:0:
320,192,81623,1,0,0:0:0:0:
64,192,81675,1,0,0:0:0:0:
192,192,81675,1,0,0:0:0:0:
320,192,81779,1,0,0:0:0:0:
448,192,81779,1,0,0:0:0:0:
192,192,81883,1,0,0:0:0:0:
320,192,81988,1,0,0:0:0:0:
448,192,81988,1,0,0:0:0:0:
192,192,82040,1,0,0:0:0:0:
64,192,82092,1,0,0:0:0:0:
320,192,82092,1,0,0:0:0:0:
64,192,82196,1,0,0:0:0:0:
448,192,82196,1,0,0:0:0:0:
320,192,82300,1,0,0:0:0:0:
192,192,82404,1,0,0:0:0:0:
448,192,82404,1,0,0:0:0:0:
64,192,82509,1,0,0:0:0:0:
448,192,82509,1,0,0:0:0:0:
192,192,82613,1,0,0:0:0:0:
64,192,82717,1,0,0:0:0:0:
448,192,82717,1,0,0:0:0:0:
192,192,82821,1,0,0:0:0:0:
320,192,82821,1,0,0:0:0:0:
64,192,82925,1,0,0:0:0:0:
192,192,82925,1,0,0:0:0:0:
64,192,83029,1,0,0:0:0:0:
448,192,83029,1,0,0:0:0:0:
320,192,83133,1,0,0:0:0:0:
64,192,83186,1,0,0:0:0:0:
192,192,83238,1,0,0:0:0:0:
448,192,83238,1,0,0:0:0:0:
320,192,83290,1,0,0:0:0:0:
64,192,83342,1,0,0:0:0:0:
192,192,83342,1,0,0:0:0:0:
320,192,83446,1,0,0:0:0:0:
448,192,83446,1,0,0:0:0:0:
192,192,83550,1,0,0:0:0:0:
64,192,83654,1,0,0:0:0:0:
448,192,83654,1,0,0:0:0:0:
320,192,83707,1,0,0:0:0:0:
192,192,83759,1,0,0:0:0:0:
448,192,83759,1,0,0:0:0:0:
64,192,83811,1,0,0:0:0:0:
192,192,83863,1,0,0:0:0:0:
320,192,83863,1,0,0:0:0:0:
448,192,83915,1,0,0:0:0:0:
192,192,83967,1,0,0:0:0:0:
448,192,84019,1,0,0:0:0:0:
64,192,84071,1,0,0:0:0:0:
320,192,84071,1,0,0:0:0:0:
64,192,84175,1,0,0:0:0:0:
192,192,84175,1,0,0:0:0:0:
320,192,84279,1,0,0:0:0:0:
64,192,84383,1,0,0:0:0:0:
192,192,84383,1,0,0:0:0:0:
320,192,84488,1,0,0:0:0:0:
448,192,84488,1,0,0:0:0:0:
192,192,84592,1,0,0:0:0:0:
320,192,84592,1,0,0:0:0:0:
64,192,84696,1,0,0:0:0:0:
192,192,84696,1,0,0:0:0:0:
320,192,84800,1,0,0:0:0:0:
64,192,84853,1,0,0:0:0:0:
192,192,84904,1,0,0:0:0:0:
448,192,84904,1,0,0:0:0:0:
320,192,84957,1,0,0:0:0:0:
64,192,85009,1,0,0:0:0:0:
192,192,85009,1,0,0:0:0:0:
320,192,85113,1,0,0:0:0:0:
448,192,85113,1,0,0:0:0:0:
192,192,85217,1,0,0:0:0:0:
64,192,85321,1,0,0:0:0:0:
448,192,85321,1,0,0:0:0:0:
320,192,85373,1,0,0:0:0:0:
64,192,85425,1,0,0:0:0:0:
192,192,85425,1,0,0:0:0:0:
320,192,85529,1,0,0:0:0:0:
448,192,85529,1,0,0:0:0:0:
192,192,85633,1,0,0:0:0:0:
64,192,85738,1,0,0:0:0:0:
320,192,85738,1,0,0:0:0:0:
320,192,85842,1,0,0:0:0:0:
448,192,85842,1,0,0:0:0:0:
64,192,85946,1,0,0:0:0:0:
320,192,86050,1,0,0:0:0:0:
448,192,86050,1,0,0:0:0:0:
64,192,86154,1,0,0:0:0:0:
320,192,86154,1,0,0:0:0:0:
64,192,86259,1,0,0:0:0:0:
192,192,86259,1,0,0:0:0:0:
320,192,86363,1,0,0:0:0:0:
448,192,86363,1,0,0:0:0:0:
64,192,86467,1,0,0:0:0:0:
192,192,86571,1,0,0:0:0:0:
448,192,86571,1,0,0:0:0:0:
320,192,86623,1,0,0:0:0:0:
64,192,86675,1,0,0:0:0:0:
448,192,86675,1,0,0:0:0:0:
64,192,86779,1,0,0:0:0:0:
192,192,86779,1,0,0:0:0:0:
320,192,86883,1,0,0:0:0:0:
64,192,86988,1,0,0:0:0:0:
448,192,86988,1,0,0:0:0:0:
320,192,87040,1,0,0:0:0:0:
192,192,87092,1,0,0:0:0:0:
320,192,87196,1,0,0:0:0:0:
448,192,87196,1,0,0:0:0:0:
64,192,87249,1,0,0:0:0:0:
320,192,87300,1,0,0:0:0:0:
64,192,87353,1,0,0:0:0:0:
192,192,87404,1,0,0:0:0:0:
448,192,87404,1,0,0:0:0:0:
320,192,87509,1,0,0:0:0:0:
192,192,87613,1,0,0:0:0:0:
192,192,87821,1,0,0:0:0:0:
448,192,87821,1,0,0:0:0:0:
320,192,87925,1,0,0:0:0:0:
192,192,88029,1,0,0:0:0:0:
192,192,88133,1,0,0:0:0:0:
192,192,88238,1,0,0:0:0:0:
448,192,88238,1,0,0:0:0:0:
320,192,88342,1,0,0:0:0:0:
448,192,88342,1,0,0:0:0:0:
192,192,88446,1,0,0:0:0:0:
192,192,88654,1,0,0:0:0:0:
448,192,88654,1,0,0:0:0:0:
64,192,88759,1,0,0:0:0:0:
192,192,88759,1,0,0:0:0:0:
192,192,88863,1,0,0:0:0:0:
320,192,88863,1,0,0:0:0:0:
64,192,89071,1,0,0:0:0:0:
320,192,89071,1,0,0:0:0:0:
192,192,89175,1,0,0:0:0:0:
320,192,89279,1,0,0:0:0:0:
64,192,89488,1,0,0:0:0:0:
320,192,89488,1,0,0:0:0:0:
192,192,89592,1,0,0:0:0:0:
320,192,89696,1,0,0:0:0:0:
320,192,89800,1,0,0:0:0:0:
64,192,89904,1,0,0:0:0:0:
320,192,89904,1,0,0:0:0:0:
64,192,90009,1,0,0:0:0:0:
192,192,90009,1,0,0:0:0:0:
320,192,90113,1,0,0:0:0:0:
320,192,90269,1,0,0:0:0:0:
64,192,90321,1,0,0:0:0:0:
192,192,90425,1,0,0:0:0:0:
320,192,90425,1,0,0:0:0:0:
448,192,90478,1,0,0:0:0:0:
64,192,90529,1,0,0:0:0:0:
320,192,90529,1,0,0:0:0:0:
192,192,90633,1,0,0:0:0:0:
320,192,90738,1,0,0:0:0:0:
192,192,90946,1,0,0:0:0:0:
320,192,91050,1,0,0:0:0:0:
192,192,91154,1,0,0:0:0:0:
320,192,91363,1,0,0:0:0:0:
192,192,91467,1,0,0:0:0:0:
320,192,91571,1,0,0:0:0:0:
192,192,91779,1,0,0:0:0:0:
320,192,91883,1,0,0:0:0:0:
192,192,91988,1,0,0:0:0:0:
320,192,92196,1,0,0:0:0:0:
192,192,92300,1,0,0:0:0:0:
320,192,92404,1,0,0:0:0:0:
192,192,92613,1,0,0:0:0:0:
320,192,92717,1,0,0:0:0:0:
192,192,92821,1,0,0:0:0:0:
320,192,93029,1,0,0:0:0:0:
192,192,93133,1,0,0:0:0:0:
320,192,93238,1,0,0:0:0:0:
192,192,93446,1,0,0:0:0:0:
320,192,93550,1,0,0:0:0:0:
192,192,93654,1,0,0:0:0:0:
320,192,93863,1,0,0:0:0:0:
192,192,93967,1,0,0:0:0:0:
320,192,94071,1,0,0:0:0:0:
192,192,94279,1,0,0:0:0:0:
448,192,94279,1,0,0:0:0:0:
64,192,94383,1,0,0:0:0:0:
448,192,94436,1,0,0:0:0:0:
192,192,94488,1,0,0:0:0:0:
448,192,94592,1,0,0:0:0:0:
64,192,94696,1,0,0:0:0:0:
448,192,94749,1,0,0:0:0:0:
192,192,94800,1,0,0:0:0:0:
64,192,94904,1,0,0:0:0:0:
448,192,94904,1,0,0:0:0:0:
320,192,95009,1,0,0:0:0:0:
192,192,95113,1,0,0:0:0:0:
448,192,95113,1,0,0:0:0:0:
64,192,95217,1,0,0:0:0:0:
448,192,95269,1,0,0:0:0:0:
192,192,95321,1,0,0:0:0:0:
320,192,95425,1,0,0:0:0:0:
64,192,95529,1,0,0:0:0:0:
448,192,95529,1,0,0:0:0:0:
192,192,95633,1,0,0:0:0:0:
448,192,95686,1,0,0:0:0:0:
64,192,95738,1,0,0:0:0:0:
320,192,95842,1,0,0:0:0:0:
192,192,95946,1,0,0:0:0:0:
448,192,95946,1,0,0:0:0:0:
64,192,96050,1,0,0:0:0:0:
448,192,96103,1,0,0:0:0:0:
192,192,96154,1,0,0:0:0:0:
448,192,96259,1,0,0:0:0:0:
64,192,96363,1,0,0:0:0:0:
448,192,96415,1,0,0:0:0:0:
192,192,96467,1,0,0:0:0:0:
64,192,96571,1,0,0:0:0:0:
448,192,96571,1,0,0:0:0:0:
320,192,96675,1,0,0:0:0:0:
192,192,96779,1,0,0:0:0:0:
448,192,96779,1,0,0:0:0:0:
64,192,96883,1,0,0:0:0:0:
448,192,96936,1,0,0:0:0:0:
192,192,96988,1,0,0:0:0:0:
448,192,97092,1,0,0:0:0:0:
320,192,97144,1,0,0:0:0:0:
64,192,97196,1,0,0:0:0:0:
448,192,97196,1,0,0:0:0:0:
