osu file format v14

[General]
AudioFilename: 1ofcut110.mp3
AudioLeadIn: 0
PreviewTime: 38682
Countdown: 0
SampleSet: Normal
StackLeniency: 0.7
Mode: 3
LetterboxInBreaks: 0
SpecialStyle: 0
WidescreenStoryboard: 0

[Editor]
DistanceSpacing: 0.8
BeatDivisor: 2
GridSize: 32
TimelineZoom: 1

[Metadata]
Title:one of none
TitleUnicode:one of none
Artist:Frums
ArtistUnicode:Frums
Creator:aeoliancarp
Version:observer 1.1x (132bpm)
Source:
Tags:works.11 idm sequencer & tracker minimal techno visd
BeatmapID:3135906
BeatmapSetID:1533448

[Difficulty]
HPDrainRate:8.5
CircleSize:4
OverallDifficulty:8.7
ApproachRate:5
SliderMultiplier:1.4
SliderTickRate:1

[Events]
//Background and Video events
0,0,"syncny2.jpg",0,0
//Break Periods
//Storyboard Layer 0 (Background)
//Storyboard Layer 1 (Fail)
//Storyboard Layer 2 (Pass)
//Storyboard Layer 3 (Foreground)
//Storyboard Layer 4 (Overlay)
//Storyboard Sound Samples

[TimingPoints]
562,454.545454545455,4,1,0,25,1,0

[HitObjects]
192,192,562,5,0,0:0:0:0:
320,192,789,1,0,0:0:0:0:
64,192,1016,1,0,0:0:0:0:
448,192,1357,128,0,1698:0:0:0:0:
320,192,1698,128,0,2039:0:0:0:0:
192,192,2039,128,0,2380:0:0:0:0:
64,192,2380,128,0,6017:0:0:0:0:
320,192,6016,1,0,0:0:0:0:
448,192,6244,1,0,0:0:0:0:
192,192,6471,1,0,0:0:0:0:
448,192,6812,128,0,9198:0:0:0:0:
320,192,7153,128,0,9198:0:0:0:0:
192,192,7494,128,0,9198:0:0:0:0:
64,192,7835,128,0,9198:0:0:0:0:
448,192,9312,1,0,0:0:0:0:
64,192,9426,1,0,0:0:0:0:
448,192,9539,1,0,0:0:0:0:
320,192,9597,1,0,0:0:0:0:
64,192,9653,1,0,0:0:0:0:
192,192,9653,1,0,0:0:0:0:
448,192,9653,1,0,0:0:0:0:
320,192,9767,1,0,0:0:0:0:
192,192,9824,1,0,0:0:0:0:
448,192,9880,1,0,0:0:0:0:
192,192,9994,1,0,0:0:0:0:
192,192,10107,1,0,0:0:0:0:
320,192,10107,1,0,0:0:0:0:
448,192,10221,1,0,0:0:0:0:
192,192,10278,1,0,0:0:0:0:
320,192,10335,1,0,0:0:0:0:
192,192,10448,1,0,0:0:0:0:
64,192,10562,1,0,0:0:0:0:
320,192,10562,1,0,0:0:0:0:
192,192,10619,1,0,0:0:0:0:
448,192,10676,1,0,0:0:0:0:
192,192,10789,1,0,0:0:0:0:
192,192,10903,1,0,0:0:0:0:
192,192,11017,1,0,0:0:0:0:
320,192,11017,1,0,0:0:0:0:
448,192,11130,1,0,0:0:0:0:
192,192,11187,1,0,0:0:0:0:
320,192,11244,1,0,0:0:0:0:
192,192,11357,1,0,0:0:0:0:
192,192,11471,1,0,0:0:0:0:
320,192,11471,1,0,0:0:0:0:
448,192,11585,1,0,0:0:0:0:
192,192,11642,1,0,0:0:0:0:
320,192,11698,1,0,0:0:0:0:
192,192,11812,1,0,0:0:0:0:
64,192,11926,1,0,0:0:0:0:
192,192,11926,1,0,0:0:0:0:
448,192,12039,1,0,0:0:0:0:
192,192,12097,1,0,0:0:0:0:
320,192,12153,1,0,0:0:0:0:
192,192,12267,1,0,0:0:0:0:
64,192,12380,1,0,0:0:0:0:
320,192,12380,1,0,0:0:0:0:
192,192,12437,1,0,0:0:0:0:
448,192,12494,1,0,0:0:0:0:
192,192,12607,1,0,0:0:0:0:
192,192,12721,1,0,0:0:0:0:
192,192,12835,1,0,0:0:0:0:
320,192,12835,1,0,0:0:0:0:
448,192,12948,1,0,0:0:0:0:
192,192,13006,1,0,0:0:0:0:
320,192,13062,1,0,0:0:0:0:
192,192,13176,1,0,0:0:0:0:
64,192,13289,1,0,0:0:0:0:
320,192,13289,1,0,0:0:0:0:
448,192,13289,1,0,0:0:0:0:
192,192,13403,1,0,0:0:0:0:
320,192,13460,1,0,0:0:0:0:
448,192,13517,1,0,0:0:0:0:
320,192,13630,1,0,0:0:0:0:
192,192,13744,1,0,0:0:0:0:
320,192,13744,1,0,0:0:0:0:
64,192,13857,1,0,0:0:0:0:
320,192,13915,1,0,0:0:0:0:
192,192,13971,1,0,0:0:0:0:
320,192,14085,1,0,0:0:0:0:
192,192,14198,1,0,0:0:0:0:
448,192,14198,1,0,0:0:0:0:
320,192,14256,1,0,0:0:0:0:
64,192,14312,1,0,0:0:0:0:
320,192,14426,1,0,0:0:0:0:
320,192,14539,1,0,0:0:0:0:
192,192,14653,1,0,0:0:0:0:
320,192,14653,1,0,0:0:0:0:
64,192,14767,1,0,0:0:0:0:
320,192,14824,1,0,0:0:0:0:
192,192,14880,1,0,0:0:0:0:
320,192,14994,1,0,0:0:0:0:
192,192,15107,1,0,0:0:0:0:
320,192,15107,1,0,0:0:0:0:
64,192,15221,1,0,0:0:0:0:
320,192,15278,1,0,0:0:0:0:
192,192,15335,1,0,0:0:0:0:
320,192,15448,1,0,0:0:0:0:
320,192,15562,1,0,0:0:0:0:
448,192,15562,1,0,0:0:0:0:
64,192,15676,1,0,0:0:0:0:
320,192,15733,1,0,0:0:0:0:
192,192,15789,1,0,0:0:0:0:
320,192,15903,1,0,0:0:0:0:
192,192,16017,1,0,0:0:0:0:
448,192,16017,1,0,0:0:0:0:
320,192,16074,1,0,0:0:0:0:
64,192,16130,1,0,0:0:0:0:
320,192,16244,1,0,0:0:0:0:
320,192,16357,1,0,0:0:0:0:
192,192,16471,1,0,0:0:0:0:
320,192,16471,1,0,0:0:0:0:
64,192,16585,1,0,0:0:0:0:
320,192,16642,1,0,0:0:0:0:
192,192,16698,1,0,0:0:0:0:
320,192,16812,1,0,0:0:0:0:
64,192,16869,1,0,0:0:0:0:
192,192,16926,1,0,0:0:0:0:
320,192,16926,1,0,0:0:0:0:
448,192,16926,1,0,0:0:0:0:
192,192,17097,1,0,0:0:0:0:
320,192,17153,1,0,0:0:0:0:
192,192,17267,1,0,0:0:0:0:
192,192,17380,1,0,0:0:0:0:
320,192,17380,1,0,0:0:0:0:
448,192,17494,1,0,0:0:0:0:
192,192,17551,1,0,0:0:0:0:
320,192,17607,1,0,0:0:0:0:
192,192,17721,1,0,0:0:0:0:
448,192,17721,1,0,0:0:0:0:
64,192,17835,1,0,0:0:0:0:
320,192,17835,1,0,0:0:0:0:
192,192,17892,1,0,0:0:0:0:
320,192,17948,1,0,0:0:0:0:
448,192,17948,1,0,0:0:0:0:
64,192,18062,1,0,0:0:0:0:
192,192,18062,1,0,0:0:0:0:
192,192,18176,1,0,0:0:0:0:
192,192,18289,1,0,0:0:0:0:
320,192,18289,1,0,0:0:0:0:
448,192,18403,1,0,0:0:0:0:
192,192,18460,1,0,0:0:0:0:
320,192,18517,1,0,0:0:0:0:
192,192,18630,1,0,0:0:0:0:
448,192,18630,1,0,0:0:0:0:
192,192,18744,1,0,0:0:0:0:
320,192,18744,1,0,0:0:0:0:
64,192,18857,1,0,0:0:0:0:
448,192,18857,1,0,0:0:0:0:
192,192,18915,1,0,0:0:0:0:
320,192,18971,1,0,0:0:0:0:
192,192,19085,1,0,0:0:0:0:
64,192,19198,1,0,0:0:0:0:
192,192,19198,1,0,0:0:0:0:
448,192,19312,1,0,0:0:0:0:
192,192,19369,1,0,0:0:0:0:
320,192,19426,1,0,0:0:0:0:
192,192,19539,1,0,0:0:0:0:
448,192,19539,1,0,0:0:0:0:
64,192,19653,1,0,0:0:0:0:
320,192,19653,1,0,0:0:0:0:
192,192,19710,1,0,0:0:0:0:
64,192,19767,1,0,0:0:0:0:
448,192,19767,1,0,0:0:0:0:
192,192,19880,1,0,0:0:0:0:
320,192,19880,1,0,0:0:0:0:
192,192,19994,1,0,0:0:0:0:
192,192,20107,1,0,0:0:0:0:
320,192,20107,1,0,0:0:0:0:
448,192,20221,1,0,0:0:0:0:
192,192,20278,1,0,0:0:0:0:
320,192,20335,1,0,0:0:0:0:
64,192,20448,1,0,0:0:0:0:
192,192,20448,1,0,0:0:0:0:
64,192,20562,1,0,0:0:0:0:
320,192,20562,1,0,0:0:0:0:
448,192,20562,1,0,0:0:0:0:
192,192,20676,1,0,0:0:0:0:
320,192,20733,1,0,0:0:0:0:
448,192,20789,1,0,0:0:0:0:
320,192,20903,1,0,0:0:0:0:
192,192,21017,1,0,0:0:0:0:
320,192,21017,1,0,0:0:0:0:
64,192,21130,1,0,0:0:0:0:
320,192,21187,1,0,0:0:0:0:
192,192,21244,1,0,0:0:0:0:
64,192,21357,1,0,0:0:0:0:
320,192,21357,1,0,0:0:0:0:
192,192,21471,1,0,0:0:0:0:
448,192,21471,1,0,0:0:0:0:
320,192,21528,1,0,0:0:0:0:
64,192,21585,1,0,0:0:0:0:
448,192,21585,1,0,0:0:0:0:
192,192,21698,1,0,0:0:0:0:
320,192,21698,1,0,0:0:0:0:
320,192,21812,1,0,0:0:0:0:
192,192,21926,1,0,0:0:0:0:
320,192,21926,1,0,0:0:0:0:
64,192,22039,1,0,0:0:0:0:
320,192,22097,1,0,0:0:0:0:
192,192,22153,1,0,0:0:0:0:
320,192,22267,1,0,0:0:0:0:
448,192,22267,1,0,0:0:0:0:
192,192,22380,1,0,0:0:0:0:
320,192,22380,1,0,0:0:0:0:
64,192,22494,1,0,0:0:0:0:
448,192,22494,1,0,0:0:0:0:
320,192,22551,1,0,0:0:0:0:
192,192,22607,1,0,0:0:0:0:
448,192,22607,1,0,0:0:0:0:
320,192,22721,1,0,0:0:0:0:
320,192,22835,1,0,0:0:0:0:
448,192,22835,1,0,0:0:0:0:
64,192,22948,1,0,0:0:0:0:
320,192,23006,1,0,0:0:0:0:
192,192,23062,1,0,0:0:0:0:
64,192,23176,1,0,0:0:0:0:
320,192,23176,1,0,0:0:0:0:
192,192,23289,1,0,0:0:0:0:
448,192,23289,1,0,0:0:0:0:
320,192,23347,1,0,0:0:0:0:
64,192,23403,1,0,0:0:0:0:
448,192,23403,1,0,0:0:0:0:
192,192,23517,1,0,0:0:0:0:
320,192,23517,1,0,0:0:0:0:
320,192,23630,1,0,0:0:0:0:
192,192,23744,1,0,0:0:0:0:
320,192,23744,1,0,0:0:0:0:
64,192,23857,1,0,0:0:0:0:
320,192,23915,1,0,0:0:0:0:
192,192,23971,1,0,0:0:0:0:
64,192,24085,1,0,0:0:0:0:
320,192,24085,1,0,0:0:0:0:
448,192,24142,1,0,0:0:0:0:
64,192,24198,1,0,0:0:0:0:
192,192,24198,1,0,0:0:0:0:
320,192,24198,1,0,0:0:0:0:
192,192,24369,1,0,0:0:0:0:
320,192,24426,1,0,0:0:0:0:
192,192,24539,1,0,0:0:0:0:
192,192,24653,1,0,0:0:0:0:
320,192,24653,1,0,0:0:0:0:
448,192,24767,1,0,0:0:0:0:
192,192,24824,1,0,0:0:0:0:
320,192,24880,1,0,0:0:0:0:
192,192,24994,1,0,0:0:0:0:
448,192,24994,1,0,0:0:0:0:
64,192,25107,1,0,0:0:0:0:
320,192,25107,1,0,0:0:0:0:
192,192,25165,1,0,0:0:0:0:
320,192,25221,1,0,0:0:0:0:
448,192,25221,1,0,0:0:0:0:
192,192,25335,1,0,0:0:0:0:
320,192,25335,1,0,0:0:0:0:
192,192,25448,1,0,0:0:0:0:
192,192,25562,1,0,0:0:0:0:
320,192,25562,1,0,0:0:0:0:
64,192,25676,1,0,0:0:0:0:
192,192,25733,1,0,0:0:0:0:
320,192,25789,1,0,0:0:0:0:
192,192,25903,1,0,0:0:0:0:
320,192,25903,1,0,0:0:0:0:
192,192,26017,1,0,0:0:0:0:
320,192,26017,1,0,0:0:0:0:
64,192,26130,1,0,0:0:0:0:
448,192,26130,1,0,0:0:0:0:
192,192,26187,1,0,0:0:0:0:
320,192,26244,1,0,0:0:0:0:
192,192,26357,1,0,0:0:0:0:
192,192,26471,1,0,0:0:0:0:
320,192,26471,1,0,0:0:0:0:
448,192,26585,1,0,0:0:0:0:
192,192,26642,1,0,0:0:0:0:
320,192,26698,1,0,0:0:0:0:
192,192,26812,1,0,0:0:0:0:
448,192,26812,1,0,0:0:0:0:
64,192,26926,1,0,0:0:0:0:
320,192,26926,1,0,0:0:0:0:
192,192,26983,1,0,0:0:0:0:
320,192,27039,1,0,0:0:0:0:
448,192,27039,1,0,0:0:0:0:
192,192,27153,1,0,0:0:0:0:
320,192,27153,1,0,0:0:0:0:
192,192,27267,1,0,0:0:0:0:
192,192,27380,1,0,0:0:0:0:
320,192,27380,1,0,0:0:0:0:
448,192,27494,1,0,0:0:0:0:
192,192,27551,1,0,0:0:0:0:
320,192,27607,1,0,0:0:0:0:
64,192,27721,1,0,0:0:0:0:
192,192,27721,1,0,0:0:0:0:
64,192,27835,1,0,0:0:0:0:
320,192,27835,1,0,0:0:0:0:
448,192,27835,1,0,0:0:0:0:
192,192,27948,1,0,0:0:0:0:
320,192,28006,1,0,0:0:0:0:
448,192,28062,1,0,0:0:0:0:
320,192,28176,1,0,0:0:0:0:
192,192,28289,1,0,0:0:0:0:
320,192,28289,1,0,0:0:0:0:
64,192,28403,1,0,0:0:0:0:
320,192,28460,1,0,0:0:0:0:
192,192,28517,1,0,0:0:0:0:
64,192,28630,1,0,0:0:0:0:
320,192,28630,1,0,0:0:0:0:
192,192,28744,1,0,0:0:0:0:
448,192,28744,1,0,0:0:0:0:
320,192,28801,1,0,0:0:0:0:
64,192,28857,1,0,0:0:0:0:
192,192,28857,1,0,0:0:0:0:
192,192,28971,1,0,0:0:0:0:
320,192,28971,1,0,0:0:0:0:
320,192,29085,1,0,0:0:0:0:
192,192,29198,1,0,0:0:0:0:
320,192,29198,1,0,0:0:0:0:
64,192,29312,1,0,0:0:0:0:
320,192,29368,1,0,0:0:0:0:
192,192,29426,1,0,0:0:0:0:
192,192,29539,1,0,0:0:0:0:
320,192,29539,1,0,0:0:0:0:
192,192,29653,1,0,0:0:0:0:
320,192,29653,1,0,0:0:0:0:
64,192,29767,1,0,0:0:0:0:
448,192,29767,1,0,0:0:0:0:
320,192,29824,1,0,0:0:0:0:
192,192,29880,1,0,0:0:0:0:
448,192,29880,1,0,0:0:0:0:
320,192,29994,1,0,0:0:0:0:
192,192,30107,1,0,0:0:0:0:
320,192,30107,1,0,0:0:0:0:
64,192,30221,1,0,0:0:0:0:
320,192,30278,1,0,0:0:0:0:
192,192,30335,1,0,0:0:0:0:
64,192,30448,1,0,0:0:0:0:
320,192,30448,1,0,0:0:0:0:
192,192,30562,1,0,0:0:0:0:
448,192,30562,1,0,0:0:0:0:
320,192,30619,1,0,0:0:0:0:
64,192,30676,1,0,0:0:0:0:
192,192,30676,1,0,0:0:0:0:
192,192,30789,1,0,0:0:0:0:
320,192,30789,1,0,0:0:0:0:
320,192,30903,1,0,0:0:0:0:
192,192,31017,1,0,0:0:0:0:
320,192,31017,1,0,0:0:0:0:
64,192,31130,1,0,0:0:0:0:
320,192,31187,1,0,0:0:0:0:
192,192,31244,1,0,0:0:0:0:
64,192,31357,1,0,0:0:0:0:
320,192,31357,1,0,0:0:0:0:
448,192,31415,1,0,0:0:0:0:
64,192,31471,1,0,0:0:0:0:
192,192,31471,1,0,0:0:0:0:
320,192,31471,1,0,0:0:0:0:
192,192,31642,1,0,0:0:0:0:
320,192,31698,1,0,0:0:0:0:
192,192,31812,1,0,0:0:0:0:
192,192,31926,1,0,0:0:0:0:
320,192,31926,1,0,0:0:0:0:
448,192,32039,1,0,0:0:0:0:
192,192,32097,1,0,0:0:0:0:
320,192,32153,1,0,0:0:0:0:
192,192,32267,1,0,0:0:0:0:
448,192,32267,1,0,0:0:0:0:
64,192,32380,1,0,0:0:0:0:
320,192,32380,1,0,0:0:0:0:
192,192,32437,1,0,0:0:0:0:
320,192,32494,1,0,0:0:0:0:
448,192,32494,1,0,0:0:0:0:
192,192,32607,1,0,0:0:0:0:
320,192,32607,1,0,0:0:0:0:
192,192,32721,1,0,0:0:0:0:
192,192,32835,1,0,0:0:0:0:
320,192,32835,1,0,0:0:0:0:
64,192,32948,1,0,0:0:0:0:
192,192,33006,1,0,0:0:0:0:
320,192,33062,1,0,0:0:0:0:
192,192,33176,1,0,0:0:0:0:
320,192,33176,1,0,0:0:0:0:
192,192,33289,1,0,0:0:0:0:
320,192,33289,1,0,0:0:0:0:
64,192,33403,1,0,0:0:0:0:
448,192,33403,1,0,0:0:0:0:
192,192,33460,1,0,0:0:0:0:
320,192,33517,1,0,0:0:0:0:
192,192,33630,1,0,0:0:0:0:
192,192,33744,1,0,0:0:0:0:
320,192,33744,1,0,0:0:0:0:
448,192,33857,1,0,0:0:0:0:
192,192,33915,1,0,0:0:0:0:
320,192,33971,1,0,0:0:0:0:
192,192,34085,1,0,0:0:0:0:
448,192,34085,1,0,0:0:0:0:
64,192,34198,1,0,0:0:0:0:
320,192,34198,1,0,0:0:0:0:
192,192,34256,1,0,0:0:0:0:
320,192,34312,1,0,0:0:0:0:
448,192,34312,1,0,0:0:0:0:
192,192,34426,1,0,0:0:0:0:
320,192,34426,1,0,0:0:0:0:
192,192,34539,1,0,0:0:0:0:
192,192,34653,1,0,0:0:0:0:
320,192,34653,1,0,0:0:0:0:
448,192,34767,1,0,0:0:0:0:
192,192,34824,1,0,0:0:0:0:
320,192,34880,1,0,0:0:0:0:
64,192,34994,1,0,0:0:0:0:
192,192,34994,1,0,0:0:0:0:
64,192,35107,1,0,0:0:0:0:
320,192,35107,1,0,0:0:0:0:
448,192,35107,1,0,0:0:0:0:
192,192,35221,1,0,0:0:0:0:
320,192,35278,1,0,0:0:0:0:
448,192,35335,1,0,0:0:0:0:
320,192,35448,1,0,0:0:0:0:
192,192,35562,1,0,0:0:0:0:
320,192,35562,1,0,0:0:0:0:
64,192,35676,1,0,0:0:0:0:
320,192,35733,1,0,0:0:0:0:
192,192,35789,1,0,0:0:0:0:
64,192,35903,1,0,0:0:0:0:
320,192,35903,1,0,0:0:0:0:
192,192,36017,1,0,0:0:0:0:
448,192,36017,1,0,0:0:0:0:
320,192,36074,1,0,0:0:0:0:
64,192,36130,1,0,0:0:0:0:
192,192,36130,1,0,0:0:0:0:
192,192,36244,1,0,0:0:0:0:
320,192,36244,1,0,0:0:0:0:
320,192,36357,1,0,0:0:0:0:
192,192,36471,1,0,0:0:0:0:
320,192,36471,1,0,0:0:0:0:
64,192,36585,1,0,0:0:0:0:
320,192,36642,1,0,0:0:0:0:
192,192,36698,1,0,0:0:0:0:
192,192,36812,1,0,0:0:0:0:
320,192,36812,1,0,0:0:0:0:
192,192,36926,1,0,0:0:0:0:
320,192,36926,1,0,0:0:0:0:
64,192,37039,1,0,0:0:0:0:
448,192,37039,1,0,0:0:0:0:
320,192,37097,1,0,0:0:0:0:
192,192,37153,1,0,0:0:0:0:
448,192,37153,1,0,0:0:0:0:
320,192,37267,1,0,0:0:0:0:
192,192,37380,1,0,0:0:0:0:
320,192,37380,1,0,0:0:0:0:
64,192,37494,1,0,0:0:0:0:
320,192,37551,1,0,0:0:0:0:
192,192,37607,1,0,0:0:0:0:
64,192,37721,1,0,0:0:0:0:
320,192,37721,1,0,0:0:0:0:
192,192,37835,1,0,0:0:0:0:
448,192,37835,1,0,0:0:0:0:
320,192,37892,1,0,0:0:0:0:
64,192,37948,1,0,0:0:0:0:
192,192,37948,1,0,0:0:0:0:
192,192,38062,1,0,0:0:0:0:
320,192,38062,1,0,0:0:0:0:
320,192,38176,1,0,0:0:0:0:
192,192,38289,1,0,0:0:0:0:
320,192,38289,1,0,0:0:0:0:
64,192,38403,1,0,0:0:0:0:
320,192,38460,1,0,0:0:0:0:
192,192,38517,1,0,0:0:0:0:
64,192,38630,1,0,0:0:0:0:
192,192,38630,1,0,0:0:0:0:
320,192,38687,1,0,0:0:0:0:
64,192,38744,1,0,0:0:0:0:
448,192,38744,1,0,0:0:0:0:
192,192,38801,1,0,0:0:0:0:
448,192,38857,1,0,0:0:0:0:
192,192,38915,1,0,0:0:0:0:
64,192,38971,1,0,0:0:0:0:
192,192,39085,1,0,0:0:0:0:
320,192,39085,1,0,0:0:0:0:
64,192,39198,1,0,0:0:0:0:
448,192,39198,1,0,0:0:0:0:
320,192,39312,1,0,0:0:0:0:
64,192,39426,1,0,0:0:0:0:
320,192,39539,1,0,0:0:0:0:
64,192,39653,1,0,0:0:0:0:
448,192,39653,1,0,0:0:0:0:
64,192,39767,1,0,0:0:0:0:
64,192,39880,1,0,0:0:0:0:
320,192,39880,1,0,0:0:0:0:
192,192,39994,1,0,0:0:0:0:
320,192,39994,1,0,0:0:0:0:
64,192,40107,1,0,0:0:0:0:
448,192,40107,1,0,0:0:0:0:
320,192,40221,1,0,0:0:0:0:
64,192,40335,1,0,0:0:0:0:
64,192,40448,1,0,0:0:0:0:
64,192,40562,1,0,0:0:0:0:
448,192,40562,1,0,0:0:0:0:
320,192,40676,1,0,0:0:0:0:
64,192,40789,1,0,0:0:0:0:
192,192,40903,1,0,0:0:0:0:
320,192,40903,1,0,0:0:0:0:
64,192,41017,1,0,0:0:0:0:
448,192,41017,1,0,0:0:0:0:
320,192,41130,1,0,0:0:0:0:
64,192,41244,1,0,0:0:0:0:
320,192,41357,1,0,0:0:0:0:
64,192,41471,1,0,0:0:0:0:
448,192,41471,1,0,0:0:0:0:
64,192,41585,1,0,0:0:0:0:
64,192,41698,1,0,0:0:0:0:
320,192,41698,1,0,0:0:0:0:
192,192,41812,1,0,0:0:0:0:
320,192,41812,1,0,0:0:0:0:
64,192,41926,1,0,0:0:0:0:
448,192,41926,1,0,0:0:0:0:
192,192,42039,1,0,0:0:0:0:
64,192,42097,1,0,0:0:0:0:
320,192,42153,1,0,0:0:0:0:
64,192,42267,1,0,0:0:0:0:
64,192,42380,1,0,0:0:0:0:
192,192,42380,1,0,0:0:0:0:
448,192,42380,1,0,0:0:0:0:
320,192,42437,1,0,0:0:0:0:
192,192,42494,1,0,0:0:0:0:
320,192,42551,1,0,0:0:0:0:
64,192,42607,1,0,0:0:0:0:
192,192,42721,1,0,0:0:0:0:
448,192,42721,1,0,0:0:0:0:
64,192,42835,1,0,0:0:0:0:
320,192,42835,1,0,0:0:0:0:
448,192,42948,1,0,0:0:0:0:
64,192,43062,1,0,0:0:0:0:
448,192,43176,1,0,0:0:0:0:
64,192,43289,1,0,0:0:0:0:
320,192,43289,1,0,0:0:0:0:
64,192,43403,1,0,0:0:0:0:
64,192,43517,1,0,0:0:0:0:
448,192,43517,1,0,0:0:0:0:
192,192,43630,1,0,0:0:0:0:
448,192,43630,1,0,0:0:0:0:
64,192,43744,1,0,0:0:0:0:
320,192,43744,1,0,0:0:0:0:
448,192,43857,1,0,0:0:0:0:
64,192,43971,1,0,0:0:0:0:
64,192,44085,1,0,0:0:0:0:
64,192,44198,1,0,0:0:0:0:
320,192,44198,1,0,0:0:0:0:
192,192,44312,1,0,0:0:0:0:
64,192,44426,1,0,0:0:0:0:
192,192,44539,1,0,0:0:0:0:
448,192,44539,1,0,0:0:0:0:
64,192,44653,1,0,0:0:0:0:
320,192,44653,1,0,0:0:0:0:
192,192,44767,1,0,0:0:0:0:
64,192,44880,1,0,0:0:0:0:
192,192,44994,1,0,0:0:0:0:
64,192,45107,1,0,0:0:0:0:
320,192,45107,1,0,0:0:0:0:
64,192,45221,1,0,0:0:0:0:
64,192,45335,1,0,0:0:0:0:
448,192,45335,1,0,0:0:0:0:
192,192,45448,1,0,0:0:0:0:
448,192,45448,1,0,0:0:0:0:
64,192,45562,1,0,0:0:0:0:
320,192,45562,1,0,0:0:0:0:
448,192,45676,1,0,0:0:0:0:
64,192,45733,1,0,0:0:0:0:
192,192,45789,1,0,0:0:0:0:
64,192,45903,1,0,0:0:0:0:
320,192,45960,1,0,0:0:0:0:
64,192,46017,1,0,0:0:0:0:
448,192,46017,1,0,0:0:0:0:
192,192,46074,1,0,0:0:0:0:
448,192,46130,1,0,0:0:0:0:
192,192,46187,1,0,0:0:0:0:
320,192,46244,1,0,0:0:0:0:
64,192,46357,1,0,0:0:0:0:
448,192,46357,1,0,0:0:0:0:
192,192,46471,1,0,0:0:0:0:
320,192,46471,1,0,0:0:0:0:
64,192,46585,1,0,0:0:0:0:
320,192,46698,1,0,0:0:0:0:
64,192,46812,1,0,0:0:0:0:
192,192,46926,1,0,0:0:0:0:
320,192,46926,1,0,0:0:0:0:
320,192,47039,1,0,0:0:0:0:
64,192,47153,1,0,0:0:0:0:
320,192,47153,1,0,0:0:0:0:
448,192,47266,1,0,0:0:0:0:
64,192,47267,1,0,0:0:0:0:
192,192,47380,1,0,0:0:0:0:
320,192,47380,1,0,0:0:0:0:
64,192,47494,1,0,0:0:0:0:
320,192,47607,1,0,0:0:0:0:
320,192,47721,1,0,0:0:0:0:
192,192,47835,1,0,0:0:0:0:
320,192,47835,1,0,0:0:0:0:
64,192,47948,1,0,0:0:0:0:
320,192,48062,1,0,0:0:0:0:
64,192,48176,1,0,0:0:0:0:
448,192,48176,1,0,0:0:0:0:
192,192,48289,1,0,0:0:0:0:
320,192,48289,1,0,0:0:0:0:
64,192,48403,1,0,0:0:0:0:
320,192,48517,1,0,0:0:0:0:
64,192,48630,1,0,0:0:0:0:
192,192,48744,1,0,0:0:0:0:
320,192,48744,1,0,0:0:0:0:
320,192,48857,1,0,0:0:0:0:
64,192,48971,1,0,0:0:0:0:
320,192,48971,1,0,0:0:0:0:
448,192,49084,1,0,0:0:0:0:
64,192,49085,1,0,0:0:0:0:
192,192,49198,1,0,0:0:0:0:
320,192,49198,1,0,0:0:0:0:
64,192,49312,1,0,0:0:0:0:
320,192,49369,1,0,0:0:0:0:
448,192,49426,1,0,0:0:0:0:
320,192,49539,1,0,0:0:0:0:
64,192,49653,1,0,0:0:0:0:
192,192,49653,1,0,0:0:0:0:
320,192,49653,1,0,0:0:0:0:
448,192,49710,1,0,0:0:0:0:
64,192,49767,1,0,0:0:0:0:
448,192,49824,1,0,0:0:0:0:
320,192,49880,1,0,0:0:0:0:
192,192,49994,1,0,0:0:0:0:
448,192,49994,1,0,0:0:0:0:
64,192,50107,1,0,0:0:0:0:
320,192,50107,1,0,0:0:0:0:
192,192,50221,1,0,0:0:0:0:
320,192,50335,1,0,0:0:0:0:
192,192,50448,1,0,0:0:0:0:
64,192,50562,1,0,0:0:0:0:
320,192,50562,1,0,0:0:0:0:
320,192,50676,1,0,0:0:0:0:
192,192,50789,1,0,0:0:0:0:
320,192,50789,1,0,0:0:0:0:
192,192,50903,1,0,0:0:0:0:
448,192,50903,1,0,0:0:0:0:
64,192,51017,1,0,0:0:0:0:
320,192,51017,1,0,0:0:0:0:
192,192,51130,1,0,0:0:0:0:
320,192,51244,1,0,0:0:0:0:
320,192,51357,1,0,0:0:0:0:
64,192,51471,1,0,0:0:0:0:
320,192,51471,1,0,0:0:0:0:
448,192,51585,1,0,0:0:0:0:
320,192,51698,1,0,0:0:0:0:
192,192,51812,1,0,0:0:0:0:
448,192,51812,1,0,0:0:0:0:
64,192,51926,1,0,0:0:0:0:
320,192,51926,1,0,0:0:0:0:
448,192,52039,1,0,0:0:0:0:
320,192,52153,1,0,0:0:0:0:
192,192,52267,1,0,0:0:0:0:
64,192,52380,1,0,0:0:0:0:
320,192,52380,1,0,0:0:0:0:
320,192,52494,1,0,0:0:0:0:
192,192,52607,1,0,0:0:0:0:
320,192,52607,1,0,0:0:0:0:
192,192,52721,1,0,0:0:0:0:
448,192,52721,1,0,0:0:0:0:
64,192,52835,1,0,0:0:0:0:
320,192,52835,1,0,0:0:0:0:
192,192,52948,1,0,0:0:0:0:
320,192,53006,1,0,0:0:0:0:
448,192,53062,1,0,0:0:0:0:
320,192,53176,1,0,0:0:0:0:
192,192,53233,1,0,0:0:0:0:
64,192,53289,1,0,0:0:0:0:
448,192,53289,1,0,0:0:0:0:
320,192,53347,1,0,0:0:0:0:
64,192,53403,1,0,0:0:0:0:
320,192,53460,1,0,0:0:0:0:
192,192,53517,1,0,0:0:0:0:
64,192,53630,1,0,0:0:0:0:
448,192,53630,1,0,0:0:0:0:
192,192,53744,1,0,0:0:0:0:
320,192,53744,1,0,0:0:0:0:
448,192,53857,1,0,0:0:0:0:
64,192,53971,1,0,0:0:0:0:
192,192,53971,1,0,0:0:0:0:
320,192,54085,1,0,0:0:0:0:
448,192,54085,1,0,0:0:0:0:
192,192,54198,1,0,0:0:0:0:
320,192,54198,1,0,0:0:0:0:
192,192,54312,1,0,0:0:0:0:
192,192,54426,1,0,0:0:0:0:
448,192,54426,1,0,0:0:0:0:
448,192,54539,1,0,0:0:0:0:
64,192,54539,1,0,0:0:0:0:
192,192,54653,1,0,0:0:0:0:
320,192,54653,1,0,0:0:0:0:
448,192,54767,1,0,0:0:0:0:
192,192,54880,1,0,0:0:0:0:
192,192,54994,1,0,0:0:0:0:
192,192,55107,1,0,0:0:0:0:
320,192,55107,1,0,0:0:0:0:
448,192,55221,1,0,0:0:0:0:
192,192,55335,1,0,0:0:0:0:
64,192,55448,1,0,0:0:0:0:
448,192,55448,1,0,0:0:0:0:
192,192,55562,1,0,0:0:0:0:
320,192,55562,1,0,0:0:0:0:
448,192,55676,1,0,0:0:0:0:
192,192,55789,1,0,0:0:0:0:
448,192,55903,1,0,0:0:0:0:
192,192,56017,1,0,0:0:0:0:
320,192,56017,1,0,0:0:0:0:
192,192,56130,1,0,0:0:0:0:
192,192,56244,1,0,0:0:0:0:
448,192,56244,1,0,0:0:0:0:
448,192,56357,1,0,0:0:0:0:
64,192,56357,1,0,0:0:0:0:
192,192,56471,1,0,0:0:0:0:
320,192,56471,1,0,0:0:0:0:
448,192,56585,1,0,0:0:0:0:
192,192,56642,1,0,0:0:0:0:
64,192,56698,1,0,0:0:0:0:
192,192,56812,1,0,0:0:0:0:
192,192,56926,1,0,0:0:0:0:
320,192,56926,1,0,0:0:0:0:
448,192,56926,1,0,0:0:0:0:
64,192,56983,1,0,0:0:0:0:
448,192,57039,1,0,0:0:0:0:
64,192,57097,1,0,0:0:0:0:
192,192,57153,1,0,0:0:0:0:
64,192,57267,1,0,0:0:0:0:
320,192,57267,1,0,0:0:0:0:
192,192,57380,1,0,0:0:0:0:
448,192,57380,1,0,0:0:0:0:
64,192,57494,1,0,0:0:0:0:
192,192,57607,1,0,0:0:0:0:
320,192,57607,1,0,0:0:0:0:
64,192,57721,1,0,0:0:0:0:
448,192,57721,1,0,0:0:0:0:
192,192,57835,1,0,0:0:0:0:
448,192,57835,1,0,0:0:0:0:
192,192,57948,1,0,0:0:0:0:
192,192,58062,1,0,0:0:0:0:
320,192,58062,1,0,0:0:0:0:
64,192,58176,1,0,0:0:0:0:
320,192,58176,1,0,0:0:0:0:
192,192,58289,1,0,0:0:0:0:
448,192,58289,1,0,0:0:0:0:
320,192,58403,1,0,0:0:0:0:
192,192,58517,1,0,0:0:0:0:
192,192,58630,1,0,0:0:0:0:
192,192,58744,1,0,0:0:0:0:
448,192,58744,1,0,0:0:0:0:
64,192,58857,1,0,0:0:0:0:
192,192,58971,1,0,0:0:0:0:
64,192,59085,1,0,0:0:0:0:
320,192,59085,1,0,0:0:0:0:
192,192,59198,1,0,0:0:0:0:
448,192,59198,1,0,0:0:0:0:
64,192,59312,1,0,0:0:0:0:
192,192,59426,1,0,0:0:0:0:
320,192,59539,1,0,0:0:0:0:
192,192,59653,1,0,0:0:0:0:
448,192,59653,1,0,0:0:0:0:
192,192,59767,1,0,0:0:0:0:
192,192,59880,1,0,0:0:0:0:
320,192,59880,1,0,0:0:0:0:
64,192,59994,1,0,0:0:0:0:
320,192,59994,1,0,0:0:0:0:
192,192,60107,1,0,0:0:0:0:
448,192,60107,1,0,0:0:0:0:
320,192,60221,1,0,0:0:0:0:
192,192,60278,1,0,0:0:0:0:
64,192,60335,1,0,0:0:0:0:
320,192,60448,1,0,0:0:0:0:
64,192,60506,1,0,0:0:0:0:
192,192,60562,1,0,0:0:0:0:
448,192,60562,1,0,0:0:0:0:
320,192,60619,1,0,0:0:0:0:
192,192,60676,1,0,0:0:0:0:
320,192,60733,1,0,0:0:0:0:
448,192,60789,1,0,0:0:0:0:
192,192,60903,1,0,0:0:0:0:
320,192,60903,1,0,0:0:0:0:
64,192,61017,1,0,0:0:0:0:
448,192,61017,1,0,0:0:0:0:
320,192,61130,1,0,0:0:0:0:
192,192,61244,1,0,0:0:0:0:
448,192,61244,1,0,0:0:0:0:
64,192,61357,1,0,0:0:0:0:
192,192,61357,1,0,0:0:0:0:
64,192,61471,1,0,0:0:0:0:
448,192,61471,1,0,0:0:0:0:
448,192,61585,1,0,0:0:0:0:
192,192,61698,1,0,0:0:0:0:
448,192,61698,1,0,0:0:0:0:
192,192,61812,1,0,0:0:0:0:
320,192,61812,1,0,0:0:0:0:
64,192,61926,1,0,0:0:0:0:
448,192,61926,1,0,0:0:0:0:
192,192,62039,1,0,0:0:0:0:
448,192,62153,1,0,0:0:0:0:
448,192,62267,1,0,0:0:0:0:
64,192,62380,1,0,0:0:0:0:
448,192,62380,1,0,0:0:0:0:
192,192,62494,1,0,0:0:0:0:
448,192,62607,1,0,0:0:0:0:
192,192,62721,1,0,0:0:0:0:
320,192,62721,1,0,0:0:0:0:
64,192,62835,1,0,0:0:0:0:
448,192,62835,1,0,0:0:0:0:
192,192,62948,1,0,0:0:0:0:
448,192,63062,1,0,0:0:0:0:
192,192,63176,1,0,0:0:0:0:
64,192,63289,1,0,0:0:0:0:
448,192,63289,1,0,0:0:0:0:
448,192,63403,1,0,0:0:0:0:
192,192,63517,1,0,0:0:0:0:
448,192,63517,1,0,0:0:0:0:
192,192,63630,1,0,0:0:0:0:
320,192,63630,1,0,0:0:0:0:
64,192,63744,1,0,0:0:0:0:
448,192,63744,1,0,0:0:0:0:
192,192,63857,1,0,0:0:0:0:
448,192,63915,1,0,0:0:0:0:
320,192,63971,1,0,0:0:0:0:
448,192,64085,1,0,0:0:0:0:
64,192,64198,1,0,0:0:0:0:
320,192,64198,1,0,0:0:0:0:
448,192,64198,1,0,0:0:0:0:
192,192,64256,1,0,0:0:0:0:
320,192,64312,1,0,0:0:0:0:
192,192,64369,1,0,0:0:0:0:
448,192,64426,1,0,0:0:0:0:
64,192,64539,1,0,0:0:0:0:
320,192,64539,1,0,0:0:0:0:
192,192,64653,1,0,0:0:0:0:
448,192,64653,1,0,0:0:0:0:
320,192,64767,1,0,0:0:0:0:
64,192,64880,1,0,0:0:0:0:
448,192,64880,1,0,0:0:0:0:
192,192,64994,1,0,0:0:0:0:
320,192,64994,1,0,0:0:0:0:
192,192,65107,1,0,0:0:0:0:
448,192,65107,1,0,0:0:0:0:
448,192,65221,1,0,0:0:0:0:
64,192,65335,1,0,0:0:0:0:
448,192,65335,1,0,0:0:0:0:
64,192,65448,1,0,0:0:0:0:
320,192,65448,1,0,0:0:0:0:
192,192,65562,1,0,0:0:0:0:
448,192,65562,1,0,0:0:0:0:
64,192,65676,1,0,0:0:0:0:
448,192,65789,1,0,0:0:0:0:
448,192,65903,1,0,0:0:0:0:
192,192,66017,1,0,0:0:0:0:
448,192,66017,1,0,0:0:0:0:
320,192,66130,1,0,0:0:0:0:
448,192,66244,1,0,0:0:0:0:
64,192,66357,1,0,0:0:0:0:
320,192,66357,1,0,0:0:0:0:
192,192,66471,1,0,0:0:0:0:
448,192,66471,1,0,0:0:0:0:
320,192,66585,1,0,0:0:0:0:
448,192,66698,1,0,0:0:0:0:
64,192,66812,1,0,0:0:0:0:
192,192,66926,1,0,0:0:0:0:
448,192,66926,1,0,0:0:0:0:
448,192,67039,1,0,0:0:0:0:
64,192,67153,1,0,0:0:0:0:
448,192,67153,1,0,0:0:0:0:
64,192,67267,1,0,0:0:0:0:
320,192,67267,1,0,0:0:0:0:
192,192,67380,1,0,0:0:0:0:
448,192,67380,1,0,0:0:0:0:
64,192,67494,1,0,0:0:0:0:
448,192,67551,1,0,0:0:0:0:
320,192,67607,1,0,0:0:0:0:
448,192,67721,1,0,0:0:0:0:
64,192,67835,1,0,0:0:0:0:
192,192,67835,1,0,0:0:0:0:
448,192,67892,1,0,0:0:0:0:
320,192,67948,1,0,0:0:0:0:
448,192,68062,1,0,0:0:0:0:
64,192,68176,1,0,0:0:0:0:
192,192,68176,1,0,0:0:0:0:
448,192,68233,1,0,0:0:0:0:
320,192,68289,1,0,0:0:0:0:
448,192,68403,1,0,0:0:0:0:
64,192,68517,1,0,0:0:0:0:
192,192,68517,1,0,0:0:0:0:
448,192,68574,1,0,0:0:0:0:
320,192,68630,1,0,0:0:0:0:
448,192,68744,1,0,0:0:0:0:
64,192,68857,1,0,0:0:0:0:
192,192,68857,1,0,0:0:0:0:
448,192,68915,1,0,0:0:0:0:
320,192,68971,1,0,0:0:0:0:
448,192,69085,1,0,0:0:0:0:
64,192,69198,1,0,0:0:0:0:
192,192,69198,1,0,0:0:0:0:
448,192,69256,1,0,0:0:0:0:
320,192,69312,1,0,0:0:0:0:
448,192,69426,1,0,0:0:0:0:
192,192,69539,1,0,0:0:0:0:
64,192,69653,1,0,0:0:0:0:
320,192,69653,1,0,0:0:0:0:
448,192,69653,1,0,0:0:0:0:
192,192,69710,1,0,0:0:0:0:
320,192,69767,1,0,0:0:0:0:
192,192,69824,1,0,0:0:0:0:
64,192,69880,1,0,0:0:0:0:
448,192,69937,1,0,0:0:0:0:
192,192,69994,1,0,0:0:0:0:
320,192,69994,1,0,0:0:0:0:
64,192,70051,1,0,0:0:0:0:
448,192,70107,1,0,0:0:0:0:
64,192,70165,1,0,0:0:0:0:
192,192,70221,1,0,0:0:0:0:
320,192,70221,1,0,0:0:0:0:
448,192,70278,1,0,0:0:0:0:
320,192,70335,1,0,0:0:0:0:
192,192,70392,1,0,0:0:0:0:
448,192,70448,1,0,0:0:0:0:
64,192,70506,1,0,0:0:0:0:
192,192,70562,1,0,0:0:0:0:
320,192,70562,1,0,0:0:0:0:
448,192,70619,1,0,0:0:0:0:
192,192,70676,1,0,0:0:0:0:
320,192,70733,1,0,0:0:0:0:
192,192,70789,1,0,0:0:0:0:
448,192,70847,1,0,0:0:0:0:
320,192,70903,1,0,0:0:0:0:
192,192,70960,1,0,0:0:0:0:
64,192,71017,1,0,0:0:0:0:
448,192,71017,1,0,0:0:0:0:
320,192,71074,1,0,0:0:0:0:
64,192,71130,1,0,0:0:0:0:
448,192,71187,1,0,0:0:0:0:
192,192,71244,1,0,0:0:0:0:
64,192,71301,1,0,0:0:0:0:
448,192,71357,1,0,0:0:0:0:
320,192,71415,1,0,0:0:0:0:
64,192,71471,1,0,0:0:0:0:
192,192,71471,1,0,0:0:0:0:
448,192,71528,1,0,0:0:0:0:
192,192,71585,1,0,0:0:0:0:
320,192,71642,1,0,0:0:0:0:
448,192,71698,1,0,0:0:0:0:
64,192,71756,1,0,0:0:0:0:
192,192,71812,1,0,0:0:0:0:
320,192,71812,1,0,0:0:0:0:
448,192,71869,1,0,0:0:0:0:
64,192,71926,1,0,0:0:0:0:
448,192,71983,1,0,0:0:0:0:
192,192,72039,1,0,0:0:0:0:
320,192,72039,1,0,0:0:0:0:
64,192,72097,1,0,0:0:0:0:
192,192,72153,1,0,0:0:0:0:
320,192,72210,1,0,0:0:0:0:
64,192,72267,1,0,0:0:0:0:
448,192,72324,1,0,0:0:0:0:
192,192,72380,1,0,0:0:0:0:
320,192,72380,1,0,0:0:0:0:
64,192,72437,1,0,0:0:0:0:
320,192,72494,1,0,0:0:0:0:
192,192,72551,1,0,0:0:0:0:
320,192,72607,1,0,0:0:0:0:
64,192,72665,1,0,0:0:0:0:
192,192,72721,1,0,0:0:0:0:
320,192,72778,1,0,0:0:0:0:
64,192,72835,1,0,0:0:0:0:
448,192,72835,1,0,0:0:0:0:
192,192,72892,1,0,0:0:0:0:
448,192,72948,1,0,0:0:0:0:
64,192,73006,1,0,0:0:0:0:
320,192,73062,1,0,0:0:0:0:
448,192,73119,1,0,0:0:0:0:
192,192,73176,1,0,0:0:0:0:
64,192,73233,1,0,0:0:0:0:
320,192,73289,1,0,0:0:0:0:
448,192,73289,1,0,0:0:0:0:
192,192,73347,1,0,0:0:0:0:
448,192,73403,1,0,0:0:0:0:
192,192,73460,1,0,0:0:0:0:
64,192,73517,1,0,0:0:0:0:
320,192,73574,1,0,0:0:0:0:
192,192,73630,1,0,0:0:0:0:
448,192,73630,1,0,0:0:0:0:
64,192,73687,1,0,0:0:0:0:
320,192,73744,1,0,0:0:0:0:
64,192,73801,1,0,0:0:0:0:
192,192,73857,1,0,0:0:0:0:
448,192,73857,1,0,0:0:0:0:
320,192,73915,1,0,0:0:0:0:
448,192,73971,1,0,0:0:0:0:
192,192,74028,1,0,0:0:0:0:
320,192,74085,1,0,0:0:0:0:
64,192,74142,1,0,0:0:0:0:
192,192,74198,1,0,0:0:0:0:
448,192,74198,1,0,0:0:0:0:
320,192,74256,1,0,0:0:0:0:
192,192,74312,1,0,0:0:0:0:
448,192,74369,1,0,0:0:0:0:
192,192,74426,1,0,0:0:0:0:
320,192,74483,1,0,0:0:0:0:
448,192,74539,1,0,0:0:0:0:
192,192,74597,1,0,0:0:0:0:
64,192,74653,1,0,0:0:0:0:
320,192,74653,1,0,0:0:0:0:
448,192,74710,1,0,0:0:0:0:
64,192,74767,1,0,0:0:0:0:
320,192,74824,1,0,0:0:0:0:
192,192,74880,1,0,0:0:0:0:
64,192,74937,1,0,0:0:0:0:
448,192,74994,1,0,0:0:0:0:
320,192,75051,1,0,0:0:0:0:
64,192,75107,1,0,0:0:0:0:
192,192,75107,1,0,0:0:0:0:
448,192,75165,1,0,0:0:0:0:
64,192,75221,1,0,0:0:0:0:
320,192,75278,1,0,0:0:0:0:
448,192,75335,1,0,0:0:0:0:
192,192,75392,1,0,0:0:0:0:
64,192,75448,1,0,0:0:0:0:
320,192,75448,1,0,0:0:0:0:
448,192,75506,1,0,0:0:0:0:
192,192,75562,1,0,0:0:0:0:
448,192,75619,1,0,0:0:0:0:
64,192,75676,1,0,0:0:0:0:
320,192,75676,1,0,0:0:0:0:
192,192,75733,1,0,0:0:0:0:
64,192,75789,1,0,0:0:0:0:
320,192,75847,1,0,0:0:0:0:
192,192,75903,1,0,0:0:0:0:
448,192,75960,1,0,0:0:0:0:
64,192,76017,1,0,0:0:0:0:
320,192,76017,1,0,0:0:0:0:
192,192,76074,1,0,0:0:0:0:
320,192,76130,1,0,0:0:0:0:
64,192,76187,1,0,0:0:0:0:
320,192,76244,1,0,0:0:0:0:
192,192,76301,1,0,0:0:0:0:
64,192,76357,1,0,0:0:0:0:
320,192,76415,1,0,0:0:0:0:
192,192,76471,1,0,0:0:0:0:
448,192,76471,1,0,0:0:0:0:
64,192,76528,1,0,0:0:0:0:
448,192,76585,1,0,0:0:0:0:
192,192,76642,1,0,0:0:0:0:
320,192,76698,1,0,0:0:0:0:
448,192,76756,1,0,0:0:0:0:
64,192,76812,1,0,0:0:0:0:
192,192,76812,1,0,0:0:0:0:
320,192,76869,1,0,0:0:0:0:
448,192,76869,1,0,0:0:0:0:
64,192,76926,1,0,0:0:0:0:
192,192,76926,1,0,0:0:0:0:
320,192,76983,1,0,0:0:0:0:
192,192,77039,1,0,0:0:0:0:
320,192,77097,1,0,0:0:0:0:
448,192,77153,1,0,0:0:0:0:
192,192,77210,1,0,0:0:0:0:
64,192,77267,1,0,0:0:0:0:
448,192,77267,1,0,0:0:0:0:
320,192,77324,1,0,0:0:0:0:
192,192,77380,1,0,0:0:0:0:
320,192,77437,1,0,0:0:0:0:
64,192,77494,1,0,0:0:0:0:
448,192,77494,1,0,0:0:0:0:
192,192,77551,1,0,0:0:0:0:
64,192,77607,1,0,0:0:0:0:
448,192,77665,1,0,0:0:0:0:
192,192,77721,1,0,0:0:0:0:
320,192,77778,1,0,0:0:0:0:
64,192,77835,1,0,0:0:0:0:
448,192,77835,1,0,0:0:0:0:
192,192,77892,1,0,0:0:0:0:
448,192,77948,1,0,0:0:0:0:
64,192,78006,1,0,0:0:0:0:
448,192,78062,1,0,0:0:0:0:
192,192,78119,1,0,0:0:0:0:
64,192,78176,1,0,0:0:0:0:
448,192,78233,1,0,0:0:0:0:
192,192,78289,1,0,0:0:0:0:
320,192,78289,1,0,0:0:0:0:
64,192,78347,1,0,0:0:0:0:
320,192,78403,1,0,0:0:0:0:
192,192,78460,1,0,0:0:0:0:
448,192,78517,1,0,0:0:0:0:
320,192,78574,1,0,0:0:0:0:
192,192,78630,1,0,0:0:0:0:
64,192,78687,1,0,0:0:0:0:
320,192,78744,1,0,0:0:0:0:
448,192,78744,1,0,0:0:0:0:
192,192,78801,1,0,0:0:0:0:
320,192,78857,1,0,0:0:0:0:
64,192,78915,1,0,0:0:0:0:
192,192,78971,1,0,0:0:0:0:
320,192,79028,1,0,0:0:0:0:
64,192,79085,1,0,0:0:0:0:
448,192,79085,1,0,0:0:0:0:
192,192,79142,1,0,0:0:0:0:
320,192,79198,1,0,0:0:0:0:
192,192,79256,1,0,0:0:0:0:
64,192,79312,1,0,0:0:0:0:
448,192,79312,1,0,0:0:0:0:
320,192,79369,1,0,0:0:0:0:
448,192,79426,1,0,0:0:0:0:
64,192,79483,1,0,0:0:0:0:
320,192,79539,1,0,0:0:0:0:
192,192,79597,1,0,0:0:0:0:
64,192,79653,1,0,0:0:0:0:
448,192,79653,1,0,0:0:0:0:
320,192,79710,1,0,0:0:0:0:
64,192,79767,1,0,0:0:0:0:
448,192,79824,1,0,0:0:0:0:
64,192,79880,1,0,0:0:0:0:
320,192,79937,1,0,0:0:0:0:
448,192,79994,1,0,0:0:0:0:
64,192,80051,1,0,0:0:0:0:
192,192,80107,1,0,0:0:0:0:
320,192,80107,1,0,0:0:0:0:
448,192,80165,1,0,0:0:0:0:
192,192,80221,1,0,0:0:0:0:
320,192,80278,1,0,0:0:0:0:
64,192,80335,1,0,0:0:0:0:
192,192,80392,1,0,0:0:0:0:
320,192,80448,1,0,0:0:0:0:
448,192,80506,1,0,0:0:0:0:
64,192,80562,1,0,0:0:0:0:
192,192,80562,1,0,0:0:0:0:
320,192,80619,1,0,0:0:0:0:
192,192,80676,1,0,0:0:0:0:
320,192,80733,1,0,0:0:0:0:
448,192,80789,1,0,0:0:0:0:
64,192,80847,1,0,0:0:0:0:
192,192,80903,1,0,0:0:0:0:
320,192,80903,1,0,0:0:0:0:
448,192,80960,1,0,0:0:0:0:
64,192,81017,1,0,0:0:0:0:
448,192,81074,1,0,0:0:0:0:
192,192,81130,1,0,0:0:0:0:
320,192,81130,1,0,0:0:0:0:
64,192,81187,1,0,0:0:0:0:
192,192,81244,1,0,0:0:0:0:
320,192,81301,1,0,0:0:0:0:
64,192,81357,1,0,0:0:0:0:
448,192,81415,1,0,0:0:0:0:
192,192,81471,1,0,0:0:0:0:
320,192,81471,1,0,0:0:0:0:
64,192,81528,1,0,0:0:0:0:
320,192,81585,1,0,0:0:0:0:
192,192,81642,1,0,0:0:0:0:
320,192,81698,1,0,0:0:0:0:
64,192,81756,1,0,0:0:0:0:
192,192,81812,1,0,0:0:0:0:
320,192,81869,1,0,0:0:0:0:
64,192,81926,1,0,0:0:0:0:
448,192,81926,1,0,0:0:0:0:
192,192,81983,1,0,0:0:0:0:
448,192,82039,1,0,0:0:0:0:
64,192,82097,1,0,0:0:0:0:
192,192,82153,1,0,0:0:0:0:
320,192,82210,1,0,0:0:0:0:
64,192,82267,1,0,0:0:0:0:
192,192,82324,1,0,0:0:0:0:
320,192,82380,1,0,0:0:0:0:
448,192,82380,1,0,0:0:0:0:
64,192,82437,1,0,0:0:0:0:
320,192,82494,1,0,0:0:0:0:
192,192,82551,1,0,0:0:0:0:
64,192,82607,1,0,0:0:0:0:
448,192,82665,1,0,0:0:0:0:
192,192,82721,1,0,0:0:0:0:
320,192,82721,1,0,0:0:0:0:
64,192,82778,1,0,0:0:0:0:
448,192,82835,1,0,0:0:0:0:
64,192,82892,1,0,0:0:0:0:
192,192,82948,1,0,0:0:0:0:
320,192,82948,1,0,0:0:0:0:
448,192,83006,1,0,0:0:0:0:
320,192,83062,1,0,0:0:0:0:
192,192,83119,1,0,0:0:0:0:
448,192,83176,1,0,0:0:0:0:
64,192,83233,1,0,0:0:0:0:
192,192,83289,1,0,0:0:0:0:
320,192,83289,1,0,0:0:0:0:
448,192,83347,1,0,0:0:0:0:
192,192,83403,1,0,0:0:0:0:
320,192,83460,1,0,0:0:0:0:
192,192,83517,1,0,0:0:0:0:
448,192,83574,1,0,0:0:0:0:
320,192,83630,1,0,0:0:0:0:
192,192,83687,1,0,0:0:0:0:
64,192,83744,1,0,0:0:0:0:
448,192,83744,1,0,0:0:0:0:
320,192,83801,1,0,0:0:0:0:
64,192,83857,1,0,0:0:0:0:
448,192,83915,1,0,0:0:0:0:
192,192,83971,1,0,0:0:0:0:
64,192,84028,1,0,0:0:0:0:
320,192,84085,1,0,0:0:0:0:
448,192,84085,1,0,0:0:0:0:
64,192,84142,1,0,0:0:0:0:
192,192,84142,1,0,0:0:0:0:
320,192,84198,1,0,0:0:0:0:
448,192,84198,1,0,0:0:0:0:
192,192,84256,1,0,0:0:0:0:
448,192,84312,1,0,0:0:0:0:
64,192,84369,1,0,0:0:0:0:
192,192,84426,1,0,0:0:0:0:
320,192,84426,1,0,0:0:0:0:
192,192,84539,1,0,0:0:0:0:
448,192,84539,1,0,0:0:0:0:
64,192,84653,1,0,0:0:0:0:
192,192,84767,1,0,0:0:0:0:
320,192,84767,1,0,0:0:0:0:
64,192,84880,1,0,0:0:0:0:
448,192,84880,1,0,0:0:0:0:
64,192,84994,1,0,0:0:0:0:
192,192,84994,1,0,0:0:0:0:
192,192,85107,1,0,0:0:0:0:
320,192,85107,1,0,0:0:0:0:
448,192,85221,1,0,0:0:0:0:
192,192,85278,1,0,0:0:0:0:
64,192,85335,1,0,0:0:0:0:
320,192,85335,1,0,0:0:0:0:
448,192,85392,1,0,0:0:0:0:
64,192,85448,1,0,0:0:0:0:
192,192,85448,1,0,0:0:0:0:
320,192,85562,1,0,0:0:0:0:
448,192,85562,1,0,0:0:0:0:
448,192,85676,1,0,0:0:0:0:
64,192,85789,1,0,0:0:0:0:
192,192,85789,1,0,0:0:0:0:
320,192,85847,1,0,0:0:0:0:
64,192,85903,1,0,0:0:0:0:
448,192,85903,1,0,0:0:0:0:
192,192,86017,1,0,0:0:0:0:
320,192,86017,1,0,0:0:0:0:
448,192,86130,1,0,0:0:0:0:
64,192,86244,1,0,0:0:0:0:
320,192,86244,1,0,0:0:0:0:
192,192,86357,1,0,0:0:0:0:
320,192,86357,1,0,0:0:0:0:
64,192,86471,1,0,0:0:0:0:
192,192,86585,1,0,0:0:0:0:
320,192,86585,1,0,0:0:0:0:
64,192,86698,1,0,0:0:0:0:
448,192,86698,1,0,0:0:0:0:
64,192,86812,1,0,0:0:0:0:
192,192,86812,1,0,0:0:0:0:
192,192,86926,1,0,0:0:0:0:
320,192,86926,1,0,0:0:0:0:
448,192,87039,1,0,0:0:0:0:
192,192,87097,1,0,0:0:0:0:
64,192,87153,1,0,0:0:0:0:
320,192,87153,1,0,0:0:0:0:
448,192,87210,1,0,0:0:0:0:
64,192,87267,1,0,0:0:0:0:
192,192,87267,1,0,0:0:0:0:
320,192,87380,1,0,0:0:0:0:
448,192,87380,1,0,0:0:0:0:
448,192,87494,1,0,0:0:0:0:
64,192,87607,1,0,0:0:0:0:
192,192,87607,1,0,0:0:0:0:
320,192,87665,1,0,0:0:0:0:
192,192,87721,1,0,0:0:0:0:
448,192,87721,1,0,0:0:0:0:
64,192,87835,1,0,0:0:0:0:
448,192,87835,1,0,0:0:0:0:
320,192,87892,1,0,0:0:0:0:
64,192,87948,1,0,0:0:0:0:
320,192,88006,1,0,0:0:0:0:
192,192,88062,1,0,0:0:0:0:
448,192,88062,1,0,0:0:0:0:
64,192,88176,1,0,0:0:0:0:
448,192,88176,1,0,0:0:0:0:
192,192,88289,1,0,0:0:0:0:
64,192,88403,1,0,0:0:0:0:
448,192,88403,1,0,0:0:0:0:
192,192,88517,1,0,0:0:0:0:
320,192,88517,1,0,0:0:0:0:
64,192,88630,1,0,0:0:0:0:
320,192,88630,1,0,0:0:0:0:
64,192,88744,1,0,0:0:0:0:
448,192,88744,1,0,0:0:0:0:
320,192,88857,1,0,0:0:0:0:
64,192,88915,1,0,0:0:0:0:
192,192,88971,1,0,0:0:0:0:
448,192,88971,1,0,0:0:0:0:
320,192,89028,1,0,0:0:0:0:
64,192,89085,1,0,0:0:0:0:
192,192,89085,1,0,0:0:0:0:
320,192,89198,1,0,0:0:0:0:
448,192,89198,1,0,0:0:0:0:
192,192,89312,1,0,0:0:0:0:
320,192,89426,1,0,0:0:0:0:
448,192,89426,1,0,0:0:0:0:
192,192,89483,1,0,0:0:0:0:
64,192,89539,1,0,0:0:0:0:
320,192,89539,1,0,0:0:0:0:
64,192,89653,1,0,0:0:0:0:
448,192,89653,1,0,0:0:0:0:
320,192,89767,1,0,0:0:0:0:
192,192,89880,1,0,0:0:0:0:
448,192,89880,1,0,0:0:0:0:
64,192,89994,1,0,0:0:0:0:
448,192,89994,1,0,0:0:0:0:
192,192,90107,1,0,0:0:0:0:
64,192,90221,1,0,0:0:0:0:
448,192,90221,1,0,0:0:0:0:
192,192,90335,1,0,0:0:0:0:
320,192,90335,1,0,0:0:0:0:
64,192,90448,1,0,0:0:0:0:
192,192,90448,1,0,0:0:0:0:
64,192,90562,1,0,0:0:0:0:
448,192,90562,1,0,0:0:0:0:
320,192,90676,1,0,0:0:0:0:
64,192,90733,1,0,0:0:0:0:
192,192,90789,1,0,0:0:0:0:
448,192,90789,1,0,0:0:0:0:
320,192,90847,1,0,0:0:0:0:
64,192,90903,1,0,0:0:0:0:
192,192,90903,1,0,0:0:0:0:
320,192,91017,1,0,0:0:0:0:
448,192,91017,1,0,0:0:0:0:
192,192,91130,1,0,0:0:0:0:
64,192,91244,1,0,0:0:0:0:
448,192,91244,1,0,0:0:0:0:
320,192,91301,1,0,0:0:0:0:
192,192,91357,1,0,0:0:0:0:
448,192,91357,1,0,0:0:0:0:
64,192,91415,1,0,0:0:0:0:
192,192,91471,1,0,0:0:0:0:
320,192,91471,1,0,0:0:0:0:
448,192,91528,1,0,0:0:0:0:
192,192,91585,1,0,0:0:0:0:
448,192,91642,1,0,0:0:0:0:
64,192,91698,1,0,0:0:0:0:
320,192,91698,1,0,0:0:0:0:
64,192,91812,1,0,0:0:0:0:
192,192,91812,1,0,0:0:0:0:
320,192,91926,1,0,0:0:0:0:
64,192,92039,1,0,0:0:0:0:
192,192,92039,1,0,0:0:0:0:
320,192,92153,1,0,0:0:0:0:
448,192,92153,1,0,0:0:0:0:
192,192,92267,1,0,0:0:0:0:
320,192,92267,1,0,0:0:0:0:
64,192,92380,1,0,0:0:0:0:
192,192,92380,1,0,0:0:0:0:
320,192,92494,1,0,0:0:0:0:
64,192,92551,1,0,0:0:0:0:
192,192,92607,1,0,0:0:0:0:
448,192,92607,1,0,0:0:0:0:
320,192,92665,1,0,0:0:0:0:
64,192,92721,1,0,0:0:0:0:
192,192,92721,1,0,0:0:0:0:
320,192,92835,1,0,0:0:0:0:
448,192,92835,1,0,0:0:0:0:
192,192,92948,1,0,0:0:0:0:
64,192,93062,1,0,0:0:0:0:
448,192,93062,1,0,0:0:0:0:
320,192,93119,1,0,0:0:0:0:
64,192,93176,1,0,0:0:0:0:
192,192,93176,1,0,0:0:0:0:
320,192,93289,1,0,0:0:0:0:
448,192,93289,1,0,0:0:0:0:
192,192,93403,1,0,0:0:0:0:
64,192,93517,1,0,0:0:0:0:
320,192,93517,1,0,0:0:0:0:
320,192,93630,1,0,0:0:0:0:
448,192,93630,1,0,0:0:0:0:
64,192,93744,1,0,0:0:0:0:
320,192,93857,1,0,0:0:0:0:
448,192,93857,1,0,0:0:0:0:
64,192,93971,1,0,0:0:0:0:
320,192,93971,1,0,0:0:0:0:
64,192,94085,1,0,0:0:0:0:
192,192,94085,1,0,0:0:0:0:
320,192,94198,1,0,0:0:0:0:
448,192,94198,1,0,0:0:0:0:
64,192,94312,1,0,0:0:0:0:
192,192,94426,1,0,0:0:0:0:
448,192,94426,1,0,0:0:0:0:
320,192,94483,1,0,0:0:0:0:
64,192,94539,1,0,0:0:0:0:
448,192,94539,1,0,0:0:0:0:
64,192,94653,1,0,0:0:0:0:
192,192,94653,1,0,0:0:0:0:
320,192,94767,1,0,0:0:0:0:
64,192,94880,1,0,0:0:0:0:
448,192,94880,1,0,0:0:0:0:
320,192,94937,1,0,0:0:0:0:
192,192,94994,1,0,0:0:0:0:
320,192,95107,1,0,0:0:0:0:
448,192,95107,1,0,0:0:0:0:
64,192,95165,1,0,0:0:0:0:
320,192,95221,1,0,0:0:0:0:
64,192,95278,1,0,0:0:0:0:
192,192,95335,1,0,0:0:0:0:
448,192,95335,1,0,0:0:0:0:
320,192,95448,1,0,0:0:0:0:
192,192,95562,1,0,0:0:0:0:
192,192,95789,1,0,0:0:0:0:
448,192,95789,1,0,0:0:0:0:
320,192,95903,1,0,0:0:0:0:
192,192,96017,1,0,0:0:0:0:
192,192,96130,1,0,0:0:0:0:
192,192,96244,1,0,0:0:0:0:
448,192,96244,1,0,0:0:0:0:
320,192,96357,1,0,0:0:0:0:
448,192,96357,1,0,0:0:0:0:
192,192,96471,1,0,0:0:0:0:
192,192,96698,1,0,0:0:0:0:
448,192,96698,1,0,0:0:0:0:
64,192,96812,1,0,0:0:0:0:
192,192,96812,1,0,0:0:0:0:
192,192,96926,1,0,0:0:0:0:
320,192,96926,1,0,0:0:0:0:
64,192,97153,1,0,0:0:0:0:
320,192,97153,1,0,0:0:0:0:
192,192,97267,1,0,0:0:0:0:
320,192,97380,1,0,0:0:0:0:
64,192,97607,1,0,0:0:0:0:
320,192,97607,1,0,0:0:0:0:
192,192,97721,1,0,0:0:0:0:
320,192,97835,1,0,0:0:0:0:
320,192,97948,1,0,0:0:0:0:
64,192,98062,1,0,0:0:0:0:
320,192,98062,1,0,0:0:0:0:
64,192,98176,1,0,0:0:0:0:
192,192,98176,1,0,0:0:0:0:
320,192,98289,1,0,0:0:0:0:
320,192,98460,1,0,0:0:0:0:
64,192,98517,1,0,0:0:0:0:
192,192,98630,1,0,0:0:0:0:
320,192,98630,1,0,0:0:0:0:
448,192,98687,1,0,0:0:0:0:
64,192,98744,1,0,0:0:0:0:
320,192,98744,1,0,0:0:0:0:
192,192,98857,1,0,0:0:0:0:
320,192,98971,1,0,0:0:0:0:
192,192,99198,1,0,0:0:0:0:
320,192,99312,1,0,0:0:0:0:
192,192,99426,1,0,0:0:0:0:
320,192,99653,1,0,0:0:0:0:
192,192,99767,1,0,0:0:0:0:
320,192,99880,1,0,0:0:0:0:
192,192,100107,1,0,0:0:0:0:
320,192,100221,1,0,0:0:0:0:
192,192,100335,1,0,0:0:0:0:
320,192,100562,1,0,0:0:0:0:
192,192,100676,1,0,0:0:0:0:
320,192,100789,1,0,0:0:0:0:
192,192,101017,1,0,0:0:0:0:
320,192,101130,1,0,0:0:0:0:
192,192,101244,1,0,0:0:0:0:
320,192,101471,1,0,0:0:0:0:
192,192,101585,1,0,0:0:0:0:
320,192,101698,1,0,0:0:0:0:
192,192,101926,1,0,0:0:0:0:
320,192,102039,1,0,0:0:0:0:
192,192,102153,1,0,0:0:0:0:
320,192,102380,1,0,0:0:0:0:
192,192,102494,1,0,0:0:0:0:
320,192,102607,1,0,0:0:0:0:
192,192,102835,1,0,0:0:0:0:
448,192,102835,1,0,0:0:0:0:
64,192,102948,1,0,0:0:0:0:
448,192,103006,1,0,0:0:0:0:
192,192,103062,1,0,0:0:0:0:
448,192,103176,1,0,0:0:0:0:
64,192,103289,1,0,0:0:0:0:
448,192,103347,1,0,0:0:0:0:
192,192,103403,1,0,0:0:0:0:
64,192,103517,1,0,0:0:0:0:
448,192,103517,1,0,0:0:0:0:
320,192,103630,1,0,0:0:0:0:
192,192,103744,1,0,0:0:0:0:
448,192,103744,1,0,0:0:0:0:
64,192,103857,1,0,0:0:0:0:
448,192,103915,1,0,0:0:0:0:
192,192,103971,1,0,0:0:0:0:
320,192,104085,1,0,0:0:0:0:
64,192,104198,1,0,0:0:0:0:
448,192,104198,1,0,0:0:0:0:
192,192,104312,1,0,0:0:0:0:
448,192,104369,1,0,0:0:0:0:
64,192,104426,1,0,0:0:0:0:
320,192,104539,1,0,0:0:0:0:
192,192,104653,1,0,0:0:0:0:
448,192,104653,1,0,0:0:0:0:
64,192,104767,1,0,0:0:0:0:
448,192,104824,1,0,0:0:0:0:
192,192,104880,1,0,0:0:0:0:
448,192,104994,1,0,0:0:0:0:
64,192,105107,1,0,0:0:0:0:
448,192,105165,1,0,0:0:0:0:
192,192,105221,1,0,0:0:0:0:
64,192,105335,1,0,0:0:0:0:
448,192,105335,1,0,0:0:0:0:
320,192,105448,1,0,0:0:0:0:
192,192,105562,1,0,0:0:0:0:
448,192,105562,1,0,0:0:0:0:
64,192,105676,1,0,0:0:0:0:
448,192,105733,1,0,0:0:0:0:
192,192,105789,1,0,0:0:0:0:
448,192,105903,1,0,0:0:0:0:
320,192,105960,1,0,0:0:0:0:
64,192,106017,1,0,0:0:0:0:
448,192,106017,1,0,0:0:0:0:
