osu file format v14

[General]
AudioFilename: 1ofcut105.mp3
AudioLeadIn: 0
PreviewTime: 40524
Countdown: 0
SampleSet: Normal
StackLeniency: 0.7
Mode: 3
LetterboxInBreaks: 0
SpecialStyle: 0
WidescreenStoryboard: 0

[Editor]
DistanceSpacing: 0.8
BeatDivisor: 2
GridSize: 32
TimelineZoom: 1

[Metadata]
Title:one of none
TitleUnicode:one of none
Artist:Frums
ArtistUnicode:Frums
Creator:aeoliancarp
Version:observer 1.05x (126bpm)
Source:
Tags:works.11 idm sequencer & tracker minimal techno visd
BeatmapID:3135904
BeatmapSetID:1533448

[Difficulty]
HPDrainRate:8.5
CircleSize:4
OverallDifficulty:8.7
ApproachRate:5
SliderMultiplier:1.4
SliderTickRate:1

[Events]
//Background and Video events
0,0,"syncny2.jpg",0,0
//Break Periods
//Storyboard Layer 0 (Background)
//Storyboard Layer 1 (Fail)
//Storyboard Layer 2 (Pass)
//Storyboard Layer 3 (Foreground)
//Storyboard Layer 4 (Overlay)
//Storyboard Sound Samples

[TimingPoints]
595,476.190476190476,4,1,0,25,1,0

[HitObjects]
192,192,595,5,0,0:0:0:0:
320,192,833,1,0,0:0:0:0:
64,192,1071,1,0,0:0:0:0:
448,192,1428,128,0,1785:0:0:0:0:
320,192,1785,128,0,2142:0:0:0:0:
192,192,2142,128,0,2500:0:0:0:0:
64,192,2500,128,0,6309:0:0:0:0:
320,192,6309,1,0,0:0:0:0:
448,192,6547,1,0,0:0:0:0:
192,192,6785,1,0,0:0:0:0:
448,192,7142,128,0,9642:0:0:0:0:
320,192,7500,128,0,9642:0:0:0:0:
192,192,7857,128,0,9642:0:0:0:0:
64,192,8214,128,0,9642:0:0:0:0:
448,192,9761,1,0,0:0:0:0:
64,192,9881,1,0,0:0:0:0:
448,192,10000,1,0,0:0:0:0:
320,192,10060,1,0,0:0:0:0:
64,192,10119,1,0,0:0:0:0:
192,192,10119,1,0,0:0:0:0:
448,192,10119,1,0,0:0:0:0:
320,192,10238,1,0,0:0:0:0:
192,192,10298,1,0,0:0:0:0:
448,192,10357,1,0,0:0:0:0:
192,192,10476,1,0,0:0:0:0:
192,192,10595,1,0,0:0:0:0:
320,192,10595,1,0,0:0:0:0:
448,192,10714,1,0,0:0:0:0:
192,192,10774,1,0,0:0:0:0:
320,192,10833,1,0,0:0:0:0:
192,192,10952,1,0,0:0:0:0:
64,192,11071,1,0,0:0:0:0:
320,192,11071,1,0,0:0:0:0:
192,192,11131,1,0,0:0:0:0:
448,192,11190,1,0,0:0:0:0:
192,192,11309,1,0,0:0:0:0:
192,192,11428,1,0,0:0:0:0:
192,192,11547,1,0,0:0:0:0:
320,192,11547,1,0,0:0:0:0:
448,192,11666,1,0,0:0:0:0:
192,192,11726,1,0,0:0:0:0:
320,192,11785,1,0,0:0:0:0:
192,192,11904,1,0,0:0:0:0:
192,192,12023,1,0,0:0:0:0:
320,192,12023,1,0,0:0:0:0:
448,192,12142,1,0,0:0:0:0:
192,192,12202,1,0,0:0:0:0:
320,192,12261,1,0,0:0:0:0:
192,192,12381,1,0,0:0:0:0:
64,192,12500,1,0,0:0:0:0:
192,192,12500,1,0,0:0:0:0:
448,192,12619,1,0,0:0:0:0:
192,192,12679,1,0,0:0:0:0:
320,192,12738,1,0,0:0:0:0:
192,192,12857,1,0,0:0:0:0:
64,192,12976,1,0,0:0:0:0:
320,192,12976,1,0,0:0:0:0:
192,192,13036,1,0,0:0:0:0:
448,192,13095,1,0,0:0:0:0:
192,192,13214,1,0,0:0:0:0:
192,192,13333,1,0,0:0:0:0:
192,192,13452,1,0,0:0:0:0:
320,192,13452,1,0,0:0:0:0:
448,192,13571,1,0,0:0:0:0:
192,192,13631,1,0,0:0:0:0:
320,192,13690,1,0,0:0:0:0:
192,192,13809,1,0,0:0:0:0:
64,192,13928,1,0,0:0:0:0:
320,192,13928,1,0,0:0:0:0:
448,192,13928,1,0,0:0:0:0:
192,192,14047,1,0,0:0:0:0:
320,192,14107,1,0,0:0:0:0:
448,192,14166,1,0,0:0:0:0:
320,192,14285,1,0,0:0:0:0:
192,192,14404,1,0,0:0:0:0:
320,192,14404,1,0,0:0:0:0:
64,192,14523,1,0,0:0:0:0:
320,192,14583,1,0,0:0:0:0:
192,192,14642,1,0,0:0:0:0:
320,192,14761,1,0,0:0:0:0:
192,192,14881,1,0,0:0:0:0:
448,192,14881,1,0,0:0:0:0:
320,192,14941,1,0,0:0:0:0:
64,192,15000,1,0,0:0:0:0:
320,192,15119,1,0,0:0:0:0:
320,192,15238,1,0,0:0:0:0:
192,192,15357,1,0,0:0:0:0:
320,192,15357,1,0,0:0:0:0:
64,192,15476,1,0,0:0:0:0:
320,192,15536,1,0,0:0:0:0:
192,192,15595,1,0,0:0:0:0:
320,192,15714,1,0,0:0:0:0:
192,192,15833,1,0,0:0:0:0:
320,192,15833,1,0,0:0:0:0:
64,192,15952,1,0,0:0:0:0:
320,192,16012,1,0,0:0:0:0:
192,192,16071,1,0,0:0:0:0:
320,192,16190,1,0,0:0:0:0:
320,192,16309,1,0,0:0:0:0:
448,192,16309,1,0,0:0:0:0:
64,192,16428,1,0,0:0:0:0:
320,192,16488,1,0,0:0:0:0:
192,192,16547,1,0,0:0:0:0:
320,192,16666,1,0,0:0:0:0:
192,192,16785,1,0,0:0:0:0:
448,192,16785,1,0,0:0:0:0:
320,192,16845,1,0,0:0:0:0:
64,192,16904,1,0,0:0:0:0:
320,192,17023,1,0,0:0:0:0:
320,192,17142,1,0,0:0:0:0:
192,192,17261,1,0,0:0:0:0:
320,192,17261,1,0,0:0:0:0:
64,192,17381,1,0,0:0:0:0:
320,192,17441,1,0,0:0:0:0:
192,192,17500,1,0,0:0:0:0:
320,192,17619,1,0,0:0:0:0:
64,192,17679,1,0,0:0:0:0:
192,192,17738,1,0,0:0:0:0:
320,192,17738,1,0,0:0:0:0:
448,192,17738,1,0,0:0:0:0:
192,192,17917,1,0,0:0:0:0:
320,192,17976,1,0,0:0:0:0:
192,192,18095,1,0,0:0:0:0:
192,192,18214,1,0,0:0:0:0:
320,192,18214,1,0,0:0:0:0:
448,192,18333,1,0,0:0:0:0:
192,192,18393,1,0,0:0:0:0:
320,192,18452,1,0,0:0:0:0:
192,192,18571,1,0,0:0:0:0:
448,192,18571,1,0,0:0:0:0:
64,192,18690,1,0,0:0:0:0:
320,192,18690,1,0,0:0:0:0:
192,192,18750,1,0,0:0:0:0:
320,192,18809,1,0,0:0:0:0:
448,192,18809,1,0,0:0:0:0:
64,192,18928,1,0,0:0:0:0:
192,192,18928,1,0,0:0:0:0:
192,192,19047,1,0,0:0:0:0:
192,192,19166,1,0,0:0:0:0:
320,192,19166,1,0,0:0:0:0:
448,192,19285,1,0,0:0:0:0:
192,192,19345,1,0,0:0:0:0:
320,192,19404,1,0,0:0:0:0:
192,192,19523,1,0,0:0:0:0:
448,192,19523,1,0,0:0:0:0:
192,192,19642,1,0,0:0:0:0:
320,192,19642,1,0,0:0:0:0:
64,192,19761,1,0,0:0:0:0:
448,192,19761,1,0,0:0:0:0:
192,192,19821,1,0,0:0:0:0:
320,192,19881,1,0,0:0:0:0:
192,192,20000,1,0,0:0:0:0:
64,192,20119,1,0,0:0:0:0:
192,192,20119,1,0,0:0:0:0:
448,192,20238,1,0,0:0:0:0:
192,192,20298,1,0,0:0:0:0:
320,192,20357,1,0,0:0:0:0:
192,192,20476,1,0,0:0:0:0:
448,192,20476,1,0,0:0:0:0:
64,192,20595,1,0,0:0:0:0:
320,192,20595,1,0,0:0:0:0:
192,192,20655,1,0,0:0:0:0:
64,192,20714,1,0,0:0:0:0:
448,192,20714,1,0,0:0:0:0:
192,192,20833,1,0,0:0:0:0:
320,192,20833,1,0,0:0:0:0:
192,192,20952,1,0,0:0:0:0:
192,192,21071,1,0,0:0:0:0:
320,192,21071,1,0,0:0:0:0:
448,192,21190,1,0,0:0:0:0:
192,192,21250,1,0,0:0:0:0:
320,192,21309,1,0,0:0:0:0:
64,192,21428,1,0,0:0:0:0:
192,192,21428,1,0,0:0:0:0:
64,192,21547,1,0,0:0:0:0:
320,192,21547,1,0,0:0:0:0:
448,192,21547,1,0,0:0:0:0:
192,192,21666,1,0,0:0:0:0:
320,192,21726,1,0,0:0:0:0:
448,192,21785,1,0,0:0:0:0:
320,192,21904,1,0,0:0:0:0:
192,192,22023,1,0,0:0:0:0:
320,192,22023,1,0,0:0:0:0:
64,192,22142,1,0,0:0:0:0:
320,192,22202,1,0,0:0:0:0:
192,192,22261,1,0,0:0:0:0:
64,192,22381,1,0,0:0:0:0:
320,192,22381,1,0,0:0:0:0:
192,192,22500,1,0,0:0:0:0:
448,192,22500,1,0,0:0:0:0:
320,192,22560,1,0,0:0:0:0:
64,192,22619,1,0,0:0:0:0:
448,192,22619,1,0,0:0:0:0:
192,192,22738,1,0,0:0:0:0:
320,192,22738,1,0,0:0:0:0:
320,192,22857,1,0,0:0:0:0:
192,192,22976,1,0,0:0:0:0:
320,192,22976,1,0,0:0:0:0:
64,192,23095,1,0,0:0:0:0:
320,192,23155,1,0,0:0:0:0:
192,192,23214,1,0,0:0:0:0:
320,192,23333,1,0,0:0:0:0:
448,192,23333,1,0,0:0:0:0:
192,192,23452,1,0,0:0:0:0:
320,192,23452,1,0,0:0:0:0:
64,192,23571,1,0,0:0:0:0:
448,192,23571,1,0,0:0:0:0:
320,192,23631,1,0,0:0:0:0:
192,192,23690,1,0,0:0:0:0:
448,192,23690,1,0,0:0:0:0:
320,192,23809,1,0,0:0:0:0:
320,192,23928,1,0,0:0:0:0:
448,192,23928,1,0,0:0:0:0:
64,192,24047,1,0,0:0:0:0:
320,192,24107,1,0,0:0:0:0:
192,192,24166,1,0,0:0:0:0:
64,192,24285,1,0,0:0:0:0:
320,192,24285,1,0,0:0:0:0:
192,192,24404,1,0,0:0:0:0:
448,192,24404,1,0,0:0:0:0:
320,192,24464,1,0,0:0:0:0:
64,192,24523,1,0,0:0:0:0:
448,192,24523,1,0,0:0:0:0:
192,192,24642,1,0,0:0:0:0:
320,192,24642,1,0,0:0:0:0:
320,192,24761,1,0,0:0:0:0:
192,192,24881,1,0,0:0:0:0:
320,192,24881,1,0,0:0:0:0:
64,192,25000,1,0,0:0:0:0:
320,192,25060,1,0,0:0:0:0:
192,192,25119,1,0,0:0:0:0:
64,192,25238,1,0,0:0:0:0:
320,192,25238,1,0,0:0:0:0:
448,192,25298,1,0,0:0:0:0:
64,192,25357,1,0,0:0:0:0:
192,192,25357,1,0,0:0:0:0:
320,192,25357,1,0,0:0:0:0:
192,192,25536,1,0,0:0:0:0:
320,192,25595,1,0,0:0:0:0:
192,192,25714,1,0,0:0:0:0:
192,192,25833,1,0,0:0:0:0:
320,192,25833,1,0,0:0:0:0:
448,192,25952,1,0,0:0:0:0:
192,192,26012,1,0,0:0:0:0:
320,192,26071,1,0,0:0:0:0:
192,192,26190,1,0,0:0:0:0:
448,192,26190,1,0,0:0:0:0:
64,192,26309,1,0,0:0:0:0:
320,192,26309,1,0,0:0:0:0:
192,192,26369,1,0,0:0:0:0:
320,192,26428,1,0,0:0:0:0:
448,192,26428,1,0,0:0:0:0:
192,192,26547,1,0,0:0:0:0:
320,192,26547,1,0,0:0:0:0:
192,192,26666,1,0,0:0:0:0:
192,192,26785,1,0,0:0:0:0:
320,192,26785,1,0,0:0:0:0:
64,192,26904,1,0,0:0:0:0:
192,192,26964,1,0,0:0:0:0:
320,192,27023,1,0,0:0:0:0:
192,192,27142,1,0,0:0:0:0:
320,192,27142,1,0,0:0:0:0:
192,192,27261,1,0,0:0:0:0:
320,192,27261,1,0,0:0:0:0:
64,192,27381,1,0,0:0:0:0:
448,192,27381,1,0,0:0:0:0:
192,192,27441,1,0,0:0:0:0:
320,192,27500,1,0,0:0:0:0:
192,192,27619,1,0,0:0:0:0:
192,192,27738,1,0,0:0:0:0:
320,192,27738,1,0,0:0:0:0:
448,192,27857,1,0,0:0:0:0:
192,192,27917,1,0,0:0:0:0:
320,192,27976,1,0,0:0:0:0:
192,192,28095,1,0,0:0:0:0:
448,192,28095,1,0,0:0:0:0:
64,192,28214,1,0,0:0:0:0:
320,192,28214,1,0,0:0:0:0:
192,192,28274,1,0,0:0:0:0:
320,192,28333,1,0,0:0:0:0:
448,192,28333,1,0,0:0:0:0:
192,192,28452,1,0,0:0:0:0:
320,192,28452,1,0,0:0:0:0:
192,192,28571,1,0,0:0:0:0:
192,192,28690,1,0,0:0:0:0:
320,192,28690,1,0,0:0:0:0:
448,192,28809,1,0,0:0:0:0:
192,192,28869,1,0,0:0:0:0:
320,192,28928,1,0,0:0:0:0:
64,192,29047,1,0,0:0:0:0:
192,192,29047,1,0,0:0:0:0:
64,192,29166,1,0,0:0:0:0:
320,192,29166,1,0,0:0:0:0:
448,192,29166,1,0,0:0:0:0:
192,192,29285,1,0,0:0:0:0:
320,192,29345,1,0,0:0:0:0:
448,192,29404,1,0,0:0:0:0:
320,192,29523,1,0,0:0:0:0:
192,192,29642,1,0,0:0:0:0:
320,192,29642,1,0,0:0:0:0:
64,192,29761,1,0,0:0:0:0:
320,192,29821,1,0,0:0:0:0:
192,192,29881,1,0,0:0:0:0:
64,192,30000,1,0,0:0:0:0:
320,192,30000,1,0,0:0:0:0:
192,192,30119,1,0,0:0:0:0:
448,192,30119,1,0,0:0:0:0:
320,192,30179,1,0,0:0:0:0:
64,192,30238,1,0,0:0:0:0:
192,192,30238,1,0,0:0:0:0:
192,192,30357,1,0,0:0:0:0:
320,192,30357,1,0,0:0:0:0:
320,192,30476,1,0,0:0:0:0:
192,192,30595,1,0,0:0:0:0:
320,192,30595,1,0,0:0:0:0:
64,192,30714,1,0,0:0:0:0:
320,192,30773,1,0,0:0:0:0:
192,192,30833,1,0,0:0:0:0:
192,192,30952,1,0,0:0:0:0:
320,192,30952,1,0,0:0:0:0:
192,192,31071,1,0,0:0:0:0:
320,192,31071,1,0,0:0:0:0:
64,192,31190,1,0,0:0:0:0:
448,192,31190,1,0,0:0:0:0:
320,192,31250,1,0,0:0:0:0:
192,192,31309,1,0,0:0:0:0:
448,192,31309,1,0,0:0:0:0:
320,192,31428,1,0,0:0:0:0:
192,192,31547,1,0,0:0:0:0:
320,192,31547,1,0,0:0:0:0:
64,192,31666,1,0,0:0:0:0:
320,192,31726,1,0,0:0:0:0:
192,192,31785,1,0,0:0:0:0:
64,192,31904,1,0,0:0:0:0:
320,192,31904,1,0,0:0:0:0:
192,192,32023,1,0,0:0:0:0:
448,192,32023,1,0,0:0:0:0:
320,192,32083,1,0,0:0:0:0:
64,192,32142,1,0,0:0:0:0:
192,192,32142,1,0,0:0:0:0:
192,192,32261,1,0,0:0:0:0:
320,192,32261,1,0,0:0:0:0:
320,192,32381,1,0,0:0:0:0:
192,192,32500,1,0,0:0:0:0:
320,192,32500,1,0,0:0:0:0:
64,192,32619,1,0,0:0:0:0:
320,192,32679,1,0,0:0:0:0:
192,192,32738,1,0,0:0:0:0:
64,192,32857,1,0,0:0:0:0:
320,192,32857,1,0,0:0:0:0:
448,192,32917,1,0,0:0:0:0:
64,192,32976,1,0,0:0:0:0:
192,192,32976,1,0,0:0:0:0:
320,192,32976,1,0,0:0:0:0:
192,192,33155,1,0,0:0:0:0:
320,192,33214,1,0,0:0:0:0:
192,192,33333,1,0,0:0:0:0:
192,192,33452,1,0,0:0:0:0:
320,192,33452,1,0,0:0:0:0:
448,192,33571,1,0,0:0:0:0:
192,192,33631,1,0,0:0:0:0:
320,192,33690,1,0,0:0:0:0:
192,192,33809,1,0,0:0:0:0:
448,192,33809,1,0,0:0:0:0:
64,192,33928,1,0,0:0:0:0:
320,192,33928,1,0,0:0:0:0:
192,192,33988,1,0,0:0:0:0:
320,192,34047,1,0,0:0:0:0:
448,192,34047,1,0,0:0:0:0:
192,192,34166,1,0,0:0:0:0:
320,192,34166,1,0,0:0:0:0:
192,192,34285,1,0,0:0:0:0:
192,192,34404,1,0,0:0:0:0:
320,192,34404,1,0,0:0:0:0:
64,192,34523,1,0,0:0:0:0:
192,192,34583,1,0,0:0:0:0:
320,192,34642,1,0,0:0:0:0:
192,192,34761,1,0,0:0:0:0:
320,192,34761,1,0,0:0:0:0:
192,192,34881,1,0,0:0:0:0:
320,192,34881,1,0,0:0:0:0:
64,192,35000,1,0,0:0:0:0:
448,192,35000,1,0,0:0:0:0:
192,192,35060,1,0,0:0:0:0:
320,192,35119,1,0,0:0:0:0:
192,192,35238,1,0,0:0:0:0:
192,192,35357,1,0,0:0:0:0:
320,192,35357,1,0,0:0:0:0:
448,192,35476,1,0,0:0:0:0:
192,192,35536,1,0,0:0:0:0:
320,192,35595,1,0,0:0:0:0:
192,192,35714,1,0,0:0:0:0:
448,192,35714,1,0,0:0:0:0:
64,192,35833,1,0,0:0:0:0:
320,192,35833,1,0,0:0:0:0:
192,192,35893,1,0,0:0:0:0:
320,192,35952,1,0,0:0:0:0:
448,192,35952,1,0,0:0:0:0:
192,192,36071,1,0,0:0:0:0:
320,192,36071,1,0,0:0:0:0:
192,192,36190,1,0,0:0:0:0:
192,192,36309,1,0,0:0:0:0:
320,192,36309,1,0,0:0:0:0:
448,192,36428,1,0,0:0:0:0:
192,192,36488,1,0,0:0:0:0:
320,192,36547,1,0,0:0:0:0:
64,192,36666,1,0,0:0:0:0:
192,192,36666,1,0,0:0:0:0:
64,192,36785,1,0,0:0:0:0:
320,192,36785,1,0,0:0:0:0:
448,192,36785,1,0,0:0:0:0:
192,192,36904,1,0,0:0:0:0:
320,192,36964,1,0,0:0:0:0:
448,192,37023,1,0,0:0:0:0:
320,192,37142,1,0,0:0:0:0:
192,192,37261,1,0,0:0:0:0:
320,192,37261,1,0,0:0:0:0:
64,192,37381,1,0,0:0:0:0:
320,192,37441,1,0,0:0:0:0:
192,192,37500,1,0,0:0:0:0:
64,192,37619,1,0,0:0:0:0:
320,192,37619,1,0,0:0:0:0:
192,192,37738,1,0,0:0:0:0:
448,192,37738,1,0,0:0:0:0:
320,192,37798,1,0,0:0:0:0:
64,192,37857,1,0,0:0:0:0:
192,192,37857,1,0,0:0:0:0:
192,192,37976,1,0,0:0:0:0:
320,192,37976,1,0,0:0:0:0:
320,192,38095,1,0,0:0:0:0:
192,192,38214,1,0,0:0:0:0:
320,192,38214,1,0,0:0:0:0:
64,192,38333,1,0,0:0:0:0:
320,192,38393,1,0,0:0:0:0:
192,192,38452,1,0,0:0:0:0:
192,192,38571,1,0,0:0:0:0:
320,192,38571,1,0,0:0:0:0:
192,192,38690,1,0,0:0:0:0:
320,192,38690,1,0,0:0:0:0:
64,192,38809,1,0,0:0:0:0:
448,192,38809,1,0,0:0:0:0:
320,192,38869,1,0,0:0:0:0:
192,192,38928,1,0,0:0:0:0:
448,192,38928,1,0,0:0:0:0:
320,192,39047,1,0,0:0:0:0:
192,192,39166,1,0,0:0:0:0:
320,192,39166,1,0,0:0:0:0:
64,192,39285,1,0,0:0:0:0:
320,192,39345,1,0,0:0:0:0:
192,192,39404,1,0,0:0:0:0:
64,192,39523,1,0,0:0:0:0:
320,192,39523,1,0,0:0:0:0:
192,192,39642,1,0,0:0:0:0:
448,192,39642,1,0,0:0:0:0:
320,192,39702,1,0,0:0:0:0:
64,192,39761,1,0,0:0:0:0:
192,192,39761,1,0,0:0:0:0:
192,192,39881,1,0,0:0:0:0:
320,192,39881,1,0,0:0:0:0:
320,192,40000,1,0,0:0:0:0:
192,192,40119,1,0,0:0:0:0:
320,192,40119,1,0,0:0:0:0:
64,192,40238,1,0,0:0:0:0:
320,192,40298,1,0,0:0:0:0:
192,192,40357,1,0,0:0:0:0:
64,192,40476,1,0,0:0:0:0:
192,192,40476,1,0,0:0:0:0:
320,192,40536,1,0,0:0:0:0:
64,192,40595,1,0,0:0:0:0:
448,192,40595,1,0,0:0:0:0:
192,192,40655,1,0,0:0:0:0:
448,192,40714,1,0,0:0:0:0:
192,192,40774,1,0,0:0:0:0:
64,192,40833,1,0,0:0:0:0:
192,192,40952,1,0,0:0:0:0:
320,192,40952,1,0,0:0:0:0:
64,192,41071,1,0,0:0:0:0:
448,192,41071,1,0,0:0:0:0:
320,192,41190,1,0,0:0:0:0:
64,192,41309,1,0,0:0:0:0:
320,192,41428,1,0,0:0:0:0:
64,192,41547,1,0,0:0:0:0:
448,192,41547,1,0,0:0:0:0:
64,192,41666,1,0,0:0:0:0:
64,192,41785,1,0,0:0:0:0:
320,192,41785,1,0,0:0:0:0:
192,192,41904,1,0,0:0:0:0:
320,192,41904,1,0,0:0:0:0:
64,192,42023,1,0,0:0:0:0:
448,192,42023,1,0,0:0:0:0:
320,192,42142,1,0,0:0:0:0:
64,192,42261,1,0,0:0:0:0:
64,192,42381,1,0,0:0:0:0:
64,192,42500,1,0,0:0:0:0:
448,192,42500,1,0,0:0:0:0:
320,192,42619,1,0,0:0:0:0:
64,192,42738,1,0,0:0:0:0:
192,192,42857,1,0,0:0:0:0:
320,192,42857,1,0,0:0:0:0:
64,192,42976,1,0,0:0:0:0:
448,192,42976,1,0,0:0:0:0:
320,192,43095,1,0,0:0:0:0:
64,192,43214,1,0,0:0:0:0:
320,192,43333,1,0,0:0:0:0:
64,192,43452,1,0,0:0:0:0:
448,192,43452,1,0,0:0:0:0:
64,192,43571,1,0,0:0:0:0:
64,192,43690,1,0,0:0:0:0:
320,192,43690,1,0,0:0:0:0:
192,192,43809,1,0,0:0:0:0:
320,192,43809,1,0,0:0:0:0:
64,192,43928,1,0,0:0:0:0:
448,192,43928,1,0,0:0:0:0:
192,192,44047,1,0,0:0:0:0:
64,192,44107,1,0,0:0:0:0:
320,192,44166,1,0,0:0:0:0:
64,192,44285,1,0,0:0:0:0:
64,192,44404,1,0,0:0:0:0:
192,192,44404,1,0,0:0:0:0:
448,192,44404,1,0,0:0:0:0:
320,192,44464,1,0,0:0:0:0:
192,192,44523,1,0,0:0:0:0:
320,192,44583,1,0,0:0:0:0:
64,192,44642,1,0,0:0:0:0:
192,192,44761,1,0,0:0:0:0:
448,192,44761,1,0,0:0:0:0:
64,192,44881,1,0,0:0:0:0:
320,192,44881,1,0,0:0:0:0:
448,192,45000,1,0,0:0:0:0:
64,192,45119,1,0,0:0:0:0:
448,192,45238,1,0,0:0:0:0:
64,192,45357,1,0,0:0:0:0:
320,192,45357,1,0,0:0:0:0:
64,192,45476,1,0,0:0:0:0:
64,192,45595,1,0,0:0:0:0:
448,192,45595,1,0,0:0:0:0:
192,192,45714,1,0,0:0:0:0:
448,192,45714,1,0,0:0:0:0:
64,192,45833,1,0,0:0:0:0:
320,192,45833,1,0,0:0:0:0:
448,192,45952,1,0,0:0:0:0:
64,192,46071,1,0,0:0:0:0:
64,192,46190,1,0,0:0:0:0:
64,192,46309,1,0,0:0:0:0:
320,192,46309,1,0,0:0:0:0:
192,192,46428,1,0,0:0:0:0:
64,192,46547,1,0,0:0:0:0:
192,192,46666,1,0,0:0:0:0:
448,192,46666,1,0,0:0:0:0:
64,192,46785,1,0,0:0:0:0:
320,192,46785,1,0,0:0:0:0:
192,192,46904,1,0,0:0:0:0:
64,192,47023,1,0,0:0:0:0:
192,192,47142,1,0,0:0:0:0:
64,192,47261,1,0,0:0:0:0:
320,192,47261,1,0,0:0:0:0:
64,192,47381,1,0,0:0:0:0:
64,192,47500,1,0,0:0:0:0:
448,192,47500,1,0,0:0:0:0:
192,192,47619,1,0,0:0:0:0:
448,192,47619,1,0,0:0:0:0:
64,192,47738,1,0,0:0:0:0:
320,192,47738,1,0,0:0:0:0:
448,192,47857,1,0,0:0:0:0:
64,192,47917,1,0,0:0:0:0:
192,192,47976,1,0,0:0:0:0:
64,192,48095,1,0,0:0:0:0:
320,192,48155,1,0,0:0:0:0:
64,192,48214,1,0,0:0:0:0:
448,192,48214,1,0,0:0:0:0:
192,192,48274,1,0,0:0:0:0:
448,192,48333,1,0,0:0:0:0:
192,192,48393,1,0,0:0:0:0:
320,192,48452,1,0,0:0:0:0:
64,192,48571,1,0,0:0:0:0:
448,192,48571,1,0,0:0:0:0:
192,192,48690,1,0,0:0:0:0:
320,192,48690,1,0,0:0:0:0:
64,192,48809,1,0,0:0:0:0:
320,192,48928,1,0,0:0:0:0:
64,192,49047,1,0,0:0:0:0:
192,192,49166,1,0,0:0:0:0:
320,192,49166,1,0,0:0:0:0:
320,192,49285,1,0,0:0:0:0:
64,192,49404,1,0,0:0:0:0:
320,192,49404,1,0,0:0:0:0:
64,192,49523,1,0,0:0:0:0:
448,192,49523,1,0,0:0:0:0:
192,192,49642,1,0,0:0:0:0:
320,192,49642,1,0,0:0:0:0:
64,192,49761,1,0,0:0:0:0:
320,192,49881,1,0,0:0:0:0:
320,192,50000,1,0,0:0:0:0:
192,192,50119,1,0,0:0:0:0:
320,192,50119,1,0,0:0:0:0:
64,192,50238,1,0,0:0:0:0:
320,192,50357,1,0,0:0:0:0:
64,192,50476,1,0,0:0:0:0:
448,192,50476,1,0,0:0:0:0:
192,192,50595,1,0,0:0:0:0:
320,192,50595,1,0,0:0:0:0:
64,192,50714,1,0,0:0:0:0:
320,192,50833,1,0,0:0:0:0:
64,192,50952,1,0,0:0:0:0:
192,192,51071,1,0,0:0:0:0:
320,192,51071,1,0,0:0:0:0:
320,192,51190,1,0,0:0:0:0:
64,192,51309,1,0,0:0:0:0:
320,192,51309,1,0,0:0:0:0:
64,192,51428,1,0,0:0:0:0:
448,192,51428,1,0,0:0:0:0:
192,192,51547,1,0,0:0:0:0:
320,192,51547,1,0,0:0:0:0:
64,192,51666,1,0,0:0:0:0:
320,192,51726,1,0,0:0:0:0:
448,192,51785,1,0,0:0:0:0:
320,192,51904,1,0,0:0:0:0:
64,192,52023,1,0,0:0:0:0:
192,192,52023,1,0,0:0:0:0:
320,192,52023,1,0,0:0:0:0:
448,192,52083,1,0,0:0:0:0:
64,192,52142,1,0,0:0:0:0:
448,192,52202,1,0,0:0:0:0:
320,192,52261,1,0,0:0:0:0:
192,192,52381,1,0,0:0:0:0:
448,192,52381,1,0,0:0:0:0:
64,192,52500,1,0,0:0:0:0:
320,192,52500,1,0,0:0:0:0:
192,192,52619,1,0,0:0:0:0:
320,192,52738,1,0,0:0:0:0:
192,192,52857,1,0,0:0:0:0:
64,192,52976,1,0,0:0:0:0:
320,192,52976,1,0,0:0:0:0:
320,192,53095,1,0,0:0:0:0:
192,192,53214,1,0,0:0:0:0:
320,192,53214,1,0,0:0:0:0:
192,192,53333,1,0,0:0:0:0:
448,192,53333,1,0,0:0:0:0:
64,192,53452,1,0,0:0:0:0:
320,192,53452,1,0,0:0:0:0:
192,192,53571,1,0,0:0:0:0:
320,192,53690,1,0,0:0:0:0:
320,192,53809,1,0,0:0:0:0:
64,192,53928,1,0,0:0:0:0:
320,192,53928,1,0,0:0:0:0:
448,192,54047,1,0,0:0:0:0:
320,192,54166,1,0,0:0:0:0:
192,192,54285,1,0,0:0:0:0:
448,192,54285,1,0,0:0:0:0:
64,192,54404,1,0,0:0:0:0:
320,192,54404,1,0,0:0:0:0:
448,192,54523,1,0,0:0:0:0:
320,192,54642,1,0,0:0:0:0:
192,192,54761,1,0,0:0:0:0:
64,192,54881,1,0,0:0:0:0:
320,192,54881,1,0,0:0:0:0:
320,192,55000,1,0,0:0:0:0:
192,192,55119,1,0,0:0:0:0:
320,192,55119,1,0,0:0:0:0:
192,192,55238,1,0,0:0:0:0:
448,192,55238,1,0,0:0:0:0:
64,192,55357,1,0,0:0:0:0:
320,192,55357,1,0,0:0:0:0:
192,192,55476,1,0,0:0:0:0:
320,192,55536,1,0,0:0:0:0:
448,192,55595,1,0,0:0:0:0:
320,192,55714,1,0,0:0:0:0:
192,192,55774,1,0,0:0:0:0:
64,192,55833,1,0,0:0:0:0:
448,192,55833,1,0,0:0:0:0:
320,192,55893,1,0,0:0:0:0:
64,192,55952,1,0,0:0:0:0:
320,192,56012,1,0,0:0:0:0:
192,192,56071,1,0,0:0:0:0:
64,192,56190,1,0,0:0:0:0:
448,192,56190,1,0,0:0:0:0:
192,192,56309,1,0,0:0:0:0:
320,192,56309,1,0,0:0:0:0:
448,192,56428,1,0,0:0:0:0:
64,192,56547,1,0,0:0:0:0:
192,192,56547,1,0,0:0:0:0:
320,192,56666,1,0,0:0:0:0:
448,192,56666,1,0,0:0:0:0:
192,192,56785,1,0,0:0:0:0:
320,192,56785,1,0,0:0:0:0:
192,192,56904,1,0,0:0:0:0:
192,192,57023,1,0,0:0:0:0:
448,192,57023,1,0,0:0:0:0:
448,192,57142,1,0,0:0:0:0:
64,192,57142,1,0,0:0:0:0:
192,192,57261,1,0,0:0:0:0:
320,192,57261,1,0,0:0:0:0:
448,192,57381,1,0,0:0:0:0:
192,192,57500,1,0,0:0:0:0:
192,192,57619,1,0,0:0:0:0:
192,192,57738,1,0,0:0:0:0:
320,192,57738,1,0,0:0:0:0:
448,192,57857,1,0,0:0:0:0:
192,192,57976,1,0,0:0:0:0:
64,192,58095,1,0,0:0:0:0:
448,192,58095,1,0,0:0:0:0:
192,192,58214,1,0,0:0:0:0:
320,192,58214,1,0,0:0:0:0:
448,192,58333,1,0,0:0:0:0:
192,192,58452,1,0,0:0:0:0:
448,192,58571,1,0,0:0:0:0:
192,192,58690,1,0,0:0:0:0:
320,192,58690,1,0,0:0:0:0:
192,192,58809,1,0,0:0:0:0:
192,192,58928,1,0,0:0:0:0:
448,192,58928,1,0,0:0:0:0:
448,192,59047,1,0,0:0:0:0:
64,192,59047,1,0,0:0:0:0:
192,192,59166,1,0,0:0:0:0:
320,192,59166,1,0,0:0:0:0:
448,192,59285,1,0,0:0:0:0:
192,192,59345,1,0,0:0:0:0:
64,192,59404,1,0,0:0:0:0:
192,192,59523,1,0,0:0:0:0:
192,192,59642,1,0,0:0:0:0:
320,192,59642,1,0,0:0:0:0:
448,192,59642,1,0,0:0:0:0:
64,192,59702,1,0,0:0:0:0:
448,192,59761,1,0,0:0:0:0:
64,192,59821,1,0,0:0:0:0:
192,192,59881,1,0,0:0:0:0:
64,192,60000,1,0,0:0:0:0:
320,192,60000,1,0,0:0:0:0:
192,192,60119,1,0,0:0:0:0:
448,192,60119,1,0,0:0:0:0:
64,192,60238,1,0,0:0:0:0:
192,192,60357,1,0,0:0:0:0:
320,192,60357,1,0,0:0:0:0:
64,192,60476,1,0,0:0:0:0:
448,192,60476,1,0,0:0:0:0:
192,192,60595,1,0,0:0:0:0:
448,192,60595,1,0,0:0:0:0:
192,192,60714,1,0,0:0:0:0:
192,192,60833,1,0,0:0:0:0:
320,192,60833,1,0,0:0:0:0:
64,192,60952,1,0,0:0:0:0:
320,192,60952,1,0,0:0:0:0:
192,192,61071,1,0,0:0:0:0:
448,192,61071,1,0,0:0:0:0:
320,192,61190,1,0,0:0:0:0:
192,192,61309,1,0,0:0:0:0:
192,192,61428,1,0,0:0:0:0:
192,192,61547,1,0,0:0:0:0:
448,192,61547,1,0,0:0:0:0:
64,192,61666,1,0,0:0:0:0:
192,192,61785,1,0,0:0:0:0:
64,192,61904,1,0,0:0:0:0:
320,192,61904,1,0,0:0:0:0:
192,192,62023,1,0,0:0:0:0:
448,192,62023,1,0,0:0:0:0:
64,192,62142,1,0,0:0:0:0:
192,192,62261,1,0,0:0:0:0:
320,192,62381,1,0,0:0:0:0:
192,192,62500,1,0,0:0:0:0:
448,192,62500,1,0,0:0:0:0:
192,192,62619,1,0,0:0:0:0:
192,192,62738,1,0,0:0:0:0:
320,192,62738,1,0,0:0:0:0:
64,192,62857,1,0,0:0:0:0:
320,192,62857,1,0,0:0:0:0:
192,192,62976,1,0,0:0:0:0:
448,192,62976,1,0,0:0:0:0:
320,192,63095,1,0,0:0:0:0:
192,192,63155,1,0,0:0:0:0:
64,192,63214,1,0,0:0:0:0:
320,192,63333,1,0,0:0:0:0:
64,192,63393,1,0,0:0:0:0:
192,192,63452,1,0,0:0:0:0:
448,192,63452,1,0,0:0:0:0:
320,192,63512,1,0,0:0:0:0:
192,192,63571,1,0,0:0:0:0:
320,192,63631,1,0,0:0:0:0:
448,192,63690,1,0,0:0:0:0:
192,192,63809,1,0,0:0:0:0:
320,192,63809,1,0,0:0:0:0:
64,192,63928,1,0,0:0:0:0:
448,192,63928,1,0,0:0:0:0:
320,192,64047,1,0,0:0:0:0:
192,192,64166,1,0,0:0:0:0:
448,192,64166,1,0,0:0:0:0:
64,192,64285,1,0,0:0:0:0:
192,192,64285,1,0,0:0:0:0:
64,192,64404,1,0,0:0:0:0:
448,192,64404,1,0,0:0:0:0:
448,192,64523,1,0,0:0:0:0:
192,192,64642,1,0,0:0:0:0:
448,192,64642,1,0,0:0:0:0:
192,192,64761,1,0,0:0:0:0:
320,192,64761,1,0,0:0:0:0:
64,192,64881,1,0,0:0:0:0:
448,192,64881,1,0,0:0:0:0:
192,192,65000,1,0,0:0:0:0:
448,192,65119,1,0,0:0:0:0:
448,192,65238,1,0,0:0:0:0:
64,192,65357,1,0,0:0:0:0:
448,192,65357,1,0,0:0:0:0:
192,192,65476,1,0,0:0:0:0:
448,192,65595,1,0,0:0:0:0:
192,192,65714,1,0,0:0:0:0:
320,192,65714,1,0,0:0:0:0:
64,192,65833,1,0,0:0:0:0:
448,192,65833,1,0,0:0:0:0:
192,192,65952,1,0,0:0:0:0:
448,192,66071,1,0,0:0:0:0:
192,192,66190,1,0,0:0:0:0:
64,192,66309,1,0,0:0:0:0:
448,192,66309,1,0,0:0:0:0:
448,192,66428,1,0,0:0:0:0:
192,192,66547,1,0,0:0:0:0:
448,192,66547,1,0,0:0:0:0:
192,192,66666,1,0,0:0:0:0:
320,192,66666,1,0,0:0:0:0:
64,192,66785,1,0,0:0:0:0:
448,192,66785,1,0,0:0:0:0:
192,192,66904,1,0,0:0:0:0:
448,192,66964,1,0,0:0:0:0:
320,192,67023,1,0,0:0:0:0:
448,192,67142,1,0,0:0:0:0:
64,192,67261,1,0,0:0:0:0:
320,192,67261,1,0,0:0:0:0:
448,192,67261,1,0,0:0:0:0:
192,192,67321,1,0,0:0:0:0:
320,192,67381,1,0,0:0:0:0:
192,192,67441,1,0,0:0:0:0:
448,192,67500,1,0,0:0:0:0:
64,192,67619,1,0,0:0:0:0:
320,192,67619,1,0,0:0:0:0:
192,192,67738,1,0,0:0:0:0:
448,192,67738,1,0,0:0:0:0:
320,192,67857,1,0,0:0:0:0:
64,192,67976,1,0,0:0:0:0:
448,192,67976,1,0,0:0:0:0:
192,192,68095,1,0,0:0:0:0:
320,192,68095,1,0,0:0:0:0:
192,192,68214,1,0,0:0:0:0:
448,192,68214,1,0,0:0:0:0:
448,192,68333,1,0,0:0:0:0:
64,192,68452,1,0,0:0:0:0:
448,192,68452,1,0,0:0:0:0:
64,192,68571,1,0,0:0:0:0:
320,192,68571,1,0,0:0:0:0:
192,192,68690,1,0,0:0:0:0:
448,192,68690,1,0,0:0:0:0:
64,192,68809,1,0,0:0:0:0:
448,192,68928,1,0,0:0:0:0:
448,192,69047,1,0,0:0:0:0:
192,192,69166,1,0,0:0:0:0:
448,192,69166,1,0,0:0:0:0:
320,192,69285,1,0,0:0:0:0:
448,192,69404,1,0,0:0:0:0:
64,192,69523,1,0,0:0:0:0:
320,192,69523,1,0,0:0:0:0:
192,192,69642,1,0,0:0:0:0:
448,192,69642,1,0,0:0:0:0:
320,192,69761,1,0,0:0:0:0:
448,192,69881,1,0,0:0:0:0:
64,192,70000,1,0,0:0:0:0:
192,192,70119,1,0,0:0:0:0:
448,192,70119,1,0,0:0:0:0:
448,192,70238,1,0,0:0:0:0:
64,192,70357,1,0,0:0:0:0:
448,192,70357,1,0,0:0:0:0:
64,192,70476,1,0,0:0:0:0:
320,192,70476,1,0,0:0:0:0:
192,192,70595,1,0,0:0:0:0:
448,192,70595,1,0,0:0:0:0:
64,192,70714,1,0,0:0:0:0:
448,192,70774,1,0,0:0:0:0:
320,192,70833,1,0,0:0:0:0:
448,192,70952,1,0,0:0:0:0:
64,192,71071,1,0,0:0:0:0:
192,192,71071,1,0,0:0:0:0:
448,192,71131,1,0,0:0:0:0:
320,192,71190,1,0,0:0:0:0:
448,192,71309,1,0,0:0:0:0:
64,192,71428,1,0,0:0:0:0:
192,192,71428,1,0,0:0:0:0:
448,192,71488,1,0,0:0:0:0:
320,192,71547,1,0,0:0:0:0:
448,192,71666,1,0,0:0:0:0:
64,192,71785,1,0,0:0:0:0:
192,192,71785,1,0,0:0:0:0:
448,192,71845,1,0,0:0:0:0:
320,192,71904,1,0,0:0:0:0:
448,192,72023,1,0,0:0:0:0:
64,192,72142,1,0,0:0:0:0:
192,192,72142,1,0,0:0:0:0:
448,192,72202,1,0,0:0:0:0:
320,192,72261,1,0,0:0:0:0:
448,192,72381,1,0,0:0:0:0:
64,192,72500,1,0,0:0:0:0:
192,192,72500,1,0,0:0:0:0:
448,192,72560,1,0,0:0:0:0:
320,192,72619,1,0,0:0:0:0:
448,192,72738,1,0,0:0:0:0:
192,192,72857,1,0,0:0:0:0:
64,192,72976,1,0,0:0:0:0:
320,192,72976,1,0,0:0:0:0:
448,192,72976,1,0,0:0:0:0:
192,192,73036,1,0,0:0:0:0:
320,192,73095,1,0,0:0:0:0:
192,192,73155,1,0,0:0:0:0:
64,192,73214,1,0,0:0:0:0:
448,192,73274,1,0,0:0:0:0:
192,192,73333,1,0,0:0:0:0:
320,192,73333,1,0,0:0:0:0:
64,192,73393,1,0,0:0:0:0:
448,192,73452,1,0,0:0:0:0:
64,192,73512,1,0,0:0:0:0:
192,192,73571,1,0,0:0:0:0:
320,192,73571,1,0,0:0:0:0:
448,192,73631,1,0,0:0:0:0:
320,192,73690,1,0,0:0:0:0:
192,192,73750,1,0,0:0:0:0:
448,192,73809,1,0,0:0:0:0:
64,192,73869,1,0,0:0:0:0:
192,192,73928,1,0,0:0:0:0:
320,192,73928,1,0,0:0:0:0:
448,192,73988,1,0,0:0:0:0:
192,192,74047,1,0,0:0:0:0:
320,192,74107,1,0,0:0:0:0:
192,192,74166,1,0,0:0:0:0:
448,192,74226,1,0,0:0:0:0:
320,192,74285,1,0,0:0:0:0:
192,192,74345,1,0,0:0:0:0:
64,192,74404,1,0,0:0:0:0:
448,192,74404,1,0,0:0:0:0:
320,192,74464,1,0,0:0:0:0:
64,192,74523,1,0,0:0:0:0:
448,192,74583,1,0,0:0:0:0:
192,192,74642,1,0,0:0:0:0:
64,192,74702,1,0,0:0:0:0:
448,192,74761,1,0,0:0:0:0:
320,192,74821,1,0,0:0:0:0:
64,192,74881,1,0,0:0:0:0:
192,192,74881,1,0,0:0:0:0:
448,192,74941,1,0,0:0:0:0:
192,192,75000,1,0,0:0:0:0:
320,192,75060,1,0,0:0:0:0:
448,192,75119,1,0,0:0:0:0:
64,192,75179,1,0,0:0:0:0:
192,192,75238,1,0,0:0:0:0:
320,192,75238,1,0,0:0:0:0:
448,192,75298,1,0,0:0:0:0:
64,192,75357,1,0,0:0:0:0:
448,192,75417,1,0,0:0:0:0:
192,192,75476,1,0,0:0:0:0:
320,192,75476,1,0,0:0:0:0:
64,192,75536,1,0,0:0:0:0:
192,192,75595,1,0,0:0:0:0:
320,192,75655,1,0,0:0:0:0:
64,192,75714,1,0,0:0:0:0:
448,192,75774,1,0,0:0:0:0:
192,192,75833,1,0,0:0:0:0:
320,192,75833,1,0,0:0:0:0:
64,192,75893,1,0,0:0:0:0:
320,192,75952,1,0,0:0:0:0:
192,192,76012,1,0,0:0:0:0:
320,192,76071,1,0,0:0:0:0:
64,192,76131,1,0,0:0:0:0:
192,192,76190,1,0,0:0:0:0:
320,192,76250,1,0,0:0:0:0:
64,192,76309,1,0,0:0:0:0:
448,192,76309,1,0,0:0:0:0:
192,192,76369,1,0,0:0:0:0:
448,192,76428,1,0,0:0:0:0:
64,192,76488,1,0,0:0:0:0:
320,192,76547,1,0,0:0:0:0:
448,192,76607,1,0,0:0:0:0:
192,192,76666,1,0,0:0:0:0:
64,192,76726,1,0,0:0:0:0:
320,192,76785,1,0,0:0:0:0:
448,192,76785,1,0,0:0:0:0:
192,192,76845,1,0,0:0:0:0:
448,192,76904,1,0,0:0:0:0:
192,192,76964,1,0,0:0:0:0:
64,192,77023,1,0,0:0:0:0:
320,192,77083,1,0,0:0:0:0:
192,192,77142,1,0,0:0:0:0:
448,192,77142,1,0,0:0:0:0:
64,192,77202,1,0,0:0:0:0:
320,192,77261,1,0,0:0:0:0:
64,192,77321,1,0,0:0:0:0:
192,192,77381,1,0,0:0:0:0:
448,192,77381,1,0,0:0:0:0:
320,192,77441,1,0,0:0:0:0:
448,192,77500,1,0,0:0:0:0:
192,192,77560,1,0,0:0:0:0:
320,192,77619,1,0,0:0:0:0:
64,192,77679,1,0,0:0:0:0:
192,192,77738,1,0,0:0:0:0:
448,192,77738,1,0,0:0:0:0:
320,192,77798,1,0,0:0:0:0:
192,192,77857,1,0,0:0:0:0:
448,192,77917,1,0,0:0:0:0:
192,192,77976,1,0,0:0:0:0:
320,192,78036,1,0,0:0:0:0:
448,192,78095,1,0,0:0:0:0:
192,192,78155,1,0,0:0:0:0:
64,192,78214,1,0,0:0:0:0:
320,192,78214,1,0,0:0:0:0:
448,192,78274,1,0,0:0:0:0:
64,192,78333,1,0,0:0:0:0:
320,192,78393,1,0,0:0:0:0:
192,192,78452,1,0,0:0:0:0:
64,192,78512,1,0,0:0:0:0:
448,192,78571,1,0,0:0:0:0:
320,192,78631,1,0,0:0:0:0:
64,192,78690,1,0,0:0:0:0:
192,192,78690,1,0,0:0:0:0:
448,192,78750,1,0,0:0:0:0:
64,192,78809,1,0,0:0:0:0:
320,192,78869,1,0,0:0:0:0:
448,192,78928,1,0,0:0:0:0:
192,192,78988,1,0,0:0:0:0:
64,192,79047,1,0,0:0:0:0:
320,192,79047,1,0,0:0:0:0:
448,192,79107,1,0,0:0:0:0:
192,192,79166,1,0,0:0:0:0:
448,192,79226,1,0,0:0:0:0:
64,192,79285,1,0,0:0:0:0:
320,192,79285,1,0,0:0:0:0:
192,192,79345,1,0,0:0:0:0:
64,192,79404,1,0,0:0:0:0:
320,192,79464,1,0,0:0:0:0:
192,192,79523,1,0,0:0:0:0:
448,192,79583,1,0,0:0:0:0:
64,192,79642,1,0,0:0:0:0:
320,192,79642,1,0,0:0:0:0:
192,192,79702,1,0,0:0:0:0:
320,192,79761,1,0,0:0:0:0:
64,192,79821,1,0,0:0:0:0:
320,192,79881,1,0,0:0:0:0:
192,192,79941,1,0,0:0:0:0:
64,192,80000,1,0,0:0:0:0:
320,192,80060,1,0,0:0:0:0:
192,192,80119,1,0,0:0:0:0:
448,192,80119,1,0,0:0:0:0:
64,192,80179,1,0,0:0:0:0:
448,192,80238,1,0,0:0:0:0:
192,192,80298,1,0,0:0:0:0:
320,192,80357,1,0,0:0:0:0:
448,192,80417,1,0,0:0:0:0:
64,192,80476,1,0,0:0:0:0:
192,192,80476,1,0,0:0:0:0:
320,192,80536,1,0,0:0:0:0:
448,192,80536,1,0,0:0:0:0:
64,192,80595,1,0,0:0:0:0:
192,192,80595,1,0,0:0:0:0:
320,192,80655,1,0,0:0:0:0:
192,192,80714,1,0,0:0:0:0:
320,192,80774,1,0,0:0:0:0:
448,192,80833,1,0,0:0:0:0:
192,192,80893,1,0,0:0:0:0:
64,192,80952,1,0,0:0:0:0:
448,192,80952,1,0,0:0:0:0:
320,192,81012,1,0,0:0:0:0:
192,192,81071,1,0,0:0:0:0:
320,192,81131,1,0,0:0:0:0:
64,192,81190,1,0,0:0:0:0:
448,192,81190,1,0,0:0:0:0:
192,192,81250,1,0,0:0:0:0:
64,192,81309,1,0,0:0:0:0:
448,192,81369,1,0,0:0:0:0:
192,192,81428,1,0,0:0:0:0:
320,192,81488,1,0,0:0:0:0:
64,192,81547,1,0,0:0:0:0:
448,192,81547,1,0,0:0:0:0:
192,192,81607,1,0,0:0:0:0:
448,192,81666,1,0,0:0:0:0:
64,192,81726,1,0,0:0:0:0:
448,192,81785,1,0,0:0:0:0:
192,192,81845,1,0,0:0:0:0:
64,192,81904,1,0,0:0:0:0:
448,192,81964,1,0,0:0:0:0:
192,192,82023,1,0,0:0:0:0:
320,192,82023,1,0,0:0:0:0:
64,192,82083,1,0,0:0:0:0:
320,192,82142,1,0,0:0:0:0:
192,192,82202,1,0,0:0:0:0:
448,192,82261,1,0,0:0:0:0:
320,192,82321,1,0,0:0:0:0:
192,192,82381,1,0,0:0:0:0:
64,192,82441,1,0,0:0:0:0:
320,192,82500,1,0,0:0:0:0:
448,192,82500,1,0,0:0:0:0:
192,192,82560,1,0,0:0:0:0:
320,192,82619,1,0,0:0:0:0:
64,192,82679,1,0,0:0:0:0:
192,192,82738,1,0,0:0:0:0:
320,192,82798,1,0,0:0:0:0:
64,192,82857,1,0,0:0:0:0:
448,192,82857,1,0,0:0:0:0:
192,192,82917,1,0,0:0:0:0:
320,192,82976,1,0,0:0:0:0:
192,192,83036,1,0,0:0:0:0:
64,192,83095,1,0,0:0:0:0:
448,192,83095,1,0,0:0:0:0:
320,192,83155,1,0,0:0:0:0:
448,192,83214,1,0,0:0:0:0:
64,192,83274,1,0,0:0:0:0:
320,192,83333,1,0,0:0:0:0:
192,192,83393,1,0,0:0:0:0:
64,192,83452,1,0,0:0:0:0:
448,192,83452,1,0,0:0:0:0:
320,192,83512,1,0,0:0:0:0:
64,192,83571,1,0,0:0:0:0:
448,192,83631,1,0,0:0:0:0:
64,192,83690,1,0,0:0:0:0:
320,192,83750,1,0,0:0:0:0:
448,192,83809,1,0,0:0:0:0:
64,192,83869,1,0,0:0:0:0:
192,192,83928,1,0,0:0:0:0:
320,192,83928,1,0,0:0:0:0:
448,192,83988,1,0,0:0:0:0:
192,192,84047,1,0,0:0:0:0:
320,192,84107,1,0,0:0:0:0:
64,192,84166,1,0,0:0:0:0:
192,192,84226,1,0,0:0:0:0:
320,192,84285,1,0,0:0:0:0:
448,192,84345,1,0,0:0:0:0:
64,192,84404,1,0,0:0:0:0:
192,192,84404,1,0,0:0:0:0:
320,192,84464,1,0,0:0:0:0:
192,192,84523,1,0,0:0:0:0:
320,192,84583,1,0,0:0:0:0:
448,192,84642,1,0,0:0:0:0:
64,192,84702,1,0,0:0:0:0:
192,192,84761,1,0,0:0:0:0:
320,192,84761,1,0,0:0:0:0:
448,192,84821,1,0,0:0:0:0:
64,192,84881,1,0,0:0:0:0:
448,192,84941,1,0,0:0:0:0:
192,192,85000,1,0,0:0:0:0:
320,192,85000,1,0,0:0:0:0:
64,192,85060,1,0,0:0:0:0:
192,192,85119,1,0,0:0:0:0:
320,192,85179,1,0,0:0:0:0:
64,192,85238,1,0,0:0:0:0:
448,192,85298,1,0,0:0:0:0:
192,192,85357,1,0,0:0:0:0:
320,192,85357,1,0,0:0:0:0:
64,192,85417,1,0,0:0:0:0:
320,192,85476,1,0,0:0:0:0:
192,192,85536,1,0,0:0:0:0:
320,192,85595,1,0,0:0:0:0:
64,192,85655,1,0,0:0:0:0:
192,192,85714,1,0,0:0:0:0:
320,192,85774,1,0,0:0:0:0:
64,192,85833,1,0,0:0:0:0:
448,192,85833,1,0,0:0:0:0:
192,192,85893,1,0,0:0:0:0:
448,192,85952,1,0,0:0:0:0:
64,192,86012,1,0,0:0:0:0:
192,192,86071,1,0,0:0:0:0:
320,192,86131,1,0,0:0:0:0:
64,192,86190,1,0,0:0:0:0:
192,192,86250,1,0,0:0:0:0:
320,192,86309,1,0,0:0:0:0:
448,192,86309,1,0,0:0:0:0:
64,192,86369,1,0,0:0:0:0:
320,192,86428,1,0,0:0:0:0:
192,192,86488,1,0,0:0:0:0:
64,192,86547,1,0,0:0:0:0:
448,192,86607,1,0,0:0:0:0:
192,192,86666,1,0,0:0:0:0:
320,192,86666,1,0,0:0:0:0:
64,192,86726,1,0,0:0:0:0:
448,192,86785,1,0,0:0:0:0:
64,192,86845,1,0,0:0:0:0:
192,192,86904,1,0,0:0:0:0:
320,192,86904,1,0,0:0:0:0:
448,192,86964,1,0,0:0:0:0:
320,192,87023,1,0,0:0:0:0:
192,192,87083,1,0,0:0:0:0:
448,192,87142,1,0,0:0:0:0:
64,192,87202,1,0,0:0:0:0:
192,192,87261,1,0,0:0:0:0:
320,192,87261,1,0,0:0:0:0:
448,192,87321,1,0,0:0:0:0:
192,192,87381,1,0,0:0:0:0:
320,192,87441,1,0,0:0:0:0:
192,192,87500,1,0,0:0:0:0:
448,192,87560,1,0,0:0:0:0:
320,192,87619,1,0,0:0:0:0:
192,192,87679,1,0,0:0:0:0:
64,192,87738,1,0,0:0:0:0:
448,192,87738,1,0,0:0:0:0:
320,192,87798,1,0,0:0:0:0:
64,192,87857,1,0,0:0:0:0:
448,192,87917,1,0,0:0:0:0:
192,192,87976,1,0,0:0:0:0:
64,192,88036,1,0,0:0:0:0:
320,192,88095,1,0,0:0:0:0:
448,192,88095,1,0,0:0:0:0:
64,192,88155,1,0,0:0:0:0:
192,192,88155,1,0,0:0:0:0:
320,192,88214,1,0,0:0:0:0:
448,192,88214,1,0,0:0:0:0:
192,192,88274,1,0,0:0:0:0:
448,192,88333,1,0,0:0:0:0:
64,192,88393,1,0,0:0:0:0:
192,192,88452,1,0,0:0:0:0:
320,192,88452,1,0,0:0:0:0:
192,192,88571,1,0,0:0:0:0:
448,192,88571,1,0,0:0:0:0:
64,192,88690,1,0,0:0:0:0:
192,192,88809,1,0,0:0:0:0:
320,192,88809,1,0,0:0:0:0:
64,192,88928,1,0,0:0:0:0:
448,192,88928,1,0,0:0:0:0:
64,192,89047,1,0,0:0:0:0:
192,192,89047,1,0,0:0:0:0:
192,192,89166,1,0,0:0:0:0:
320,192,89166,1,0,0:0:0:0:
448,192,89285,1,0,0:0:0:0:
192,192,89345,1,0,0:0:0:0:
64,192,89404,1,0,0:0:0:0:
320,192,89404,1,0,0:0:0:0:
448,192,89464,1,0,0:0:0:0:
64,192,89523,1,0,0:0:0:0:
192,192,89523,1,0,0:0:0:0:
320,192,89642,1,0,0:0:0:0:
448,192,89642,1,0,0:0:0:0:
448,192,89761,1,0,0:0:0:0:
64,192,89881,1,0,0:0:0:0:
192,192,89881,1,0,0:0:0:0:
320,192,89941,1,0,0:0:0:0:
64,192,90000,1,0,0:0:0:0:
448,192,90000,1,0,0:0:0:0:
192,192,90119,1,0,0:0:0:0:
320,192,90119,1,0,0:0:0:0:
448,192,90238,1,0,0:0:0:0:
64,192,90357,1,0,0:0:0:0:
320,192,90357,1,0,0:0:0:0:
192,192,90476,1,0,0:0:0:0:
320,192,90476,1,0,0:0:0:0:
64,192,90595,1,0,0:0:0:0:
192,192,90714,1,0,0:0:0:0:
320,192,90714,1,0,0:0:0:0:
64,192,90833,1,0,0:0:0:0:
448,192,90833,1,0,0:0:0:0:
64,192,90952,1,0,0:0:0:0:
192,192,90952,1,0,0:0:0:0:
192,192,91071,1,0,0:0:0:0:
320,192,91071,1,0,0:0:0:0:
448,192,91190,1,0,0:0:0:0:
192,192,91250,1,0,0:0:0:0:
64,192,91309,1,0,0:0:0:0:
320,192,91309,1,0,0:0:0:0:
448,192,91369,1,0,0:0:0:0:
64,192,91428,1,0,0:0:0:0:
192,192,91428,1,0,0:0:0:0:
320,192,91547,1,0,0:0:0:0:
448,192,91547,1,0,0:0:0:0:
448,192,91666,1,0,0:0:0:0:
64,192,91785,1,0,0:0:0:0:
192,192,91785,1,0,0:0:0:0:
320,192,91845,1,0,0:0:0:0:
192,192,91904,1,0,0:0:0:0:
448,192,91904,1,0,0:0:0:0:
64,192,92023,1,0,0:0:0:0:
448,192,92023,1,0,0:0:0:0:
320,192,92083,1,0,0:0:0:0:
64,192,92142,1,0,0:0:0:0:
320,192,92202,1,0,0:0:0:0:
192,192,92261,1,0,0:0:0:0:
448,192,92261,1,0,0:0:0:0:
64,192,92381,1,0,0:0:0:0:
448,192,92381,1,0,0:0:0:0:
192,192,92500,1,0,0:0:0:0:
64,192,92619,1,0,0:0:0:0:
448,192,92619,1,0,0:0:0:0:
192,192,92738,1,0,0:0:0:0:
320,192,92738,1,0,0:0:0:0:
64,192,92857,1,0,0:0:0:0:
320,192,92857,1,0,0:0:0:0:
64,192,92976,1,0,0:0:0:0:
448,192,92976,1,0,0:0:0:0:
320,192,93095,1,0,0:0:0:0:
64,192,93155,1,0,0:0:0:0:
192,192,93214,1,0,0:0:0:0:
448,192,93214,1,0,0:0:0:0:
320,192,93274,1,0,0:0:0:0:
64,192,93333,1,0,0:0:0:0:
192,192,93333,1,0,0:0:0:0:
320,192,93452,1,0,0:0:0:0:
448,192,93452,1,0,0:0:0:0:
192,192,93571,1,0,0:0:0:0:
320,192,93690,1,0,0:0:0:0:
448,192,93690,1,0,0:0:0:0:
192,192,93750,1,0,0:0:0:0:
64,192,93809,1,0,0:0:0:0:
320,192,93809,1,0,0:0:0:0:
64,192,93928,1,0,0:0:0:0:
448,192,93928,1,0,0:0:0:0:
320,192,94047,1,0,0:0:0:0:
192,192,94166,1,0,0:0:0:0:
448,192,94166,1,0,0:0:0:0:
64,192,94285,1,0,0:0:0:0:
448,192,94285,1,0,0:0:0:0:
192,192,94404,1,0,0:0:0:0:
64,192,94523,1,0,0:0:0:0:
448,192,94523,1,0,0:0:0:0:
192,192,94642,1,0,0:0:0:0:
320,192,94642,1,0,0:0:0:0:
64,192,94761,1,0,0:0:0:0:
192,192,94761,1,0,0:0:0:0:
64,192,94881,1,0,0:0:0:0:
448,192,94881,1,0,0:0:0:0:
320,192,95000,1,0,0:0:0:0:
64,192,95060,1,0,0:0:0:0:
192,192,95119,1,0,0:0:0:0:
448,192,95119,1,0,0:0:0:0:
320,192,95179,1,0,0:0:0:0:
64,192,95238,1,0,0:0:0:0:
192,192,95238,1,0,0:0:0:0:
320,192,95357,1,0,0:0:0:0:
448,192,95357,1,0,0:0:0:0:
192,192,95476,1,0,0:0:0:0:
64,192,95595,1,0,0:0:0:0:
448,192,95595,1,0,0:0:0:0:
320,192,95655,1,0,0:0:0:0:
192,192,95714,1,0,0:0:0:0:
448,192,95714,1,0,0:0:0:0:
64,192,95774,1,0,0:0:0:0:
192,192,95833,1,0,0:0:0:0:
320,192,95833,1,0,0:0:0:0:
448,192,95893,1,0,0:0:0:0:
192,192,95952,1,0,0:0:0:0:
448,192,96012,1,0,0:0:0:0:
64,192,96071,1,0,0:0:0:0:
320,192,96071,1,0,0:0:0:0:
64,192,96190,1,0,0:0:0:0:
192,192,96190,1,0,0:0:0:0:
320,192,96309,1,0,0:0:0:0:
64,192,96428,1,0,0:0:0:0:
192,192,96428,1,0,0:0:0:0:
320,192,96547,1,0,0:0:0:0:
448,192,96547,1,0,0:0:0:0:
192,192,96666,1,0,0:0:0:0:
320,192,96666,1,0,0:0:0:0:
64,192,96785,1,0,0:0:0:0:
192,192,96785,1,0,0:0:0:0:
320,192,96904,1,0,0:0:0:0:
64,192,96964,1,0,0:0:0:0:
192,192,97023,1,0,0:0:0:0:
448,192,97023,1,0,0:0:0:0:
320,192,97083,1,0,0:0:0:0:
64,192,97142,1,0,0:0:0:0:
192,192,97142,1,0,0:0:0:0:
320,192,97261,1,0,0:0:0:0:
448,192,97261,1,0,0:0:0:0:
192,192,97381,1,0,0:0:0:0:
64,192,97500,1,0,0:0:0:0:
448,192,97500,1,0,0:0:0:0:
320,192,97560,1,0,0:0:0:0:
64,192,97619,1,0,0:0:0:0:
192,192,97619,1,0,0:0:0:0:
320,192,97738,1,0,0:0:0:0:
448,192,97738,1,0,0:0:0:0:
192,192,97857,1,0,0:0:0:0:
64,192,97976,1,0,0:0:0:0:
320,192,97976,1,0,0:0:0:0:
320,192,98095,1,0,0:0:0:0:
448,192,98095,1,0,0:0:0:0:
64,192,98214,1,0,0:0:0:0:
320,192,98333,1,0,0:0:0:0:
448,192,98333,1,0,0:0:0:0:
64,192,98452,1,0,0:0:0:0:
320,192,98452,1,0,0:0:0:0:
64,192,98571,1,0,0:0:0:0:
192,192,98571,1,0,0:0:0:0:
320,192,98690,1,0,0:0:0:0:
448,192,98690,1,0,0:0:0:0:
64,192,98809,1,0,0:0:0:0:
192,192,98928,1,0,0:0:0:0:
448,192,98928,1,0,0:0:0:0:
320,192,98988,1,0,0:0:0:0:
64,192,99047,1,0,0:0:0:0:
448,192,99047,1,0,0:0:0:0:
64,192,99166,1,0,0:0:0:0:
192,192,99166,1,0,0:0:0:0:
320,192,99285,1,0,0:0:0:0:
64,192,99404,1,0,0:0:0:0:
448,192,99404,1,0,0:0:0:0:
320,192,99464,1,0,0:0:0:0:
192,192,99523,1,0,0:0:0:0:
320,192,99642,1,0,0:0:0:0:
448,192,99642,1,0,0:0:0:0:
64,192,99702,1,0,0:0:0:0:
320,192,99761,1,0,0:0:0:0:
64,192,99821,1,0,0:0:0:0:
192,192,99881,1,0,0:0:0:0:
448,192,99881,1,0,0:0:0:0:
320,192,100000,1,0,0:0:0:0:
192,192,100119,1,0,0:0:0:0:
192,192,100357,1,0,0:0:0:0:
448,192,100357,1,0,0:0:0:0:
320,192,100476,1,0,0:0:0:0:
192,192,100595,1,0,0:0:0:0:
192,192,100714,1,0,0:0:0:0:
192,192,100833,1,0,0:0:0:0:
448,192,100833,1,0,0:0:0:0:
320,192,100952,1,0,0:0:0:0:
448,192,100952,1,0,0:0:0:0:
192,192,101071,1,0,0:0:0:0:
192,192,101309,1,0,0:0:0:0:
448,192,101309,1,0,0:0:0:0:
64,192,101428,1,0,0:0:0:0:
192,192,101428,1,0,0:0:0:0:
192,192,101547,1,0,0:0:0:0:
320,192,101547,1,0,0:0:0:0:
64,192,101785,1,0,0:0:0:0:
320,192,101785,1,0,0:0:0:0:
192,192,101904,1,0,0:0:0:0:
320,192,102023,1,0,0:0:0:0:
64,192,102261,1,0,0:0:0:0:
320,192,102261,1,0,0:0:0:0:
192,192,102381,1,0,0:0:0:0:
320,192,102500,1,0,0:0:0:0:
320,192,102619,1,0,0:0:0:0:
64,192,102738,1,0,0:0:0:0:
320,192,102738,1,0,0:0:0:0:
64,192,102857,1,0,0:0:0:0:
192,192,102857,1,0,0:0:0:0:
320,192,102976,1,0,0:0:0:0:
320,192,103155,1,0,0:0:0:0:
64,192,103214,1,0,0:0:0:0:
192,192,103333,1,0,0:0:0:0:
320,192,103333,1,0,0:0:0:0:
448,192,103393,1,0,0:0:0:0:
64,192,103452,1,0,0:0:0:0:
320,192,103452,1,0,0:0:0:0:
192,192,103571,1,0,0:0:0:0:
320,192,103690,1,0,0:0:0:0:
192,192,103928,1,0,0:0:0:0:
320,192,104047,1,0,0:0:0:0:
192,192,104166,1,0,0:0:0:0:
320,192,104404,1,0,0:0:0:0:
192,192,104523,1,0,0:0:0:0:
320,192,104642,1,0,0:0:0:0:
192,192,104881,1,0,0:0:0:0:
320,192,105000,1,0,0:0:0:0:
192,192,105119,1,0,0:0:0:0:
320,192,105357,1,0,0:0:0:0:
192,192,105476,1,0,0:0:0:0:
320,192,105595,1,0,0:0:0:0:
192,192,105833,1,0,0:0:0:0:
320,192,105952,1,0,0:0:0:0:
192,192,106071,1,0,0:0:0:0:
320,192,106309,1,0,0:0:0:0:
192,192,106428,1,0,0:0:0:0:
320,192,106547,1,0,0:0:0:0:
192,192,106785,1,0,0:0:0:0:
320,192,106904,1,0,0:0:0:0:
192,192,107023,1,0,0:0:0:0:
320,192,107261,1,0,0:0:0:0:
192,192,107381,1,0,0:0:0:0:
320,192,107500,1,0,0:0:0:0:
192,192,107738,1,0,0:0:0:0:
448,192,107738,1,0,0:0:0:0:
64,192,107857,1,0,0:0:0:0:
448,192,107917,1,0,0:0:0:0:
192,192,107976,1,0,0:0:0:0:
448,192,108095,1,0,0:0:0:0:
64,192,108214,1,0,0:0:0:0:
448,192,108274,1,0,0:0:0:0:
192,192,108333,1,0,0:0:0:0:
64,192,108452,1,0,0:0:0:0:
448,192,108452,1,0,0:0:0:0:
320,192,108571,1,0,0:0:0:0:
192,192,108690,1,0,0:0:0:0:
448,192,108690,1,0,0:0:0:0:
64,192,108809,1,0,0:0:0:0:
448,192,108869,1,0,0:0:0:0:
192,192,108928,1,0,0:0:0:0:
320,192,109047,1,0,0:0:0:0:
64,192,109166,1,0,0:0:0:0:
448,192,109166,1,0,0:0:0:0:
192,192,109285,1,0,0:0:0:0:
448,192,109345,1,0,0:0:0:0:
64,192,109404,1,0,0:0:0:0:
320,192,109523,1,0,0:0:0:0:
192,192,109642,1,0,0:0:0:0:
448,192,109642,1,0,0:0:0:0:
64,192,109761,1,0,0:0:0:0:
448,192,109821,1,0,0:0:0:0:
192,192,109881,1,0,0:0:0:0:
448,192,110000,1,0,0:0:0:0:
64,192,110119,1,0,0:0:0:0:
448,192,110179,1,0,0:0:0:0:
192,192,110238,1,0,0:0:0:0:
64,192,110357,1,0,0:0:0:0:
448,192,110357,1,0,0:0:0:0:
320,192,110476,1,0,0:0:0:0:
192,192,110595,1,0,0:0:0:0:
448,192,110595,1,0,0:0:0:0:
64,192,110714,1,0,0:0:0:0:
448,192,110774,1,0,0:0:0:0:
192,192,110833,1,0,0:0:0:0:
448,192,110952,1,0,0:0:0:0:
320,192,111012,1,0,0:0:0:0:
64,192,111071,1,0,0:0:0:0:
448,192,111071,1,0,0:0:0:0:
