osu file format v14

[General]
AudioFilename: audio.mp3
AudioLeadIn: 0
PreviewTime: 117049
Countdown: 0
SampleSet: Soft
StackLeniency: 0
Mode: 0
LetterboxInBreaks: 0
WidescreenStoryboard: 0

[Editor]
Bookmarks: 37940,54666,67010,97537,117049,130685,137503,151139,170788,182109,221746,230802,315092,330526,345960,358500
DistanceSpacing: 0.9
BeatDivisor: 12
GridSize: 8
TimelineZoom: 5.499997

[Metadata]
Title:of Ambrosia
TitleUnicode:of Ambrosia
Artist:Frums
ArtistUnicode:Frums
Creator:Reywateil
Version:Disorder
Source:osu!
Tags:osu!catch catch World Cup 2021 electronic instrumental breakcore jazz fa featured artist mg mappers' guild
BeatmapID:3367757
BeatmapSetID:1649965

[Difficulty]
HPDrainRate:5
CircleSize:4.5
OverallDifficulty:9
ApproachRate:9.8
SliderMultiplier:2.4
SliderTickRate:0.5

[Events]
//Background and Video events
0,0,"ambrosia.png",0,0
//Break Periods
2,33362,34137
2,153858,157841
2,168724,169885
2,254717,258748
//Storyboard Layer 0 (Background)
//Storyboard Layer 1 (Fail)
//Storyboard Layer 2 (Pass)
//Storyboard Layer 3 (Foreground)
//Storyboard Layer 4 (Overlay)
//Storyboard Sound Samples

[TimingPoints]
-18,265.486725663717,5,2,1,70,1,0
10601,265.486725663717,4,2,1,70,1,0
10601,-71.4285714285714,4,2,1,70,0,0
11264,-250,4,2,1,70,0,0
11463,-250,4,2,2,5,0,0
11530,-71.4285714285714,4,2,1,70,0,0
11729,-71.4285714285714,4,2,2,5,0,0
11795,-71.4285714285714,4,2,1,70,0,0
12658,-71.4285714285714,4,2,2,5,0,0
12724,-71.4285714285714,4,2,1,70,0,0
13388,-250,4,2,1,70,0,0
13587,-250,4,2,2,5,0,0
13654,-71.4285714285714,4,2,1,70,0,0
13985,-71.4285714285714,4,2,2,5,0,0
14051,-71.4285714285714,4,2,1,70,0,0
14450,-71.4285714285714,4,2,2,5,0,0
14516,-71.4285714285714,4,2,1,70,0,0
14649,-71.4285714285714,4,2,2,5,0,0
14715,-71.4285714285714,4,2,1,70,0,0
15313,-71.4285714285714,4,2,2,5,0,0
15379,-71.4285714285714,4,2,1,70,0,0
18831,-250,4,2,1,70,0,0
19030,-250,4,2,2,5,0,0
19096,-71.4285714285714,4,2,1,70,0,0
19760,-250,4,2,1,70,0,0
19959,-71.4285714285714,4,2,1,70,0,0
20623,-71.4285714285714,4,2,2,5,0,0
20689,-71.4285714285714,4,2,1,70,0,0
23808,-71.4285714285714,4,2,2,5,0,0
23874,-71.4285714285714,4,2,1,70,0,0
24207,-71.4285714285714,4,2,2,5,0,0
24273,-71.4285714285714,4,2,1,70,0,0
26596,-71.4285714285714,4,2,2,5,0,0
26662,-71.4285714285714,4,2,1,70,0,0
28454,-71.4285714285714,4,2,2,5,0,0
28520,-71.4285714285714,4,2,1,70,0,0
28720,-71.4285714285714,4,2,2,5,0,0
28786,-71.4285714285714,4,2,1,70,0,0
29671,-71.4285714285714,4,2,2,5,0,0
29716,-71.4285714285714,4,2,1,70,0,0
29848,-71.4285714285714,4,2,2,5,0,0
29893,-71.4285714285714,4,2,1,70,0,0
30446,-71.4285714285714,4,2,2,5,0,0
30512,-71.4285714285714,4,2,1,70,0,0
30844,-71.4285714285714,4,2,2,5,0,0
30910,-71.4285714285714,4,2,1,70,0,0
31375,-71.4285714285714,4,2,2,5,0,0
31441,-71.4285714285714,4,2,1,70,0,0
31835,265.486725663717,5,2,1,70,1,0
31835,-125,5,2,1,70,0,0
31967,-125,5,2,2,65,0,0
32100,-125,5,2,1,60,0,0
32233,-125,5,2,2,55,0,0
32365,-125,5,2,1,50,0,0
32498,-125,5,2,2,45,0,0
32631,-125,5,2,1,40,0,0
32764,-125,5,2,2,35,0,0
32896,-125,5,2,1,30,0,0
33029,-125,5,2,2,25,0,0
33162,-125,5,2,1,20,0,0
35817,265.486725663717,4,2,1,10,1,0
35817,-200,4,2,1,10,0,0
35883,-200,4,2,1,12,0,0
35949,-200,4,2,1,14,0,0
36016,-200,4,2,1,16,0,0
36082,-200,4,2,1,18,0,0
36148,-200,4,2,1,20,0,0
36215,-200,4,2,1,22,0,0
36281,-200,4,2,1,24,0,0
36347,-200,4,2,1,26,0,0
36414,-200,4,2,1,28,0,0
36480,-200,4,2,1,30,0,0
36547,-200,4,2,1,32,0,0
36613,-200,4,2,1,34,0,0
36679,-200,4,2,1,36,0,0
36746,-200,4,2,1,38,0,0
36812,-200,4,2,1,40,0,0
36878,-200,4,2,1,42,0,0
36945,-200,4,2,1,44,0,0
37011,-200,4,2,1,46,0,0
37078,-200,4,2,1,48,0,0
37144,-200,4,2,1,50,0,0
37210,-200,4,2,1,52,0,0
37277,-200,4,2,1,54,0,0
37343,-200,4,2,1,56,0,0
37409,-200,4,2,1,58,0,0
37476,-200,4,2,1,60,0,0
37542,-200,4,2,1,70,0,0
37940,-125,4,2,1,60,0,0
54865,-125,4,2,2,5,0,0
54932,-125,4,2,1,60,0,0
55263,-125,4,2,2,5,0,0
55330,-125,4,2,1,60,0,0
55529,-125,4,2,2,5,0,0
55596,-125,4,2,1,60,0,0
55927,-125,4,2,2,5,0,0
55994,-125,4,2,1,60,0,0
56060,-125,4,2,2,5,0,0
56127,-125,4,2,1,60,0,0
56325,-125,4,2,2,5,0,0
56392,-125,4,2,1,60,0,0
56591,-125,4,2,2,5,0,0
56658,-125,4,2,1,60,0,0
56989,-125,4,2,2,5,0,0
57056,-125,4,2,1,60,0,0
57122,-125,4,2,2,5,0,0
57189,-125,4,2,1,60,0,0
57387,-125,4,2,2,5,0,0
57454,-125,4,2,1,60,0,0
57653,-125,4,2,2,5,0,0
57720,-125,4,2,1,60,0,0
57918,-125,4,2,2,5,0,0
57985,-125,4,2,1,60,0,0
58184,-125,4,2,2,5,0,0
58251,-125,4,2,1,60,0,0
58317,-125,4,2,2,5,0,0
58384,-125,4,2,1,60,0,0
58449,-125,4,2,2,5,0,0
58516,-125,4,2,1,60,0,0
58715,-125,4,2,2,5,0,0
58782,-125,4,2,1,60,0,0
58847,-125,4,2,2,5,0,0
58914,-125,4,2,1,60,0,0
59113,-125,4,2,2,5,0,0
59180,-125,4,2,1,60,0,0
59246,-125,4,2,2,5,0,0
59313,-125,4,2,1,60,0,0
59511,-125,4,2,2,5,0,0
59578,-125,4,2,1,60,0,0
59777,-125,4,2,2,5,0,0
59844,-125,4,2,1,60,0,0
60175,-125,4,2,2,5,0,0
60242,-125,4,2,1,60,0,0
60308,-125,4,2,2,5,0,0
60375,-125,4,2,1,60,0,0
60573,-125,4,2,2,5,0,0
60640,-125,4,2,1,60,0,0
60839,-125,4,2,2,5,0,0
60906,-125,4,2,1,60,0,0
61237,-125,4,2,2,5,0,0
61304,-125,4,2,1,60,0,0
61370,-125,4,2,2,5,0,0
61437,-125,4,2,1,60,0,0
61635,-125,4,2,2,5,0,0
61702,-125,4,2,1,60,0,0
61901,-125,4,2,2,5,0,0
61968,-125,4,2,1,60,0,0
62166,-125,4,2,2,5,0,0
62233,-125,4,2,1,60,0,0
62432,-125,4,2,2,5,0,0
62499,-125,4,2,1,60,0,0
62697,-125,4,2,2,5,0,0
62764,-125,4,2,1,60,0,0
62830,-125,4,2,2,5,0,0
62897,-125,4,2,1,60,0,0
62963,-125,4,2,2,5,0,0
63030,-125,4,2,1,60,0,0
63228,-125,4,2,2,5,0,0
63295,-125,4,2,1,60,0,0
63493,-125,4,2,2,5,0,0
63560,-125,4,2,1,60,0,0
63759,-125,4,2,2,5,0,0
63826,-125,4,2,1,60,0,0
63892,-125,4,2,2,5,0,0
63959,-125,4,2,1,60,0,0
64157,-125,4,2,2,5,0,0
64224,-125,4,2,1,60,0,0
64423,-125,4,2,2,5,0,0
64490,-125,4,2,1,60,0,0
64688,-125,4,2,2,5,0,0
64755,-66.6666666666667,4,2,1,60,0,0
64821,-66.6666666666667,4,2,2,5,0,0
64887,272.727272727273,4,2,1,60,1,0
64887,-66.6666666666667,4,2,1,60,0,0
64955,-66.6666666666667,4,2,2,5,0,0
65023,280.373831775701,4,2,1,60,1,0
65023,-66.6666666666667,4,2,1,60,0,0
65093,-66.6666666666667,4,2,2,5,0,0
65163,288.461538461538,4,2,1,60,1,0
65163,-71.4285714285714,4,2,1,60,0,0
65235,-71.4285714285714,4,2,2,5,0,0
65307,297.029702970297,4,2,1,60,1,0
65307,-71.4285714285714,4,2,1,60,0,0
65381,-71.4285714285714,4,2,2,5,0,0
65455,306.122448979592,4,2,1,60,1,0
65455,-76.9230769230769,4,2,1,60,0,0
65531,-76.9230769230769,4,2,2,5,0,0
65608,315.789473684211,4,2,1,60,1,0
65608,-83.3333333333333,4,2,1,60,0,0
65686,-83.3333333333333,4,2,2,5,0,0
65765,326.086956521739,4,2,1,60,1,0
65765,-90.9090909090909,4,2,1,60,0,0
65846,-90.9090909090909,4,2,2,5,0,0
65928,337.078651685393,4,2,1,60,1,0
66012,-100,4,2,2,5,0,0
66054,348.837209302326,4,2,1,60,1,0
66054,-111.111111111111,4,2,1,60,0,0
66141,-111.111111111111,4,2,2,5,0,0
66184,361.44578313253,4,2,1,60,1,0
66184,-125,4,2,1,60,0,0
66274,-125,4,2,2,5,0,0
66319,375,4,2,1,60,1,0
66319,-71.4285714285714,4,2,1,60,0,0
66412,-71.4285714285714,4,2,2,5,0,0
66459,389.61038961039,4,2,1,60,1,0
66459,-62.5,4,2,1,60,0,0
66556,-62.5,4,2,2,5,0,0
66605,405.405405405405,4,2,1,60,1,0
66605,-55.5555555555556,4,2,1,60,0,0
66706,-55.5555555555556,4,2,2,5,0,0
66807,-55.5555555555556,4,2,1,60,0,0
67011,265.486725663717,4,2,1,60,1,0
67011,-166.666666666667,4,2,1,60,0,0
67143,-166.666666666667,4,2,2,58,0,0
67276,-166.666666666667,4,2,1,56,0,0
67409,-166.666666666667,4,2,2,54,0,0
67541,-166.666666666667,4,2,1,52,0,0
67674,-166.666666666667,4,2,2,50,0,0
67807,-166.666666666667,4,2,1,48,0,0
67940,-166.666666666667,4,2,2,46,0,0
68072,-166.666666666667,4,2,1,44,0,0
68205,-166.666666666667,4,2,2,42,0,0
68338,-166.666666666667,4,2,1,40,0,0
68471,-166.666666666667,4,2,2,38,0,0
68603,-166.666666666667,4,2,1,36,0,0
68736,-166.666666666667,4,2,2,34,0,0
68869,-166.666666666667,4,2,1,32,0,0
69002,-166.666666666667,4,2,2,30,0,0
69134,-166.666666666667,4,2,1,29,0,0
69267,-166.666666666667,4,2,2,28,0,0
69400,-166.666666666667,4,2,1,27,0,0
69533,-166.666666666667,4,2,2,26,0,0
69665,-166.666666666667,4,2,1,25,0,0
69798,-166.666666666667,4,2,2,24,0,0
69931,-166.666666666667,4,2,1,23,0,0
70064,-166.666666666667,4,2,2,22,0,0
70196,-166.666666666667,4,2,1,20,0,0
70199,530.973451327434,4,2,1,20,1,0
72056,530.973451327434,4,2,3,55,1,0
72586,526.315789473684,4,2,3,55,1,0
73113,521.739130434783,4,2,3,55,1,0
73634,517.241379310345,4,2,3,55,1,0
74152,512.820512820513,4,2,3,55,1,0
74472,-100,4,2,2,5,0,0
74536,-100,4,2,3,55,0,0
74664,508.474576271186,4,2,3,55,1,0
75173,504.201680672269,4,2,3,55,1,0
75677,500,4,2,3,55,1,0
75677,-76.9230769230769,4,2,3,55,0,0
76178,495.867768595041,4,2,3,55,1,0
76178,-71.4285714285714,4,2,3,55,0,0
76487,-71.4285714285714,4,2,2,5,0,0
76549,-71.4285714285714,4,2,3,55,0,0
76673,491.803278688525,4,2,3,55,1,0
77165,487.80487804878,4,2,3,55,1,0
77165,-66.6666666666667,4,2,3,55,0,0
77408,-62.5,4,2,3,55,0,0
77653,483.870967741935,4,2,3,55,1,0
78137,480,4,2,3,55,1,0
78617,476.190476190476,4,2,3,55,1,0
78617,-62.5,4,2,3,55,0,0
79094,472.44094488189,4,2,3,55,1,0
79330,-100,4,2,3,60,0,0
79566,468.75,4,2,3,60,1,0
79566,-58.8235294117647,4,2,3,60,0,0
79858,-58.8235294117647,4,2,2,5,0,0
79917,-58.8235294117647,4,2,3,60,0,0
80035,465.116279069768,4,2,3,60,1,0
80500,461.538461538462,4,2,3,60,1,0
80500,-58.8235294117647,4,2,3,60,0,0
80962,458.015267175573,4,2,3,60,1,0
80962,-58.8235294117647,4,2,3,60,0,0
81420,454.545454545455,4,2,3,60,1,0
81420,-58.8235294117647,4,2,3,60,0,0
81875,451.127819548872,4,2,3,60,1,0
82326,447.761194029851,4,2,3,60,1,0
82326,-62.5,4,2,3,60,0,0
82605,-62.5,4,2,2,5,0,0
82661,-62.5,4,2,3,60,0,0
82774,444.444444444445,4,2,3,60,1,0
82774,-62.5,4,2,3,60,0,0
83051,-62.5,4,2,2,5,0,0
83107,-62.5,4,2,3,60,0,0
83218,441.176470588235,4,2,3,60,1,0
83660,437.956204379562,4,2,3,60,1,0
83660,-62.5,4,2,3,60,0,0
84097,434.782608695652,4,2,3,60,1,0
84532,431.654676258993,4,2,3,60,1,0
84532,-66.6666666666667,4,2,3,60,0,0
84963,428.571428571429,4,2,3,60,1,0
84963,-66.6666666666667,4,2,3,60,0,0
85392,425.531914893617,4,2,3,60,1,0
85392,-66.6666666666667,4,2,3,65,0,0
85817,422.535211267606,4,2,3,65,1,0
85817,-66.6666666666667,4,2,3,65,0,0
86081,-66.6666666666667,4,2,2,5,0,0
86133,-66.6666666666667,4,2,3,65,0,0
86240,419.58041958042,4,2,3,65,1,0
86659,416.666666666667,4,2,3,65,1,0
87076,413.793103448276,4,2,3,65,1,0
87076,-66.6666666666667,4,2,3,65,0,0
87489,410.958904109589,4,2,3,65,1,0
87489,-66.6666666666667,4,2,3,65,0,0
87900,408.163265306123,4,2,3,65,1,0
87900,-66.6666666666667,4,2,3,65,0,0
88308,405.405405405406,4,2,3,65,1,0
88308,-71.4285714285714,4,2,3,65,0,0
88561,-71.4285714285714,4,2,2,5,0,0
88612,-71.4285714285714,4,2,3,65,0,0
88714,402.68456375839,4,2,3,65,1,0
88714,-71.4285714285714,4,2,3,65,0,0
88965,-71.4285714285714,4,2,2,5,0,0
89016,-71.4285714285714,4,2,3,65,0,0
89116,400,4,2,3,65,1,0
89517,397.350993377484,4,2,3,65,1,0
89517,-71.4285714285714,4,2,3,65,0,0
89914,394.736842105264,4,2,3,65,1,0
90309,392.156862745098,4,2,3,65,1,0
90309,-71.4285714285714,4,2,3,65,0,0
90701,389.61038961039,4,2,3,65,1,0
90701,-71.4285714285714,4,2,3,65,0,0
91091,387.096774193549,4,2,3,65,1,0
91091,-71.4285714285714,4,2,3,65,0,0
91478,384.615384615385,4,2,3,65,1,0
91478,-71.4285714285714,4,2,3,65,0,0
91718,-71.4285714285714,4,2,2,5,0,0
91766,-71.4285714285714,4,2,3,65,0,0
91863,382.165605095542,4,2,3,65,1,0
92245,379.746835443038,4,2,3,65,1,0
92245,-71.4285714285714,4,2,3,65,0,0
92625,377.358490566038,4,2,3,65,1,0
93002,375,4,2,3,65,1,0
93002,-71.4285714285714,4,2,3,65,0,0
93378,372.670807453417,4,2,3,65,1,0
93378,-71.4285714285714,4,2,3,65,0,0
93750,370.370370370371,4,2,3,65,1,0
93750,-76.9230769230769,4,2,3,70,0,0
94121,368.098159509203,4,2,3,70,1,0
94121,-76.9230769230769,4,2,3,70,0,0
94351,-76.9230769230769,4,2,2,5,0,0
94397,-76.9230769230769,4,2,3,70,0,0
94489,365.853658536586,4,2,3,70,1,0
94855,363.636363636364,4,2,3,70,1,0
95218,361.44578313253,4,2,3,70,1,0
95218,-76.9230769230769,4,2,3,70,0,0
95580,359.281437125749,4,2,3,70,1,0
95939,357.142857142857,4,2,3,70,1,0
96295,355.029585798817,4,2,1,70,1,0
96295,-62.5,4,2,1,70,0,0
96472,-62.5,4,2,2,5,0,0
96561,-58.8235294117647,4,2,1,70,0,0
96738,-58.8235294117647,4,2,2,5,0,0
96827,-55.5555555555556,4,2,1,70,0,0
97005,-55.5555555555556,4,2,2,5,0,0
97093,-50,4,2,1,70,0,0
97537,355.029585798817,4,2,1,80,1,0
97537,-41.6666666666667,4,2,1,80,0,0
97803,-41.6666666666667,4,2,2,5,0,0
97892,-41.6666666666667,4,2,1,80,0,0
98779,355.029585798817,4,2,1,80,1,0
98779,-41.6666666666667,4,2,1,80,0,0
99045,-41.6666666666667,4,2,2,5,0,0
99134,-58.8235294117647,4,2,1,80,0,0
100021,355.029585798817,4,2,1,80,1,0
100021,-41.6666666666667,4,2,1,80,0,0
100287,-41.6666666666667,4,2,2,5,0,0
100376,-58.8235294117647,4,2,1,80,0,0
101264,355.029585798817,4,2,1,80,1,0
101264,-41.6666666666667,4,2,1,80,0,0
101530,-41.6666666666667,4,2,2,5,0,0
101619,-58.8235294117647,4,2,1,80,0,0
102506,355.029585798817,4,2,1,80,1,0
102506,-41.6666666666667,4,2,1,80,0,0
102772,-41.6666666666667,4,2,2,5,0,0
102861,-58.8235294117647,4,2,1,80,0,0
103749,355.029585798817,4,2,1,80,1,0
103749,-41.6666666666667,4,2,1,80,0,0
104015,-41.6666666666667,4,2,2,5,0,0
104104,-58.8235294117647,4,2,1,80,0,0
104992,355.029585798817,4,2,1,80,1,0
104992,-41.6666666666667,4,2,1,80,0,0
105258,-41.6666666666667,4,2,2,5,0,0
105347,-58.8235294117647,4,2,1,80,0,0
106234,355.029585798817,4,2,1,80,1,0
106234,-41.6666666666667,4,2,1,80,0,0
106500,-41.6666666666667,4,2,2,5,0,0
106589,-52.6315789473684,4,2,1,80,0,0
107121,-50,4,2,1,80,0,0
107387,-41.6666666666667,4,2,2,5,0,0
107477,355.029585798817,4,2,1,80,1,0
107477,-41.6666666666667,4,2,1,80,0,0
107536,-41.6666666666667,4,2,2,5,0,0
107595,-41.6666666666667,4,2,1,80,0,0
107654,-41.6666666666667,4,2,2,5,0,0
107713,-41.6666666666667,4,2,1,80,0,0
107772,-41.6666666666667,4,2,2,5,0,0
107832,352.941176470589,4,2,1,80,1,0
107964,350.877192982456,4,2,1,80,1,0
108095,348.837209302326,4,2,1,80,1,0
108225,346.820809248555,4,2,1,80,1,0
108355,344.827586206897,4,2,1,80,1,0
108484,342.857142857143,4,2,1,80,1,0
108612,340.909090909091,4,2,1,80,1,0
108697,340.909090909091,4,2,1,80,1,0
108697,-41.6666666666667,4,2,1,80,0,0
108753,-41.6666666666667,4,2,2,5,0,0
108810,-41.6666666666667,4,2,1,80,0,0
108867,-41.6666666666667,4,2,2,5,0,0
108924,-41.6666666666667,4,2,1,80,0,0
108981,-41.6666666666667,4,2,2,5,0,0
109037,-58.8235294117647,4,2,1,80,0,0
109890,340.909090909091,4,2,1,80,1,0
109890,-41.6666666666667,4,2,1,80,0,0
109946,-41.6666666666667,4,2,2,5,0,0
110003,-41.6666666666667,4,2,1,80,0,0
110060,-41.6666666666667,4,2,2,5,0,0
110117,-41.6666666666667,4,2,1,80,0,0
110174,-41.6666666666667,4,2,2,5,0,0
110230,-58.8235294117647,4,2,1,80,0,0
111083,340.909090909091,4,2,1,80,1,0
111083,-41.6666666666667,4,2,1,80,0,0
111139,-41.6666666666667,4,2,2,5,0,0
111196,-41.6666666666667,4,2,1,80,0,0
111253,-41.6666666666667,4,2,2,5,0,0
111310,-41.6666666666667,4,2,1,80,0,0
111367,-41.6666666666667,4,2,2,5,0,0
111423,-58.8235294117647,4,2,1,80,0,0
112276,340.909090909091,4,2,1,80,1,0
112276,-41.6666666666667,4,2,1,80,0,0
112332,-41.6666666666667,4,2,2,5,0,0
112389,-41.6666666666667,4,2,1,80,0,0
112446,-41.6666666666667,4,2,2,5,0,0
112503,-41.6666666666667,4,2,1,80,0,0
112560,-41.6666666666667,4,2,2,5,0,0
112616,-58.8235294117647,4,2,1,80,0,0
113469,340.909090909091,4,2,1,80,1,0
113469,-41.6666666666667,4,2,1,80,0,0
113525,-41.6666666666667,4,2,2,5,0,0
113582,-41.6666666666667,4,2,1,80,0,0
113639,-41.6666666666667,4,2,2,5,0,0
113696,-41.6666666666667,4,2,1,80,0,0
113753,-41.6666666666667,4,2,2,5,0,0
113809,-58.8235294117647,4,2,1,80,0,0
114662,340.909090909091,4,2,1,80,1,0
114662,-41.6666666666667,4,2,1,80,0,0
114718,-41.6666666666667,4,2,2,5,0,0
114775,-41.6666666666667,4,2,1,80,0,0
114832,-41.6666666666667,4,2,2,5,0,0
114889,-41.6666666666667,4,2,1,80,0,0
114946,-41.6666666666667,4,2,2,5,0,0
115002,-58.8235294117647,4,2,1,80,0,0
115856,340.909090909091,4,2,1,80,1,0
115856,-41.6666666666667,4,2,1,80,0,0
116111,-41.6666666666667,4,2,2,5,0,0
116196,-58.8235294117647,4,2,1,80,0,0
117049,340.909090909091,5,2,1,80,1,0
117049,-66.6666666666667,5,2,1,65,0,0
117304,-66.6666666666667,5,2,2,5,0,0
117389,-66.6666666666667,5,2,1,65,0,0
117560,-66.6666666666667,5,2,2,5,0,0
117645,-66.6666666666667,5,2,1,65,0,0
117816,-66.6666666666667,5,2,2,5,0,0
117901,-66.6666666666667,5,2,1,65,0,0
118540,-66.6666666666667,5,2,2,5,0,0
118583,-66.6666666666667,5,2,1,65,0,0
118881,-66.6666666666667,5,2,2,5,0,0
118924,-66.6666666666667,5,2,1,65,0,0
119264,-66.6666666666667,5,2,2,5,0,0
119349,-66.6666666666667,5,2,1,65,0,0
119520,-66.6666666666667,5,2,2,5,0,0
119605,-66.6666666666667,5,2,1,65,0,0
120713,-66.6666666666667,5,2,2,5,0,0
120798,-66.6666666666667,5,2,1,65,0,0
120969,-66.6666666666667,5,2,2,5,0,0
121054,-66.6666666666667,5,2,1,65,0,0
121225,-66.6666666666667,5,2,2,5,0,0
121310,-66.6666666666667,5,2,1,65,0,0
122162,-60.6060606060606,5,2,1,65,0,0
122418,-66.6666666666667,5,2,2,5,0,0
122503,-60.6060606060606,5,2,1,65,0,0
122674,-60.6060606060606,5,2,2,5,0,0
122759,-60.6060606060606,5,2,1,65,0,0
123867,-58.8235294117647,5,2,1,65,0,0
124122,-58.8235294117647,5,2,2,5,0,0
124208,-58.8235294117647,5,2,1,65,0,0
124378,-58.8235294117647,5,2,2,5,0,0
124464,-58.8235294117647,5,2,1,65,0,0
124634,-58.8235294117647,5,2,2,5,0,0
124720,-58.8235294117647,5,2,1,65,0,0
125358,-58.8235294117647,5,2,2,5,0,0
125401,-58.8235294117647,5,2,1,65,0,0
125699,-58.8235294117647,5,2,2,5,0,0
125742,-58.8235294117647,5,2,1,65,0,0
126083,-58.8235294117647,5,2,2,5,0,0
126169,-58.8235294117647,5,2,1,65,0,0
126338,-58.8235294117647,5,2,2,5,0,0
126424,-58.8235294117647,5,2,1,65,0,0
127276,-57.1428571428571,5,2,1,65,0,0
127531,-57.1428571428571,5,2,2,5,0,0
127617,-57.1428571428571,5,2,1,65,0,0
127787,-57.1428571428571,5,2,2,5,0,0
127873,-57.1428571428571,5,2,1,65,0,0
128043,-57.1428571428571,5,2,2,5,0,0
128129,-57.1428571428571,5,2,1,65,0,0
128980,-52.6315789473684,5,2,1,65,0,0
129151,-52.6315789473684,5,2,2,5,0,0
129236,-52.6315789473684,5,2,1,65,0,0
129492,-52.6315789473684,5,2,2,5,0,0
129577,-52.6315789473684,5,2,1,65,0,0
129747,-52.6315789473684,5,2,2,5,0,0
129833,-52.6315789473684,5,2,1,65,0,0
130685,-60.6060606060606,5,2,1,70,0,0
137503,-111.111111111111,5,2,1,70,0,0
139889,-111.111111111111,5,2,2,5,0,0
139975,-111.111111111111,5,2,1,43,0,0
143554,-111.111111111111,5,2,2,5,0,0
143639,-111.111111111111,5,2,1,46,0,0
143725,-111.111111111111,5,2,1,49,0,0
143810,-111.111111111111,5,2,1,52,0,0
143895,-111.111111111111,5,2,1,55,0,0
143980,-111.111111111111,5,2,1,58,0,0
144066,-111.111111111111,5,2,1,61,0,0
144151,-111.111111111111,5,2,1,64,0,0
144236,-111.111111111111,5,2,1,67,0,0
144321,-52.6315789473684,5,2,1,70,0,0
144492,-52.6315789473684,5,2,2,5,0,0
144577,-111.111111111111,5,2,1,70,0,0
144747,-111.111111111111,5,2,2,5,0,0
144833,-52.6315789473684,5,2,1,70,0,0
145174,-76.9230769230769,5,2,1,70,0,0
145344,-76.9230769230769,5,2,2,5,0,0
145429,-76.9230769230769,5,2,1,70,0,0
145600,-76.9230769230769,5,2,2,5,0,0
145685,-66.6666666666667,5,2,1,70,0,0
145941,-66.6666666666667,5,2,2,5,0,0
146026,-52.6315789473684,5,2,1,70,0,0
146196,-52.6315789473684,5,2,2,5,0,0
146281,-111.111111111111,5,2,1,70,0,0
146452,-111.111111111111,5,2,2,5,0,0
146537,-52.6315789473684,5,2,1,70,0,0
146878,-66.6666666666667,5,2,1,70,0,0
147049,-66.6666666666667,5,2,2,5,0,0
147134,-66.6666666666667,5,2,1,70,0,0
147389,-66.6666666666667,5,2,2,5,0,0
147475,-66.6666666666667,5,2,1,70,0,0
147730,-52.6315789473684,5,2,1,70,0,0
147901,-52.6315789473684,5,2,2,5,0,0
147986,-111.111111111111,5,2,1,70,0,0
148156,-111.111111111111,5,2,2,5,0,0
148242,-52.6315789473684,5,2,1,70,0,0
148753,-52.6315789473684,5,2,2,5,0,0
148838,-66.6666666666667,5,2,1,70,0,0
149435,-52.6315789473684,5,2,1,70,0,0
149605,-52.6315789473684,5,2,2,5,0,0
149691,-111.111111111111,5,2,1,70,0,0
149861,-111.111111111111,5,2,2,5,0,0
149946,-52.6315789473684,5,2,1,70,0,0
151139,314.96062992126,4,2,1,70,1,0
151139,-90.9090909090909,4,2,1,70,0,0
151375,-90.9090909090909,4,2,2,5,0,0
151453,-111.111111111111,4,2,1,70,0,0
151690,-111.111111111111,4,2,2,5,0,0
151768,-142.857142857143,4,2,1,62,0,0
152005,-142.857142857143,4,2,2,5,0,0
152083,-200,4,2,1,55,0,0
152320,-200,4,2,2,5,0,0
152398,-250,4,2,1,48,0,0
152635,-250,4,2,2,5,0,0
152713,-250,4,2,1,41,0,0
152950,-250,4,2,2,5,0,0
153028,-250,4,2,1,34,0,0
153264,-250,4,2,2,5,0,0
153343,-250,4,2,1,27,0,0
153579,-250,4,2,2,5,0,0
153658,297.766749379653,4,2,1,20,1,0
156040,287.081339712919,4,2,1,70,1,0
158336,283.018867924528,4,2,1,15,1,0
158336,-666.666666666667,4,2,1,15,0,0
170364,-666.666666666667,4,2,1,60,0,0
170788,-58.8235294117647,4,2,1,65,0,0
171001,-58.8235294117647,4,2,2,5,0,0
171071,-58.8235294117647,4,2,1,65,0,0
171284,-58.8235294117647,4,2,2,5,0,0
171354,-166.666666666667,4,2,1,65,0,0
171920,-76.9230769230769,4,2,1,65,0,0
172628,-76.9230769230769,4,2,2,65,0,0
172699,-76.9230769230769,4,2,1,65,0,0
172840,-76.9230769230769,4,2,2,5,0,0
172911,-76.9230769230769,4,2,1,65,0,0
172982,-76.9230769230769,4,2,2,5,0,0
173052,-58.8235294117647,4,2,1,65,0,0
173265,-58.8235294117647,4,2,2,5,0,0
173336,-58.8235294117647,4,2,1,65,0,0
173548,-58.8235294117647,4,2,2,5,0,0
173619,-166.666666666667,4,2,1,65,0,0
174302,-76.923076923077,4,2,1,65,0,0
174444,-76.923076923077,4,2,2,5,0,0
174491,-76.923076923077,4,2,1,65,0,0
175034,-76.923076923077,4,2,2,5,0,0
175087,-76.923076923077,4,2,1,65,0,0
175264,-76.923076923077,4,2,2,5,0,0
175317,-58.8235294117647,4,2,1,65,0,0
175529,-58.8235294117647,4,2,2,5,0,0
175600,-58.8235294117647,4,2,1,65,0,0
175812,-58.8235294117647,4,2,2,5,0,0
175883,-166.666666666667,4,2,1,65,0,0
177581,-58.8235294117647,4,2,1,65,0,0
177793,-58.8235294117647,4,2,2,5,0,0
177864,-58.8235294117647,4,2,1,65,0,0
178076,-58.8235294117647,4,2,2,5,0,0
178147,-58.8235294117647,4,2,1,65,0,0
178359,-58.8235294117647,4,2,2,5,0,0
178430,-58.8235294117647,4,2,1,65,0,0
178642,-58.8235294117647,4,2,2,5,0,0
178713,-58.8235294117647,4,2,1,65,0,0
178854,-58.8235294117647,4,2,2,5,0,0
178925,-58.8235294117647,4,2,1,65,0,0
179067,-58.8235294117647,4,2,2,5,0,0
179138,-58.8235294117647,4,2,1,65,0,0
179279,-58.8235294117647,4,2,2,5,0,0
179350,-58.8235294117647,4,2,1,65,0,0
179491,-58.8235294117647,4,2,2,5,0,0
179562,-35.7142857142857,4,2,1,65,0,0
179845,-58.8235294117647,4,2,1,65,0,0
180057,-58.8235294117647,4,2,2,5,0,0
180128,-58.8235294117647,4,2,1,65,0,0
180340,-58.8235294117647,4,2,2,5,0,0
180411,-76.9230769230769,4,2,1,65,0,0
180694,-66.6666666666667,4,2,1,65,0,0
180906,-66.6666666666667,4,2,2,5,0,0
180977,-66.6666666666667,4,2,1,65,0,0
181189,-66.6666666666667,4,2,2,5,0,0
181260,-66.6666666666667,4,2,1,65,0,0
181755,-66.6666666666667,4,2,2,5,0,0
181826,-66.6666666666667,4,2,1,65,0,0
182109,-90.9090909090909,4,2,1,70,0,0
182180,-90.9090909090909,4,2,2,5,0,0
182251,-90.9090909090909,4,2,1,70,0,0
182321,-90.9090909090909,4,2,2,5,0,0
182392,-83.3333333333333,4,2,1,70,0,0
182463,-83.3333333333333,4,2,2,5,0,0
182534,-83.3333333333333,4,2,1,70,0,0
182604,-83.3333333333333,4,2,2,5,0,0
182675,-76.9230769230769,4,2,1,70,0,0
182746,-76.9230769230769,4,2,2,5,0,0
182817,-76.9230769230769,4,2,1,70,0,0
182887,-76.9230769230769,4,2,2,5,0,0
182958,-71.4285714285714,4,2,1,70,0,0
183029,-71.4285714285714,4,2,2,5,0,0
183100,-71.4285714285714,4,2,1,70,0,0
183170,-71.4285714285714,4,2,2,5,0,0
183241,-66.6666666666667,4,2,1,70,0,0
183312,-66.6666666666667,4,2,2,5,0,0
183383,-66.6666666666667,4,2,1,70,0,0
183453,-66.6666666666667,4,2,2,5,0,0
183524,-62.5,4,2,1,70,0,0
183595,-62.5,4,2,2,5,0,0
183666,-62.5,4,2,1,70,0,0
183736,-62.5,4,2,2,5,0,0
183807,-58.8235294117647,4,2,1,70,0,0
183878,-58.8235294117647,4,2,2,5,0,0
183949,-58.8235294117647,4,2,1,70,0,0
184019,-58.8235294117647,4,2,2,5,0,0
184090,-55.5555555555556,4,2,1,70,0,0
184161,-55.5555555555556,4,2,2,5,0,0
184232,-66.6666666666667,4,2,1,80,0,0
185222,-200,4,2,1,80,0,0
185505,-200,4,2,2,5,0,0
185552,283.018867924528,4,2,1,80,1,0
185552,-62.5,4,2,1,80,0,0
186896,-62.5,4,2,2,5,0,0
186967,-62.5,4,2,1,80,0,0
187179,-62.5,4,2,2,5,0,0
187250,-62.5,4,2,1,80,0,0
187391,-62.5,4,2,2,5,0,0
187462,-62.5,4,2,1,80,0,0
187603,-62.5,4,2,2,5,0,0
187674,-62.5,4,2,1,80,0,0
187805,283.018867924528,4,2,1,80,1,0
187805,-62.5,4,2,1,80,0,0
189644,-62.5,4,2,2,5,0,0
189715,-62.5,4,2,1,80,0,0
189856,-62.5,4,2,2,5,0,0
189927,-62.5,4,2,1,80,0,0
189998,-62.5,4,2,2,5,0,0
190069,-62.5,4,2,1,80,0,0
190281,-62.5,4,2,2,5,0,0
190363,283.018867924528,4,2,1,80,1,0
190363,-62.5,4,2,1,80,0,0
191707,-62.5,4,2,2,5,0,0
191778,-62.5,4,2,1,80,0,0
191990,-62.5,4,2,2,5,0,0
192050,283.018867924528,4,2,1,80,1,0
192050,-62.5,4,2,1,80,0,0
192333,283.018867924528,4,2,1,80,1,0
192474,-100,4,2,2,5,0,0
192545,-100,4,2,1,80,0,0
192616,-62.5,4,2,1,80,0,0
192828,-62.5,4,2,2,5,0,0
192899,-62.5,4,2,1,80,0,0
193252,-62.5,4,2,2,5,0,0
193323,-62.5,4,2,1,80,0,0
194455,-62.5,4,2,1,80,0,0
194809,-62.5,4,2,2,5,0,0
194880,-62.5,4,2,1,80,0,0
195021,-50,4,2,1,80,0,0
195375,-50,4,2,2,5,0,0
195446,-50,4,2,1,80,0,0
195587,-55.5555555555556,4,2,1,80,0,0
195941,-55.5555555555556,4,2,2,5,0,0
196012,-55.5555555555556,4,2,1,80,0,0
196436,-55.5555555555556,4,2,2,5,0,0
196507,-55.5555555555556,4,2,1,80,0,0
196649,-55.5555555555556,4,2,2,5,0,0
196720,-55.5555555555556,4,2,1,80,0,0
196790,-55.5555555555556,4,2,2,5,0,0
196861,-55.5555555555556,4,2,1,80,0,0
198205,-55.5555555555556,4,2,2,5,0,0
198276,-55.5555555555556,4,2,1,80,0,0
198488,-55.5555555555556,4,2,2,5,0,0
198559,-55.5555555555556,4,2,1,80,0,0
198700,-55.5555555555556,4,2,2,5,0,0
198771,-55.5555555555556,4,2,1,80,0,0
198913,-55.5555555555556,4,2,2,5,0,0
198984,-55.5555555555556,4,2,1,80,0,0
199054,-55.5555555555556,4,2,2,5,0,0
199125,-55.5555555555556,4,2,1,80,0,0
199337,-55.5555555555556,4,2,2,5,0,0
199408,-55.5555555555556,4,2,1,80,0,0
201531,-55.5555555555556,4,2,2,5,0,0
201602,-55.5555555555556,4,2,1,80,0,0
203633,283.018867924528,4,2,1,80,1,0
203633,-62.5,4,2,1,80,0,0
208019,-62.5,4,2,2,5,0,0
208090,-62.5,4,2,1,80,0,0
210566,-62.5,4,2,2,5,0,0
210637,-62.5,4,2,1,80,0,0
210920,-62.5,4,2,2,5,0,0
210991,-62.5,4,2,1,80,0,0
211345,-62.5,4,2,2,5,0,0
211416,-62.5,4,2,1,80,0,0
211911,-62.5,4,2,2,5,0,0
211982,-62.5,4,2,1,80,0,0
212689,-55.5555555555556,4,2,1,80,0,0
212901,-55.5555555555556,4,2,2,5,0,0
212972,-62.5,4,2,1,80,0,0
213043,-62.5,4,2,2,5,0,0
213114,-55.5555555555556,4,2,1,80,0,0
213467,-55.5555555555556,4,2,2,5,0,0
213538,-62.5,4,2,1,80,0,0
213609,-62.5,4,2,2,5,0,0
213680,-62.5,4,2,1,80,0,0
214033,-62.5,4,2,2,5,0,0
214104,-62.5,4,2,1,80,0,0
214175,-62.5,4,2,2,5,0,0
214246,-62.5,4,2,1,80,0,0
214599,-62.5,4,2,2,5,0,0
214670,-62.5,4,2,1,80,0,0
215661,-62.5,4,2,2,5,0,0
215732,-62.5,4,2,1,80,0,0
216793,-62.5,4,2,2,5,0,0
216864,-62.5,4,2,1,80,0,0
217005,-62.5,4,2,2,5,0,0
217076,-62.5,4,2,1,80,0,0
217430,-62.5,4,2,2,5,0,0
217500,-62.5,4,2,1,80,0,0
217642,-50,4,2,1,80,0,0
217783,-62.5,4,2,1,80,0,0
217925,-50,4,2,1,80,0,0
218066,-62.5,4,2,1,80,0,0
218420,-62.5,4,2,2,5,0,0
218491,-62.5,4,2,1,80,0,0
218703,-62.5,4,2,2,5,0,0
218774,-62.5,4,2,1,80,0,0
219269,-62.5,4,2,2,5,0,0
219340,-62.5,4,2,1,80,0,0
219694,-62.5,4,2,2,5,0,0
219765,-62.5,4,2,1,80,0,0
221746,-76.9230769230769,4,2,1,70,0,0
228680,-76.9230769230769,4,2,2,5,0,0
228750,-76.9230769230769,4,2,1,70,0,0
228892,-76.9230769230769,4,2,2,5,0,0
228963,-76.9230769230769,4,2,1,70,0,0
230802,-117.647058823529,4,2,1,70,0,0
233066,-117.647058823529,4,2,1,50,0,0
237576,235.294117647059,4,2,1,45,1,0
237576,-333.333333333333,4,2,1,45,0,0
238046,-500,4,2,1,45,0,0
243223,-250,4,2,1,55,0,0
258678,235.294117647059,4,2,1,70,1,0
259227,235.294117647059,4,2,3,65,1,0
259854,-100,4,2,2,5,0,0
259932,-100,4,2,3,65,0,0
260325,-100,4,2,2,5,0,0
260403,-100,4,2,3,65,0,0
260795,-100,4,2,2,5,0,0
260874,-100,4,2,3,60,0,0
262285,-333.333333333333,4,2,3,60,0,0
262677,-333.333333333333,4,2,2,5,0,0
262757,235.294117647059,4,2,3,65,1,0
262835,-100,4,2,2,5,0,0
262913,-100,4,2,3,65,0,0
263306,-100,4,2,2,5,0,0
263384,-100,4,2,3,65,0,0
263855,-100,4,2,2,5,0,0
263933,-100,4,2,3,65,0,0
264639,-100,4,2,3,60,0,0
266287,235.294117647059,4,2,3,70,1,0
267110,-80,4,2,3,70,0,0
267385,-80,4,2,2,5,0,0
267443,-80,4,2,3,70,0,0
267620,-100,4,2,3,70,0,0
267699,235.294117647059,4,2,3,70,1,0
268875,-100,4,2,3,49,0,0
269228,-100,4,2,3,52,0,0
269287,-100,4,2,3,55,0,0
269346,-100,4,2,3,58,0,0
269404,-100,4,2,3,61,0,0
269463,-100,4,2,3,64,0,0
269522,-100,4,2,3,67,0,0
269581,-166.666666666667,4,2,3,70,0,0
273111,235.294117647059,4,2,3,70,1,0
273111,-125,4,2,3,70,0,0
274111,-125,4,2,2,5,0,0
274169,-125,4,2,3,70,0,0
274463,-125,4,2,2,5,0,0
274522,-125,4,2,3,70,0,0
274875,-40,4,2,3,70,0,0
274993,-166.666666666667,4,2,3,70,0,0
276641,235.294117647059,4,2,3,70,1,0
276641,-166.666666666667,4,2,3,70,0,0
280171,235.294117647059,4,2,3,70,1,0
280171,-125,4,2,3,70,0,0
281171,-125,4,2,2,5,0,0
281229,-125,4,2,3,70,0,0
281523,-125,4,2,2,5,0,0
281582,-125,4,2,3,70,0,0
281935,-40,4,2,3,70,0,0
282053,-166.666666666667,4,2,3,70,0,0
283701,235.294117647059,4,2,3,70,1,0
284112,-100,4,2,2,5,0,0
284171,-100,4,2,3,70,0,0
285112,-100,4,2,3,70,0,0
285171,-100,4,2,2,5,0,0
285230,-83.3333333333333,4,2,3,70,0,0
285289,-83.3333333333333,4,2,2,5,0,0
285348,-76.9230769230769,4,2,3,70,0,0
285465,-76.9230769230769,4,2,2,5,0,0
285504,-71.4285714285714,4,2,3,70,0,0
285622,-71.4285714285714,4,2,2,5,0,0
285661,-66.6666666666667,4,2,3,70,0,0
285779,-66.6666666666667,4,2,2,5,0,0
285818,-71.4285714285714,4,2,3,70,0,0
285936,-71.4285714285714,4,2,2,5,0,0
285975,-76.9230769230769,4,2,3,70,0,0
286093,-76.9230769230769,4,2,2,5,0,0
286132,-83.3333333333333,4,2,3,70,0,0
286250,-83.3333333333333,4,2,2,5,0,0
286289,-83.3333333333333,4,2,3,70,0,0
286406,-100,4,2,3,70,0,0
286583,-100,4,2,2,5,0,0
286642,-100,4,2,3,70,0,0
287232,235.294117647059,4,2,3,70,1,0
287761,-100,4,2,2,5,0,0
287820,-76.9230769230769,4,2,3,70,0,0
287996,-76.9230769230769,4,2,2,5,0,0
288055,-100,4,2,3,70,0,0
288232,-100,4,2,2,5,0,0
288290,-100,4,2,3,70,0,0
288349,-100,4,2,2,5,0,0
288408,-76.9230769230769,4,2,3,70,0,0
288584,-76.9230769230769,4,2,2,5,0,0
288643,-100,4,2,3,70,0,0
289290,-100,4,2,2,5,0,0
289349,-100,4,2,3,70,0,0
289643,-100,4,2,2,5,0,0
289702,-100,4,2,3,70,0,0
290114,-100,4,2,2,5,0,0
290173,-100,4,2,3,70,0,0
290762,235.294117647059,4,2,3,70,1,0
291350,-76.9230769230769,4,2,3,70,0,0
291526,-76.9230769230769,4,2,2,5,0,0
291585,-76.9230769230769,4,2,3,70,0,0
291820,-76.9230769230769,4,2,2,5,0,0
291879,-83.3333333333333,4,2,3,70,0,0
291997,-83.3333333333333,4,2,2,5,0,0
292056,-90.9090909090909,4,2,3,70,0,0
292114,-90.9090909090909,4,2,2,5,0,0
292173,-90.9090909090909,4,2,3,70,0,0
292938,-90.9090909090909,4,2,2,5,0,0
292997,-90.9090909090909,4,2,3,70,0,0
293644,-90.9090909090909,4,2,2,5,0,0
293703,-90.9090909090909,4,2,3,70,0,0
294292,235.294117647059,4,2,3,70,1,0
295390,-100,4,2,2,5,0,0
295468,-100,4,2,3,70,0,0
295625,-100,4,2,2,5,0,0
295703,-100,4,2,3,70,0,0
296350,-100,4,2,2,5,0,0
296409,-100,4,2,3,70,0,0
297115,-500,4,2,3,70,0,0
297764,-500,4,2,2,5,0,0
297823,232.558139534884,4,2,3,60,1,0
297823,-200,4,2,3,60,0,0
298636,-198.5,4,2,3,60,0,0
298753,229.885057471265,4,2,3,60,1,0
298753,-200,4,2,3,60,0,0
299673,227.272727272728,4,2,3,60,1,0
299673,-200,4,2,3,60,0,0
300582,224.719101123596,4,2,3,60,1,0
300582,-200,4,2,3,60,0,0
301257,222.222222222222,4,2,3,60,1,0
301257,-133.333333333333,4,2,3,60,0,0
302034,-133,4,2,3,60,0,0
302145,219.78021978022,4,2,3,60,1,0
302145,-133.333333333333,4,2,3,60,0,0
302914,-50,4,2,3,60,0,0
303025,217.391304347826,4,2,3,60,1,0
303025,-166.666666666667,4,2,3,60,0,0
303894,215.05376344086,4,2,3,60,1,0
303894,-166.666666666667,4,2,3,60,0,0
304540,212.765957446809,4,2,3,60,1,0
304540,-133.333333333333,4,2,3,70,0,0
305391,210.526315789474,4,2,3,70,1,0
305391,-133.333333333333,4,2,3,70,0,0
306234,208.333333333334,4,2,3,70,1,0
306234,-133.333333333333,4,2,3,70,0,0
307067,206.185567010309,4,2,3,70,1,0
307067,-133.333333333333,4,2,3,70,0,0
307686,204.081632653061,4,2,3,70,1,0
307686,-133.333333333333,4,2,3,70,0,0
308502,202.020202020202,4,2,3,70,1,0
308502,-117.647058823529,4,2,3,70,0,0
309209,-50,4,2,3,70,0,0
309311,200,4,2,3,70,1,0
309311,-117.647058823529,4,2,3,70,0,0
310111,198.019801980198,4,2,3,70,1,0
310111,-117.647058823529,4,2,3,70,0,0
310705,283.018867924528,4,2,3,40,1,0
310705,-166.666666666667,4,2,3,40,0,0
312308,-636.4,4,2,3,35,0,0
312969,530.973451327434,4,2,3,70,1,0
315004,-100,4,2,2,5,0,0
315092,192.926045016077,5,2,4,70,1,0
315092,-142.857142857143,5,2,4,70,0,0
316008,-142.857142857143,5,2,2,5,0,0
316056,-142.857142857143,5,2,4,70,0,0
316973,-142.857142857143,5,2,2,5,0,0
317021,-25,5,2,4,70,0,0
317841,-25,5,2,2,5,0,0
317889,-66.6666666666667,5,2,4,70,0,0
317985,-100,5,2,4,70,0,0
318130,-100,5,2,2,5,0,0
318178,-76.9230769230769,5,2,4,70,0,0
318323,-76.9230769230769,5,2,2,5,0,0
318371,-100,5,2,4,70,0,0
318516,-100,5,2,2,5,0,0
318564,-100,5,2,4,70,0,0
318709,-100,5,2,2,5,0,0
318757,-100,5,2,4,70,0,0
318950,-142.857142857143,5,2,4,70,0,0
319866,-142.857142857143,5,2,2,5,0,0
319915,-142.857142857143,5,2,4,70,0,0
320831,-142.857142857143,5,2,2,5,0,0
320879,-38.4615384615385,5,2,4,70,0,0
321699,-38.4615384615385,5,2,2,5,0,0
321747,-66.6666666666667,5,2,4,70,0,0
322809,-125,5,2,4,70,0,0
323725,-125,5,2,2,5,0,0
323773,-125,5,2,4,70,0,0
324690,-125,5,2,2,5,0,0
324738,-29.4117647058824,5,2,4,70,0,0
325558,-29.4117647058824,5,2,2,5,0,0
325606,-66.6666666666667,5,2,4,70,0,0
325702,-100,5,2,4,70,0,0
325847,-100,5,2,2,5,0,0
325895,-100,5,2,4,70,0,0
326040,-100,5,2,2,5,0,0
326088,-100,5,2,4,70,0,0
326474,-76.9230769230769,5,2,4,70,0,0
326619,-76.9230769230769,5,2,2,5,0,0
326667,-125,5,2,4,70,0,0
327583,-125,5,2,2,5,0,0
327632,-125,5,2,4,70,0,0
328548,-125,5,2,2,5,0,0
328596,-28.5714285714286,5,2,4,70,0,0
329416,-28.5714285714286,5,2,2,5,0,0
329464,-83.3333333333333,5,2,4,70,0,0
329609,-83.3333333333333,5,2,2,5,0,0
329657,-83.3333333333333,5,2,4,70,0,0
330550,-83.3333333333333,5,2,4,40,0,0
331490,-125,5,2,4,70,0,0
332407,-125,5,2,2,5,0,0
332455,-30.3030303030303,5,2,4,70,0,0
333275,-30.3030303030303,5,2,2,5,0,0
333323,-100,5,2,4,70,0,0
333468,-100,5,2,2,5,0,0
333516,-100,5,2,4,70,0,0
333612,-83.3333333333333,5,2,4,70,0,0
333757,-83.3333333333333,5,2,2,5,0,0
333805,-83.3333333333333,5,2,4,70,0,0
334384,-111.111111111111,5,2,4,70,0,0
335301,-111.111111111111,5,2,2,5,0,0
335349,-111.111111111111,5,2,4,70,0,0
336265,-111.111111111111,5,2,2,5,0,0
336313,-24.390243902439,5,2,4,70,0,0
337133,-24.390243902439,5,2,2,5,0,0
337182,-66.6666666666667,5,2,4,70,0,0
338243,-111.111111111111,5,2,4,70,0,0
339159,-111.111111111111,5,2,2,5,0,0
339207,-111.111111111111,5,2,4,70,0,0
340124,-111.111111111111,5,2,2,5,0,0
340172,-25,5,2,4,70,0,0
340992,-25,5,2,2,5,0,0
341040,-66.6666666666667,5,2,4,70,0,0
341137,-100,5,2,4,70,0,0
341281,-100,5,2,2,5,0,0
341329,-100,5,2,4,70,0,0
341474,-100,5,2,2,5,0,0
341522,-66.6666666666666,5,2,4,70,0,0
342101,-111.111111111111,5,2,4,70,0,0
343018,-111.111111111111,5,2,2,5,0,0
343066,-111.111111111111,5,2,4,70,0,0
343982,-111.111111111111,5,2,2,5,0,0
344030,-38.4615384615385,5,2,4,70,0,0
344850,-38.4615384615385,5,2,2,5,0,0
344899,-66.6666666666666,5,2,4,70,0,0
345140,-66.6666666666666,5,2,2,5,0,0
345188,-66.6666666666666,5,2,4,70,0,0
345960,-60.6060606060606,5,2,4,70,0,0
346876,-60.6060606060606,5,2,2,5,0,0
346924,-100,5,2,4,70,0,0
346948,-100,5,2,4,40,0,0
347889,-60.6060606060606,5,2,4,70,0,0
348805,-60.6060606060606,5,2,2,5,0,0
348854,-100,5,2,4,70,0,0
348878,-100,5,2,4,40,0,0
349818,-52.6315789473684,5,2,4,70,0,0
350735,-52.6315789473684,5,2,2,5,0,0
350783,-100,5,2,4,70,0,0
350807,-100,5,2,4,40,0,0
351747,-40,5,2,4,70,0,0
352664,-40,5,2,2,5,0,0
352712,-100,5,2,4,70,0,0
352736,-100,5,2,4,40,0,0
358500,-100,5,2,4,70,0,0

[Colours]
Combo1 : 253,140,180
Combo2 : 149,105,231
Combo3 : 243,177,80

[HitObjects]
140,216,10601,5,8,3:0:0:0:
160,203,10667,1,0,3:0:0:0:
193,227,10733,1,2,3:0:0:0:
236,193,10800,1,0,3:0:0:0:
283,238,10866,1,0,3:0:0:0:
284,0,10999,5,2,0:0:0:0:
281,16,11065,1,0,0:0:0:0:
277,32,11131,2,0,L|256:112,1,83.9999974365235,8|0,3:0|0:0,0:0:0:0:
199,345,11264,2,0,B|170:376|170:376|205:360,1,72,4|0,3:1|0:0,0:0:0:0:
320,339,11530,2,0,B|376:300|376:300|158:354,1,251.999992309571,8|0,3:0|0:0,0:0:0:0:
121,302,11795,5,2,3:0:0:0:
105,305,11861,1,0,3:0:0:0:
89,309,11927,2,0,L|7:329,1,83.9999974365235,8|0,3:0|0:0,0:0:0:0:
320,339,12061,1,2,3:0:0:0:
392,187,12193,6,0,L|403:228,2,41.9999987182618,8|0|0,0:0|0:0|0:0,0:0:0:0:
482,135,12326,1,2,3:0:0:0:
496,189,12393,1,2,3:0:0:0:
510,244,12459,2,0,B|478:218|478:218|426:9,1,251.999992309571,4|0,3:1|0:0,0:0:0:0:
348,64,12724,6,0,L|254:87,1,83.9999974365235,8|0,3:0|0:0,0:0:0:0:
32,143,12857,1,0,3:0:0:0:
16,146,12924,1,0,3:0:0:0:
0,150,12990,1,0,3:0:0:0:
163,110,13123,1,2,0:0:0:0:
348,64,13255,5,8,3:0:0:0:
123,0,13388,2,0,B|126:-17|126:-17|142:44,1,72,4|0,3:1|0:0,0:0:0:0:
163,110,13654,6,0,L|188:210,1,83.9999974365235,2|0,0:0|0:0,0:0:0:0:
271,252,13786,2,0,B|272:291|272:291|206:386|206:386|206:360|206:360|302:320,1,251.999992309571,8|0,3:0|0:0,0:0:0:0:
343,351,14052,6,0,B|389:362|389:362|357:359|334:380,1,83.9999974365235,8|0,3:0|0:0,0:0:0:0:
184,278,14185,2,0,L|137:266,2,41.9999987182618,2|0|0,0:0|0:0|0:0,0:0:0:0:
19,248,14317,2,0,L|197:292,1,167.999994873047,4|0,3:1|0:0,0:0:0:0:
271,252,14516,2,0,L|449:296,1,167.999994873047,8|0,3:0|0:0,0:0:0:0:
500,223,14716,2,0,B|498:197|498:197|513:168|513:168|492:254,1,83.9999974365235,10|0,3:0|0:0,0:0:0:0:
249,139,14848,6,0,L|330:159,1,83.9999974365235,8|0,3:0|0:0,0:0:0:0:
396,86,14981,1,2,3:0:0:0:
380,82,15047,1,2,3:0:0:0:
364,78,15114,2,0,B|403:-3|515:3|515:3|454:4|424:73,1,251.999992309571,4|0,3:1|0:0,0:0:0:0:
360,88,15379,6,0,L|190:45,1,167.999994873047,8|0,3:0|0:0,0:0:0:0:
15,111,15645,5,0,3:0:0:0:
11,126,15711,1,2,3:0:0:0:
7,142,15777,1,2,3:0:0:0:
3,157,15844,1,4,3:1:0:0:
96,49,16043,5,2,0:0:0:0:
101,25,16109,1,0,0:0:0:0:
107,2,16176,5,8,3:0:0:0:
188,46,16264,1,0,3:0:0:0:
281,33,16353,1,0,3:0:0:0:
186,55,16441,2,0,L|160:155,1,83.9999974365235,4|0,3:1|0:0,0:0:0:0:
89,320,16574,5,2,3:0:0:0:
90,327,16640,1,2,3:0:0:0:
92,335,16707,2,0,L|-1:358,1,83.9999974365235,8|0,3:0|0:0,0:0:0:0:
209,223,16839,2,0,L|168:233,3,41.9999987182618,2|0|0|0,0:0|0:0|0:0|0:0,0:0:0:0:
190,312,16972,6,0,L|384:263,1,167.999994873047,8|2,3:0|3:0,0:0:0:0:
434,342,17171,1,2,3:0:0:0:
430,357,17238,1,8,3:0:0:0:
480,155,17370,1,2,3:0:0:0:
512,219,17503,2,0,L|498:273,2,41.9999987182618,4|0|0,3:1|0:0|0:0,0:0:0:0:
423,255,17636,1,0,0:0:0:0:
386,40,17769,5,2,3:0:0:0:
383,24,17835,1,2,3:0:0:0:
379,8,17901,1,8,3:0:0:0:
460,59,18034,2,0,B|505:47|505:47|447:45,1,83.9999974365235
323,86,18167,1,2,3:0:0:0:
315,87,18211,1,2,3:0:0:0:
307,89,18255,1,2,3:0:0:0:
299,91,18300,5,8,3:0:0:0:
219,51,18388,1,0,3:0:0:0:
158,117,18477,1,0,3:0:0:0:
76,82,18565,6,0,L|89:27,3,41.9999987182618,8|0|0|0,0:0|0:0|0:0|0:0,0:0:0:0:
20,0,18698,2,0,L|-7:108,1,83.9999974365235,2|0,3:0|0:0,0:0:0:0:
53,305,18831,2,0,B|6:293|6:293|41:285,1,72,4|0,3:1|0:0,0:0:0:0:
46,178,19096,2,0,L|92:364,1,167.999994873047,8|2,3:0|3:0,0:0:0:0:
170,384,19295,1,2,3:0:0:0:
173,368,19362,1,8,3:0:0:0:
348,318,19494,5,2,0:0:0:0:
345,334,19561,1,2,0:0:0:0:
342,350,19627,2,0,L|241:324,1,83.9999974365235,8|0,3:0|0:0,0:0:0:0:
191,258,19760,2,0,B|144:246|144:246|179:238,1,72,4|0,3:1|0:0,0:0:0:0:
284,204,20025,6,0,L|377:227,1,83.9999974365235,10|0,3:0|0:0,0:0:0:0:
445,272,20158,5,0,3:0:0:0:
465,260,20224,1,0,3:0:0:0:
460,220,20290,1,2,3:0:0:0:
510,198,20357,1,0,3:0:0:0:
492,135,20424,2,0,B|415:32|415:32|412:50|412:50|456:111|456:111|515:122,1,251.999992309571,10|2,3:0|0:0,0:0:0:0:
460,43,20689,6,0,L|506:31,2,41.9999987182618
334,116,20822,1,8,3:0:0:0:
318,112,20888,1,2,3:0:0:0:
302,108,20954,1,2,3:0:0:0:
287,104,21021,1,2,3:0:0:0:
271,100,21087,1,4,3:1:0:0:
101,81,21220,6,0,L|128:-27,1,83.9999974365235,8|0,3:0|0:0,0:0:0:0:
64,244,21353,1,2,3:0:0:0:
60,260,21419,1,0,3:0:0:0:
56,275,21485,2,0,L|28:383,1,83.9999974365235,0|0,3:0|0:0,0:0:0:0:
2,142,21618,2,0,L|110:169,1,83.9999974365235,0|0,3:0|0:0,0:0:0:0:
284,248,21751,6,0,B|311:224|311:224|179:257,1,167.999994873047,4|0,3:1|0:0,0:0:0:0:
83,373,21950,1,2,0:0:0:0:
31,365,22016,2,0,L|124:341,1,83.9999974365235,8|0,0:0|0:0,0:0:0:0:
228,384,22149,2,0,L|321:360,1,83.9999974365235
486,321,22282,6,0,B|522:303|522:303|460:319,1,83.9999974365235,0|0,3:0|0:0,0:0:0:0:
375,298,22415,1,2,3:0:0:0:
390,294,22481,1,2,3:0:0:0:
406,290,22547,2,0,L|382:196,1,83.9999974365235,8|0,3:0|0:0,0:0:0:0:
393,8,22680,2,0,L|403:48,2,41.9999987182618
509,98,22813,5,4,3:1:0:0:
512,113,22879,2,0,B|480:120|480:120|463:118|463:118|416:151,1,83.9999974365235,2|0,3:0|0:0,0:0:0:0:
282,118,23012,1,2,3:0:0:0:
285,103,23078,2,0,B|253:95|253:95|236:97|236:97|189:64,1,83.9999974365235,8|0,3:0|0:0,0:0:0:0:
436,150,23211,2,0,L|335:124,1,83.9999974365235,0|0,3:0|0:0,0:0:0:0:
214,172,23344,5,8,3:0:0:0:
114,0,23476,1,2,0:0:0:0:
110,15,23543,1,2,0:0:0:0:
106,31,23609,2,0,B|20:63|20:63|-7:148|-7:148|58:203,1,251.999992309571,4|0,3:1|0:0,0:0:0:0:
151,231,23875,2,0,L|129:145,1,83.9999974365235,10|0,3:0|0:0,0:0:0:0:
106,42,24008,2,0,B|65:73|65:73|-2:268,1,251.999992309571,4|0,3:1|0:0,0:0:0:0:
82,330,24273,5,8,0:0:0:0:
78,345,24339,1,0,0:0:0:0:
73,360,24406,2,0,L|135:375,2,41.9999987182618,2|0|0,0:0|0:0|0:0,0:0:0:0:
284,298,24539,1,2,3:0:0:0:
245,307,24605,1,2,3:0:0:0:
206,317,24671,2,0,L|299:340,1,83.9999974365235,8|0,3:0|0:0,0:0:0:0:
401,364,24804,2,0,L|463:379,2,41.9999987182618
434,201,24937,5,4,3:1:0:0:
437,185,25003,1,2,3:0:0:0:
441,169,25070,1,2,3:0:0:0:
445,154,25136,2,0,B|464:165|464:165|483:243,1,83.9999974365235,2|8,3:0|3:0,0:0:0:0:
473,368,25335,1,2,3:0:0:0:
426,356,25401,1,0,3:0:0:0:
379,344,25468,1,4,3:1:0:0:
379,84,25601,5,2,3:0:0:0:
369,45,25667,1,2,3:0:0:0:
359,6,25733,2,0,L|333:106,1,83.9999974365235,8|0,3:0|0:0,0:0:0:0:
148,135,25866,2,0,L|247:106,1,83.9999974365235,2|0,3:0|0:0,0:0:0:0:
359,6,25999,2,0,L|278:29,1,83.9999974365235,0|0,3:0|0:0,0:0:0:0:
148,135,26131,2,0,L|124:228,1,83.9999974365235,2|0,3:0|0:0,0:0:0:0:
183,0,26264,5,8,3:0:0:0:
12,147,26397,2,0,B|30:218|30:218|31:198|31:198|50:273|50:273|39:256|39:256|61:343,1,251.999992309571,4|0,3:1|0:0,0:0:0:0:
114,378,26662,1,2,0:0:0:0:
121,376,26707,1,2,0:0:0:0:
129,374,26751,1,2,0:0:0:0:
137,372,26795,5,8,3:0:0:0:
210,322,26884,1,0,3:0:0:0:
295,343,26972,1,0,3:0:0:0:
380,364,27061,2,0,L|473:340,1,83.9999974365235,4|0,3:1|0:0,0:0:0:0:
214,312,27193,2,0,L|307:288,1,83.9999974365235,0|0,3:0|0:0,0:0:0:0:
488,247,27326,1,8,3:0:0:0:
484,231,27393,1,2,3:0:0:0:
480,215,27459,1,2,3:0:0:0:
476,200,27525,1,2,3:0:0:0:
472,184,27592,6,0,B|425:172|425:172|390:180|390:180|363:156|363:156|285:137,1,167.999994873047,4|0,3:1|3:0,0:0:0:0:
242,127,27791,1,2,3:0:0:0:
226,123,27858,1,8,3:0:0:0:
412,96,27990,1,2,0:0:0:0:
293,3,28123,1,0,0:0:0:0:
180,198,28255,6,0,B|152:188|152:188|110:17|110:17|105:29|105:29|105:116,1,251.999992309571,8|0,3:0|0:0,0:0:0:0:
141,20,28521,2,0,B|113:128|113:128|108:133|108:133|72:278,1,251.999992309571,4|0,3:1|0:0,0:0:0:0:
55,352,28786,5,2,3:0:0:0:
39,355,28853,1,0,3:0:0:0:
23,359,28919,2,0,B|42:370|42:370|189:333,1,167.999994873047,0|0,3:0|0:0,0:0:0:0:
280,360,29185,5,8,0:0:0:0:
281,367,29229,1,2,0:0:0:0:
283,375,29273,1,2,0:0:0:0:
361,330,29362,1,0,3:0:0:0:
339,244,29450,1,0,3:0:0:0:
411,180,29539,2,0,B|405:189|405:189|249:228,1,167.999994873047,0|0,3:0|0:0,0:0:0:0:
245,249,29716,2,0,B|250:239|250:239|406:200,1,167.999994873047,0|0,3:0|0:0,0:0:0:0:
509,183,29893,5,2,3:0:0:0:
487,97,29981,1,8,3:0:0:0:
339,244,30114,1,0,3:0:0:0:
342,1,30247,6,0,B|370:10|370:10|387:80|387:80|317:97|317:97|298:86|298:86|278:8,1,251.999992309571,0|0,3:0|0:0,0:0:0:0:
276,27,30512,1,2,3:0:0:0:
456,16,30645,2,0,B|336:46|336:46|333:51|333:51|214:81,1,251.999992309571,8|0,3:0|0:0,0:0:0:0:
138,96,30910,1,0,3:0:0:0:
135,80,30977,1,0,3:0:0:0:
131,64,31043,1,0,3:0:0:0:
83,219,31176,6,0,B|33:347|33:347|28:317|28:317|69:308|69:308|98:246,1,251.999992309571,8|0,0:0|0:0,0:0:0:0:
162,189,31441,2,0,L|189:297,1,83.9999974365235
208,375,31574,1,0,3:0:0:0:
131,64,31707,1,2,3:0:0:0:
325,218,31835,6,0,B|514:170|514:170|538:141|538:141|450:178|450:178|403:222|403:222|261:258|261:258|118:335|118:335|84:300|84:300|296:294,1,960,12|0,3:1|0:0,0:0:0:0:
475,272,35817,6,0,L|470:248,52,15
490,178,37675,5,2,3:0:0:0:
420,194,37741,1,2,3:0:0:0:
402,124,37808,1,2,3:0:0:0:
473,107,37874,1,2,3:0:0:0:
478,93,37940,6,0,L|503:-7,1,96,8|2,3:0|0:0,0:0:0:0:
445,93,38140,5,0,0:0:0:0:
445,93,38206,2,0,L|470:-7,1,96,8|2,3:0|0:0,0:0:0:0:
414,93,38405,5,0,0:0:0:0:
414,93,38471,2,0,L|439:-7,1,96,8|2,3:0|0:0,0:0:0:0:
382,93,38670,5,0,0:0:0:0:
382,93,38737,2,0,L|407:-7,1,96,8|2,3:0|0:0,0:0:0:0:
351,93,38935,5,0,0:0:0:0:
351,93,39002,2,0,L|376:-7,1,96,8|2,3:0|0:0,0:0:0:0:
319,93,39200,5,0,0:0:0:0:
319,93,39268,2,0,L|344:-7,1,96,8|2,3:0|0:0,0:0:0:0:
288,93,39466,5,0,0:0:0:0:
288,93,39533,2,0,L|313:-7,1,96,8|2,3:0|0:0,0:0:0:0:
256,93,39732,5,0,0:0:0:0:
256,93,39799,2,0,L|281:-7,1,96,8|2,3:0|0:0,0:0:0:0:
224,93,39998,5,0,0:0:0:0:
224,93,40065,2,0,L|249:-7,1,96,8|2,3:0|0:0,0:0:0:0:
193,93,40263,5,0,0:0:0:0:
193,93,40330,2,0,L|218:-7,1,96,8|2,3:0|0:0,0:0:0:0:
161,93,40529,5,0,0:0:0:0:
161,93,40596,2,0,L|186:-7,1,96,8|2,3:0|0:0,0:0:0:0:
130,93,40794,5,0,0:0:0:0:
130,93,40861,2,0,L|155:-7,1,96,8|2,3:0|0:0,0:0:0:0:
98,93,41060,5,0,0:0:0:0:
98,93,41127,2,0,L|123:-7,1,96,8|2,3:0|0:0,0:0:0:0:
66,93,41325,5,0,0:0:0:0:
66,93,41392,2,0,L|91:-7,1,96,8|2,3:0|0:0,0:0:0:0:
34,93,41591,5,0,0:0:0:0:
34,93,41658,2,0,L|59:-7,1,96,8|2,3:0|0:0,0:0:0:0:
88,200,41923,5,0,3:0:0:0:
104,200,41989,1,0,3:0:0:0:
128,184,42055,1,0,3:0:0:0:
144,184,42121,1,0,3:0:0:0:
168,200,42188,1,0,3:0:0:0:
34,291,42386,5,0,0:0:0:0:
34,291,42454,2,0,L|8:391,1,96,8|2,3:0|0:0,0:0:0:0:
67,291,42652,5,0,0:0:0:0:
67,291,42719,2,0,L|41:391,1,96,8|2,3:0|0:0,0:0:0:0:
98,291,42918,5,0,0:0:0:0:
98,291,42985,2,0,L|72:391,1,96,8|2,3:0|0:0,0:0:0:0:
130,291,43184,5,0,0:0:0:0:
130,291,43250,2,0,L|104:391,1,96,8|2,3:0|0:0,0:0:0:0:
161,291,43449,5,0,0:0:0:0:
161,291,43516,2,0,L|135:391,1,96,8|0,3:0|0:0,0:0:0:0:
193,291,43715,5,0,0:0:0:0:
193,291,43781,2,0,L|167:391,1,96,8|2,3:0|0:0,0:0:0:0:
224,291,43980,5,0,0:0:0:0:
224,291,44047,2,0,L|198:391,1,96,8|2,3:0|0:0,0:0:0:0:
256,291,44246,5,0,0:0:0:0:
256,291,44312,2,0,L|230:391,1,96,8|2,3:0|0:0,0:0:0:0:
288,291,44510,5,0,0:0:0:0:
288,291,44577,2,0,L|262:391,1,96,8|2,3:0|0:0,0:0:0:0:
319,291,44777,5,0,0:0:0:0:
319,291,44843,2,0,L|293:391,1,96,8|2,3:0|0:0,0:0:0:0:
351,291,45042,5,0,0:0:0:0:
351,291,45109,2,0,L|325:391,1,96,8|2,3:0|0:0,0:0:0:0:
382,291,45308,5,0,0:0:0:0:
382,291,45374,2,0,L|356:391,1,96,8|2,3:0|0:0,0:0:0:0:
414,291,45573,5,0,0:0:0:0:
414,291,45639,2,0,L|393:371,1,48,8|0,3:0|0:0,0:0:0:0:
451,116,45772,2,0,L|462:69,1,48,8|0,3:0|0:0,0:0:0:0:
483,217,45905,2,0,L|382:191,1,96,8|0,3:0|0:0,0:0:0:0:
314,171,46103,5,0,0:0:0:0:
314,171,46170,2,0,L|336:80,1,48,8|0,3:0|0:0,0:0:0:0:
354,0,46303,1,0,3:0:0:0:
226,74,46436,6,0,L|132:97,1,96,8|2,3:0|0:0,0:0:0:0:
93,5,46635,5,0,0:0:0:0:
93,5,46701,2,0,L|0:28,1,96,8|2,3:0|0:0,0:0:0:0:
2,39,46901,5,0,0:0:0:0:
2,39,46967,2,0,L|95:15,1,96,8|2,3:0|0:0,0:0:0:0:
135,108,47166,5,0,0:0:0:0:
135,108,47232,2,0,L|228:84,1,96,8|2,3:0|0:0,0:0:0:0:
230,94,47432,5,0,0:0:0:0:
230,94,47498,2,0,L|137:118,1,96,8|2,3:0|0:0,0:0:0:0:
97,25,47697,5,0,0:0:0:0:
97,25,47763,2,0,L|4:49,1,96,8|2,3:0|0:0,0:0:0:0:
6,59,47963,5,0,0:0:0:0:
6,59,48029,2,0,L|99:35,1,96,8|2,3:0|0:0,0:0:0:0:
139,128,48228,5,0,0:0:0:0:
139,128,48294,2,0,L|232:104,1,96,8|2,3:0|0:0,0:0:0:0:
234,114,48494,5,0,0:0:0:0:
234,114,48560,2,0,L|141:138,1,96,8|2,3:0|0:0,0:0:0:0:
101,45,48759,5,0,0:0:0:0:
101,45,48825,2,0,L|8:69,1,96,8|2,3:0|0:0,0:0:0:0:
10,79,49025,5,0,0:0:0:0:
10,79,49091,2,0,L|103:55,1,96,8|2,3:0|0:0,0:0:0:0:
143,148,49290,5,0,0:0:0:0:
143,148,49356,2,0,L|236:124,1,96,8|2,3:0|0:0,0:0:0:0:
238,134,49556,5,0,0:0:0:0:
238,134,49622,2,0,L|145:158,1,96,8|2,3:0|0:0,0:0:0:0:
105,65,49821,5,0,0:0:0:0:
105,65,49887,2,0,L|12:89,1,96,8|2,3:0|0:0,0:0:0:0:
14,99,50087,5,0,0:0:0:0:
14,99,50153,2,0,B|33:110|33:110|79:296,1,192,8|0,3:0|0:0,0:0:0:0:
14,322,50485,1,0,3:0:0:0:
15,329,50551,1,0,3:0:0:0:
17,337,50617,1,0,3:0:0:0:
91,362,50684,6,0,L|215:392,1,96,8|2,3:0|0:0,0:0:0:0:
264,298,50883,5,0,0:0:0:0:
264,298,50949,2,0,L|388:328,1,96,8|2,3:0|0:0,0:0:0:0:
360,311,51148,5,0,0:0:0:0:
360,311,51214,2,0,L|236:281,1,96,8|2,3:0|0:0,0:0:0:0:
187,375,51414,5,0,0:0:0:0:
187,375,51480,2,0,L|63:345,1,96,8|2,3:0|0:0,0:0:0:0:
95,342,51680,5,0,0:0:0:0:
95,342,51746,2,0,L|188:364,1,96,8|2,3:0|0:0,0:0:0:0:
268,278,51945,5,0,0:0:0:0:
268,278,52011,2,0,L|361:300,1,96,8|2,3:0|0:0,0:0:0:0:
364,291,52211,5,0,0:0:0:0:
364,291,52277,2,0,L|240:261,1,96,8|2,3:0|0:0,0:0:0:0:
191,355,52476,5,0,0:0:0:0:
191,355,52542,2,0,L|67:325,1,96,8|2,3:0|0:0,0:0:0:0:
99,322,52742,5,0,0:0:0:0:
99,322,52808,2,0,L|192:344,1,96,8|2,3:0|0:0,0:0:0:0:
272,258,53007,5,0,0:0:0:0:
273,258,53073,2,0,L|366:280,1,96,8|2,3:0|0:0,0:0:0:0:
368,270,53273,5,0,0:0:0:0:
368,270,53339,2,0,L|244:240,1,96,8|2,3:0|0:0,0:0:0:0:
436,198,53604,6,0,B|505:215|505:215|479:185,1,96
333,54,53870,2,0,B|402:36|402:36|376:66,1,96
435,208,54135,2,0,B|504:225|504:225|478:195,1,96
329,44,54401,2,0,B|398:26|398:26|372:56,1,96
449,118,54666,6,0,B|534:96|534:96|516:92|516:92|470:104,1,144,8|0,3:0|0:0,0:0:0:0:
368,138,54932,2,0,L|321:149,1,48
189,138,55064,6,0,B|218:21|218:21|249:-3,1,144,0|0,3:0|0:0,0:0:0:0:
245,10,55330,2,0,B|235:32|235:32|131:92,1,144,4|0,3:0|0:0,0:0:0:0:
64,67,55595,5,0,0:0:0:0:
48,70,55662,1,0,0:0:0:0:
32,74,55728,6,0,B|10:-11|10:-11|6:6|6:6|18:52,1,144,8|0,3:0|0:0,0:0:0:0:
52,155,55993,2,0,L|63:201,1,48
142,251,56126,6,0,B|124:280|124:280|-22:316,1,144,0|0,3:0|0:0,0:0:0:0:
17,319,56392,2,0,B|123:345|123:345|141:374,1,144,4|0,3:0|0:0,0:0:0:0:
216,382,56657,5,0,0:0:0:0:
231,378,56724,1,0,0:0:0:0:
247,374,56790,2,0,B|221:273|221:273|240:292|240:292|238:333,1,144,8|0,3:0|0:0,0:0:0:0:
321,327,57055,2,0,L|390:344,1,48,0|0,3:0|0:0,0:0:0:0:
512,284,57188,6,0,B|426:233|426:233|362:273,1,144,0|0,3:0|0:0,0:0:0:0:
384,247,57454,2,0,B|469:196|469:196|443:131,1,144,4|0,3:0|0:0,0:0:0:0:
461,148,57719,2,0,L|335:73,1,144,4|0,3:0|0:0,0:0:0:0:
329,80,57985,2,0,B|338:37|338:37|435:12,1,144,4|0,3:0|0:0,0:0:0:0:
436,2,58250,6,0,L|381:15,1,48,8|0,3:0|0:0,0:0:0:0:
256,98,58383,2,0,L|201:111,1,48,8|0,3:0|0:0,0:0:0:0:
100,39,58516,6,0,B|86:27|86:27|-1:15|-1:15|7:9|7:9|59:16,1,144,8|0,3:0|0:0,0:0:0:0:
111,36,58781,2,0,L|95:98,1,48
15,137,58914,2,0,B|34:158|34:158|158:189,1,144,8|0,3:0|0:0,0:0:0:0:
228,201,59179,2,0,L|243:263,1,48
178,309,59312,6,0,B|206:313|206:313|270:380|270:380|296:378,1,144,8|0,3:0|0:0,0:0:0:0:
295,370,59578,2,0,B|312:355|312:355|310:262|310:262|326:239,1,144,0|0,3:0|0:0,0:0:0:0:
386,288,59843,5,0,0:0:0:0:
401,291,59909,1,0,0:0:0:0:
417,295,59976,2,0,B|502:315|502:315|489:303|489:303|442:292,1,144,4|0,3:0|0:0,0:0:0:0:
424,213,60241,2,0,L|441:143,1,48
470,34,60374,6,0,B|497:57|497:57|380:28,1,144,8|0,3:0|0:0,0:0:0:0:
385,21,60640,2,0,B|368:29|368:29|345:93|345:93|328:96|328:96|283:144,1,144,4|0,3:0|0:0,0:0:0:0:
238,171,60905,5,0,0:0:0:0:
235,155,60971,1,0,0:0:0:0:
231,139,61038,2,0,B|215:76|215:76|218:71|218:71|199:-3,1,144,8|0,3:0|0:0,0:0:0:0:
119,0,61303,2,0,L|69:47,1,48,0|0,3:0|0:0,0:0:0:0:
0,121,61436,6,0,B|115:154|115:154|152:139,1,144,0|0,3:0|0:0,0:0:0:0:
138,136,61701,2,0,B|113:133|113:133|9:193,1,144,4|0,3:0|0:0,0:0:0:0:
2,198,61967,2,0,B|29:306|29:306|91:291,1,144,4|0,3:0|0:0,0:0:0:0:
64,289,62232,2,0,B|87:289|87:289|134:370|134:370|182:368,1,144,4|0,3:0|0:0,0:0:0:0:
168,363,62498,2,0,B|213:257|213:257|260:233,1,144,4|0,3:0|0:0,0:0:0:0:
321,260,62763,6,0,L|375:273,1,48,8|0,3:0|0:0,0:0:0:0:
512,303,62896,2,0,L|465:291,1,48,8|0,3:0|0:0,0:0:0:0:
311,258,63029,1,8,3:0:0:0:
434,171,63162,2,0,L|447:225,1,48,0|0,3:0|0:0,0:0:0:0:
489,377,63294,6,0,B|467:357|467:357|434:225,1,144,8|0,3:0|0:0,0:0:0:0:
431,241,63560,2,0,L|392:85,1,144,4|0,3:0|0:0,0:0:0:0:
455,48,63825,6,0,L|441:-6,1,48,8|0,3:0|0:0,0:0:0:0:
458,59,63958,1,0,3:0:0:0:
332,163,64091,6,0,L|320:116,1,48,8|0,3:0|0:0,0:0:0:0:
322,166,64224,2,0,L|281:4,1,144,4|0,3:0|0:0,0:0:0:0:
291,18,64489,2,0,B|274:23|274:23|194:102|194:102|189:124,1,144,0|0,3:0|0:0,0:0:0:0:
175,193,64755,6,0,L|74:218,1,90.0000034332277,8|0,3:0|0:0,0:0:0:0:
88,24,64887,2,0,B|5:4|5:4|14:25,1,90.0000034332277,8|0,3:0|0:0,0:0:0:0:
226,258,65023,2,0,B|152:276|152:276|182:283,1,90.0000034332277,8|0,3:0|0:0,0:0:0:0:
103,106,65163,2,0,B|40:90|40:90|83:117,1,83.9999974365235,8|0,3:0|0:0,0:0:0:0:
71,314,65307,6,0,B|24:325|24:325|68:324,1,83.9999974365235,8|0,3:0|0:0,0:0:0:0:
229,348,65455,6,0,B|218:389|218:389|239:351,1,77.9999964294435,8|0,3:0|0:0,0:0:0:0:
337,228,65608,6,0,B|362:248|362:248|327:197,1,71.9999978027344,8|0,3:0|0:0,0:0:0:0:
413,190,65765,6,0,B|424:219|424:219|419:158,1,66.0000020141602,8|0,3:0|0:0,0:0:0:0:
460,205,65928,6,0,B|455:236|455:236|481:180,1,60,8|0,3:0|0:0,0:0:0:0:
489,226,66054,6,0,B|472:247|472:247|520:215,1,53.9999983520508,8|0,3:0|0:0,0:0:0:0:
505,245,66184,6,0,B|484:257|484:257|533:246,1,48,8|0,3:0|0:0,0:0:0:0:
510,263,66319,6,0,B|468:262|468:262|530:282,1,83.9999974365235,8|0,3:0|0:0,0:0:0:0:
337,228,66459,6,0,B|319:196|319:196|333:260,1,96,8|0,3:0|0:0,0:0:0:0:
280,60,66605,6,0,B|297:30|297:30|231:90,1,107.999996704102,8|0,3:0|0:0,0:0:0:0:
441,12,66807,5,0,3:0:0:0:
433,43,66909,1,0,3:0:0:0:
426,75,67011,2,0,B|515:80|515:80|541:52|541:52|385:67|385:67|301:129|301:129|228:121|228:121|124:154|124:154|7:119|7:119|-13:62|-13:62|116:136|116:136|233:295|233:295|312:313|312:313|392:359|392:359|263:274|263:274|165:161|165:161|160:81|160:81|114:5,1,1727.99994726563,12|0,3:1|0:0,0:0:0:0:
255,301,72056,6,0,B|130:331|130:331,1,120,8|0,3:0|0:0,0:0:0:0:
4,360,72454,1,4,3:2:0:0:
137,317,72717,6,0,B|128:318|253:288,1,120,0|0,3:0|3:0,0:0:0:0:
240,384,73243,5,0,0:0:0:0:
318,364,73374,1,0,3:0:0:0:
240,384,73504,1,0,3:0:0:0:
396,344,73634,6,0,L|454:329,2,60,8|0|0,0:3|0:0|3:0,0:0:0:0:
340,287,74021,1,0,0:0:0:0:
338,279,74086,1,0,0:0:0:0:
337,271,74152,1,0,3:0:0:0:
315,194,74280,2,0,L|222:218,1,90,4|0,3:2|0:0,0:0:0:0:
218,218,74536,1,0,3:0:0:0:
144,146,74664,5,0,0:0:0:0:
58,167,74791,2,0,L|-4:182,1,60,0|0,3:0|0:0,0:0:0:0:
144,146,75045,1,0,0:0:0:0:
117,233,75172,2,0,L|47:251,1,60,0|0,3:0|3:0,0:0:0:0:
231,125,75425,5,0,0:0:0:0:
58,167,75551,1,0,0:0:0:0:
243,122,75677,2,0,L|421:77,1,155.999992858887,8|0,3:0|0:0,0:0:0:0:
511,53,76052,1,0,3:0:0:0:
335,193,76301,6,0,L|475:159,1,125.999996154785,4|0,3:2|0:0,0:0:0:0:
467,160,76549,1,0,3:0:0:0:
419,0,76796,5,0,0:0:0:0:
326,23,76918,1,0,3:0:0:0:
419,0,77041,1,0,3:0:0:0:
233,46,77165,2,0,B|213:57|213:57|192:143,1,90.0000034332277,8|0,0:3|0:0,0:0:0:0:
153,294,77408,2,0,L|176:200,1,96,0|0,3:0|0:0,0:0:0:0:
125,99,77652,5,0,0:0:0:0:
121,112,77733,1,0,0:0:0:0:
118,126,77814,1,0,0:0:0:0:
114,141,77894,1,0,0:0:0:0:
14,208,78015,5,0,3:0:0:0:
42,214,78137,1,8,0:3:0:0:
70,221,78257,1,0,3:0:0:0:
155,243,78377,5,0,0:0:0:0:
151,258,78457,1,0,0:0:0:0:
147,274,78537,1,0,0:0:0:0:
143,289,78617,2,0,L|118:386,1,96,4|0,3:2|3:0,0:0:0:0:
11,357,78855,1,0,0:0:0:0:
119,381,78974,5,0,3:0:0:0:
127,383,79034,1,0,3:0:0:0:
135,384,79093,1,8,3:0:0:0:
305,275,79330,5,0,0:0:0:0:
328,281,79448,1,4,3:2:0:0:
219,341,79683,2,0,L|382:381,1,153.000002918243,0|0,3:0|0:0,0:0:0:0:
378,382,79917,1,0,3:0:0:0:
430,232,80151,5,0,0:0:0:0:
512,251,80267,1,0,3:0:0:0:
430,232,80383,1,0,3:0:0:0:
396,153,80500,6,0,L|292:127,1,102.000001945496,8|0,0:3|0:0,0:0:0:0:
501,166,80730,2,0,L|393:138,1,102.000001945496,0|0,3:0|0:0,0:0:0:0:
277,200,80962,5,0,3:0:0:0:
238,190,81076,1,0,3:0:0:0:
199,180,81191,2,0,L|228:63,1,102.000001945496,4|0,0:2|3:0,0:0:0:0:
399,47,81420,5,0,0:0:0:0:
360,38,81533,1,0,3:0:0:0:
321,29,81647,2,0,L|291:145,1,102.000001945496,8|0,0:3|0:0,0:0:0:0:
211,265,81875,5,0,3:0:0:0:
172,255,81987,1,0,3:0:0:0:
116,198,82100,1,0,0:0:0:0:
77,188,82212,1,0,0:0:0:0:
8,251,82326,6,0,B|93:272|93:272|128:330|128:330|221:353,1,240,8|0,3:0|0:0,0:0:0:0:
219,353,82661,1,4,3:2:0:0:
363,222,82885,6,0,L|502:256,1,144,0|0,3:0|0:0,0:0:0:0:
512,259,83107,1,0,3:0:0:0:
279,214,83328,5,0,0:0:0:0:
361,233,83438,1,0,3:0:0:0:
279,214,83548,1,0,3:0:0:0:
239,132,83660,2,0,L|145:108,1,96,8|0,0:3|0:0,0:0:0:0:
105,3,83878,5,0,3:0:0:0:
96,42,83988,1,0,0:0:0:0:
26,83,84097,1,0,0:0:0:0:
96,42,84205,5,0,0:0:0:0:
145,108,84313,1,0,0:0:0:0:
136,147,84423,1,8,3:0:0:0:
23,203,84639,5,0,0:0:0:0:
62,212,84747,2,0,L|170:239,1,90.0000034332277,0|0,0:0|3:0,0:0:0:0:
243,123,84963,2,0,L|351:150,1,90.0000034332277
414,323,85177,2,0,L|522:350,1,90.0000034332277,8|0,3:0|0:0,0:0:0:0:
339,384,85392,6,0,B|327:364|327:364|367:201,1,180.000006866455,8|0,3:0|0:0,0:0:0:0:
401,70,85711,1,4,3:2:0:0:
439,245,85922,6,0,L|473:105,1,135.000005149841,0|0,3:0|0:0,0:0:0:0:
475,104,86133,1,0,3:0:0:0:
201,0,86449,5,0,0:0:0:0:
180,86,86554,1,0,3:0:0:0:
201,0,86659,1,8,0:3:0:0:
21,150,86867,5,0,3:0:0:0:
5,229,86971,1,0,0:0:0:0:
13,231,87023,1,0,0:0:0:0:
21,233,87076,2,0,L|0:320,1,90.0000034332277,0|8,0:0|3:0,0:0:0:0:
77,337,87282,2,0,L|99:250,1,90.0000034332277,0|0,0:0|3:0,0:0:0:0:
170,223,87489,5,8,0:3:0:0:
177,224,87540,1,0,0:0:0:0:
185,226,87591,1,0,3:0:0:0:
270,248,87694,2,0,L|370:273,1,90.0000034332277,0|0,3:0|0:0,0:0:0:0:
415,201,87900,2,0,L|502:222,1,90.0000034332277,4|0,3:2|0:0,0:0:0:0:
355,283,88104,5,0,0:0:0:0:
433,303,88206,1,0,3:0:0:0:
355,283,88308,2,0,L|302:73,1,209.999993591309,8|0,3:0|0:0,0:0:0:0:
301,70,88612,1,4,3:2:0:0:
93,19,88814,2,0,L|240:55,1,125.999996154785,0|0,3:0|0:0,0:0:0:0:
224,51,89016,1,0,3:0:0:0:
462,19,89316,5,0,0:0:0:0:
484,106,89416,1,0,3:0:0:0:
462,19,89517,2,0,L|368:-4,1,83.9999974365235,8|0,0:3|0:0,0:0:0:0:
296,175,89715,2,0,L|202:151,1,83.9999974365235,0|0,3:0|0:0,0:0:0:0:
134,133,89914,5,8,0:3:0:0:
120,129,89979,1,0,0:0:0:0:
106,126,90045,1,0,0:0:0:0:
93,122,90111,1,0,0:0:0:0:
25,98,90210,1,0,3:0:0:0:
93,122,90309,6,0,L|113:203,1,83.9999974365235,8|0,0:3|3:0,0:0:0:0:
134,288,90505,5,0,0:0:0:0:
120,284,90570,1,0,0:0:0:0:
106,281,90635,1,0,0:0:0:0:
93,277,90701,2,0,B|112:298|112:298|267:337,1,167.999994873047,4|0,3:2|0:0,0:0:0:0:
320,348,90993,5,0,3:0:0:0:
327,349,91041,1,0,3:0:0:0:
335,351,91091,2,0,B|362:341|362:341|532:383,1,167.999994873047,8|0,3:0|0:0,0:0:0:0:
505,370,91381,1,4,3:2:0:0:
294,250,91574,2,0,L|454:209,1,125.999996154785,0|0,3:0|0:0,0:0:0:0:
425,217,91766,1,0,3:0:0:0:
426,100,91958,5,0,0:0:0:0:
511,79,92054,1,0,3:0:0:0:
426,100,92149,1,0,3:0:0:0:
374,38,92245,1,8,0:3:0:0:
150,95,92434,6,0,L|170:176,1,83.9999974365235,0|0,3:0|0:0,0:0:0:0:
294,250,92625,1,8,0:3:0:0:
284,211,92719,1,0,3:0:0:0:
240,39,92908,1,0,3:0:0:0:
230,0,93002,1,8,3:0:0:0:
33,82,93189,6,0,L|60:190,1,83.9999974365235
219,361,93378,2,0,L|198:279,1,83.9999974365235,8|0,3:0|0:0,0:0:0:0:
259,111,93564,1,0,3:0:0:0:
271,164,93657,1,0,0:0:0:0:
284,211,93750,6,0,L|435:173,1,155.999992858887,4|0,3:0|0:0,0:0:0:0:
445,171,94027,1,0,3:0:0:0:
283,299,94213,2,0,L|414:266,1,116.999994644165,8|0,3:0|0:0,0:0:0:0:
405,268,94397,1,4,3:2:0:0:
219,361,94580,5,0,0:0:0:0:
141,381,94671,1,0,3:0:0:0:
219,361,94763,1,0,3:0:0:0:
141,381,94854,1,8,0:3:0:0:
37,304,95036,5,0,3:0:0:0:
38,296,95082,1,0,3:0:0:0:
40,288,95127,1,0,3:0:0:0:
59,218,95218,2,0,L|78:140,1,77.9999964294435,8|0,0:3|0:0,0:0:0:0:
43,75,95398,1,0,3:0:0:0:
65,2,95519,5,0,3:0:0:0:
77,0,95579,1,8,3:0:0:0:
161,74,95699,1,0,3:0:0:0:
172,72,95759,1,8,3:0:0:0:
285,34,95939,5,8,3:0:0:0:
356,22,96028,1,0,3:0:0:0:
364,20,96073,1,0,3:0:0:0:
372,19,96117,1,0,3:0:0:0:
442,8,96206,1,0,3:0:0:0:
512,2,96295,6,0,B|484:88|484:88|484:117|484:117|463:187,1,192,8|0,3:0|0:0,0:0:0:0:
507,268,96561,2,0,B|466:261|466:261|407:174|407:174|401:109,1,204.000003890991,8|0,3:0|0:0,0:0:0:0:
320,101,96827,2,0,B|312:123|312:123|354:257|354:257|338:278|338:278|325:330,1,215.999993408203,8|0,3:0|0:0,0:0:0:0:
363,383,97093,2,0,B|327:390|327:390|234:354|234:354|247:367|247:367|147:338|147:338|165:335|165:335|111:319|111:319|71:308,1,360,8|0,3:0|0:0,0:0:0:0:
72,0,97537,6,0,B|33:9|44:56|44:56|50:58|50:58|67:127|67:127|64:133|64:133|77:188|155:168|141:114|141:114|135:108|135:108|117:41|117:41|122:37|122:37|110:-9|72:0|72:0,1,431.999986816407,12|0,3:1|0:0,0:0:0:0:
92,84,97892,5,2,0:0:0:0:
92,84,98010,1,2,0:0:0:0:
92,84,98128,1,2,0:0:0:0:
199,60,98247,1,2,0:0:0:0:
16,102,98365,1,2,0:0:0:0:
199,60,98483,1,2,0:0:0:0:
199,60,98602,1,2,0:0:0:0:
65,246,98779,6,0,B|40:252|40:252|-8:264|8:330|56:319|56:319|155:294|155:294|158:297|158:297|213:284|213:284|267:270|248:193|193:206,1,431.999986816407,12|0,3:1|0:0,0:0:0:0:
149,325,99134,6,0,P|162:366|216:374,1,102.000001945496,8|0,3:0|0:0,0:0:0:0:
287,355,99311,2,0,L|385:330,1,102.000001945496,2|0,3:0|0:0,0:0:0:0:
492,306,99489,5,0,3:0:0:0:
496,290,99578,1,2,3:0:0:0:
512,138,99755,5,2,3:0:0:0:
496,134,99844,1,2,3:0:0:0:
467,61,99932,1,2,3:0:0:0:
452,57,100021,6,0,B|457:4|415:-15|363:-13|348:44|348:44|355:46|355:46|355:84|392:98|392:98|372:176|372:176|362:216|409:227|419:188|419:188|432:134,1,431.999986816407,12|0,3:1|0:0,0:0:0:0:
358,106,100376,6,0,L|241:135,1,102.000001945496,8|0,3:0|0:0,0:0:0:0:
182,150,100553,2,0,P|125:143|100:97,1,102.000001945496,2|0,3:0|0:0,0:0:0:0:
2,41,100731,5,0,3:0:0:0:
6,57,100820,1,2,3:0:0:0:
0,289,100997,5,2,3:0:0:0:
4,305,101086,1,2,3:0:0:0:
100,335,101174,1,2,3:0:0:0:
104,351,101264,6,0,B|82:338|82:338|78:323|78:323|80:316|80:316|61:239|61:239|57:237|57:237|49:206|80:199|80:199|155:180|155:180|185:174|194:205|194:205|171:212|156:235|162:261|162:261|184:348,1,431.999986816407,12|0,3:1|0:0,0:0:0:0:
254,363,101619,6,0,P|293:358|328:294,1,102.000001945496,8|0,3:0|0:0,0:0:0:0:
335,227,101796,2,0,L|459:257,1,102.000001945496,2|0,3:0|0:0,0:0:0:0:
510,272,101974,1,0,3:0:0:0:
266,207,102151,5,2,3:0:0:0:
268,199,102195,1,2,3:0:0:0:
270,191,102240,1,2,3:0:0:0:
288,121,102329,1,0,3:0:0:0:
234,37,102417,1,0,3:0:0:0:
221,34,102506,6,0,B|230:-5|277:6|277:6|279:12|279:12|348:29|348:29|354:26|354:26|409:39|389:117|335:103|335:103|329:97|329:97|262:79|262:79|258:84|258:84|212:72|221:34|221:34,1,431.999986816407,12|0,3:1|0:0,0:0:0:0:
142,19,102861,2,0,B|72:1|72:1|81:-5|81:-5|136:9,1,102.000001945496,8|0,3:0|0:0,0:0:0:0:
350,66,103038,2,0,L|458:93,1,102.000001945496,2|0,3:0|0:0,0:0:0:0:
512,7,103216,5,0,3:0:0:0:
504,38,103304,1,2,3:0:0:0:
496,234,103482,5,2,3:0:0:0:
464,226,103570,1,2,3:0:0:0:
403,157,103659,1,2,3:0:0:0:
371,149,103749,6,0,B|361:187|386:218|386:218|382:221|382:221|355:330|355:330|357:335|357:335|314:341|303:387|303:387|314:341|279:315|279:315|299:267|357:277,1,431.999986816407,12|0,3:1|0:0,0:0:0:0:
439,308,104104,6,0,B|469:320|466:359|466:359|420:347,1,102.000001945496,8|0,3:0|0:0,0:0:0:0:
228,370,104281,2,0,L|127:344,1,102.000001945496,2|0,3:0|0:0,0:0:0:0:
67,279,104459,5,0,3:0:0:0:
75,246,104548,1,2,3:0:0:0:
131,17,104725,5,2,3:0:0:0:
98,9,104814,1,2,3:0:0:0:
30,45,104902,1,2,3:0:0:0:
22,77,104992,6,0,B|14:108|38:114|38:114|43:112|43:112|143:136|143:136|146:140|146:140|162:79|162:79|168:55|145:49|145:49|36:22|36:22|13:16|4:47|4:47|1:59,1,431.999986816407,12|0,3:1|0:0,0:0:0:0:
96,156,105347,6,0,L|236:190,1,102.000001945496,8|0,3:0|0:0,0:0:0:0:
352,62,105524,5,2,3:0:0:0:
311,94,105613,1,2,3:0:0:0:
305,117,105702,2,0,B|285:195|285:195|280:185|280:185|285:162,1,102.000001945496,2|0,3:0|0:0,0:0:0:0:
302,360,105879,5,2,3:0:0:0:
342,328,105968,1,2,3:0:0:0:
348,305,106057,2,0,B|360:257|360:257|351:263|351:263|339:309,1,102.000001945496,2|0,3:0|0:0,0:0:0:0:
494,180,106234,6,0,B|510:113|510:113|515:111|515:111|517:49|456:31|456:31|415:197|415:197|409:200|409:200|436:223|434:264,1,431.999986816407,12|0,3:1|0:0,0:0:0:0:
512,307,106589,6,0,P|498:361|424:378,1,113.999996955872,8|0,3:0|0:0,0:0:0:0:
302,360,106766,2,0,L|177:329,1,113.999996955872,2|0,3:0|0:0,0:0:0:0:
92,308,106944,5,2,3:0:0:0:
46,297,107032,1,2,3:0:0:0:
0,286,107121,2,0,B|-5:262|17:256|17:256|148:224|148:224|147:221|147:221|148:224|148:224|168:219|168:219|190:213|196:238|174:243|174:243|154:248|154:248|155:251|155:251|154:248|154:248|61:271,1,360,2|0,3:0|0:0,0:0:0:0:
26,177,107477,6,0,B|85:163|85:163|87:135|110:111,1,95.9999970703126,12|0,3:1|0:0,0:0:0:0:
105,125,107595,2,0,B|63:80|63:80|38:93|5:85,1,95.9999970703126,8|0,3:0|0:0,0:0:0:0:
20,82,107713,2,0,B|2:140|2:140|25:155|35:187,1,95.9999970703126,8|0,3:0|0:0,0:0:0:0:
49,128,107832,5,2,3:0:0:0:
49,128,107964,1,2,3:0:0:0:
208,90,108095,1,2,3:0:0:0:
208,90,108225,1,2,3:0:0:0:
208,90,108355,1,2,3:0:0:0:
49,128,108484,1,2,3:0:0:0:
303,67,108612,1,2,3:0:0:0:
310,78,108697,6,0,B|327:101|346:106|346:106|341:107|341:107|369:115|395:101,1,95.9999970703126,12|0,3:1|0:0,0:0:0:0:
379,135,108810,2,0,B|407:130|421:116|421:116|419:122|419:122|440:102|441:72,1,95.9999970703126,8|0,3:0|0:0,0:0:0:0:
465,104,108924,2,0,B|474:75|470:58|470:58|472:62|472:62|466:33|441:16,1,95.9999970703126,8|0,3:0|0:0,0:0:0:0:
370,0,109037,6,0,L|394:99,1,102.000001945496,8|0,3:0|0:0,0:0:0:0:
468,7,109208,2,0,L|493:106,1,102.000001945496,2|0,3:0|0:0,0:0:0:0:
512,179,109378,1,0,3:0:0:0:
498,233,109463,1,2,3:0:0:0:
444,384,109634,1,2,3:0:0:0:
430,329,109719,1,2,3:0:0:0:
416,275,109804,1,2,3:0:0:0:
404,224,109890,6,0,B|347:263|347:263|302:254,1,95.9999970703126,12|0,3:1|0:0,0:0:0:0:
311,247,110003,2,0,B|253:285|253:285|244:330,1,95.9999970703126,8|0,3:0|0:0,0:0:0:0:
259,322,110117,2,0,B|202:361|202:361|157:352,1,95.9999970703126,8|0,3:0|0:0,0:0:0:0:
104,315,110230,6,0,L|-12:344,1,102.000001945496,8|0,3:0|0:0,0:0:0:0:
122,135,110401,1,2,3:0:0:0:
68,149,110486,1,2,3:0:0:0:
13,163,110571,2,0,B|22:178|22:178|75:213|75:213|97:208|97:208|164:252|164:252|174:268,1,204.000003890991,2|2,3:0|3:0,0:0:0:0:
104,315,110827,1,2,3:0:0:0:
90,261,110912,1,2,3:0:0:0:
171,47,111083,6,0,B|179:38|191:36|191:36|194:41|194:41|223:69|233:114,1,95.9999970703126,12|0,3:1|0:0,0:0:0:0:
244,97,111196,2,0,B|255:99|263:108|263:108|260:113|260:113|250:153|216:184,1,95.9999970703126,8|0,3:0|0:0,0:0:0:0:
237,185,111310,2,0,B|240:196|236:207|236:207|230:207|230:207|191:219|147:205,1,95.9999970703126,8|0,3:0|0:0,0:0:0:0:
122,135,111423,6,0,L|222:109,1,102.000001945496,8|0,3:0|0:0,0:0:0:0:
426,102,111594,1,2,3:0:0:0:
481,88,111679,1,2,3:0:0:0:
511,39,111764,2,0,B|441:56|441:56|472:15,1,102.000001945496,2|0,3:0|0:0,0:0:0:0:
339,9,111935,1,2,3:0:0:0:
327,63,112020,1,2,3:0:0:0:
341,117,112105,1,2,3:0:0:0:
354,171,112190,1,2,3:0:0:0:
397,200,112276,6,0,B|439:214|439:214|444:212|444:212|443:217|443:217|459:275,1,95.9999970703126,12|0,3:1|0:0,0:0:0:0:
465,269,112389,2,0,B|431:298|431:298|431:303|431:303|427:300|427:300|368:285,1,95.9999970703126,8|0,3:0|0:0,0:0:0:0:
371,293,112503,2,0,B|362:249|362:249|357:246|357:246|362:244|362:244|404:201,1,95.9999970703126,8|0,3:0|0:0,0:0:0:0:
404,188,112616,6,0,L|512:215,1,102.000001945496,8|0,3:0|0:0,0:0:0:0:
471,331,112787,2,0,L|372:306,1,102.000001945496,2|0,3:0|0:0,0:0:0:0:
299,360,112957,1,2,3:0:0:0:
285,306,113042,1,2,3:0:0:0:
246,153,113213,1,2,3:0:0:0:
232,207,113298,1,2,3:0:0:0:
218,261,113383,1,2,3:0:0:0:
205,316,113469,6,0,B|188:339|169:344|169:344|174:345|174:345|146:353|120:339,1,95.9999970703126,12|0,3:1|0:0,0:0:0:0:
136,373,113582,2,0,B|108:368|94:354|94:354|96:360|96:360|75:340|74:310,1,95.9999970703126,8|0,3:0|0:0,0:0:0:0:
50,342,113696,2,0,B|41:313|45:296|45:296|43:300|43:300|49:271|74:254,1,95.9999970703126,8|0,3:0|0:0,0:0:0:0:
0,212,113809,6,0,L|108:239,1,102.000001945496,8|0,3:0|0:0,0:0:0:0:
63,134,113980,2,0,L|171:161,1,102.000001945496,2|0,3:0|0:0,0:0:0:0:
270,71,114150,1,2,3:0:0:0:
256,16,114236,1,2,3:0:0:0:
217,56,114321,1,2,3:0:0:0:
271,42,114406,1,2,3:0:0:0:
325,28,114491,1,2,3:0:0:0:
380,15,114576,1,2,3:0:0:0:
429,37,114662,6,0,B|416:49|416:49|438:110|438:110|456:112,1,95.9999970703126,12|0,3:1|0:0,0:0:0:0:
464,120,114775,2,0,B|478:121|478:121|499:181|499:181|487:194,1,95.9999970703126,8|0,3:0|0:0,0:0:0:0:
489,209,114889,2,0,B|476:221|476:221|498:282|498:282|512:283,1,95.9999970703126,8|0,3:0|0:0,0:0:0:0:
506,360,115002,6,0,L|397:332,1,102.000001945496,8|0,3:0|0:0,0:0:0:0:
293,154,115173,1,2,3:0:0:0:
347,168,115258,1,2,3:0:0:0:
399,182,115343,2,0,B|367:189|367:189|309:319|309:319|270:329,1,204.000003890991,2|2,3:0|3:0,0:0:0:0:
210,380,115599,1,2,3:0:0:0:
196,326,115684,1,2,3:0:0:0:
154,104,115856,6,0,B|134:80|99:85|71:104|75:147|75:147|81:147|81:147|98:192|159:176|159:176|217:162|217:162|267:149|284:218|235:231|235:231|192:241,1,431.999986816407,12|0,3:1|0:0,0:0:0:0:
95,263,116196,6,0,B|25:280|25:280|85:290,1,102.000001945496,8|0,3:0|0:0,0:0:0:0:
124,137,116367,2,0,L|248:106,1,102.000001945496,2|0,3:0|0:0,0:0:0:0:
47,33,116537,1,2,3:0:0:0:
8,42,116623,1,2,3:0:0:0:
303,110,116878,5,2,3:0:0:0:
373,93,116964,1,2,3:0:0:0:
455,72,117049,6,0,B|427:81|427:81|311:52|311:52|268:25|268:25|385:54,1,270.000010299683,8|0,3:0|0:0,0:0:0:0:
465,0,117389,2,0,L|517:209,1,180.000006866455,8|0,3:0|0:0,0:0:0:0:
442,241,117645,2,0,B|317:271|317:271|370:243,1,180.000006866455,4|0,3:0|0:0,0:0:0:0:
459,239,117901,2,0,L|393:302,1,90.0000034332277,2|0,3:0|0:0,0:0:0:0:
333,367,118071,2,0,L|245:342,1,90.0000034332277,8|0,3:0|0:0,0:0:0:0:
159,361,118242,2,0,L|137:273,1,90.0000034332277,2|0,3:0|0:0,0:0:0:0:
106,164,118412,6,0,L|73:33,1,135.000005149841,8|0,3:0|0:0,0:0:0:0:
71,25,118583,1,4,3:2:0:0:
187,140,118753,2,0,L|155:8,1,135.000005149841,8|0,3:0|0:0,0:0:0:0:
153,0,118924,1,4,3:2:0:0:
4,186,119094,6,0,B|38:178|38:178|240:228,1,180.000006866455,8|0,3:0|0:0,0:0:0:0:
259,134,119350,2,0,B|293:141|293:141|495:91,1,180.000006866455,8|0,3:0|0:0,0:0:0:0:
512,54,119605,1,2,3:0:0:0:
509,72,119691,1,2,3:0:0:0:
505,88,119777,1,8,3:0:0:0:
429,300,119946,2,0,L|407:212,1,90.0000034332277,2|0,3:0|3:0,0:0:0:0:
377,91,120117,2,0,B|350:-17|350:-17|350:60,1,180.000006866455,4|0,3:1|0:0,0:0:0:0:
340,282,120458,6,0,B|351:301|351:301|514:342|514:342|479:349|479:349|402:330,1,270.000010299683,8|0,3:0|0:0,0:0:0:0:
292,365,120799,2,0,B|326:231|326:231|290:166,1,180.000006866455,8|0,3:0|0:0,0:0:0:0:
236,247,121054,2,0,B|129:333|129:333|71:323,1,180.000006866455,4|0,3:0|0:0,0:0:0:0:
0,319,121310,2,0,B|9:274|9:274|7:270|7:270|78:236,1,90.0000034332277,2|0,3:0|0:0,0:0:0:0:
8,166,121480,2,0,B|51:151|51:151|54:148|54:148|118:192,1,90.0000034332277,8|0,3:0|0:0,0:0:0:0:
144,97,121651,2,0,B|177:127|177:127|182:128|182:128|176:206,1,90.0000034332277,2|0,3:0|0:0,0:0:0:0:
10,178,121821,2,0,L|110:152,1,90.0000034332277,8|0,3:0|0:0,0:0:0:0:
203,24,121992,5,2,3:0:0:0:
249,12,122077,1,2,3:0:0:0:
296,0,122162,2,0,B|333:12|333:12|436:147|436:147|429:103|429:103|383:66,1,297.000002832413,8|0,3:0|0:0,0:0:0:0:
491,45,122503,2,0,L|438:254,1,198.000001888275,8|0,3:0|0:0,0:0:0:0:
512,291,122759,2,0,B|476:317|476:317|364:340|364:340|325:377,1,198.000001888275,4|0,3:2|0:0,0:0:0:0:
242,384,123014,1,2,3:0:0:0:
236,360,123100,1,2,3:0:0:0:
230,337,123185,1,8,3:0:0:0:
339,234,123355,2,0,B|366:257|366:257|280:235,1,99.0000009441376,2|0,3:0|0:0,0:0:0:0:
76,197,123526,2,0,L|-1:177,5,66.0000006294251,4|2|2|2|2|2,3:1|0:0|0:0|0:0|0:0|0:0,0:0:0:0:
135,142,123867,6,0,B|77:-3|77:-3|76:61|76:61|127:136,1,306.000005836487,8|0,3:0|0:0,0:0:0:0:
190,224,124208,2,0,B|214:208|214:208|254:24,1,204.000003890991,8|0,3:0|0:0,0:0:0:0:
335,0,124463,2,0,B|351:15|351:15|381:150|381:150|419:160|419:160|459:172,1,204.000003890991,4|0,3:0|0:0,0:0:0:0:
512,128,124719,2,0,L|441:201,1,102.000001945496,2|0,3:0|0:0,0:0:0:0:
454,281,124890,2,0,L|355:309,1,102.000001945496,8|0,3:0|0:0,0:0:0:0:
327,384,125060,2,0,L|228:359,1,102.000001945496,2|0,3:0|0:0,0:0:0:0:
31,310,125230,6,0,B|36:300|36:300|0:152,1,153.000002918243,8|0,3:0|0:0,0:0:0:0:
0,152,125401,1,4,3:2:0:0:
124,286,125571,2,0,B|114:280|114:280|77:132,1,153.000002918243,8|0,3:0|0:0,0:0:0:0:
77,133,125742,1,4,3:2:0:0:
104,375,125912,6,0,B|131:357|131:357|185:194,1,204.000003890991,8|0,3:0|0:0,0:0:0:0:
277,183,126168,2,0,B|266:144|266:144|154:23,1,204.000003890991,8|0,3:0|0:0,0:0:0:0:
71,0,126424,1,2,3:0:0:0:
55,27,126509,1,2,3:0:0:0:
39,55,126594,1,8,3:0:0:0:
211,129,126764,2,0,B|297:98|297:98|241:83,1,102.000001945496,2|0,3:0|3:0,0:0:0:0:
408,0,126935,2,0,B|440:16|440:16|503:154|503:154|472:137,1,204.000003890991,4|0,3:1|0:0,0:0:0:0:
307,381,127276,6,0,L|390:47,1,315.000003004074,8|0,3:0|0:0,0:0:0:0:
490,59,127617,2,0,B|452:148|452:148|421:164|421:164|373:226,1,210.000002002716,8|0,3:0|0:0,0:0:0:0:
420,304,127872,2,0,B|379:322|379:322|263:278|263:278|202:289,1,210.000002002716,4|0,3:2|0:0,0:0:0:0:
164,357,128128,2,0,B|124:319|124:319|144:223,1,105.000001001358,2|0,3:0|0:0,0:0:0:0:
29,239,128299,2,0,B|41:186|41:186|134:155,1,105.000001001358,8|0,3:0|0:0,0:0:0:0:
63,64,128469,2,0,B|114:48|114:48|188:114,1,105.000001001358,2|0,3:0|0:0,0:0:0:0:
40,243,128639,2,0,L|69:126,1,105.000001001358,8|0,3:0|0:0,0:0:0:0:
209,0,128810,5,2,3:0:0:0:
222,54,128895,1,2,3:0:0:0:
236,108,128980,2,0,B|262:132|262:132|429:164|429:164|485:117,1,227.999993911743,8|0,3:0|0:0,0:0:0:0:
479,65,129236,1,0,3:0:0:0:
409,82,129321,2,0,B|383:199|383:199|406:223|406:223|431:345,1,227.999993911743,8|0,3:0|0:0,0:0:0:0:
503,334,129577,2,0,B|523:379|523:379|414:325|414:325|340:344,1,227.999993911743,4|0,3:0|0:0,0:0:0:0:
286,383,129833,2,0,B|275:357|275:357|307:233,1,113.999996955872,2|0,3:0|0:0,0:0:0:0:
169,232,130003,2,0,B|147:214|147:214|113:92,1,113.999996955872,8|0,3:0|0:0,0:0:0:0:
250,50,130174,2,0,B|260:75|260:75|228:199,1,113.999996955872,2|0,3:0|0:0,0:0:0:0:
193,331,130344,2,0,B|179:385|179:385|189:379|189:379|194:356,5,75.9999979705811,4|2|2|2|2|0,3:1|0:0|0:0|0:0|0:0|0:0,0:0:0:0:
196,321,130685,5,8,3:0:0:0:
117,316,130770,1,0,3:0:0:0:
53,277,130855,1,0,3:0:0:0:
16,217,130941,1,8,3:0:0:0:
6,153,131026,1,0,3:0:0:0:
22,96,131111,1,8,3:0:0:0:
53,51,131196,1,0,3:0:0:0:
93,23,131281,1,0,3:0:0:0:
135,7,131367,1,0,3:0:0:0:
174,4,131452,1,0,3:0:0:0:
244,60,131537,5,8,3:0:0:0:
259,56,131622,1,0,3:0:0:0:
275,52,131708,1,0,3:0:0:0:
290,48,131793,1,8,3:0:0:0:
306,44,131878,1,0,3:0:0:0:
321,40,131963,1,0,3:0:0:0:
390,94,132049,5,0,3:0:0:0:
363,145,132134,1,8,3:0:0:0:
325,167,132219,1,0,3:0:0:0:
280,163,132304,1,0,3:0:0:0:
253,146,132389,1,8,3:0:0:0:
244,127,132475,1,0,3:0:0:0:
233,110,132560,1,0,3:0:0:0:
209,91,132645,1,8,3:0:0:0:
170,82,132730,1,0,3:0:0:0:
127,95,132816,1,0,3:0:0:0:
94,132,132901,1,8,3:0:0:0:
91,186,132986,1,0,3:0:0:0:
0,197,133071,5,0,3:0:0:0:
27,260,133156,1,0,3:0:0:0:
83,291,133242,1,8,3:0:0:0:
137,307,133327,1,0,3:0:0:0:
187,319,133412,1,0,3:0:0:0:
230,329,133497,1,8,3:0:0:0:
266,340,133583,1,0,3:0:0:0:
297,346,133668,1,0,3:0:0:0:
322,351,133753,1,0,3:0:0:0:
347,356,133839,1,8,3:0:0:0:
371,363,133924,1,0,3:0:0:0:
397,369,134009,1,0,3:0:0:0:
489,384,134094,5,8,3:0:0:0:
499,361,134179,1,0,3:0:0:0:
502,321,134264,1,0,3:0:0:0:
479,276,134350,1,8,3:0:0:0:
425,250,134435,1,0,3:0:0:0:
355,248,134520,1,0,3:0:0:0:
292,208,134605,1,8,3:0:0:0:
268,141,134691,1,0,3:0:0:0:
277,82,134776,1,0,3:0:0:0:
308,43,134861,1,0,3:0:0:0:
341,21,134946,1,8,3:0:0:0:
370,16,135031,1,0,3:0:0:0:
394,16,135117,1,0,3:0:0:0:
418,21,135202,1,8,3:0:0:0:
440,31,135287,1,0,3:0:0:0:
460,45,135372,1,0,3:0:0:0:
477,62,135458,1,0,3:0:0:0:
489,83,135543,1,8,3:0:0:0:
498,105,135628,1,0,3:0:0:0:
501,129,135713,1,0,3:0:0:0:
447,186,135799,5,8,3:0:0:0:
415,178,135884,1,0,3:0:0:0:
377,168,135969,1,0,3:0:0:0:
330,156,136054,1,8,3:0:0:0:
268,141,136139,1,0,3:0:0:0:
198,124,136225,1,0,3:0:0:0:
121,104,136310,1,8,3:0:0:0:
45,85,136395,5,0,3:0:0:0:
23,9,136480,1,0,3:0:0:0:
81,55,136566,1,0,3:0:0:0:
121,104,136651,1,8,3:0:0:0:
151,154,136736,1,0,3:0:0:0:
169,205,136821,1,0,3:0:0:0:
179,253,136906,1,8,3:0:0:0:
181,297,136992,1,0,3:0:0:0:
179,336,137077,1,0,3:0:0:0:
253,384,137162,5,0,3:0:0:0:
269,348,137247,1,8,3:0:0:0:
290,320,137333,1,0,3:0:0:0:
312,301,137418,1,0,3:0:0:0:
332,287,137503,6,0,B|495:322|495:322|408:217|408:217|245:251|245:251|235:272|235:272|3:324|3:324|40:154|40:154|82:267|82:267|69:323|69:323|122:378|122:378|212:83|212:83|211:79|211:79|233:5|233:5,1,1511.99995385742,12|0,3:1|0:0,0:0:0:0:
222,40,139975,2,0,B|40:75|40:75|-1:43|-1:43|105:50|105:50|263:121|263:121|441:68|441:68|486:5|486:5|382:81|382:81|338:178|338:178|341:198|341:198|291:380|291:380|358:202|358:202|519:162|519:162|448:304|448:304|447:298|447:298|109:143|109:143|170:199|170:199|195:275,1,2267.99993078613
210,334,143639,5,0,3:0:0:0:
199,336,143725,1,0,3:0:0:0:
185,340,143810,1,0,3:0:0:0:
169,344,143895,1,0,3:0:0:0:
148,349,143980,1,0,3:0:0:0:
124,355,144066,1,0,3:0:0:0:
97,362,144151,1,0,3:0:0:0:
67,369,144236,1,0,3:0:0:0:
8,319,144321,6,0,B|32:297|32:297|76:139|76:139|112:110,1,227.999993911743,8|0,3:0|0:0,0:0:0:0:
67,51,144577,2,0,B|16:91|16:91|41:49,1,107.999996704102,8|0,3:0|0:0,0:0:0:0:
130,3,144833,2,0,B|154:25|154:25|198:183|198:183|234:212,1,227.999993911743,4|0,3:1|0:0,0:0:0:0:
508,272,145174,6,0,B|407:357|407:357|397:379,1,155.999992858887,8|0,3:0|0:0,0:0:0:0:
406,384,145429,2,0,B|414:361|414:361|401:204,1,155.999992858887,8|0,3:0|0:0,0:0:0:0:
437,133,145685,5,0,3:0:0:0:
442,147,145770,2,0,B|454:175|454:175|474:200|474:200|458:141|458:141|470:55,1,180.000006866455,8|0,3:0|0:0,0:0:0:0:
430,0,146026,2,0,B|399:21|399:21|303:243,1,227.999993911743,8|0,3:0|0:0,0:0:0:0:
285,262,146281,2,0,B|234:283|234:283|243:268|243:268|280:251,1,107.999996704102,8|0,3:0|0:0,0:0:0:0:
381,278,146537,2,0,B|360:309|360:309|138:405,1,227.999993911743,4|0,3:1|0:0,0:0:0:0:
0,193,146878,6,0,B|-7:223|-7:223|92:280|92:280|132:263,1,180.000006866455,8|0,3:0|0:0,0:0:0:0:
135,259,147134,2,0,B|158:176|158:176|229:136|229:136|126:270,1,270.000010299683,8|0,3:0|0:0,0:0:0:0:
81,173,147475,1,0,3:0:0:0:
69,127,147560,1,0,3:0:0:0:
12,84,147645,1,0,3:0:0:0:
0,38,147730,6,0,B|40:29|40:29|184:51|184:51|236:28,1,227.999993911743,8|0,3:0|0:0,0:0:0:0:
291,0,147986,2,0,B|308:21|308:21|365:32|365:32|403:56,1,107.999996704102,8|0,3:0|0:0,0:0:0:0:
467,94,148242,2,0,B|436:121|436:121|301:174|301:174|267:220,1,227.999993911743,4|0,3:1|0:0,0:0:0:0:
74,362,148583,6,0,B|7:320|7:320|198:369,1,227.999993911743,8|0,3:0|0:0,0:0:0:0:
256,384,148838,2,0,B|287:354|287:354|292:354|292:354|276:265,1,90.0000034332277,0|0,3:0|0:0,0:0:0:0:
426,300,149009,2,0,B|415:258|415:258|418:253|418:253|332:223,1,90.0000034332277,0|0,3:0|0:0,0:0:0:0:
438,110,149179,2,0,B|396:98|396:98|394:93|394:93|324:152,1,90.0000034332277,0|0,3:0|0:0,0:0:0:0:
210,170,149350,5,0,3:0:0:0:
219,178,149435,2,0,B|322:152|322:152|329:147|329:147|460:114,1,227.999993911743,8|0,3:0|0:0,0:0:0:0:
487,29,149691,2,0,B|513:57|513:57|443:28,1,107.999996704102,8|0,3:0|0:0,0:0:0:0:
356,0,149946,2,0,B|321:9|321:9|220:96|220:96|140:83,1,227.999993911743,4|0,3:1|0:0,0:0:0:0:
0,266,150287,6,0,B|20:274|20:274|49:386,1,113.999996955872,8|0,3:0|0:0,0:0:0:0:
131,351,150458,1,0,3:0:0:0:
127,341,150543,2,0,B|103:251|103:251|117:234,1,113.999996955872,0|8,3:0|0:0,0:0:0:0:
45,180,150713,1,0,3:0:0:0:
212,384,150884,1,0,3:0:0:0:
258,372,150969,1,0,3:0:0:0:
305,360,151054,1,0,3:0:0:0:
351,349,151139,6,0,L|403:139,1,198.000006042481,12|0,3:1|0:0,0:0:0:0:
479,193,151453,2,0,L|349:67,1,161.999995056153
414,27,151768,2,0,L|275:66,1,125.999996154785
279,11,152083,2,0,L|251:121,1,90
211,91,152398,2,0,L|276:154,1,72
210,107,152713,2,0,L|275:170,1,72
209,123,153028,2,0,L|274:186,1,72
208,139,153343,2,0,L|273:202,1,72
267,198,153658,1,0,0:0:0:0:
97,315,158336,6,0,B|106:321|106:321|108:336|108:336|95:352|95:352|92:370|92:370|79:373|79:373|70:377|70:377|64:374|64:374|55:376|55:376|49:376|49:376|33:377|33:377|19:377|19:377|18:366|18:366|24:358|24:358|20:350|20:350|19:336|19:336|25:326|25:326|43:309|43:309|68:306|68:306|82:292|82:292|103:290|103:290|115:288|115:288|123:282|123:282|126:265|126:265|131:253|131:253|152:248|152:248|171:254|171:254|185:263|185:263|200:274|200:274|216:274|216:274|227:266|227:266|234:254|234:254|228:236|228:236|232:223|232:223|226:206|226:206|227:194|227:194|229:181|229:181|235:163|235:163|242:150|242:150|268:131|268:131|292:130|292:130|310:141|310:141|318:152|318:152|329:158|329:158|341:163|341:163|355:177|355:177|372:174|372:174|395:198|395:198|408:209|408:209|423:210|423:210|436:216|436:216|460:211|460:211|487:213|487:213|501:195|501:195|501:179|501:179|502:165|502:165|511:148|511:148|510:125|510:125|495:107|495:107|476:87|476:87|462:82|462:82|444:89|444:89|423:89|423:89|391:91|391:91|376:83|376:83|359:82|359:82|329:62|329:62|303:54|303:54|281:58|281:58|259:54|259:54|243:33|243:33|232:25|232:25|226:13|226:13|227:-1,1,1295.99996044922
226,0,170364,5,8,3:0:0:0:
247,85,170505,1,4,3:0:0:0:
467,158,170647,1,0,3:0:0:0:
468,150,170718,1,0,3:0:0:0:
470,142,170788,6,0,B|482:118|482:118|493:2|493:2|495:-4|495:-4|493:2|493:2|441:107|441:107|443:137,1,306.000005836487,8|0,3:0|0:0,0:0:0:0:
425,215,171071,2,0,B|412:238|412:238|401:354|401:354|399:361|399:361|401:354|401:354|453:249|453:249|451:219,1,306.000005836487,8|0,3:0|0:0,0:0:0:0:
479,122,171354,6,0,B|457:128|457:128|439:146,1,35.9999989013672,0|0,3:0|0:0,0:0:0:0:
435,153,171496,1,2,0:0:0:0:
427,167,171567,1,2,0:0:0:0:
420,181,171637,2,0,B|442:186|442:186|466:180,1,35.9999989013672,0|0,3:0|0:0,0:0:0:0:
464,150,171779,1,2,0:0:0:0:
472,136,171850,1,2,0:0:0:0:
479,122,171920,5,0,3:0:0:0:
422,110,172015,1,2,3:0:0:0:
372,162,172109,1,0,0:0:0:0:
393,232,172203,1,2,3:0:0:0:
462,249,172298,1,2,3:0:0:0:
512,197,172392,1,2,3:0:0:0:
497,116,172486,6,0,L|325:72,1,155.999992858887,2|0,3:0|0:0,0:0:0:0:
328,0,172699,2,0,B|304:8|304:8|243:89|243:89|194:104,1,155.999992858887,2|0,3:0|0:0,0:0:0:0:
135,55,172911,2,0,B|155:21|155:21|141:89,1,77.9999964294435,2|0,0:0|0:0,0:0:0:0:
74,153,173052,6,0,B|63:136|63:136|71:4|71:4|141:117|141:117|139:142,1,306.000005836487,8|0,3:0|0:0,0:0:0:0:
161,223,173336,2,0,B|171:238|171:238|163:372|163:372|93:258|93:258|94:239,1,306.000005836487,8|0,3:0|0:0,0:0:0:0:
152,169,173619,6,0,L|170:165,2,17.9999994506836,0|0|0,3:0|0:0|0:0,0:0:0:0:
156,198,173784,2,0,L|187:190,3,23.9999992675781,0|0|0|0,3:0|0:0|0:0|0:0,0:0:0:0:
198,176,173996,1,2,3:0:0:0:
190,177,174059,1,2,3:0:0:0:
182,179,174122,1,2,3:0:0:0:
174,181,174185,1,2,0:0:0:0:
166,183,174247,1,2,0:0:0:0:
159,185,174302,2,0,L|4:223,1,155.999992858887,2|0,3:0|0:0,0:0:0:0:
0,225,174491,1,0,3:0:0:0:
82,235,174609,5,2,0:0:0:0:
97,231,174680,1,2,0:0:0:0:
113,227,174751,2,0,L|243:194,1,77.9999964294435,2|0,3:0|0:0,0:0:0:0:
255,180,174892,2,0,B|266:199|266:199|253:253|253:253|231:273|231:273|211:339,1,155.999992858887,2|0,3:0|0:0,0:0:0:0:
214,332,175087,2,0,B|241:341|241:341|402:301,1,194.999991073609,2|0,3:0|0:0,0:0:0:0:
474,251,175317,6,0,B|491:280|491:280|391:343|391:343|331:240|331:240|360:222,1,306.000005836487,8|0,3:0|0:0,0:0:0:0:
392,89,175600,2,0,B|374:59|374:59|475:-4|475:-4|534:99|534:99|505:117,1,306.000005836487,8|0,3:0|0:0,0:0:0:0:
440,141,175883,5,0,3:0:0:0:
429,188,176001,1,2,0:0:0:0:
427,196,176119,1,2,0:0:0:0:
440,141,176236,1,2,3:0:0:0:
439,149,176354,1,2,3:0:0:0:
465,176,176472,2,0,L|495:183,5,23.9999992675781,0|0|0|0|0|0,3:0|0:0|0:0|0:0|0:0|0:0,0:0:0:0:
365,152,176802,2,0,L|341:146,4,23.9999992675781,0|0|0|0|0,3:0|0:0|0:0|0:0|0:0,0:0:0:0:
297,132,177109,5,2,3:0:0:0:
277,54,177251,1,2,3:0:0:0:
246,197,177369,1,2,0:0:0:0:
242,212,177440,1,2,0:0:0:0:
238,228,177511,1,2,0:0:0:0:
234,244,177581,6,0,B|204:226|204:226|154:15|154:15|116:98,1,306.000005836487,12|0,3:0|0:0,0:0:0:0:
71,199,177864,2,0,B|20:226|20:226|7:280|7:280|116:171|116:171|99:100,1,306.000005836487,12|0,3:0|0:0,0:0:0:0:
11,61,178147,2,0,B|75:312|75:312|122:341,1,306.000005836487,12|0,3:0|0:0,0:0:0:0:
227,378,178430,2,0,B|324:361|324:361|420:307|420:307|390:357|390:357|314:371,1,306.000005836487,12|0,3:0|0:0,0:0:0:0:
301,283,178713,6,0,L|353:73,1,204.000003890991,8|0,3:0|0:0,0:0:0:0:
414,12,178925,2,0,L|466:221,1,204.000003890991,8|0,3:0|0:0,0:0:0:0:
473,207,179137,2,0,L|423:9,1,204.000003890991,8|0,3:0|0:0,0:0:0:0:
341,83,179350,2,4,L|291:280,1,204.000003890991,4|0,3:0|0:0,0:0:0:0:
268,350,179562,5,0,0:0:0:0:
51,171,179703,2,0,B|16:178|16:178|-28:159|-28:159|19:163|19:163|47:186,1,167.999994873047,2|0,0:0|0:0,0:0:0:0:
184,23,179845,6,0,B|261:42|261:42|267:52|267:52|215:261,1,306.000005836487,12|0,3:0|0:0,0:0:0:0:
127,320,180128,2,0,B|49:300|49:300|43:290|43:290|95:81,1,306.000005836487,12|0,3:0|0:0,0:0:0:0:
184,23,180411,6,0,B|192:36|192:36|169:128,1,77.9999964294435,8|0,3:0|0:0,0:0:0:0:
156,168,180552,2,0,L|132:261,1,77.9999964294435,0|0,3:0|0:0,0:0:0:0:
115,337,180694,6,0,B|35:381|35:381|229:333,1,270.000010299683,8|0,3:0|0:0,0:0:0:0:
265,384,180977,2,0,B|292:374|292:374|352:133,1,270.000010299683,8|0,3:0|0:0,0:0:0:0:
298,75,181260,5,8,3:0:0:0:
259,65,181354,1,2,3:0:0:0:
220,55,181449,1,2,3:0:0:0:
374,50,181543,2,0,B|383:11|383:11|445:26|445:26|451:36|451:36|407:214,1,270.000010299683,8|0,3:0|0:0,0:0:0:0:
425,189,181826,1,0,3:0:0:0:
442,119,181968,1,0,3:0:0:0:
512,246,182109,6,0,L|492:323,1,66.0000020141602,8|0,3:0|0:0,0:0:0:0:
497,384,182251,2,0,L|512:319,1,66.0000020141602,2|0,3:0|0:0,0:0:0:0:
425,189,182392,6,0,B|430:198|430:198|416:257,1,71.9999978027344,8|0,3:0|0:0,0:0:0:0:
419,364,182534,2,0,B|413:354|413:354|427:295,1,71.9999978027344,2|0,3:0|0:0,0:0:0:0:
352,129,182675,6,0,L|331:212,1,77.9999964294435,8|0,3:0|0:0,0:0:0:0:
341,345,182817,2,0,L|360:268,1,77.9999964294435,2|0,3:0|0:0,0:0:0:0:
267,75,182958,6,0,B|272:84|272:84|257:146|257:146|255:160,1,83.9999974365235,8|0,3:0|0:0,0:0:0:0:
264,325,183100,2,0,B|258:315|258:315|273:253|273:253|276:243,1,83.9999974365235,2|0,3:0|0:0,0:0:0:0:
179,35,183241,6,0,L|157:122,1,90.0000034332277,8|0,3:0|0:0,0:0:0:0:
186,306,183383,2,0,L|206:218,1,90.0000034332277,2|0,3:0|0:0,0:0:0:0:
84,0,183524,6,0,B|89:9|89:9|68:92,1,96,8|0,3:0|0:0,0:0:0:0:
108,287,183666,2,0,B|102:277|102:277|122:195,1,96,2|0,3:0|0:0,0:0:0:0:
40,206,183807,6,0,B|14:199|14:199|21:174|21:174|46:180|46:180|38:213,1,102.000001945496,8|0,3:0|0:0,0:0:0:0:
267,75,183949,2,0,B|260:100|260:100|235:93|235:93|241:68|241:68|274:76,1,102.000001945496,2|0,3:0|0:0,0:0:0:0:
426,295,184090,2,0,B|399:288|399:288|406:262|406:262|432:268|432:268|424:303,1,107.999996704102,8|0,3:0|0:0,0:0:0:0:
510,89,184232,5,8,3:0:0:0:
494,92,184302,1,2,3:0:0:0:
471,98,184373,1,2,3:0:0:0:
433,107,184444,1,2,3:0:0:0:
386,118,184515,1,2,3:0:0:0:
325,134,184585,1,2,3:0:0:0:
258,151,184656,1,2,3:0:0:0:
187,169,184727,1,2,3:0:0:0:
114,187,184798,1,2,3:0:0:0:
40,206,184869,1,12,3:1:0:0:
40,206,185081,5,0,0:0:0:0:
24,202,185152,1,0,0:0:0:0:
111,224,185222,2,0,B|188:243|188:243|142:263,1,120
206,320,185552,6,0,B|117:357|117:357|114:351|114:351|30:320,1,192,8|2,3:0|0:1,0:0:0:0:
30,63,185835,2,0,B|114:32|114:32|117:26|117:26|206:64,1,192,8|2,3:0|0:1,0:0:0:0:
306,320,186118,2,0,B|394:357|394:357|397:351|397:351|481:320,1,192,8|2,3:0|0:1,0:0:0:0:
481,63,186401,2,0,B|397:32|397:32|394:26|394:26|306:64,1,192,8|2,3:0|0:1,0:0:0:0:
425,201,186684,6,0,B|513:153|513:153|289:201,1,288,8|0,3:0|0:0,0:0:0:0:
183,218,186967,2,0,B|0:257|0:257|87:209,1,288,8|0,3:0|0:0,0:0:0:0:
191,138,187250,6,0,B|218:78|218:78|199:27|199:27|192:115,1,192,8|0,3:0|0:0,0:0:0:0:
183,218,187462,2,0,B|177:283|177:283|135:318|135:318|173:237,1,192,8|0,3:0|0:0,0:0:0:0:
265,191,187674,2,0,B|309:202|309:202|294:188|294:188|255:192,1,96,4|0,3:1|0:3,0:3:0:0:
161,62,187805,5,8,3:0:0:0:
130,54,187875,1,2,3:0:0:0:
98,46,187946,2,0,L|-2:20,1,96,2|2,3:0|3:0,0:0:0:0:
341,0,188088,1,8,3:0:0:0:
352,45,188158,1,2,3:0:0:0:
362,89,188229,2,0,L|387:189,1,96,2|2,3:0|3:0,0:0:0:0:
502,140,188371,5,8,3:0:0:0:
491,185,188441,1,2,3:0:0:0:
480,230,188512,1,2,3:0:0:0:
469,275,188583,1,2,3:0:0:0:
512,341,188654,5,8,3:0:0:0:
495,369,188724,1,2,3:0:0:0:
465,384,188795,1,2,3:0:0:0:
431,381,188866,1,2,3:0:0:0:
354,355,188937,6,0,B|320:338|320:338|288:234|288:234|242:196,1,192,8|2,3:0|0:1,0:0:0:0:
231,0,189220,2,0,B|197:17|197:17|165:121|165:121|119:159,1,192,8|2,3:0|0:1,0:0:0:0:
44,270,189503,6,0,B|-10:310|-10:310|29:255|29:255|127:226,1,192,8|0,3:0|0:0,0:0:0:0:
173,250,189715,2,0,B|219:283|219:283|238:348|238:348|200:292,1,192,8|0,3:0|0:0,0:0:0:0:
96,208,189927,2,0,B|72:166|72:166|126:210,1,96,4|0,3:1|0:0,0:0:0:0:
81,380,190069,2,0,B|98:366|98:366|186:349|186:349|191:343|191:343|339:256,1,288,8|0,3:0|0:0,0:0:0:0:
420,214,190363,6,0,B|449:231|449:231|491:402,1,192,8|2,3:0|0:1,0:0:0:0:
354,182,190646,2,0,B|336:152|336:152|379:-17,1,192,8|2,3:0|0:1,0:0:0:0:
137,0,190929,2,0,B|175:152|175:152|158:182,1,192,8|2,3:0|0:1,0:0:0:0:
24,383,191212,2,0,B|62:229|62:229|91:212,1,192,8|2,3:0|0:1,0:0:0:0:
265,20,191495,6,0,B|278:85|278:85|256:143|256:143|256:159|256:159|256:143|256:143|230:85|230:85|243:10,1,288,8|0,3:0|0:0,0:0:0:0:
256,0,191778,2,0,B|256:202|256:202|253:207|253:207|256:213|256:213|256:239|256:239|258:244|258:244|256:250|256:250|256:328,1,288,8|0,3:0|0:0,0:0:0:0:
257,359,192050,5,8,3:0:0:0:
380,267,192191,2,0,B|425:258|425:258|530:310|530:310|386:280|386:280|309:326,1,384,4|0,3:1|0:0,0:0:0:0:
257,359,192545,1,0,3:0:0:0:
190,317,192616,2,0,B|161:290|161:290|97:96|97:96|39:47,1,288,8|0,3:0|0:0,0:0:0:0:
23,145,192899,2,0,B|15:180|15:180|-1:201|-1:201|16:183|16:183|56:162,1,96,8|0,3:0|3:0,0:0:0:0:
76,363,193040,2,0,B|106:342|106:342|198:63,1,288,4|0,3:1|0:0,0:0:0:0:
259,60,193323,2,0,B|251:25|251:25|235:4|235:4|252:22|252:22|292:43,1,96,0|0,3:0|3:0,0:0:0:0:
304,227,193465,5,8,3:0:0:0:
350,238,193535,1,2,3:0:0:0:
397,250,193606,1,2,3:0:0:0:
443,261,193677,1,2,3:0:0:0:
490,273,193748,1,2,3:0:0:0:
243,164,193889,5,8,3:0:0:0:
289,153,193959,1,2,3:0:0:0:
336,141,194030,1,2,3:0:0:0:
382,130,194101,1,2,3:0:0:0:
429,118,194172,1,2,3:0:0:0:
504,22,194314,6,0,B|479:-14|479:-14|503:-6|503:-6|527:58,1,96,8|0,3:0|3:0,0:0:0:0:
512,192,194455,2,0,B|333:236|333:236|238:317|238:317|67:360|67:360,1,480,4|0,3:1|0:0,0:0:0:0:
3,303,194880,2,0,B|-2:351|-2:351|3:326|3:326|25:301,1,96,8|0,3:0|3:0,0:0:0:0:
34,144,195021,2,0,B|75:134|75:134|188:201|188:201|258:304|258:304|337:348|337:348|313:256|313:256|196:197,1,600,4|0,3:1|0:0,0:1:0:0:
133,256,195446,2,0,B|68:216|68:216|107:253,1,120,8|0,3:0|3:0,0:0:0:0:
27,133,195587,2,0,B|219:85|219:85|237:106|237:106|344:160|344:160|499:97|499:97|509:60,1,539.999983520508,4|0,3:1|0:0,0:0:0:0:
439,16,196012,6,0,B|429:43|429:43|481:252,1,215.999993408203,8|2,3:0|0:1,0:0:0:0:
400,375,196295,2,0,B|388:355|388:355|217:313|217:313|175:304,1,215.999993408203,8|0,3:0|0:0,0:0:0:0:
139,381,196507,2,0,B|124:374|124:374|61:210|61:210|51:188,1,215.999993408203,8|0,3:0|0:0,0:0:0:0:
27,106,196719,2,0,B|20:71|20:71|39:56|39:56|23:118,1,107.999996704102,4|0,3:1|0:0,0:0:0:0:
3,259,196861,6,0,B|17:256|17:256|103:311|103:311|188:304|188:304|202:311,1,215.999993408203,8|2,3:0|0:1,0:0:0:0:
388,229,197144,2,0,B|379:223|379:223|329:24,1,215.999993408203,8|2,3:0|0:1,0:0:0:0:
183,24,197427,2,0,B|133:223|133:223|124:229,1,215.999993408203,8|2,3:0|0:1,0:0:0:0:
311,310,197710,2,0,B|323:303|323:303|408:310|408:310|494:255|494:255|508:258,1,215.999993408203,8|2,3:0|0:1,0:0:0:0:
317,10,197993,6,0,B|293:2|293:2|61:138|61:138|32:132,1,323.999990112305,8|0,3:0|0:0,0:0:0:0:
33,10,198276,2,0,B|57:2|57:2|289:138|289:138|318:132,1,323.999990112305,8|0,3:0|0:0,0:0:0:0:
372,193,198559,2,0,B|334:296|334:296|367:258|367:258|373:183,1,215.999993408203,8|0,3:0|0:0,0:0:0:0:
395,116,198771,2,0,B|357:13|357:13|390:51|390:51|396:126,1,215.999993408203,8|0,3:0|0:0,0:0:0:0:
450,177,198983,2,0,B|498:198|498:198|482:180|482:180|445:177,1,107.999996704102,4|0,3:1|0:0,0:0:0:0:
512,366,199125,6,0,B|372:331|372:331|339:331|339:331|168:288,1,323.999990112305,8|0,3:0|0:0,0:0:0:0:
118,265,199408,2,0,B|108:292|108:292|135:400,1,107.999996704102,8|0,3:0|3:0,0:0:0:0:
131,383,199549,1,4,3:1:0:0:
240,185,199691,2,0,B|218:204|218:204|191:313,1,107.999996704102,8|0,3:0|3:0,0:0:0:0:
196,295,199832,1,4,3:1:0:0:
0,97,199974,2,0,B|21:116|21:116|48:225,1,107.999996704102,8|0,3:0|3:0,0:0:0:0:
44,207,200116,1,4,3:1:0:0:
181,0,200257,6,0,B|159:19|159:19|132:128,1,107.999996704102,8|0,3:0|3:0,3:0:0:0:
124,164,200399,2,0,B|117:191|117:191|143:197|143:197|150:170|150:170|119:162,1,107.999996704102,8|0,3:0|3:0,3:0:0:0:
268,44,200540,2,0,B|274:16|274:16|300:23|300:23|294:50|294:50|263:42,1,107.999996704102,8|0,3:0|3:0,3:0:0:0:
310,248,200682,2,0,B|303:275|303:275|329:281|329:281|336:254|336:254|305:246,1,107.999996704102,8|0,3:0|3:0,3:0:0:0:
443,51,200823,2,0,B|449:23|449:23|475:30|475:30|469:57|469:57|438:49,1,107.999996704102,8|0,3:0|3:0,3:0:0:0:
478,348,200965,2,0,B|471:375|471:375|497:381|497:381|504:354|504:354|473:346,1,107.999996704102,8|0,3:0|3:0,3:0:0:0:
497,258,201106,1,8,3:0:0:0:
504,226,201177,1,0,3:0:0:0:
512,195,201248,2,0,B|348:235|348:235|273:295|273:295|102:338,1,431.999986816407,4|0,3:1|0:0,0:0:0:0:
10,293,201601,5,0,3:0:0:0:
0,246,201672,2,0,B|27:236|27:236|208:281,1,215.999993408203,8|2,3:0|0:1,0:0:0:0:
357,384,201955,2,0,B|378:364|378:364|423:182,1,215.999993408203,8|2,3:0|0:1,0:0:0:0:
263,0,202238,2,0,B|253:27|253:27|298:208,1,215.999993408203,8|2,3:0|0:1,0:0:0:0:
486,54,202521,5,8,3:0:0:0:
440,65,202592,1,2,3:0:0:0:
393,77,202663,1,2,3:0:0:0:
347,88,202733,1,2,3:0:0:0:
300,100,202804,1,2,3:0:0:0:
220,207,202946,5,10,3:0:0:0:
174,196,203017,1,2,3:0:0:0:
127,184,203088,1,2,3:0:0:0:
81,173,203158,1,2,3:0:0:0:
34,161,203229,1,4,3:1:0:0:
34,161,203633,5,8,3:0:0:0:
178,3,203774,1,2,3:0:0:0:
189,49,203845,1,2,3:0:0:0:
201,96,203916,1,8,3:0:0:0:
190,0,204057,1,2,3:0:0:0:
202,47,204128,1,2,3:0:0:0:
213,93,204199,1,8,3:0:0:0:
304,213,204340,1,2,3:0:0:0:
292,260,204411,1,2,3:0:0:0:
281,306,204482,1,8,3:0:0:0:
234,294,204552,1,2,3:0:0:0:
188,283,204623,1,2,3:0:0:0:
85,347,204765,6,0,B|79:337|79:337|100:251,1,96,8|0,3:0|3:0,3:0:0:0:
96,344,204906,2,0,B|90:334|90:334|111:248,1,96,2|0,3:0|3:0,3:0:0:0:
366,384,205048,6,0,B|375:378|375:378|396:292,1,96,8|0,3:0|3:0,3:0:0:0:
357,376,205189,2,0,B|366:370|366:370|387:284,1,96,2|0,3:0|3:0,3:0:0:0:
419,154,205331,6,0,B|404:208|404:208|402:182|402:182|413:167,2,96,8|2|2,3:0|3:0|3:0,3:0:0:0:
496,134,205543,2,0,B|534:174|534:174|523:151|523:151|507:142,2,96,8|2|2,3:0|3:0|3:0,3:0:0:0:
477,221,205755,2,0,B|476:253|476:253|488:267|488:267|492:250|492:250|477:221,1,96,4|2,3:1|3:0,3:0:0:0:
439,75,205897,5,8,3:0:0:0:
403,66,205967,1,2,3:0:0:0:
368,57,206038,1,2,3:0:0:0:
333,48,206109,1,2,3:0:0:0:
277,0,206180,5,8,3:0:0:0:
233,5,206250,1,2,3:0:0:0:
199,29,206321,1,2,3:0:0:0:
180,68,206392,1,2,3:0:0:0:
120,106,206463,5,8,3:0:0:0:
132,154,206534,1,2,3:0:0:0:
144,203,206605,1,2,3:0:0:0:
156,250,206675,1,2,3:0:0:0:
217,291,206746,5,8,3:0:0:0:
203,322,206817,1,2,3:0:0:0:
173,342,206888,1,2,3:0:0:0:
139,348,206958,1,2,3:0:0:0:
94,290,207029,6,0,B|79:289|79:289|27:321|27:321|57:288,1,96,8|0,3:0|3:0,3:0:0:0:
89,280,207170,2,0,B|74:279|74:279|22:311|22:311|52:278,1,96,2|0,3:0|3:0,3:0:0:0:
227,212,207312,6,0,B|242:211|242:211|294:243|294:243|264:210,1,96,8|0,3:0|3:0,3:0:0:0:
232,202,207453,2,0,B|247:201|247:201|299:233|299:233|269:200,1,96,2|0,3:0|3:0,3:0:0:0:
454,334,207595,6,0,B|508:347|508:347|498:353|498:353|452:341,3,96,8|0|2|0,3:0|3:0|3:0|3:0,3:0:0:0:
393,384,207878,2,0,B|414:364|414:364|460:178,1,192,8|0,3:0|0:0,0:0:0:0:
473,135,208090,1,8,3:0:0:0:
454,334,208232,1,4,3:1:0:0:
349,320,208373,1,2,3:0:0:0:
339,281,208444,1,2,3:0:0:0:
329,242,208515,1,2,3:0:0:0:
319,203,208586,1,2,3:0:0:0:
310,164,208656,1,2,3:0:0:0:
300,125,208727,5,8,3:0:0:0:
145,93,208868,1,2,3:0:0:0:
156,47,208939,1,2,3:0:0:0:
168,0,209010,1,8,3:0:0:0:
157,96,209151,1,2,3:0:0:0:
169,49,209222,1,2,3:0:0:0:
180,3,209293,1,8,3:0:0:0:
46,100,209434,2,0,B|33:148|33:148|107:166,1,96,2|0,3:0|3:0,3:0:0:0:
159,235,209576,6,0,L|290:267,1,96,8|0,3:0|3:0,3:0:0:0:
156,246,209717,2,0,L|287:278,1,96,2|0,3:0|3:0,3:0:0:0:
3,297,209859,6,0,L|134:329,1,96,8|0,3:0|3:0,3:0:0:0:
0,308,210000,2,0,L|131:340,1,96,2|0,3:0|3:0,3:0:0:0:
331,384,210142,6,0,B|351:349|351:349|293:107|293:107|298:91|298:91|399:182|399:182|367:348,1,576,8|0,3:0|0:0,0:0:0:0:
267,319,210637,1,0,3:0:0:0:
260,294,210708,2,0,B|287:284|287:284|483:331|483:331|495:268|495:268,1,288,8|0,3:0|0:0,0:0:0:0:
509,203,210991,1,8,3:0:0:0:
494,58,211133,2,0,B|478:75|478:75|183:148,1,288,4|0,3:1|0:0,0:0:0:0:
129,85,211416,5,2,3:0:0:0:
83,96,211487,1,2,3:0:0:0:
36,108,211557,1,10,3:0:0:0:
25,62,211628,1,2,3:0:0:0:
13,15,211699,2,0,B|44:-1|44:-1|149:27|149:27|165:49|165:49|126:222,1,288,4|0,3:1|0:0,0:0:0:0:
198,213,211982,1,2,3:0:0:0:
186,260,212053,1,2,3:0:0:0:
175,306,212123,1,10,3:0:0:0:
128,294,212194,1,2,3:0:0:0:
82,283,212265,1,4,3:1:0:0:
26,205,212406,6,0,B|-18:193|-18:193|12:191|12:191|39:216,1,96,8|0,3:0|3:0,3:0:0:0:
221,138,212548,2,0,B|227:110|227:110|253:117|253:117|246:144|246:144|215:137,1,96,2|0,3:0|3:0,3:0:0:0:
254,11,212689,2,0,B|286:20|286:20|404:244|404:244|467:268,1,323.999990112305,4|0,3:1|0:0,0:0:0:0:
483,316,212972,2,0,B|502:304|502:304|517:242|517:242|504:263,1,96,8|0,3:0|3:0,0:0:0:0:
468,9,213114,2,0,B|430:37|430:37|315:312|315:312|228:376|228:376|328:344,1,539.999983520508,4|0,3:1|0:0,0:0:0:0:
384,336,213538,6,0,B|390:363|390:363|416:356|416:356|409:329|409:329|378:336,1,96,8|0,3:0|3:0,0:0:0:0:
249,257,213680,2,0,B|217:247|217:247|-3:340|-3:340|87:239|87:239|161:257,1,480,4|0,3:1|0:0,0:0:0:0:
249,257,214104,2,0,B|268:235|268:235|247:150,1,96,8|0,3:0|3:0,0:0:0:0:
111,0,214246,2,0,B|91:11|91:11|60:135|60:135|72:155|72:155|173:180|173:180|202:63|202:63|173:81|173:81|149:174,1,480,4|0,3:1|0:0,0:0:0:0:
42,157,214670,2,0,B|-15:176|-15:176|25:143,1,96,8|0,3:0|3:0,0:0:0:0:
238,0,214812,2,0,B|265:9|265:9|296:133,1,96,2|0,3:0|3:0,0:0:0:0:
299,150,214953,6,0,B|335:27|335:27|384:4|384:4|349:63,1,192,8|2,3:0|0:1,0:0:0:0:
512,191,215236,2,0,B|440:210|440:210|417:240|417:240|319:217,1,192,8|2,3:0|0:1,0:0:0:0:
153,181,215519,2,0,B|125:190|125:190|89:338|89:338|57:368,1,192,8|0,3:0|0:0,0:0:0:0:
18,294,215732,1,2,3:0:0:0:
27,255,215802,2,0,B|48:169|48:169|30:140,1,96,10|0,3:0|3:0,0:0:0:0:
203,64,215944,1,2,3:0:0:0:
215,114,216014,1,2,3:0:0:0:
228,165,216085,1,10,3:0:0:0:
241,215,216156,1,2,3:0:0:0:
253,266,216227,1,2,3:0:0:0:
266,317,216297,1,2,3:0:0:0:
279,368,216368,6,0,B|357:349|357:349|379:321,1,96,8|0,3:0|3:0,3:0:0:0:
512,377,216510,2,0,B|511:354|511:354|430:302,1,96,10|0,3:0|3:0,3:0:0:0:
352,263,216651,2,0,B|334:259|334:259|140:307,1,192,8|0,3:0|0:0,0:0:0:0:
88,313,216864,2,0,B|-13:328|-13:328|30:344|30:344|126:297,1,192,8|0,3:0|0:0,0:0:0:0:
117,240,217076,2,0,B|218:-2|218:-2|103:83|103:83|129:154,1,480,4|0,3:1|0:0,0:0:0:0:
222,192,217500,6,0,L|353:159,1,96,8|0,3:0|3:0,3:0:0:0:
400,147,217642,2,0,B|431:139|431:139|423:108|423:108|392:115|392:115|400:147,1,120,2|0,3:0|3:0,3:0:0:0:
445,326,217783,2,0,L|421:232,1,96,8|0,3:0|3:0,3:0:0:0:
371,31,217925,2,0,B|402:23|402:23|394:-7|394:-7|363:0|363:0|371:31,1,120,2|0,3:0|3:0,3:0:0:0:
315,168,218066,1,8,3:0:0:0:
360,359,218208,6,0,B|502:392|502:392|441:353|441:353|366:359,1,288,4|0,3:1|0:0,0:0:0:0:
278,340,218491,2,0,B|231:327|231:327|160:159|160:159|106:144,1,288,4|0,3:1|0:0,0:0:0:0:
25,145,218774,2,0,B|33:195|33:195|102:232,1,96,4|0,3:1|3:0,3:0:0:0:
44,292,218916,2,0,B|91:310|91:310|157:268,1,96,8|0,3:0|3:0,3:0:0:0:
179,384,219057,2,0,L|250:96,1,288,4|0,3:1|0:0,0:0:0:0:
218,31,219340,2,0,B|79:75|79:75|196:0|196:0|296:42|296:42|421:18,1,480,4|0,3:1|0:0,0:0:0:0:
467,6,219765,5,8,3:0:0:0:
382,211,219906,1,2,3:0:0:0:
370,164,219977,1,2,3:0:0:0:
358,117,220048,1,8,3:0:0:0:
501,186,220189,1,2,3:0:0:0:
489,233,220260,1,2,3:0:0:0:
477,280,220331,2,0,L|451:380,1,96,8|0,3:0|3:0,3:0:0:0:
484,289,220472,2,0,L|458:389,1,96,0|0,3:0|3:0,3:0:0:0:
313,357,220614,5,8,3:0:0:0:
267,370,220684,1,2,3:0:0:0:
221,383,220755,1,2,3:0:0:0:
187,350,220827,1,2,3:0:0:0:
153,317,220897,1,2,3:0:0:0:
0,288,221038,5,8,3:0:0:0:
11,241,221108,1,2,3:0:0:0:
23,195,221179,1,2,3:0:0:0:
69,182,221251,1,2,3:0:0:0:
114,169,221321,1,2,3:0:0:0:
215,50,221463,5,8,3:0:0:0:
250,84,221533,1,2,3:0:0:0:
284,117,221604,1,2,3:0:0:0:
272,163,221676,1,2,3:0:0:0:
260,209,221746,5,4,3:1:0:0:
256,223,222170,1,4,3:1:0:0:
375,50,222453,6,0,L|355:-27,2,51.999997619629
392,119,222595,1,8,3:0:0:0:
461,139,222736,2,0,L|537:161,2,51.999997619629
392,119,222878,5,8,3:0:0:0:
381,129,223302,1,4,3:1:0:0:
254,291,223585,6,0,L|203:280,2,51.999997619629
324,305,223727,1,8,3:0:0:0:
372,253,223868,2,0,L|406:214,2,51.999997619629
324,305,224010,5,8,3:0:0:0:
329,320,224434,1,4,3:1:0:0:
132,334,224717,6,0,L|147:396,2,51.999997619629
114,264,224859,1,8,3:0:0:0:
45,282,225000,2,0,L|29:344,2,51.999997619629
63,212,225142,5,8,3:0:0:0:
66,196,225566,1,4,3:1:0:0:
256,85,225849,6,0,L|269:139,2,51.999997619629
270,14,225991,2,0,B|234:0|234:0|208:30,1,77.9999964294435,8|0,3:0|3:0,0:0:0:0:
181,95,226132,1,2,3:0:0:0:
188,126,226203,1,2,3:0:0:0:
196,157,226274,5,8,3:0:0:0:
199,173,226699,1,4,3:1:0:0:
413,74,226982,6,0,L|398:12,2,51.999997619629
431,144,227124,1,8,3:0:0:0:
500,126,227265,2,0,L|516:64,2,51.999997619629
482,196,227407,5,8,3:0:0:0:
479,212,227831,1,4,3:1:0:0:
301,291,228114,6,0,L|314:236,2,51.999997619629
315,361,228255,2,0,B|279:374|279:374|252:345,1,77.9999964294435,8|0,3:0|3:0,3:0:0:0:
176,313,228397,2,0,B|182:275|182:275|221:266,1,77.9999964294435,2|0,3:0|3:0,3:0:0:0:
403,322,228538,6,0,L|199:342,1,155.999992858887,8|0,3:0|0:0,0:0:0:0:
184,384,228750,2,0,L|64:217,1,155.999992858887,8|0,3:0|0:0,0:0:0:0:
15,244,228963,2,0,L|74:113,1,77.9999964294435,4|0,3:1|3:0,0:0:0:0:
115,20,229104,5,8,3:0:0:0:
6,65,229246,2,0,L|41:81,2,38.9999982147218
107,111,229387,2,0,L|184:147,1,77.9999964294435,8|0,3:0|0:0,0:0:0:0:
386,47,229529,2,0,L|315:79,1,77.9999964294435,10|0,3:0|0:0,0:0:0:0:
251,10,229670,1,8,3:0:0:0:
220,59,229741,1,2,3:0:0:0:
248,111,229812,1,2,3:0:0:0:
275,161,229882,1,2,3:0:0:0:
334,164,229953,2,0,B|343:191|343:191|324:268,1,77.9999964294435,8|0,3:0|0:0,0:0:0:0:
308,318,230095,6,0,L|296:364,10,38.9999982147218,4|0|0|0|0|0|0|0|0|0|0,0:1|0:0|0:0|0:0|0:0|0:0|0:0|0:0|0:0|0:0|0:0,0:0:0:0:
380,299,230519,2,0,L|442:314,1,51.999997619629,8|0,3:0|0:0,0:0:0:0:
385,308,230614,2,0,L|447:323,1,51.999997619629,8|0,3:0|0:0,0:0:0:0:
391,318,230708,2,0,L|453:333,1,51.999997619629,8|0,3:0|0:0,0:0:0:0:
308,318,230802,6,0,B|291:314|291:314|274:303|274:303|253:295|253:295|229:300|229:300|220:302|220:302|203:315|203:315|196:316|196:316|185:328|185:328|182:334|182:334|162:341|162:341|160:347|160:347|144:351|144:351|129:355|129:355|112:354|112:354|101:364|101:364|86:374|86:374|71:367|71:367|52:372|52:372|29:364|29:364|4:343|4:343|-1:324|-1:324|-7:309|-7:309|0:295|0:295|-5:281|-5:281|-4:266|-4:266|0:263|0:263|-5:245|-5:245|3:228|3:228|13:212|13:212|41:193|41:193|67:188|67:188|78:200|78:200|111:199|111:199|120:213|120:213|136:217|136:217|139:226|139:226|150:229|150:229|165:230|165:230|175:235|175:235|192:226|192:226|199:210|199:210|211:198|211:198|232:194|232:194|254:178|254:178|272:183|272:183|298:175|298:175|317:163|317:163|341:169|341:169|362:181|362:181|376:183|376:183|376:199|376:199|393:209|393:209|409:206|409:206|430:212|430:212|440:206|440:206|467:207|467:207|482:189|482:189|497:191|497:191|504:181|504:181|508:158|508:158|512:138|512:138|507:115|507:115|511:103|511:103|509:91|509:91|509:68|509:68|499:51|499:51|497:37|497:37|482:24|482:24|466:22|466:22|452:10|452:10|435:15|435:15|410:3|410:3|388:9|388:9|372:7|372:7|355:3|355:3|340:7|340:7|328:21|328:21|323:18|323:18|297:27|297:27|286:43|286:43|288:56|288:56|274:77|274:77|280:97|280:97|276:118|276:118|289:130|289:130|308:142|308:142|329:140|329:140|342:152|342:152|375:149,1,1632.00003112793,12|0,3:1|0:0,0:0:0:0:
344,151,237576,6,0,L|328:213,2,47.9999985351563
363,78,238046,2,0,B|384:97|384:97|450:361,1,288,2|0,0:0|0:0,0:0:0:0:
447,348,241340,1,2,0:0:0:0:
166,318,243223,6,0,L|150:380,2,64,0|0|0,3:0|0:0|0:0,0:0:0:0:
186,237,243693,2,0,B|155:246|155:246|92:353|92:353|34:103|34:103|0:87,1,448,2|0,0:0|3:0,0:0:0:0:
2,88,245105,1,0,3:0:0:0:
242,20,245732,6,0,L|211:144,1,128,0|0,3:0|3:0,0:0:0:0:
211,144,246438,1,0,3:0:0:0:
211,144,246674,1,0,3:0:0:0:
450,158,246987,6,0,L|540:135,2,64,0|0|0,3:0|0:0|0:0,0:0:0:0:
375,83,247458,2,0,B|402:92|402:92|448:279,1,192,2|0,0:0|3:0,0:0:0:0:
441,251,248321,1,0,0:0:0:0:
441,251,248556,1,0,3:0:0:0:
473,366,248870,1,0,3:0:0:0:
473,366,249497,5,0,3:0:0:0:
476,350,249576,1,0,3:0:0:0:
393,347,249732,1,0,3:0:0:0:
390,331,249811,1,2,3:0:0:0:
390,331,250203,6,0,L|296:307,1,96,0|0,3:0|3:0,0:0:0:0:
296,307,250752,1,0,3:0:0:0:
172,184,251379,5,0,3:0:0:0:
169,168,251458,1,0,3:0:0:0:
252,165,251614,1,0,3:0:0:0:
255,149,251693,1,2,3:0:0:0:
255,149,252085,6,0,L|349:125,1,96,0|0,0:0|3:0,0:0:0:0:
348,125,252634,1,0,3:0:0:0:
349,125,253262,6,0,L|331:55,1,64,0|0,3:0|0:0,0:0:0:0:
360,123,253576,2,0,L|344:60,1,64,0|0,3:0|0:0,0:0:0:0:
432,161,253968,1,0,3:0:0:0:
432,161,254203,1,0,3:0:0:0:
74,71,254517,5,4,3:2:0:0:
0,269,259227,6,0,P|46:283|78:303,1,80,8|0,3:0|0:0,0:0:0:0:
140,339,259383,1,2,0:1:0:0:
158,352,259462,1,2,0:1:0:0:
0,283,259619,2,0,P|118:237|286:197,1,240,4|0,3:2|0:0,0:0:0:0:
305,193,259932,1,8,3:0:0:0:
461,87,260089,2,0,B|493:97|506:138|506:138|426:79|355:63,1,240,4|0,3:2|0:0,0:0:0:0:
283,47,260403,1,8,3:0:0:0:
474,0,260560,2,0,P|432:91|372:254,1,240,4|0,3:2|0:0,0:0:0:0:
330,280,260874,1,2,3:1:0:0:
341,290,260952,1,2,3:1:0:0:
355,297,261030,1,2,3:1:0:0:
431,310,261109,5,8,3:0:0:0:
190,370,261344,1,0,0:0:0:0:
123,325,261501,5,0,0:0:0:0:
116,301,261579,1,2,0:1:0:0:
190,370,261815,1,0,0:0:0:0:
44,281,261972,5,0,0:0:0:0:
49,256,262050,1,2,0:1:0:0:
123,325,262285,1,0,0:0:0:0:
190,370,262442,5,0,0:0:0:0:
195,345,262521,2,0,P|196:308|187:277,1,47.9999985351563,2|0,0:1|0:0,0:0:0:0:
167,219,262757,6,0,P|187:173|211:139,1,80,8|0,3:0|0:0,0:0:0:0:
247,82,262913,1,2,3:1:0:0:
260,64,262992,1,2,3:1:0:0:
155,220,263149,2,0,P|105:134|57:70,1,160,4|0,3:2|0:0,0:0:0:0:
16,30,263384,1,2,3:1:0:0:
0,14,263463,1,2,3:1:0:0:
131,118,263619,2,0,B|162:128|202:117|219:82|210:12|286:-1|334:8|386:49,1,240,4|0,3:2|0:0,0:0:0:0:
404,41,263933,1,8,3:0:0:0:
460,235,264090,5,2,0:1:0:0:
389,179,264207,1,2,3:1:0:0:
404,175,264344,1,2,3:1:0:0:
474,157,264501,1,2,3:1:0:0:
489,153,264639,5,8,3:0:0:0:
407,364,264874,1,0,0:0:0:0:
324,288,265031,5,0,0:0:0:0:
331,319,265109,1,2,0:1:0:0:
407,364,265345,1,0,0:0:0:0:
248,247,265502,5,0,0:0:0:0:
241,278,265580,1,2,0:1:0:0:
331,319,265815,1,0,0:0:0:0:
198,184,265972,5,0,0:0:0:0:
177,208,266050,1,2,0:1:0:0:
241,278,266286,5,8,3:0:0:0:
251,38,266443,2,0,P|241:4|239:-23,5,40
257,55,266679,1,4,3:2:0:0:
116,123,266836,2,0,P|106:157|104:184,7,40
124,107,267149,2,0,P|307:72|441:57,1,300,4|0,3:2|0:0,0:0:0:0:
490,98,267443,5,2,3:1:0:0:
496,84,267502,1,2,3:1:0:0:
499,69,267561,1,2,3:1:0:0:
498,55,267620,2,0,B|479:17|466:0|402:-15|302:15|320:108|336:238|318:285|360:301|370:344|446:363|454:375|512:376|544:313|554:271|512:223|471:183|459:168|381:178|370:304|283:314|367:357|271:401|181:391|120:359|105:363|114:298|148:262|172:262|251:310,1,1040,4|0,3:2|0:0,0:0:0:0:
225,295,268875,5,0,0:0:0:0:
192,283,268993,1,0,0:0:0:0:
153,245,269110,1,0,0:0:0:0:
113,185,269228,2,0,P|106:155|111:116,5,60
181,86,269581,5,8,3:0:0:0:
177,70,269699,1,0,0:0:0:0:
159,0,269816,1,0,0:0:0:0:
261,109,269934,1,0,3:0:0:0:
273,106,270051,2,0,L|253:28,1,71.9999978027344,8|0,0:3|0:0,0:0:0:0:
285,103,270287,2,0,L|265:25,1,71.9999978027344,8|0,0:3|3:0,0:0:0:0:
381,173,270522,5,0,0:0:0:0:
377,157,270640,1,0,3:0:0:0:
359,87,270757,1,0,0:0:0:0:
374,82,270875,1,0,0:0:0:0:
414,240,270993,1,8,3:0:0:0:
320,263,271110,1,0,3:0:0:0:
429,235,271228,2,0,L|498:217,1,71.9999978027344,4|0,0:2|0:0,0:0:0:0:
345,356,271463,5,8,3:0:0:0:
340,341,271581,1,0,0:0:0:0:
263,360,271699,1,0,0:0:0:0:
243,282,271816,2,0,L|219:188,1,71.9999978027344,0|8,3:0|0:3,0:0:0:0:
228,287,272051,1,0,0:0:0:0:
200,178,272169,1,8,0:3:0:0:
197,162,272287,2,0,L|173:68,1,71.9999978027344,0|0,3:0|0:0,0:0:0:0:
154,2,272522,5,0,0:0:0:0:
157,17,272640,1,0,3:0:0:0:
64,40,272757,1,0,3:0:0:0:
272,69,272875,1,8,0:3:0:0:
179,92,272992,1,0,3:0:0:0:
287,66,273111,6,0,B|295:67|295:67|302:62|302:62|311:64|311:64|318:58|318:58|326:60|326:60|333:54|333:54|342:56|342:56|349:50|349:50|357:52|357:52|364:46|364:46|373:48|373:48|380:42|380:42|388:44,2,96,4|0|8,3:2|0:0|0:3,0:0:0:0:
317,206,273463,1,0,3:0:0:0:
335,275,273581,2,0,B|333:283|333:283|338:290|338:290|336:299|336:299|342:306|342:306|340:314|340:314|346:321|346:321|344:330|344:330|350:337|350:337|348:345|348:345|354:352|354:352|352:361|352:361|358:368|358:368|356:376,1,96
461,211,273816,1,0,0:0:0:0:
391,228,273934,2,0,B|384:234|384:234|375:232|375:232|369:238|369:238|360:236|360:236|353:242|353:242|344:240|344:240|338:246|338:246|329:244|329:244|322:250|322:250|313:248|313:248|306:254|306:254|298:252|298:252|291:257|291:257|282:255|282:255|275:261|275:261|267:259|267:259|260:265,1,144,4|0,3:2|0:0,0:0:0:0:
253,263,274169,1,0,3:0:0:0:
236,332,274287,2,0,B|229:338|229:338|220:336|220:336|214:342|214:342|205:340|205:340|198:346|198:346|189:344|189:344|183:350|183:350|174:348|174:348|167:354|167:354|158:352|158:352|151:358|151:358|143:356|143:356|136:361|136:361|127:359|127:359|120:365|120:365|112:363|112:363|105:369,1,144,8|0,3:0|0:0,0:0:0:0:
97,366,274522,5,8,3:0:0:0:
93,350,274640,1,0,3:0:0:0:
68,257,274758,1,4,0:2:0:0:
45,165,274875,2,0,B|34:173|34:173|47:226|47:226|70:220|70:220|75:213|75:213|60:154,1,150
166,231,274993,5,8,3:0:0:0:
162,215,275111,1,0,0:0:0:0:
144,145,275228,1,0,0:0:0:0:
127,75,275346,2,0,L|103:-18,1,71.9999978027344,0|8,3:0|0:3,0:0:0:0:
143,71,275581,1,0,0:0:0:0:
213,54,275699,2,0,L|306:30,1,71.9999978027344,8|0,0:3|3:0,0:0:0:0:
416,118,275934,5,0,0:0:0:0:
400,122,276052,1,0,3:0:0:0:
500,28,276169,5,0,0:0:0:0:
504,44,276287,1,0,3:0:0:0:
491,173,276405,5,8,0:3:0:0:
330,140,276522,1,0,3:0:0:0:
331,147,276581,1,0,3:0:0:0:
333,155,276641,2,0,L|352:232,1,71.9999978027344,4|0,3:2|0:0,0:0:0:0:
465,295,276876,1,8,0:3:0:0:
468,310,276993,2,0,L|491:403,1,71.9999978027344,0|0,3:0|0:0,0:0:0:0:
370,298,277229,5,0,0:0:0:0:
354,301,277346,1,8,0:3:0:0:
338,305,277464,1,0,3:0:0:0:
257,248,277582,1,8,0:3:0:0:
350,224,277699,1,0,3:0:0:0:
241,251,277817,2,0,L|147:274,1,71.9999978027344
124,371,278052,1,8,3:0:0:0:
120,356,278170,1,0,3:0:0:0:
102,286,278288,2,0,L|84:216,1,71.9999978027344,4|0,0:2|0:0,0:0:0:0:
4,141,278523,5,8,3:0:0:0:
19,136,278641,1,0,0:0:0:0:
0,59,278759,1,0,0:0:0:0:
78,39,278876,2,0,L|172:15,1,71.9999978027344,0|8,3:0|0:3,0:0:0:0:
83,54,279111,1,0,0:0:0:0:
192,26,279229,2,0,L|286:2,1,71.9999978027344,8|0,0:3|3:0,0:0:0:0:
459,56,279464,5,0,0:0:0:0:
483,149,279582,1,0,3:0:0:0:
430,238,279699,1,0,0:0:0:0:
453,331,279817,1,0,3:0:0:0:
445,234,279935,5,8,0:3:0:0:
352,257,280052,1,0,3:0:0:0:
343,259,280111,1,0,3:0:0:0:
335,261,280171,2,0,B|326:259|326:259|319:264|319:264|310:262|310:262|303:268|303:268|295:266|295:266|288:272|288:272|279:270|279:270|272:276|272:276|264:274|264:274|257:280|257:280|248:278,2,96,4|0|0,3:2|0:0|0:0,0:0:0:0:
377,80,280523,2,0,B|381:75|381:75|390:77|390:77|397:71|397:71|406:73|406:73|413:67|413:67|421:69|421:69|428:64|428:64|437:66|437:66|444:60|444:60|452:62|452:62|459:56,2,96,4|0|0,3:2|0:0|0:0,0:0:0:0:
278,192,280876,5,8,0:3:0:0:
256,107,280994,2,0,B|257:98|257:98|252:91|252:91|254:82|254:82|248:75|248:75|250:67|250:67|244:60|244:60|246:51|246:51|240:44|240:44|229:51|229:51|221:49|221:49|214:55|214:55|205:53|205:53|198:59|198:59|190:57|190:57|183:63|183:63|174:61|174:61|167:67,1,144,4|0,3:2|0:0,0:0:0:0:
131,5,281229,1,8,3:0:0:0:
45,26,281347,2,0,B|36:24|36:24|29:29|29:29|20:27|20:27|13:33|13:33|5:31|5:31|-1:37|-1:37|-10:35|-10:35|-17:41|-17:41|-10:52|-10:52|-12:60|-12:60|-6:67|-6:67|-8:76|-8:76|-2:83|-2:83|-4:91|-4:91|1:98|1:98|0:107|0:107|5:114,1,144,4|0,3:2|0:0,0:0:0:0:
22,172,281582,1,8,3:0:0:0:
36,168,281700,1,0,3:0:0:0:
92,215,281818,1,0,0:0:0:0:
116,316,281935,2,0,B|127:305|127:305|116:258|116:258|99:254|99:254|88:266|88:266|99:312|99:312|116:316,1,150
255,384,282053,5,8,3:0:0:0:
251,368,282171,1,0,0:0:0:0:
231,290,282289,1,0,0:0:0:0:
309,271,282406,2,0,L|394:249,1,71.9999978027344,0|8,3:0|0:3,0:0:0:0:
313,287,282641,1,0,0:0:0:0:
283,169,282759,2,0,L|261:83,1,71.9999978027344,8|0,0:3|0:0,0:0:0:0:
25,86,282994,6,0,P|20:108|7:124,9,35.9999989013672,0|0|0|0|0|0|0|0|0|0,3:0|3:0|3:0|3:0|3:0|3:0|3:0|3:0|3:0|3:0,0:0:0:0:
36,90,283582,6,0,P|33:104|13:135,1,35.9999989013672,2|0,0:2|0:0,0:0:0:0:
57,192,283701,2,0,P|78:204|100:220,2,48,8|2|2,3:0|0:0|0:0,0:0:0:0:
115,138,283842,2,0,P|137:126|161:115,1,48,2|2,0:0|0:0,0:0:0:0:
110,127,283936,6,0,P|187:93|286:66,1,180,4|0,3:2|0:0,0:0:0:0:
283,57,284171,1,8,3:0:0:0:
0,16,284289,2,0,P|97:86|212:115,1,240,4|2,3:2|0:1,0:0:0:0:
390,111,284642,1,8,3:0:0:0:
486,20,284759,2,0,P|462:74|456:101,1,60,0|0,3:0|0:0,3:0:0:0:
446,169,284877,1,8,3:0:0:0:
466,217,284936,1,0,3:0:0:0:
484,267,284995,1,2,3:1:0:0:
494,319,285053,1,0,3:0:0:0:
493,370,285112,6,0,P|476:327|486:294,1,60,8|0,3:0|0:0,0:0:0:0:
450,347,285230,2,0,P|414:318|380:318,1,71.9999978027344,8|0,3:0|0:0,0:0:0:0:
379,273,285348,2,0,P|342:232|312:133,1,155.999992858887,4|0,3:2|0:0,0:0:0:0:
291,175,285504,2,0,P|238:145|124:140,1,167.999994873047,4|0,3:2|0:0,0:0:0:0:
171,110,285661,2,0,P|97:86|-8:-12,1,180.000006866455,4|0,3:2|0:0,0:0:0:0:
17,37,285818,2,0,P|81:91|160:118,1,167.999994873047,4|0,3:2|0:0,0:0:0:0:
140,151,285975,2,0,P|220:153|287:189,1,155.999992858887,4|0,3:2|0:0,0:0:0:0:
321,140,286132,2,0,P|347:219|395:267,1,143.999995605469,4|0,3:2|0:0,0:0:0:0:
393,307,286289,2,0,P|429:312|454:337,1,71.9999978027344,8|0,3:0|0:0,0:0:0:0:
478,257,286406,6,0,P|352:292|276:305,1,180,8|0,3:0|0:0,0:0:0:0:
272,373,286642,1,2,3:1:0:0:
246,357,286701,1,2,3:1:0:0:
232,330,286759,1,8,3:0:0:0:
303,300,286877,1,2,0:1:0:0:
152,343,286995,1,8,3:0:0:0:
79,297,287112,2,0,P|95:276|120:268,2,40,2|0|0,0:1|0:0|0:0,0:0:0:0:
66,300,287232,2,0,P|45:234|13:169,1,120,8|0,3:0|0:0,0:0:0:0:
209,15,287467,6,0,B|242:65|232:160|181:187|137:150|147:55|191:11,1,300,8|0,3:0|0:0,0:0:0:0:
305,99,287820,2,0,P|189:83|75:56,1,233.999989288331,8|0,3:0|0:0,0:0:0:0:
62,65,288055,2,0,P|146:87|238:103,1,180,4|0,3:2|0:0,0:0:0:0:
314,175,288290,2,0,P|355:161|376:133,1,60,8|0,3:0|0:0,0:0:0:0:
424,18,288408,2,0,P|442:147|473:268,1,233.999989288331,4|0,3:2|0:0,0:0:0:0:
471,262,288643,1,8,3:0:0:0:
378,320,288761,1,2,3:1:0:0:
275,284,288879,2,0,P|262:311|254:340,1,60,0|0,3:0|0:0,0:0:0:0:
250,355,288996,1,2,0:1:0:0:
244,109,289114,6,0,P|180:83|125:176,1,180,4|0,3:2|0:0,0:0:0:0:
149,231,289349,1,8,3:0:0:0:
240,118,289467,2,0,P|113:81|28:66,1,180,4|0,3:2|0:0,0:0:0:0:
21,11,289702,1,0,3:0:0:0:
240,118,289820,1,8,3:0:0:0:
312,12,289937,2,0,P|185:49|100:64,1,180,4|0,3:2|0:0,0:0:0:0:
66,71,290173,5,2,0:1:0:0:
92,161,290290,1,8,3:0:0:0:
10,196,290408,5,2,0:1:0:0:
149,231,290526,1,8,3:0:0:0:
288,266,290643,5,2,3:1:0:0:
275,311,290702,1,2,3:1:0:0:
262,356,290762,1,8,3:0:0:0:
228,207,290879,1,8,3:0:0:0:
149,231,290997,1,8,3:0:0:0:
240,203,291114,1,8,3:0:0:0:
379,294,291232,1,8,3:0:0:0:
470,322,291350,2,0,P|445:235|412:52,1,233.999989288331,4|0,3:2|0:0,0:0:0:0:
416,81,291585,1,8,3:0:0:0:
239,13,291703,6,0,P|211:92|117:91,1,155.999992858887,8|0,3:0|0:0,0:0:0:0:
92,161,291879,2,0,P|27:135|25:31,1,143.999995605469,8|0,3:0|0:0,0:0:0:0:
57,1,292056,2,0,P|97:18|114:61,1,66.0000020141602,4|0,3:2|0:0,0:0:0:0:
147,105,292173,1,8,3:0:0:0:
121,238,292291,1,2,3:1:0:0:
105,318,292409,1,0,3:0:0:0:
85,314,292467,1,0,3:0:0:0:
65,318,292526,1,2,3:1:0:0:
49,328,292585,1,0,3:0:0:0:
36,342,292644,1,8,3:0:0:0:
121,238,292762,6,0,P|195:288|322:340,1,198.000006042481,4|0,3:2|0:0,0:0:0:0:
365,348,292997,1,8,3:0:0:0:
199,324,293114,5,0,3:0:0:0:
216,300,293173,1,0,3:0:0:0:
240,280,293232,1,2,3:1:0:0:
266,261,293291,1,2,3:1:0:0:
291,247,293350,1,0,3:0:0:0:
320,234,293409,1,2,3:1:0:0:
347,226,293467,2,0,P|397:138|461:44,1,198.000006042481,8|0,3:0|0:0,0:0:0:0:
494,0,293703,5,2,0:1:0:0:
354,44,293820,1,8,3:0:0:0:
371,123,293938,1,2,0:1:0:0:
510,183,294056,1,8,3:0:0:0:
366,135,294174,1,2,0:1:0:0:
292,0,294292,6,0,P|266:75|231:143,1,120,8|2,3:0|0:1,0:0:0:0:
66,165,294527,1,8,3:0:0:0:
52,119,294605,1,2,3:1:0:0:
27,77,294684,1,2,3:1:0:0:
0,37,294762,2,0,P|28:8|111:28,1,120,4|0,3:2|0:0,0:0:0:0:
171,116,294997,1,8,3:0:0:0:
156,143,295056,1,0,3:0:0:0:
146,171,295115,1,2,3:1:0:0:
138,201,295174,1,0,3:0:0:0:
131,231,295233,6,0,P|119:288|9:309,1,160,4|0,3:2|0:0,0:0:0:0:
23,308,295468,2,0,P|90:320|195:362,1,160,8|0,3:0|0:0,0:0:0:0:
188,358,295703,1,8,3:0:0:0:
283,265,295821,1,2,3:1:0:0:
329,227,295880,1,0,3:0:0:0:
380,244,295939,1,0,3:0:0:0:
416,215,295997,1,2,3:1:0:0:
456,227,296056,1,2,3:1:0:0:
483,205,296115,1,2,3:1:0:0:
512,210,296174,6,0,P|490:118|412:113,1,180,4|0,3:2|0:0,0:0:0:0:
406,117,296409,2,0,P|421:54|465:-32,1,120,8|0,3:0|0:0,0:0:0:0:
297,116,296644,1,8,3:0:0:0:
304,152,296762,1,2,3:1:0:0:
433,303,296880,1,8,3:0:0:0:
426,339,296998,1,2,3:1:0:0:
319,380,297115,6,0,B|314:368|314:368|313:355|313:355|300:347|300:347|297:338|297:338|298:324|298:324|291:313|291:313|293:303|293:303|295:294|295:294|282:281|282:281|283:263|283:263,1,132,4|0,3:2|0:0,0:0:0:0:
206,213,297823,6,0,P|197:241|182:268,2,60,4|0|0,0:0|0:0|0:0,0:0:0:0:
136,134,298171,2,0,B|55:110|-11:134|3:206|59:179|63:151,1,180,2|0,0:0|0:0,0:0:0:0:
156,11,298636,2,0,B|175:93|229:138|284:90|233:55|207:65,1,180,2|0,0:0|0:0,0:0:0:0:
204,197,299097,2,0,P|283:160|336:148,1,120,2|0,0:0|0:0,0:0:0:0:
391,133,299442,1,2,0:1:0:0:
511,0,299673,2,0,P|479:115|461:251,1,240
510,322,300241,6,0,B|567:294|497:235|401:245|350:321,1,240
206,384,300919,1,0,0:0:0:0:
183,309,301031,2,0,P|159:260|143:243,1,60
83,181,301257,6,0,B|74:175|74:175|62:176|62:176|53:174|53:174|42:167|42:167|32:168|32:168|18:162|18:162|3:163|3:163|-6:155,2,90.0000034332277,4|0|0,0:0|0:0|0:0,0:0:0:0:
155,135,301590,2,0,B|160:120|160:120|166:112|166:112|168:97|168:97|167:88|167:88|161:80|161:80|160:69|160:69|153:57|153:57|154:47|154:47|141:28|141:28|128:26|128:26|116:21|116:21|105:27|105:27|92:30|92:30|84:38|84:38|88:56,1,180.000006866455,2|0,0:0|0:0,0:0:0:0:
192,70,301923,1,0,0:0:0:0:
269,56,302034,2,0,B|281:56|281:56|292:51|292:51|306:53|306:53|318:47|318:47|326:42|326:42|339:45|339:45|353:39|353:39|366:44|366:44|378:39|378:39|388:40|388:40|397:33|397:33|412:34|412:34|427:24|427:24|443:24,1,180.000006866455,2|0,0:0|0:0,0:0:0:0:
512,39,302364,1,0,0:0:0:0:
385,71,302474,2,0,B|385:79|385:79|396:93|396:93|396:108|396:108|404:117|404:117|404:126|404:126|409:138|409:138|405:151|405:151|412:165|412:165|410:179|410:179|415:186|415:186|422:197|422:197|421:212|421:212|427:222|427:222|436:227|436:227|443:219|443:219|444:209|444:209|452:203|452:203|461:188|461:188|469:186|469:186|467:176|467:176|481:170|481:170|493:156,1,270.000010299683,2|0,0:0|0:0,0:0:0:0:
388,183,302914,6,0,B|383:203|383:203|389:237|389:237|364:208|364:208|368:170,1,120
310,303,303025,2,0,P|381:311|451:327,1,143.999995605469,2|0,0:1|0:0,0:0:0:0:
243,371,303351,2,0,P|237:349|243:331,3,35.9999989013672,0|2|2|2,0:0|0:0|0:0|0:0,0:0:0:0:
184,279,303568,2,0,P|199:263|218:259,3,35.9999989013672,2|2|2|2,0:0|0:0|0:0|0:0,0:0:0:0:
231,372,303785,2,0,P|225:350|231:332,1,35.9999989013672,2|2,0:0|0:0,0:0:0:0:
287,225,303894,2,0,P|255:150|234:86,1,143.999995605469,2|0,0:0|0:0,0:0:0:0:
107,0,304216,2,0,P|83:68|55:134,1,143.999995605469,2|0,0:1|0:0,0:0:0:0:
5,260,304540,5,8,3:0:0:0:
23,281,304646,1,2,3:1:0:0:
49,289,304752,1,2,3:1:0:0:
128,216,304859,2,0,B|200:207|219:141|292:133,1,180.000006866455,4|0,3:2|0:0,0:0:0:0:
314,21,305178,1,2,3:1:0:0:
221,0,305284,2,0,B|264:57|331:41|374:100,1,180.000006866455,4|0,3:2|0:0,0:0:0:0:
445,203,305601,1,2,3:1:0:0:
467,112,305706,2,0,P|485:70|512:35,2,90.0000034332277,4|0|0,3:2|0:0|0:0,0:0:0:0:
355,208,306022,2,0,P|372:249|399:285,1,90.0000034332277,8|0,3:0|0:0,0:0:0:0:
474,353,306234,6,0,P|399:321|268:296,1,180.000006866455,8|0,3:0|0:0,0:0:0:0:
131,306,306546,1,2,3:1:0:0:
182,373,306650,2,0,P|218:334|212:287,1,90.0000034332277,0|0,3:0|0:1,0:0:0:0:
259,175,306859,2,0,P|207:201|148:212,1,90.0000034332277,0|0,3:0|0:0,0:0:0:0:
43,200,307067,6,0,B|24:189|24:189|15:133|-11:91,1,90.0000034332277,0|2,3:0|0:1,0:0:0:0:
168,11,307273,2,0,B|158:20|149:76|149:76|130:87,1,90.0000034332277,0|2,3:0|0:1,0:0:0:0:
295,251,307479,2,0,B|285:241|276:185|276:185|257:174,1,90.0000034332277,0|2,3:0|0:1,0:0:0:0:
393,11,307686,5,8,3:0:0:0:
436,22,307788,1,2,3:1:0:0:
469,52,307890,1,2,3:1:0:0:
512,152,307992,2,0,B|502:143|502:143|490:144|490:144|475:137|475:137|463:142|463:142|453:140|453:140|445:144|445:144|431:147|431:147|421:154|421:154|411:161|411:161|402:168|402:168|397:179|397:179|390:190|390:190|385:202|385:202|385:215|385:215|385:227,1,180.000006866455,4|0,3:2|0:0,0:0:0:0:
421,346,308298,1,2,3:1:0:0:
512,340,308400,2,0,B|507:334|507:334|498:333|498:333|491:326|491:326|478:325|478:325|470:319|470:319|460:316|460:316|453:316|453:316|442:318|442:318|432:312|432:312|422:316|422:316|414:309|414:309|403:307|403:307|395:310|395:310|388:308|388:308|377:312|377:312|366:310|366:310|356:305|356:305|338:306,1,180.000006866455,4|0,3:2|0:0,0:0:0:0:
217,309,308704,1,2,3:1:0:0:
267,384,308806,2,0,B|269:376|269:376|266:368|266:368|268:358|268:358|262:347|262:347|257:334|257:334|258:320|258:320|251:312|251:312|251:300|251:300|242:294|242:294|241:273|241:273|232:260|232:260|223:253|223:253|219:242|219:242|219:231|219:231|208:217|208:217|209:201|209:201|201:196|201:196|195:188|195:188|191:178|191:178|194:165|194:165|185:151|185:151|180:141|180:141|178:124|178:124|167:109|167:109|167:92|167:92|162:89|162:89,1,306.000005836487,4|0,3:2|0:0,0:0:0:0:
119,31,309209,6,0,B|110:38|110:38|94:99|94:99|94:78|94:78|164:37,1,120,2|0,0:1|0:0,0:0:0:0:
99,222,309311,2,0,P|174:191|316:147,1,204.000003890991,8|0,3:0|0:0,0:0:0:0:
495,85,309611,1,2,3:1:0:0:
473,174,309711,2,0,P|423:184|365:215,1,102.000001945496,0|0,3:0|0:0,0:0:0:0:
325,73,309911,2,0,P|275:62|217:31,1,102.000001945496,0|0,3:0|0:0,0:0:0:0:
53,162,310111,6,0,P|6:190|9:252,1,102.000001945496,0|0,3:0|0:1,0:0:0:0:
65,352,310309,1,0,3:0:0:0:
76,305,310408,1,2,3:1:0:0:
214,264,310507,1,0,3:0:0:0:
203,217,310606,2,0,B|194:228|194:228|208:293,1,51.0000009727478,2|0,3:1|3:0,0:0:0:0:
240,364,310705,6,0,P|292:329|342:306,1,95.9999970703126,4|0,3:2|0:0,0:0:0:0:
326,301,310988,1,0,0:0:0:0:
450,368,311176,6,0,P|445:278|452:201,1,143.999995605469
441,217,311554,1,0,0:0:0:0:
512,127,311742,6,0,P|432:86|369:41,1,143.999995605469
376,59,312120,2,0,P|356:67|345:102,1,47.9999985351563
310,157,312308,6,0,B|195:125|217:26|217:26|284:90|210:185,1,359.171143514965
276,233,315092,6,0,B|321:109|509:-1|509:-1|314:147|252:375,1,797.999975646973,8|0,3:0|0:0,0:0:0:0:
245,377,316056,2,0,B|291:304|408:285|391:372|488:376|533:329|572:273|556:195|519:165|457:147|395:163|362:191|336:222|308:354|114:325,1,797.999975646973,8|0,3:0|0:0,0:0:0:0:
54,322,317021,6,0,B|54:310|54:310|49:311|49:311|54:298|54:298|44:300|44:300|56:286|56:286|41:289|41:289|59:276|59:276|38:277|38:277|63:264|63:264|36:266|36:266|68:253|68:253|35:254|35:254|74:243|74:243|34:242|34:242|81:233|81:233|35:231|35:231|89:225|89:225|36:219|36:219|97:216|97:216|38:207|38:207|105:208|105:208|41:196|41:196|115:201|115:201|44:185|44:185|125:195|125:195|49:174|49:174|136:189|136:189|54:163|54:163|146:186|146:186|59:153|59:153|157:182|157:182|66:144|66:144|169:180|169:180|73:134|73:134|181:178|181:178|81:125|81:125|192:178|192:178|89:117|89:117|204:178|204:178|98:109|98:109|216:180|216:180|107:102|107:102|227:182|227:182|117:96|117:96|238:186|238:186|127:90|127:90|249:189|249:189|138:85|138:85|260:194|260:194|148:81|148:81,1,4080,12|0,3:1|0:0,0:0:0:0:
139,5,317889,6,0,B|125:1|125:1|69:16|69:16|36:8,1,90.0000034332277,0|0,3:0|3:0,0:0:0:0:
48,23,317985,2,0,L|242:71,1,180,8|0,3:0|0:0,0:0:0:0:
298,85,318178,6,0,B|388:66|388:66|432:9|432:9|338:65,1,233.999989288331,8|0,3:0|0:0,0:0:0:0:
293,101,318371,2,0,L|479:147,1,180,8|0,3:0|0:0,0:0:0:0:
512,208,318564,2,0,B|421:230|421:230|443:277|443:277|447:333,1,180,8|0,3:0|0:0,0:0:0:0:
399,373,318757,1,8,3:0:0:0:
393,360,318950,6,0,B|231:274|-10:243|-10:243|137:266|202:331|202:331|256:256|329:227,1,797.999975646973,8|0,3:0|0:0,0:0:0:0:
317,237,319915,2,0,B|416:274|479:317|479:317|253:161|184:35|184:35|262:128|377:155,1,797.999975646973,8|0,3:0|0:0,0:0:0:0:
398,65,320879,6,0,B|407:50|407:50|394:65|394:65|402:50|402:50|390:65|390:65|398:50|398:50|385:65|385:65|394:50|394:50|381:65|381:65|389:51|389:51|377:65|377:65|384:51|384:51|372:66|372:66|380:51|380:51|368:66|368:66|375:52|375:52|363:66|363:66|370:52|370:52|359:67|359:67|365:53|365:53|355:67|355:67|360:53|360:53|351:68|351:68|356:54|356:54|347:68|347:68|351:54|351:54|343:69|343:69|347:55|347:55|338:69|338:69|342:55|342:55|334:70|334:70|338:56|338:56|330:71|330:71|333:57|333:57|326:71|326:71|328:57|328:57|321:72|321:72|323:58|323:58|317:73|317:73|318:59|318:59|313:73|313:73|314:60|314:60|308:74|308:74|309:61|309:61|304:75|304:75|305:62|305:62|300:76|300:76|300:62|300:62|296:77|296:77|296:63|296:63|292:77|292:77|291:64|291:64|288:78|288:78|287:65|287:65|284:79|284:79|282:65|282:65|280:80|280:80|278:66|278:66|275:81|275:81|272:68|272:68|271:82|271:82|268:69|268:69|267:83|267:83|263:70|263:70|262:84|262:84|259:71|259:71|258:86|258:86|251:72|251:72|251:87|251:87|247:73|247:73|247:88|247:88|242:75|242:75|243:90|243:90|238:76|238:76|239:91|239:91|234:77|234:77|235:93|235:93|229:79|229:79|231:94|231:94|224:80|224:80|227:95|227:95|219:82|219:82|222:96|222:96|215:83|215:83|218:98|218:98|211:85|211:85|214:99|214:99|206:86|206:86|210:101|210:101|202:88|202:88|206:102|206:102|198:90|198:90|203:104|203:104|193:92|193:92|199:105|199:105|190:94|190:94|195:107|195:107|186:95|186:95|192:108|192:108|181:97|181:97|188:110|188:110|177:99|177:99|184:111|184:111|172:100|172:100|180:113|180:113|167:102|167:102|175:115|175:115|163:104|163:104|171:116|171:116|159:106|159:106|168:118|168:118|155:108|155:108|164:120|164:120|151:110|151:110|160:122|160:122|146:112|146:112|156:123|156:123|142:114|142:114|152:125|152:125|138:116|138:116|149:127|149:127|134:118|134:118|145:129|145:129|130:120|130:120|141:131|141:131|125:122|125:122|137:133|137:133|121:124|121:124|134:135|134:135|116:126|116:126|130:137|130:137|112:128|112:128|125:140|125:140|108:130|108:130|122:142|122:142|104:133|104:133|118:144|118:144|100:135|100:135|114:146|114:146|96:137|96:137|111:148|111:148|92:141|92:141|107:150|107:150|88:143|88:143|103:152|103:152|84:145|84:145|100:154|100:154|80:148|80:148|96:157|96:157|75:150|75:150|93:159|93:159|71:153|71:153|89:161|89:161|68:155|68:155|86:163|86:163|64:158|64:158|82:166|82:166|60:160|60:160|78:168|78:168|56:163|56:163|76:172|76:172|52:165,1,2651.99987860108,12|0,3:1|0:0,0:0:0:0:
8,229,321747,6,0,L|101:252,1,90.0000034332277,0|0,3:0|3:0,0:0:0:0:
106,242,321844,1,8,3:0:0:0:
82,335,321940,1,0,3:0:0:0:
78,350,322037,2,0,B|105:340|105:340|144:185,1,180.000006866455,8|0,3:0|0:0,0:0:0:0:
218,188,322230,2,0,L|174:13,1,180.000006866455,8|0,3:0|0:0,0:0:0:0:
100,22,322423,2,0,B|108:53|108:53|96:39|96:39|84:-7,7,90.0000034332277,8|0|0|0|0|0|0|0,3:0|0:0|0:0|0:0|0:0|0:0|0:0|0:0,0:0:0:0:
118,89,322809,5,8,3:0:0:0:
121,100,323001,2,0,B|262:19|492:16|492:16|331:95|276:303,1,720,8|0,3:0|0:0,0:0:0:0:
342,320,323773,5,8,3:0:0:0:
347,333,323966,2,0,B|208:235|36:179|36:179|208:235|418:232,1,720,8|0,3:0|0:0,0:0:0:0:
478,194,324738,6,0,B|482:216|482:216|473:194|473:194|477:216|477:216|469:194|469:194|471:216|471:216|463:194|463:194|466:216|466:216|458:194|458:194|462:217|462:217|453:195|453:195|457:217|457:217|448:195|448:195|452:217|452:217|444:196|444:196|447:218|447:218|439:197|439:197|442:219|442:219|434:198|434:198|438:220|438:220|429:200|429:200|433:221|433:221|424:200|424:200|428:223|428:223|420:202|420:202|423:224|423:224|415:203|415:203|418:225|418:225|410:205|410:205|414:227|414:227|406:207|406:207|409:229|409:229|401:209|401:209|404:231|404:231|397:211|397:211|400:233|400:233|393:213|393:213|395:235|395:235|388:215|388:215|392:237|392:237|384:218|384:218|387:240|387:240|379:221|379:221|383:242|383:242|376:224|376:224|378:245|378:245|371:226|371:226|375:248|375:248|367:229|367:229|370:251|370:251|364:232|364:232|367:254|367:254|360:235|360:235|363:257|363:257|355:239|355:239|359:260|359:260|352:241|352:241|356:264|356:264|348:245|348:245|352:266|352:266|345:249|345:249|348:270|348:270|341:252|341:252|345:274|345:274|338:255|338:255|341:278|341:278|335:259|335:259|338:281|338:281|331:263|331:263|334:284|334:284|328:266|328:266|332:288|332:288|324:270|324:270|328:291|328:291|322:274|322:274|325:295|325:295|318:277|318:277|321:299|321:299|315:281|315:281|318:303|318:303|311:285|311:285|315:306|315:306|308:289|308:289|312:310|312:310|305:292|305:292|308:314|308:314|302:295|302:295|305:317|305:317|298:299|298:299|301:321|301:321|295:303|295:303|297:324|297:324|291:305|291:305|294:328|294:328|287:309|287:309|290:330|290:330|283:312|283:312|287:334|287:334|279:315|279:315|283:337|283:337|276:318|276:318|278:340|278:340|272:321|272:321|275:343|275:343|267:324|267:324|271:345|271:345|263:327|263:327|266:348|266:348|259:329|259:329|262:351|262:351|255:331|255:331|258:353|258:353|250:333|250:333|254:356|254:356|246:336|246:336|249:358|249:358|241:338|241:338|244:360|244:360|237:340|237:340|240:362|240:362|233:342|233:342|236:364|236:364|228:344|228:344|231:366|231:366|223:345|223:345|227:367|227:367|218:346|218:346|222:369|222:369|214:348|214:348|217:370|217:370|209:349|209:349|212:371|212:371|204:351|204:351|208:372|208:372|199:352|199:352|203:373|203:373|194:353|194:353|198:374|198:374|190:353|190:353|193:375|193:375|185:353|185:353|188:376|188:376|180:354|180:354|183:376|183:376|174:355|174:355|178:376|178:376|170:355|170:355|173:377|173:377|165:355|165:355|168:377|168:377|160:356|160:356|164:377|164:377|155:355|155:355|158:377|158:377|150:355|150:355|153:377|153:377|145:355|145:355|148:376|148:376|140:354|140:354|144:376|144:376|136:354|136:354|139:376,1,3468.00006614685,12|0,3:1|0:0,0:0:0:0:
64,362,325606,6,0,B|54:345|54:345|74:295|74:295|109:289,1,90.0000034332277,0|0,3:0|3:0,0:0:0:0:
99,285,325702,2,0,L|41:64,1,180,8|0,3:0|0:0,0:0:0:0:
0,56,325895,2,0,B|34:48|34:48|168:137,1,180,8|0,3:0|0:0,0:0:0:0:
222,87,326088,6,0,B|239:51|239:51|266:31|266:31|213:54|213:54,1,120,8|0,3:0|0:0,0:0:0:0:
187,205,326281,2,0,L|170:275,1,60,8|0,3:0|0:0,0:0:0:0:
177,204,326378,2,0,L|188:274,1,60,0|0,3:0|0:0,0:0:0:0:
258,175,326474,2,0,B|278:153|278:153|435:92|435:92|458:32,1,233.999989288331,8|0,3:0|0:0,0:0:0:0:
500,0,326667,5,8,3:0:0:0:
512,0,326860,2,0,B|436:136|378:366|378:366|423:249|491:232|491:232|403:204|341:128,1,720,8|0,3:0|0:0,0:0:0:0:
315,102,327632,5,8,3:0:0:0:
309,92,327825,2,0,B|202:77|104:152|88:265|136:348|136:348|35:264|-10:140|2:22,1,720,8|0,3:0|0:0,0:0:0:0:
66,5,328596,6,0,B|84:-5|84:-5|68:7|68:7|87:-2|87:-2|71:10|71:10|90:0|90:0|75:13|75:13|94:3|94:3|78:17|78:17|97:6|97:6|82:20|82:20|101:9|101:9|85:24|85:24|104:13|104:13|88:27|88:27|107:16|107:16|92:31|92:31|111:20|111:20|95:34|95:34|114:23|114:23|98:38|98:38|117:27|117:27|101:41|101:41|120:30|120:30|104:45|104:45|123:34|123:34|108:49|108:49|127:38|127:38|111:52|111:52|130:41|130:41|114:56|114:56|133:45|133:45|117:60|117:60|136:49|136:49|120:64|120:64|139:53|139:53|122:67|122:67|141:56|141:56|125:71|125:71|144:60|144:60|128:75|128:75|147:64|147:64|131:79|131:79|150:68|150:68|134:83|134:83|153:72|153:72|136:87|136:87|155:76|155:76|139:91|139:91|158:80|158:80|142:95|142:95|161:84|161:84|144:99|144:99|163:88|163:88|147:103|147:103|166:92|166:92|149:107|149:107|168:96|168:96|152:111|152:111|171:100|171:100|154:115|154:115|173:104|173:104|157:119|157:119|176:108|176:108|159:124|159:124|178:113|178:113|161:128|161:128|180:117|180:117|164:132|164:132|183:121|183:121|166:136|166:136|185:125|185:125|168:141|168:141|187:130|187:130|170:145|170:145|189:134|189:134|172:149|172:149|191:138|191:138|174:154|174:154|193:143|193:143|176:158|176:158|195:147|195:147|178:162|178:162|197:151|197:151|180:167|180:167|199:156|199:156|182:171|182:171|201:160|201:160|184:176|184:176|203:165|203:165|186:180|186:180|205:169|205:169|188:184|188:184|207:173|207:173|189:189|189:189|208:178|208:178|191:193|191:193|210:182|210:182|193:198|193:198|212:187|212:187|194:203|194:203|213:192|213:192|196:206|196:206|215:196|215:196|197:211|197:211|216:201|216:201|199:215|199:215|218:204|218:204|200:220|200:220|219:209|219:209|201:224|201:224|220:213|220:213|203:229|203:229|222:218|222:218|204:234|204:234|223:223|223:223|205:238|205:238|224:227|224:227|206:243|206:243|225:232|225:232|207:248|207:248|226:237|226:237|208:252|208:252|227:241|227:241|209:257|209:257|228:246|228:246|210:262|210:262|229:251|229:251|211:266|211:266|230:255|230:255|212:271|212:271|231:260|231:260|213:276|213:276|232:265|232:265|214:281|214:281|233:270|233:270|214:285|214:285|233:274|233:274|215:290|215:290|234:279|234:279|216:295|216:295|235:284|235:284|216:300|216:300|235:289|235:289|217:304|217:304|236:293|236:293|217:309|217:309|236:298|236:298|218:314|218:314|237:303|237:303|218:319|218:319|237:308|237:308|218:324|218:324|237:313|237:313|219:328|219:328|238:317|238:317|219:333|219:333|238:322|238:322|219:338|219:338|238:327|238:327|219:343|219:343|238:332,1,3570.00003404617,12|0,3:1|0:0,0:0:0:0:
286,384,329464,6,0,B|308:367|308:367|324:298|324:298|320:294|320:294|338:210|338:210|367:194,1,215.999993408203,8|0,3:0|0:0,0:0:0:0:
433,173,329657,1,0,3:0:0:0:
415,105,329754,1,8,3:0:0:0:
420,82,329851,1,0,3:0:0:0:
495,47,329947,2,0,B|489:24|489:24|397:0|397:0|376:13,1,143.999995605469,8|0,3:0|0:0,0:0:0:0:
316,64,330140,2,0,B|324:117|324:117|306:86,7,71.9999978027344,8|0|0|0|0|0|0|0,3:0|0:0|0:0|0:0|0:0|0:0|0:0|0:0,0:0:0:0:
242,48,330526,6,0,L|255:10,38,35.9999989013672,8|0|0|0|0|0|0|0|0|0|0|0|0|0|0|0|0|0|0|0|0|0|0|0|0|0|0|0|0|0|0|0|0|0|0|0|0|0|0,3:0|0:0|0:0|0:0|0:0|0:0|0:0|0:0|0:0|0:0|0:0|0:0|0:0|0:0|0:0|0:0|0:0|0:0|0:0|0:0|0:0|0:0|0:0|0:0|0:0|0:0|0:0|0:0|0:0|0:0|0:0|0:0|0:0|0:0|0:0|0:0|0:0|0:0|0:0,0:0:0:0:
229,54,331490,2,0,B|146:188|105:381|105:381|146:188|95:24|95:24|98:156|56:233,1,912,8|0,3:0|0:0,0:0:0:0:
11,271,332455,6,0,B|17:291|17:291|15:269|15:269|21:289|21:289|20:267|20:267|26:287|26:287|24:266|24:266|30:286|30:286|29:265|29:265|35:285|35:285|33:263|33:263|39:283|39:283|38:262|38:262|44:282|44:282|42:260|42:260|48:280|48:280|47:259|47:259|53:279|53:279|52:257|52:257|58:277|58:277|56:256|56:256|62:276|62:276|61:255|61:255|67:275|67:275|65:253|65:253|71:273|71:273|70:252|70:252|76:272|76:272|75:251|75:251|81:271|81:271|79:249|79:249|85:269|85:269|84:248|84:248|90:268|90:268|89:247|89:247|95:267|95:267|93:245|93:245|99:265|99:265|98:244|98:244|104:264|104:264|102:243|102:243|108:263|108:263|107:242|107:242|113:262|113:262|112:241|112:241|118:261|118:261|116:239|116:239|122:259|122:259|121:238|121:238|127:258|127:258|126:237|126:237|132:257|132:257|130:236|130:236|136:256|136:256|135:235|135:235|141:255|141:255|140:234|140:234|146:254|146:254|144:233|144:233|150:253|150:253|149:231|149:231|155:251|155:251|154:230|154:230|160:250|160:250|158:229|158:229|164:249|164:249|163:228|163:228|169:248|169:248|168:227|168:227|174:247|174:247|172:226|172:226|178:246|178:246|177:225|177:225|183:245|183:245|182:224|182:224|188:244|188:244|187:223|187:223|193:243|193:243|191:222|191:222|197:242|197:242|196:222|196:222|202:242|202:242|201:221|201:221|207:241|207:241|205:220|205:220|211:240|211:240|210:219|210:219|216:239|216:239|215:218|215:218|221:238|221:238|220:217|220:217|226:237|226:237|224:216|224:216|230:236|230:236|229:215|229:215|235:235|235:235|234:215|234:215|240:235|240:235|239:214|239:214|245:234|245:234|243:213|243:213|249:233|249:233|248:212|248:212|254:232|254:232|253:212|253:212|259:232|259:232|257:211|257:211|263:231|263:231|262:210|262:210|268:230|268:230|267:209|267:209|273:229|273:229|272:209|272:209|278:229|278:229|276:208|276:208|282:228|282:228|281:207|281:207|287:227|287:227|286:207|286:207|292:227|292:227|291:206|291:206|297:226|297:226|296:206|296:206|302:226|302:226|300:205|300:205|306:225|306:225|305:204|305:204|311:224|311:224|310:204|310:204|316:224|316:224|315:203|315:203|321:223|321:223|319:203|319:203|325:223|325:223|324:202|324:202|330:222|330:222|329:202|329:202|335:222|335:222|334:201|334:201|340:221|340:221|338:201|338:201|344:221|344:221|343:200|343:200|349:220|349:220|348:200|348:200|354:220|354:220|353:200|353:200|359:220|359:220|358:199|358:199|364:219|364:219|362:199|362:199|368:219|368:219|367:198|367:198|373:218|373:218|372:198|372:198|378:218|378:218|377:198|377:198|383:218|383:218|382:197|382:197|388:217|388:217|386:197|386:197|392:217,1,3366.00003210068,12|0,3:1|0:0,0:0:0:0:
436,140,333323,6,0,L|392:314,1,180,8|0,3:0|0:0,0:0:0:0:
475,357,333516,1,0,3:0:0:0:
510,324,333612,2,0,B|497:310|497:310|452:132|452:132|422:110,1,215.999993408203,8|0,3:0|0:0,0:0:0:0:
468,47,333805,6,0,B|449:42|449:42|323:76,1,143.999995605469,8|0,3:0|0:0,0:0:0:0:
256,19,333998,2,0,B|237:34|237:34|217:115|217:115|221:47,1,143.999995605469,8|0,3:0|0:0,0:0:0:0:
290,196,334191,2,0,B|316:184|316:184|339:92|339:92|324:67,1,143.999995605469,8|0,3:0|0:0,0:0:0:0:
166,0,334384,6,0,B|126:166|108:322|108:322|45:329|-14:362|-14:362|60:195|257:114|488:126,1,1025.99996868897,8|0,3:0|0:0,0:0:0:0:
512,64,335349,2,0,B|422:-39|226:28|240:241|390:301|484:243|484:243|395:340|232:312|167:177|208:59|292:8,1,1025.99996868897,8|0,3:0|0:0,0:0:0:0:
346,14,336313,6,0,B|371:19|371:19|346:19|346:19|371:24|371:24|347:25|347:25|371:29|371:29|347:30|347:30|372:35|372:35|347:36|347:36|372:40|372:40|348:41|348:41|372:45|372:45|348:46|348:46|372:51|372:51|348:52|348:52|372:56|372:56|348:57|348:57|372:62|372:62|347:63|347:63|372:67|372:67|347:68|347:68|372:72|372:72|347:73|347:73|371:78|371:78|346:79|346:79|371:83|371:83|346:84|346:84|370:89|370:89|345:89|345:89|370:94|370:94|344:95|344:95|369:99|369:99|343:100|343:100|368:105|368:105|343:105|343:105|367:110|367:110|342:111|342:111|366:115|366:115|341:116|341:116|365:121|365:121|339:121|339:121|364:126|364:126|338:127|338:127|363:131|363:131|337:132|337:132|361:136|361:136|335:137|335:137|360:142|360:142|334:142|334:142|358:147|358:147|332:147|332:147|357:152|357:152|331:153|331:153|355:157|355:157|329:158|329:158|354:162|354:162|327:163|327:163|352:167|352:167|325:168|325:168|350:172|350:172|323:173|323:173|348:177|348:177|321:178|321:178|346:182|346:182|319:183|319:183|344:187|344:187|317:188|317:188|341:192|341:192|315:193|315:193|339:197|339:197|312:197|312:197|337:202|337:202|310:202|310:202|334:207|334:207|307:207|307:207|332:212|332:212|305:212|305:212|329:216|329:216|302:216|302:216|326:221|326:221|299:221|299:221|324:226|324:226|296:226|296:226|321:230|321:230|293:230|293:230|318:235|318:235|291:235|291:235|315:239|315:239|287:239|287:239|312:244|312:244|284:244|284:244|309:248|309:248|281:248|281:248|306:252|306:252|278:252|278:252|302:257|302:257|275:257|275:257|299:261|299:261|271:261|271:261|296:265|296:265|268:265|268:265|292:269|292:269|264:269|264:269|289:273|289:273|261:273|261:273|285:277|285:277|257:277|257:277|281:281|281:281|253:281|253:281|278:285|278:285|249:285|249:285|274:289|274:289|246:288|246:288|270:293|270:293|242:292|242:292|266:297|266:297|238:296|238:296|262:300|262:300|234:299|234:299|258:304|258:304|230:303|230:303|254:307|254:307|225:306|225:306|250:311|250:311|221:310|221:310|246:314|246:314|217:313|217:313|241:318|241:318|213:316|213:316|237:321|237:321|208:320|208:320|233:324|233:324|204:323|204:323|228:327|228:327|199:326|199:326|224:330|224:330|195:329|195:329|219:333|219:333|190:332|190:332|215:336|215:336|186:335|186:335|210:339|210:339|181:337|181:337|206:342|206:342|176:340|176:340|201:344|201:344|172:343|172:343|196:347|196:347|167:345|167:345|191:350|191:350|162:348|162:348|187:352|187:352|157:350|157:350|182:354|182:354|152:352|152:352|177:357|177:357|148:354|148:354|172:359|172:359|143:357|143:357|167:361|167:361|138:359|138:359|162:363,1,4182.00006381226,12|0,3:1|0:0,0:0:0:0:
58,384,337182,6,0,L|83:283,1,90.0000034332277,0|0,3:0|3:0,0:0:0:0:
71,289,337278,1,8,3:0:0:0:
166,231,337374,1,0,3:0:0:0:
162,218,337471,2,0,B|138:128|138:128|39:153,1,180.000006866455,8|0,3:0|0:0,0:0:0:0:
0,208,337664,2,0,B|27:217|27:217|190:177,1,180.000006866455,8|0,3:0|0:0,0:0:0:0:
241,116,337857,2,0,B|201:91|201:91|230:136,7,90.0000034332277,8|0|0|0|0|0|0|0,3:0|0:0|0:0|0:0|0:0|0:0|0:0|0:0,0:0:0:0:
175,73,338243,5,8,3:0:0:0:
166,64,338436,2,0,B|123:24|47:24|47:24|377:-34|525:213|525:213|475:152|405:147,1,809.999975280762,8|0,3:0|0:0,0:0:0:0:
363,96,339207,5,8,3:0:0:0:
351,91,339400,2,0,B|311:173|347:271|433:313|512:296|512:296|354:317|192:380|192:380|257:314|254:237,1,809.999975280762,8|0,3:0|0:0,0:0:0:0:
243,163,340172,6,0,B|231:163|231:163|232:158|232:158|219:163|219:163|221:153|221:153|207:165|207:165|210:150|210:150|197:168|197:168|198:147|198:147|185:172|185:172|187:145|187:145|174:177|174:177|175:144|175:144|164:183|164:183|163:143|163:143|154:190|154:190|152:144|152:144|146:198|146:198|140:145|140:145|137:206|137:206|128:147|128:147|129:214|129:214|117:150|117:150|122:224|122:224|106:153|106:153|116:234|116:234|95:158|95:158|110:245|110:245|84:163|84:163|106:255|106:255|74:168|74:168|103:266|103:266|65:175|65:175|100:278|100:278|55:182|55:182|99:290|99:290|46:190|46:190|99:301|99:301|38:198|38:198|99:313|99:313|30:207|30:207|101:325|101:325|23:216|23:216|103:336|103:336|17:226|17:226|107:347|107:347|11:236|11:236|110:358|110:358|6:247|6:247|115:369|115:369|2:257|2:257,1,4080,12|0,3:1|0:0,0:0:0:0:
63,356,341040,2,0,B|71:341|71:341|160:304,1,90.0000034332277,0|0,3:0|3:0,0:0:0:0:
148,297,341137,2,0,B|126:277|126:277|87:122,1,180,8|0,3:0|0:0,0:0:0:0:
10,111,341329,2,0,B|20:84|20:84|153:-5,1,180,8|0,3:0|0:0,0:0:0:0:
236,0,341522,6,0,B|216:77|216:77|219:81|219:81|194:184,1,180.000006866455,8|0,3:0|0:0,0:0:0:0:
268,196,341715,2,0,B|283:190|283:190|340:197|340:197|354:190,1,90.0000034332277,8|0,3:0|0:0,0:0:0:0:
272,214,341812,2,0,B|288:212|288:212|335:178|335:178|351:177,1,90.0000034332277,0|0,3:0|0:0,0:0:0:0:
358,270,341908,2,0,L|309:75,1,180.000006866455,8|0,3:0|0:0,0:0:0:0:
365,37,342101,5,8,3:0:0:0:
368,23,342294,2,0,B|432:-27|526:2|559:85|532:155|479:181|479:181|316:253|218:373|218:373|292:306|372:300,1,809.999975280762,8|0,3:0|0:0,0:0:0:0:
444,311,343066,5,8,3:0:0:0:
458,316,343259,2,0,B|346:213|213:152|76:127|76:127|174:133|213:291|41:357|-37:242|4:166,1,809.999975280762,8|0,3:0|0:0,0:0:0:0:
51,105,344030,6,0,B|42:120|42:120|55:105|55:105|47:120|47:120|59:105|59:105|51:120|51:120|64:105|64:105|55:120|55:120|68:105|68:105|60:119|60:119|73:105|73:105|65:119|65:119|78:104|78:104|70:119|70:119|82:104|82:104|75:118|75:118|87:104|87:104|80:118|80:118|91:103|91:103|85:117|85:117|95:103|95:103|90:117|90:117|99:102|99:102|94:116|94:116|103:102|103:102|99:116|99:116|108:101|108:101|103:115|103:115|113:101|113:101|109:115|109:115|117:100|117:100|113:114|113:114|121:99|121:99|118:113|118:113|125:99|125:99|123:113|123:113|130:98|130:98|128:112|128:112|134:97|134:97|133:111|133:111|138:97|138:97|137:110|137:110|144:96|144:96|143:109|143:109|148:95|148:95|147:108|147:108|152:94|152:94|152:108|152:108|156:93|156:93|156:107|156:107|160:93|160:93|161:106|161:106|164:92|164:92|165:105|165:105|168:91|168:91|170:105|170:105|172:90|172:90|174:104|174:104|178:89|178:89|181:102|181:102|182:88|182:88|185:101|185:101|186:86|186:86|190:100|190:100|191:85|191:85|194:99|194:99|195:83|195:83|199:98|199:98|199:82|199:82|203:97|203:97|203:81|203:81|208:95|208:95|207:79|207:79|213:94|213:94|212:78|212:78|217:93|217:93|216:76|216:76|222:91|222:91|220:75|220:75|227:90|227:90|224:74|224:74|232:88|232:88|229:73|229:73|236:86|236:86|233:71|233:71|240:84|240:84|237:70|237:70|245:83|245:83|241:68|241:68|250:81|250:81|245:67|245:67|254:79|254:79|249:65|249:65|259:77|259:77|253:64|253:64|262:75|262:75|257:62|257:62|266:74|266:74|260:61|260:61|271:72|271:72|264:59|264:59|275:70|275:70|268:58|268:58|280:69|280:69|272:56|272:56|286:67|286:67|277:54|277:54|290:65|290:65|281:53|281:53|294:63|294:63|285:50|285:50|298:61|298:61|289:48|289:48|302:59|302:59|293:46|293:46|307:57|307:57|297:45|297:45|311:55|311:55|301:43|301:43|315:53|315:53|304:41|304:41|320:50|320:50|308:39|308:39|324:48|324:48|312:37|312:37|329:46|329:46|316:35|316:35|333:44|333:44|320:33|320:33|338:42|338:42|324:31|324:31|342:40|342:40|329:28|329:28|346:38|346:38|332:26|332:26|350:35|350:35|336:24|336:24|355:33|355:33|340:22|340:22|359:31|359:31|343:20|343:20|363:27|363:27|347:18|347:18|367:25|367:25|351:15|351:15|371:23|371:23|355:13|355:13|375:20|375:20|359:10|359:10|380:18|380:18|362:8|362:8|384:14|384:14|366:6|366:6|387:12|387:12|369:4|369:4|392:9|392:9|373:1|373:1|396:7|396:7|377:-1|377:-1|400:4|400:4|381:-3|381:-3|404:2,1,2651.99987860108,12|0,3:1|0:0,0:0:0:0:
466,0,344899,6,0,B|472:10|472:10|456:72|456:72|464:84,1,90.0000034332277,0|0,3:0|3:0,0:0:0:0:
512,145,344995,2,0,B|504:176|504:176|271:118,1,270.000010299683,8|0,3:0|0:0,0:0:0:0:
259,130,345188,2,0,B|289:143|289:143|388:266,1,180.000006866455,8|0,3:0|0:0,0:0:0:0:
431,319,345381,1,8,3:0:0:0:
188,384,345574,2,0,B|185:368|185:368|208:320|208:320|169:327,7,90.0000034332277,8|0|0|0|0|0|0|0,3:0|0:0|0:0|0:0|0:0|0:0|0:0|0:0,0:0:0:0:
254,259,345960,6,0,B|259:236|259:236|247:256|247:256|252:234|252:234|241:255|241:255|246:233|246:233|235:253|235:253|240:231|240:231|229:252|229:252|234:230|234:230|223:250|223:250|228:228|228:228|218:249|218:249|223:227|223:227|212:247|212:247|217:225|217:225|206:246|206:246|211:224|211:224|200:244|200:244|205:222|205:222|194:243|194:243|199:221|199:221|187:242|187:242|193:220|193:220|182:240|182:240|187:218|187:218|176:239|176:239|181:217|181:217|170:237|170:237|175:215|175:215|164:236|164:236|169:214|169:214|158:234|158:234|163:212|163:212|153:233|153:233|158:211|158:211|147:231|147:231|152:209|152:209|141:230|141:230|146:208|146:208|135:228|135:228|140:206|140:206|129:227|129:227|134:205|134:205|122:226|122:226|128:204|128:204|117:224|117:224|122:202|122:202|111:223|111:223|116:201|116:201|105:221|105:221|110:199|110:199|99:220|99:220|104:198|104:198|93:218|93:218|98:196|98:196|87:217|87:217|92:194|92:194|82:215|82:215|87:192|87:192|76:214|76:214|81:191|81:191|70:213|70:213|75:190|75:190|64:211|64:211|69:188|69:188|57:210|57:210|62:187|62:187|52:208|52:208|57:185|57:185|46:207|46:207|51:184|51:184|40:205|40:205|45:182|45:182|34:204|34:204|39:181|39:181|28:202|28:202|33:179|33:179|22:201|22:201|27:178|27:178|17:199|17:199|22:176,1,1881.00001793861,12|0,3:0|0:0,0:0:0:0:
29,102,346924,2,0,L|-20:111,38,30,12|0|0|0|0|0|0|0|0|0|0|0|0|0|0|0|0|0|0|0|0|0|0|0|0|0|0|0|0|0|0|0|0|0|0|0|0|0|0,3:1|0:0|0:0|0:0|0:0|0:0|0:0|0:0|0:0|0:0|0:0|0:0|0:0|0:0|0:0|0:0|0:0|0:0|0:0|0:0|0:0|0:0|0:0|0:0|0:0|0:0|0:0|0:0|0:0|0:0|0:0|0:0|0:0|0:0|0:0|0:0|0:0|0:0|0:0,0:0:0:0:
103,97,347889,6,0,B|98:74|98:74|110:94|110:94|105:72|105:72|116:93|116:93|111:71|111:71|122:91|122:91|117:69|117:69|128:90|128:90|123:68|123:68|134:88|134:88|129:66|129:66|139:87|139:87|134:65|134:65|145:85|145:85|140:63|140:63|151:84|151:84|146:62|146:62|157:82|157:82|152:60|152:60|163:81|163:81|158:59|158:59|170:80|170:80|164:58|164:58|175:78|175:78|170:56|170:56|181:77|181:77|176:55|176:55|187:75|187:75|182:53|182:53|193:74|193:74|188:52|188:52|199:72|199:72|194:50|194:50|204:71|204:71|199:49|199:49|210:69|210:69|205:47|205:47|216:68|216:68|211:46|211:46|222:66|222:66|217:44|217:44|228:65|228:65|223:43|223:43|235:64|235:64|229:42|229:42|240:62|240:62|235:40|235:40|246:61|246:61|241:39|241:39|252:59|252:59|247:37|247:37|258:58|258:58|253:36|253:36|264:56|264:56|259:34|259:34|270:55|270:55|265:32|265:32|275:53|275:53|270:30|270:30|281:52|281:52|276:29|276:29|287:51|287:51|282:28|282:28|293:49|293:49|288:26|288:26|300:48|300:48|295:25|295:25|305:46|305:46|300:23|300:23|311:45|311:45|306:22|306:22|317:43|317:43|312:20|312:20|323:42|323:42|318:19|318:19|329:40|329:40|324:17|324:17|335:39|335:39|330:16|330:16|340:37|340:37|335:14,1,1881.00001793861,8|0,3:0|0:0,0:0:0:0:
411,59,348854,2,0,L|420:10,38,30,12|0|0|0|0|0|0|0|0|0|0|0|0|0|0|0|0|0|0|0|0|0|0|0|0|0|0|0|0|0|0|0|0|0|0|0|0|0|0,3:1|0:0|0:0|0:0|0:0|0:0|0:0|0:0|0:0|0:0|0:0|0:0|0:0|0:0|0:0|0:0|0:0|0:0|0:0|0:0|0:0|0:0|0:0|0:0|0:0|0:0|0:0|0:0|0:0|0:0|0:0|0:0|0:0|0:0|0:0|0:0|0:0|0:0|0:0,0:0:0:0:
482,75,349818,6,0,B|493:98|493:98|475:77|475:77|487:99|487:99|469:78|469:78|480:100|480:100|464:80|464:80|474:102|474:102|458:81|458:81|468:104|468:104|451:83|451:83|462:106|462:106|445:84|445:84|457:107|457:107|442:89|442:89|452:112|452:112|439:94|439:94|449:117|449:117|436:99|436:99|446:122|446:122|433:105|433:105|443:127|443:127|430:111|430:111|440:134|440:134|427:116|427:116|437:139|437:139|423:121|423:121|434:144|434:144|420:126|420:126|431:149|431:149|417:132|417:132|428:154|428:154|414:138|414:138|424:161|424:161|411:143|411:143|421:166|421:166|408:148|408:148|418:171|418:171|405:153|405:153|415:176|415:176|402:158|402:158|412:181|412:181|399:165|399:165|409:188|409:188|395:170|395:170|406:193|406:193|392:175|392:175|403:198|403:198|389:180|389:180|400:203|400:203|386:185|386:185|396:208|396:208|383:192|383:192|393:214|393:214|380:197|380:197|390:220|390:220|377:202|377:202|387:225|387:225|374:207|374:207|384:230|384:230|371:212|371:212|381:235|381:235|367:218|367:218|378:241|378:241|364:224|364:224|375:247|375:247|361:229|361:229|372:252|372:252|358:234|358:234|368:257|368:257|355:239|355:239|365:262|365:262|352:245|352:245|362:267|362:267|349:251|349:251|359:274|359:274|346:256|346:256|356:279|356:279|340:259|340:259|352:282|352:282|334:261|334:261|346:284|346:284|328:262|328:262|339:285|339:285|323:264|323:264|333:287|333:287|317:265|317:265|327:288|327:288|310:266|310:266|322:289|322:289|304:268|304:268|316:291,1,2165.99994216156,8|0,3:0|0:0,0:0:0:0:
312,361,350783,2,0,L|273:351,38,30,12|0|0|0|0|0|0|0|0|0|0|0|0|0|0|0|0|0|0|0|0|0|0|0|0|0|0|0|0|0|0|0|0|0|0|0|0|0|0,3:1|0:0|0:0|0:0|0:0|0:0|0:0|0:0|0:0|0:0|0:0|0:0|0:0|0:0|0:0|0:0|0:0|0:0|0:0|0:0|0:0|0:0|0:0|0:0|0:0|0:0|0:0|0:0|0:0|0:0|0:0|0:0|0:0|0:0|0:0|0:0|0:0|0:0|0:0,0:0:0:0:
207,372,351747,6,0,B|184:366|184:366|208:366|208:366|185:360|185:360|209:360|209:360|187:354|187:354|211:354|211:354|188:348|188:348|212:348|212:348|190:342|190:342|214:342|214:342|191:336|191:336|215:336|215:336|193:330|193:330|217:330|217:330|194:325|194:325|218:324|218:324|196:319|196:319|220:318|220:318|197:313|197:313|221:313|221:313|199:307|199:307|223:307|223:307|200:301|200:301|224:301|224:301|202:295|202:295|226:295|226:295|203:289|203:289|227:289|227:289|204:283|204:283|229:283|229:283|206:277|206:277|230:277|230:277|207:272|207:272|231:271|231:271|209:266|209:266|233:265|233:265|210:260|210:260|234:259|234:259|212:254|212:254|236:254|236:254|213:248|213:248|237:248|237:248|215:242|215:242|239:242|239:242|216:236|216:236|240:236|240:236|218:230|218:230|242:230|242:230|219:224|219:224|243:224|243:224|221:218|221:218|243:218|243:218|220:213|220:213|242:212|242:212|218:207|218:207|240:207|240:207|217:201|217:201|239:200|239:200|216:195|216:195|237:194|237:194|214:189|214:189|236:189|236:189|213:183|213:183|235:182|235:182|212:178|212:178|233:177|233:177|211:171|211:171|233:170|233:170|209:165|209:165|233:165|233:165|210:159|210:159|234:159|234:159|212:154|212:154|236:153|236:153|213:148|213:148|237:147|237:147|215:142|215:142|239:142|239:142|216:136|216:136|240:136|240:136|218:130|218:130|242:130|242:130|219:124|219:124|243:124|243:124|221:118|221:118|245:118|245:118|222:112|222:112|246:112|246:112|224:106|224:106|248:106|248:106|225:100|225:100|249:100|249:100|226:95|226:95|251:94|251:94|228:89|228:89|252:88|252:88|229:83|229:83|253:83|253:83|231:77|231:77|255:77|255:77|232:71|232:71|256:71|256:71|234:65|234:65|258:65|258:65|235:59|235:59|259:59|259:59|237:53|237:53|261:53|261:53|238:47|238:47|262:47|262:47|240:42|240:42|264:41|264:41|241:36|241:36|265:35|265:35|243:30|243:30|267:29|267:29|244:24|244:24|268:24|268:24|246:18|246:18|270:18|270:18|247:12,1,2850,8|0,3:0|0:0,0:0:0:0:
179,0,352712,2,0,L|186:31,239,30,12|0|0|0|0|0|0|0|0|0|0|0|0|0|0|0|0|0|0|0|0|0|0|0|0|0|0|0|0|0|0|0|0|0|0|0|0|0|0|0|0|0|0|0|0|0|0|0|0|0|0|0|0|0|0|0|0|0|0|0|0|0|0|0|0|0|0|0|0|0|0|0|0|0|0|0|0|0|0|0|0|0|0|0|0|0|0|0|0|0|0|0|0|0|0|0|0|0|0|0|0|0|0|0|0|0|0|0|0|0|0|0|0|0|0|0|0|0|0|0|0|0|0|0|0|0|0|0|0|0|0|0|0|0|0|0|0|0|0|0|0|0|0|0|0|0|0|0|0|0|0|0|0|0|0|0|0|0|0|0|0|0|0|0|0|0|0|0|0|0|0|0|0|0|0|0|0|0|0|0|0|0|0|0|0|0|0|0|0|0|0|0|0|0|0|0|0|0|0|0|0|0|0|0|0|0|0|0|0|0|0|0|0|0|0|0|0|0|0|0|0|0|0|0|0|0|0|0|0|0|0|0|0|0|0|0|0|0|0|0,3:1|0:0|0:0|0:0|0:0|0:0|0:0|0:0|0:0|0:0|0:0|0:0|0:0|0:0|0:0|0:0|0:0|0:0|0:0|0:0|0:0|0:0|0:0|0:0|0:0|0:0|0:0|0:0|0:0|0:0|0:0|0:0|0:0|0:0|0:0|0:0|0:0|0:0|0:0|0:0|0:0|0:0|0:0|0:0|0:0|0:0|0:0|0:0|0:0|0:0|0:0|0:0|0:0|0:0|0:0|0:0|0:0|0:0|0:0|0:0|0:0|0:0|0:0|0:0|0:0|0:0|0:0|0:0|0:0|0:0|0:0|0:0|0:0|0:0|0:0|0:0|0:0|0:0|0:0|0:0|0:0|0:0|0:0|0:0|0:0|0:0|0:0|0:0|0:0|0:0|0:0|0:0|0:0|0:0|0:0|0:0|0:0|0:0|0:0|0:0|0:0|0:0|0:0|0:0|0:0|0:0|0:0|0:0|0:0|0:0|0:0|0:0|0:0|0:0|0:0|0:0|0:0|0:0|0:0|0:0|0:0|0:0|0:0|0:0|0:0|0:0|0:0|0:0|0:0|0:0|0:0|0:0|0:0|0:0|0:0|0:0|0:0|0:0|0:0|0:0|0:0|0:0|0:0|0:0|0:0|0:0|0:0|0:0|0:0|0:0|0:0|0:0|0:0|0:0|0:0|0:0|0:0|0:0|0:0|0:0|0:0|0:0|0:0|0:0|0:0|0:0|0:0|0:0|0:0|0:0|0:0|0:0|0:0|0:0|0:0|0:0|0:0|0:0|0:0|0:0|0:0|0:0|0:0|0:0|0:0|0:0|0:0|0:0|0:0|0:0|0:0|0:0|0:0|0:0|0:0|0:0|0:0|0:0|0:0|0:0|0:0|0:0|0:0|0:0|0:0|0:0|0:0|0:0|0:0|0:0|0:0|0:0|0:0|0:0|0:0|0:0|0:0|0:0|0:0|0:0|0:0|0:0|0:0|0:0|0:0|0:0|0:0|0:0|0:0|0:0|0:0|0:0|0:0|0:0|0:0|0:0|0:0|0:0|0:0|0:0,0:0:0:0:
192,58,358500,1,12,3:1:0:0:
