osu file format v14

[General]
AudioFilename: audio.mp3
AudioLeadIn: 0
PreviewTime: 70729
Countdown: 0
SampleSet: Normal
StackLeniency: 0.7
Mode: 3
LetterboxInBreaks: 0
SpecialStyle: 0
WidescreenStoryboard: 1

[Editor]
DistanceSpacing: 1
BeatDivisor: 4
GridSize: 8
TimelineZoom: 3.300007

[Metadata]
Title:of Ambrosia
TitleUnicode:of Ambrosia
Artist:Frums
ArtistUnicode:Frums
Creator:-mint-
Version:Blocko's 7K Amrita
Source:osu!catch World Cup 2021
Tags:catch the beat ctb cwc grand finals gf tiebreaker tb fa featured artist qqqant blocko ambient breakcore jazz electronic instrumental
BeatmapID:3940625
BeatmapSetID:1900478

[Difficulty]
HPDrainRate:8
CircleSize:7
OverallDifficulty:7.2
ApproachRate:10
SliderMultiplier:1.92
SliderTickRate:1

[Events]
//Background and Video events
0,0,"Iacoccaland - Furaipolis by Iacocca Khen.jpg",0,0
//Break Periods
//Storyboard Layer 0 (Background)
//Storyboard Layer 1 (Fail)
//Storyboard Layer 2 (Pass)
//Storyboard Layer 3 (Foreground)
//Storyboard Layer 4 (Overlay)
//Storyboard Sound Samples

[TimingPoints]
10600,265.486725663717,4,1,1,30,1,0
31838,265.486725663717,5,1,1,30,1,0
34492,265.486725663717,4,1,1,20,1,0
37677,-100,4,1,1,25,0,0
65288,-100,4,1,1,30,0,0
67014,265.486725663717,4,1,1,30,1,0
67146,-100,4,1,1,20,0,0
70199,530.973451327434,4,1,1,20,1,0
70199,-50,4,1,1,20,0,0
72057,530.973451327434,4,1,1,22,1,0
72057,-50,4,1,1,22,0,0
72587,526.315789473684,4,1,1,22,1,0
72587,-50.5050505050505,4,1,1,22,0,0
73113,521.739130434783,4,1,1,22,1,0
73113,-50.761421319797,4,1,1,22,0,0
73634,517.241379310345,4,1,1,22,1,0
73634,-51.2820512820513,4,1,1,22,0,0
74152,512.820512820513,4,1,1,22,1,0
74152,-51.8134715025907,4,1,1,22,0,0
74664,508.474576271186,4,1,1,22,1,0
74664,-52.0833333333333,4,1,1,22,0,0
75173,504.201680672269,4,1,1,22,1,0
75173,-52.6315789473684,4,1,1,22,0,0
75677,500,4,1,1,22,1,0
75677,-53.1914893617021,4,1,1,22,0,0
76178,495.867768595041,4,1,1,22,1,0
76178,-53.475935828877,4,1,1,22,0,0
76673,491.803278688525,4,1,1,22,1,0
76673,-54.054054054054,4,1,1,22,0,0
77165,487.80487804878,4,1,1,22,1,0
77165,-54.3478260869565,4,1,1,22,0,0
77653,483.870967741935,4,1,1,22,1,0
77653,-54.9450549450549,4,1,1,22,0,0
78137,480,4,1,1,22,1,0
78137,-55.2486187845304,4,1,1,22,0,0
78617,476.190476190476,4,1,1,22,1,0
78617,-55.8659217877095,4,1,1,22,0,0
79094,472.44094488189,4,1,1,25,1,0
79094,-56.1797752808989,4,1,1,25,0,0
79566,468.75,4,1,1,25,1,0
79566,-56.4971751412429,4,1,1,25,0,0
80035,465.116279069768,4,1,1,25,1,0
80035,-57.1428571428571,4,1,1,25,0,0
80500,461.538461538462,4,1,1,25,1,0
80500,-57.4712643678161,4,1,1,25,0,0
80962,458.015267175573,4,1,1,25,1,0
80962,-57.8034682080925,4,1,1,25,0,0
81420,454.545454545455,4,1,1,25,1,0
81420,-58.4795321637427,4,1,1,25,0,0
81875,451.127819548872,4,1,1,25,1,0
81875,-58.8235294117647,4,1,1,25,0,0
82326,447.761194029851,4,1,1,25,1,0
82326,-59.1715976331361,4,1,1,25,0,0
82774,444.444444444445,4,1,1,25,1,0
82774,-59.8802395209581,4,1,1,25,0,0
83218,441.176470588235,4,1,1,25,1,0
83218,-60.2409638554217,4,1,1,25,0,0
83660,437.956204379562,4,1,1,25,1,0
83660,-60.6060606060606,4,1,1,25,0,0
84097,434.782608695652,4,1,1,25,1,0
84097,-60.9756097560976,4,1,1,25,0,0
84532,431.654676258993,4,1,1,25,1,0
84532,-61.3496932515337,4,1,1,25,0,0
84963,428.571428571429,4,1,1,25,1,0
84963,-62.111801242236,4,1,1,25,0,0
85392,425.531914893617,4,1,1,28,1,0
85392,-62.5,4,1,1,28,0,0
85817,422.535211267606,4,1,1,28,1,0
85817,-62.8930817610063,4,1,1,28,0,0
86240,419.58041958042,4,1,1,28,1,0
86240,-63.2911392405063,4,1,1,28,0,0
86659,416.666666666667,4,1,1,28,1,0
86659,-63.6942675159236,4,1,1,28,0,0
87076,413.793103448276,4,1,1,28,1,0
87076,-64.1025641025641,4,1,1,28,0,0
87489,410.958904109589,4,1,1,28,1,0
87489,-64.5161290322581,4,1,1,28,0,0
87900,408.163265306123,4,1,1,28,1,0
87900,-64.9350649350649,4,1,1,28,0,0
88308,405.405405405406,4,1,1,28,1,0
88308,-65.359477124183,4,1,1,28,0,0
88714,402.68456375839,4,1,1,28,1,0
88714,-65.7894736842105,4,1,1,28,0,0
89116,400,4,1,1,28,1,0
89116,-66.2251655629139,4,1,1,28,0,0
89517,397.350993377484,4,1,1,28,1,0
89517,-66.6666666666667,4,1,1,28,0,0
89914,394.736842105264,4,1,1,28,1,0
89914,-67.1140939597315,4,1,1,28,0,0
90309,392.156862745098,4,1,1,28,1,0
90309,-67.5675675675676,4,1,1,28,0,0
90701,389.61038961039,4,1,1,28,1,0
90701,-68.0272108843538,4,1,1,28,0,0
91091,387.096774193549,4,1,1,30,1,0
91091,-68.4931506849315,4,1,1,30,0,0
91478,384.615384615385,4,1,1,30,1,0
91478,-68.9655172413793,4,1,1,30,0,0
91863,382.165605095542,4,1,1,30,1,0
91863,-69.4444444444444,4,1,1,30,0,0
92245,379.746835443038,4,1,1,30,1,0
92245,-69.9300699300699,4,1,1,30,0,0
92625,377.358490566038,4,1,1,30,1,0
92625,-70.4225352112676,4,1,1,30,0,0
93002,375,4,1,1,30,1,0
93002,-70.9219858156028,4,1,1,30,0,0
93378,372.670807453417,4,1,1,30,1,0
93378,-71.4285714285714,4,1,1,30,0,0
93750,370.370370370371,4,1,1,30,1,0
93750,-71.4285714285714,4,1,1,30,0,0
94121,368.098159509203,4,1,1,30,1,0
94121,-71.9424460431655,4,1,1,30,0,0
94489,365.853658536586,4,1,1,30,1,0
94489,-72.463768115942,4,1,1,30,0,0
94855,363.636363636364,4,1,1,30,1,0
94855,-72.992700729927,4,1,1,30,0,0
95218,361.44578313253,4,1,1,30,1,0
95218,-73.5294117647059,4,1,1,30,0,0
95579,359.281437125749,4,1,1,30,1,0
95579,-74.0740740740741,4,1,1,30,0,0
95938,357.142857142857,4,1,1,30,1,0
95938,-74.0740740740741,4,1,1,30,0,0
96295,355.029585798817,4,1,1,30,1,0
96295,-74.6268656716418,4,1,1,30,0,0
97537,355.029585798817,4,1,1,30,1,0
97537,-74.6268656716418,4,1,1,30,0,0
98779,355.029585798817,4,1,1,30,1,1
98779,-74.6268656716418,4,1,1,30,0,1
100021,355.029585798817,4,1,1,30,1,1
100021,-74.6268656716418,4,1,1,30,0,1
101264,355.029585798817,4,1,1,30,1,1
101264,-74.6268656716418,4,1,1,30,0,1
102506,355.029585798817,4,1,1,30,1,1
102506,-74.6268656716418,4,1,1,30,0,1
103749,355.029585798817,4,1,1,30,1,1
103749,-74.6268656716418,4,1,1,30,0,1
104992,355.029585798817,4,1,1,30,1,1
104992,-74.6268656716418,4,1,1,30,0,1
106234,355.029585798817,4,1,1,30,1,1
106234,-74.6268656716418,4,1,1,30,0,1
107477,355.029585798817,4,1,1,30,1,1
107477,-74.6268656716418,4,1,1,30,0,1
107832,352.941176470589,4,1,1,30,1,0
107832,-75.187969924812,4,1,1,30,0,0
107964,350.877192982456,4,1,1,30,1,0
107964,-75.7575757575758,4,1,1,30,0,0
108095,348.837209302326,4,1,1,30,1,0
108095,-76.3358778625954,4,1,1,30,0,0
108225,346.820809248555,4,1,1,30,1,0
108225,-76.3358778625954,4,1,1,30,0,0
108355,344.827586206897,4,1,1,30,1,0
108355,-76.9230769230769,4,1,1,30,0,0
108484,342.857142857143,4,1,1,30,1,0
108484,-77.5193798449612,4,1,1,30,0,0
108612,340.909090909091,4,1,1,30,1,0
108612,-78.125,4,1,1,30,0,0
108697,340.909090909091,4,1,1,30,1,1
108697,-78.125,4,1,1,30,0,1
109890,340.909090909091,4,1,1,30,1,1
109890,-78.125,4,1,1,30,0,1
111083,340.909090909091,4,1,1,30,1,1
111083,-78.125,4,1,1,30,0,1
112276,340.909090909091,4,1,1,30,1,1
112276,-78.125,4,1,1,30,0,1
113469,340.909090909091,4,1,1,30,1,1
113469,-78.125,4,1,1,30,0,1
114662,340.909090909091,4,1,1,30,1,1
114662,-78.125,4,1,1,30,0,1
115856,340.909090909091,4,1,1,30,1,1
115856,-78.125,4,1,1,30,0,1
116708,-78.125,4,1,1,30,0,0
117049,340.909090909091,5,1,1,22,1,0
117049,-78.125,5,1,1,22,0,0
123867,-78.125,5,1,1,25,0,0
151139,314.96062992126,4,1,1,20,1,0
151139,-84.0336134453782,4,1,1,20,0,0
153658,297.766749379653,4,1,1,20,1,0
153658,-89.2857142857143,4,1,1,20,0,0
156040,287.081339712919,4,1,1,22,1,0
156040,-92.5925925925926,4,1,1,22,0,0
158336,283.018867924528,4,1,1,22,1,0
158336,-93.4579439252336,4,1,1,22,0,0
160600,-93.4579439252336,4,1,1,25,0,0
165128,-93.4579439252336,4,1,1,28,0,0
170364,-93.4579439252336,4,1,1,30,0,0
185505,283.687943262411,4,1,1,35,1,1
185505,-93.4579439252336,4,1,1,35,0,1
201391,282.352941176471,4,1,1,35,1,1
201391,-94.3396226415094,4,1,1,35,0,1
203367,-94.3396226415094,4,1,1,35,0,0
203649,-94.3396226415094,4,1,1,35,0,1
219461,283.018867924528,4,1,1,35,1,1
219461,-93.4579439252336,4,1,1,35,0,1
221725,-93.4579439252336,4,1,1,32,0,0
226253,-93.4579439252336,4,1,1,30,0,0
231206,-93.4579439252336,4,1,1,25,0,0
233045,-93.4579439252336,4,1,1,22,0,0
234177,-93.4579439252336,4,1,1,20,0,0
235310,-93.4579439252336,4,1,1,18,0,0
236442,-93.4579439252336,4,1,1,15,0,0
237574,235.294117647059,4,1,1,20,1,0
237574,-112.359550561798,4,1,1,20,0,0
258603,265.486725663717,4,1,1,22,1,0
258868,-100,4,1,1,25,0,0
259133,312.5,4,1,1,25,1,0
259133,-84.7457627118644,4,1,1,25,0,0
259211,235.294117647059,4,1,1,28,1,0
259211,-112.359550561798,4,1,1,28,0,0
262740,235.294117647059,4,1,1,28,1,0
262740,-112.359550561798,4,1,1,28,0,0
266269,235.294117647059,4,1,1,28,1,0
266269,-112.359550561798,4,1,1,28,0,0
267680,235.294117647059,4,1,1,28,1,0
267680,-112.359550561798,4,1,1,28,0,0
268385,-112.359550561798,4,1,1,22,0,0
269562,-112.359550561798,4,1,1,25,0,0
273091,235.294117647059,4,1,1,25,1,0
273091,-112.359550561798,4,1,1,25,0,0
276620,235.294117647059,4,1,1,25,1,0
276620,-112.359550561798,4,1,1,25,0,0
280149,235.294117647059,4,1,1,25,1,0
280149,-112.359550561798,4,1,1,25,0,0
283443,-112.359550561798,4,1,1,28,0,0
283678,235.294117647059,4,1,1,30,1,0
283678,-112.359550561798,4,1,1,30,0,0
287207,235.294117647059,4,1,1,30,1,0
287207,-112.359550561798,4,1,1,30,0,0
290736,235.294117647059,4,1,1,30,1,0
290736,-112.359550561798,4,1,1,30,0,0
294265,235.294117647059,4,1,1,30,1,0
294265,-112.359550561798,4,1,1,30,0,0
297794,232.558139534884,4,1,1,30,1,0
297794,-113.636363636364,4,1,1,30,0,0
298724,229.885057471265,4,1,1,30,1,0
298724,-114.942528735632,4,1,1,30,0,0
299643,227.272727272728,4,1,1,30,1,0
299643,-116.279069767442,4,1,1,30,0,0
300552,224.719101123596,4,1,1,30,1,0
300552,-117.647058823529,4,1,1,30,0,0
301226,222.222222222222,4,1,1,30,1,0
301226,-119.047619047619,4,1,1,30,0,0
302114,219.78021978022,4,1,1,30,1,0
302114,-120.481927710843,4,1,1,30,0,0
302993,217.391304347826,4,1,1,30,1,0
302993,-121.951219512195,4,1,1,30,0,0
303862,215.05376344086,4,1,1,30,1,0
303862,-123.456790123457,4,1,1,30,0,0
304507,212.765957446809,4,1,1,30,1,0
304507,-125,4,1,1,30,0,0
305358,210.526315789474,4,1,1,30,1,0
305358,-126.582278481013,4,1,1,30,0,0
306200,208.333333333334,4,1,1,30,1,0
306200,-128.205128205128,4,1,1,30,0,0
307033,206.185567010309,4,1,1,30,1,0
307033,-128.205128205128,4,1,1,30,0,0
307651,204.081632653061,4,1,1,30,1,0
307651,-129.87012987013,4,1,1,30,0,0
308467,202.020202020202,4,1,1,30,1,0
308467,-131.578947368421,4,1,1,30,0,0
309275,200,4,1,1,30,1,0
309275,-133.333333333333,4,1,1,30,0,0
310075,198.019801980198,4,1,1,30,1,0
310075,-133.333333333333,4,1,1,30,0,0
310669,190.47619047619,4,1,1,30,1,0
310669,-138.888888888889,4,1,1,30,0,0
310859,-138.888888888889,4,1,1,25,0,0
312288,190.47619047619,4,1,1,25,1,0
312288,-138.888888888889,4,1,1,25,0,0
315018,192.926045016077,4,1,1,25,1,0
315018,-136.986301369863,5,1,1,25,0,0
315066,192.926045016077,5,1,1,30,1,0
315066,-136.986301369863,5,1,1,30,0,0
358474,169.014084507042,5,1,1,30,1,0
358474,-156.25,5,1,1,30,0,0
359065,-156.25,5,1,1,28,0,0
359657,-156.25,5,1,1,25,0,0
360333,-156.25,5,1,1,22,0,0
361009,-156.25,5,1,1,20,0,0

[HitObjects]
256,192,10201,128,0,10599:0:0:0:0:
475,192,10201,1,0,0:0:0:0:
36,192,10268,1,0,0:0:0:0:
402,192,10334,1,0,0:0:0:0:
109,192,10400,1,0,0:0:0:0:
329,192,10467,1,0,0:0:0:0:
182,192,10533,1,0,0:0:0:0:
109,192,10599,1,0,0:0:0:0:
36,192,10599,1,0,0:0:0:0:
402,192,10599,1,0,0:0:0:0:
329,192,10599,1,0,0:0:0:0:
475,192,10599,1,0,0:0:0:0:
182,192,10732,1,0,0:0:0:0:
329,192,10732,1,0,0:0:0:0:
109,192,10732,1,0,0:0:0:0:
329,192,10799,1,0,0:0:0:0:
182,192,10799,1,0,0:0:0:0:
109,192,10865,1,0,0:0:0:0:
475,192,10865,1,0,0:0:0:0:
36,192,10865,1,0,0:0:0:0:
402,192,10865,1,0,0:0:0:0:
329,192,10998,1,0,0:0:0:0:
182,192,10998,1,0,0:0:0:0:
36,192,10998,1,0,0:0:0:0:
402,192,11064,1,0,0:0:0:0:
256,192,11064,1,0,0:0:0:0:
475,192,11130,1,0,0:0:0:0:
182,192,11130,1,0,0:0:0:0:
329,192,11130,1,0,0:0:0:0:
109,192,11130,1,0,0:0:0:0:
402,192,11263,1,0,0:0:0:0:
36,192,11263,1,0,0:0:0:0:
109,192,11263,1,0,0:0:0:0:
256,192,11263,1,0,0:0:0:0:
329,192,11396,1,0,0:0:0:0:
329,192,11529,1,0,0:0:0:0:
182,192,11529,1,0,0:0:0:0:
36,192,11529,1,0,0:0:0:0:
402,192,11529,1,0,0:0:0:0:
475,192,11529,1,0,0:0:0:0:
182,192,11661,1,0,0:0:0:0:
109,192,11794,1,0,0:0:0:0:
36,192,11794,1,0,0:0:0:0:
329,192,11794,1,0,0:0:0:0:
109,192,11861,1,0,0:0:0:0:
36,192,11861,1,0,0:0:0:0:
182,192,11927,1,0,0:0:0:0:
402,192,11927,1,0,0:0:0:0:
256,192,11927,1,0,0:0:0:0:
475,192,11927,1,0,0:0:0:0:
109,192,12060,1,0,0:0:0:0:
329,192,12060,1,0,0:0:0:0:
182,192,12126,1,0,0:0:0:0:
402,192,12126,1,0,0:0:0:0:
256,192,12192,1,0,0:0:0:0:
36,192,12192,1,0,0:0:0:0:
475,192,12192,1,0,0:0:0:0:
109,192,12226,1,0,0:0:0:0:
329,192,12259,1,0,0:0:0:0:
182,192,12259,1,0,0:0:0:0:
36,192,12325,1,0,0:0:0:0:
402,192,12325,1,0,0:0:0:0:
475,192,12325,1,0,0:0:0:0:
329,192,12392,1,0,0:0:0:0:
256,192,12392,1,0,0:0:0:0:
182,192,12458,1,0,0:0:0:0:
36,192,12458,1,0,0:0:0:0:
402,192,12458,1,0,0:0:0:0:
475,192,12458,1,0,0:0:0:0:
109,192,12591,1,0,0:0:0:0:
475,192,12657,1,0,0:0:0:0:
402,192,12657,1,0,0:0:0:0:
329,192,12723,1,0,0:0:0:0:
36,192,12723,1,0,0:0:0:0:
475,192,12723,1,0,0:0:0:0:
182,192,12723,1,0,0:0:0:0:
109,192,12856,1,0,0:0:0:0:
256,192,12856,1,0,0:0:0:0:
182,192,12856,1,0,0:0:0:0:
329,192,12923,1,0,0:0:0:0:
256,192,12923,1,0,0:0:0:0:
36,192,12989,1,0,0:0:0:0:
402,192,12989,1,0,0:0:0:0:
475,192,12989,1,0,0:0:0:0:
109,192,12989,1,0,0:0:0:0:
329,192,13122,1,0,0:0:0:0:
475,192,13122,1,0,0:0:0:0:
182,192,13122,1,0,0:0:0:0:
256,192,13188,1,0,0:0:0:0:
109,192,13188,1,0,0:0:0:0:
402,192,13254,1,0,0:0:0:0:
182,192,13254,1,0,0:0:0:0:
475,192,13254,1,0,0:0:0:0:
36,192,13254,1,0,0:0:0:0:
182,192,13387,1,0,0:0:0:0:
36,192,13387,1,0,0:0:0:0:
402,192,13387,1,0,0:0:0:0:
475,192,13387,1,0,0:0:0:0:
256,192,13520,1,0,0:0:0:0:
182,192,13653,1,0,0:0:0:0:
36,192,13653,1,0,0:0:0:0:
475,192,13653,1,0,0:0:0:0:
402,192,13653,1,0,0:0:0:0:
329,192,13719,1,0,0:0:0:0:
256,192,13785,1,0,0:0:0:0:
36,192,13785,1,0,0:0:0:0:
475,192,13785,1,0,0:0:0:0:
109,192,13785,1,0,0:0:0:0:
182,192,13918,1,0,0:0:0:0:
402,192,13918,1,0,0:0:0:0:
329,192,13918,1,0,0:0:0:0:
402,192,13984,1,0,0:0:0:0:
329,192,13984,1,0,0:0:0:0:
109,192,14051,1,0,0:0:0:0:
256,192,14051,1,0,0:0:0:0:
182,192,14051,1,0,0:0:0:0:
36,192,14051,1,0,0:0:0:0:
402,192,14184,1,0,0:0:0:0:
475,192,14184,1,0,0:0:0:0:
36,192,14184,1,0,0:0:0:0:
109,192,14206,1,0,0:0:0:0:
182,192,14228,1,0,0:0:0:0:
256,192,14250,1,0,0:0:0:0:
329,192,14272,1,0,0:0:0:0:
402,192,14294,1,0,0:0:0:0:
475,192,14316,1,0,0:0:0:0:
36,192,14316,1,0,0:0:0:0:
109,192,14316,1,0,0:0:0:0:
182,192,14383,1,0,0:0:0:0:
256,192,14383,1,0,0:0:0:0:
256,192,14515,1,0,0:0:0:0:
109,192,14515,1,0,0:0:0:0:
36,192,14515,1,0,0:0:0:0:
402,192,14515,1,0,0:0:0:0:
329,192,14582,1,0,0:0:0:0:
402,192,14648,1,0,0:0:0:0:
256,192,14715,1,0,0:0:0:0:
475,192,14715,1,0,0:0:0:0:
109,192,14715,1,0,0:0:0:0:
36,192,14715,1,0,0:0:0:0:
329,192,14781,1,0,0:0:0:0:
475,192,14847,1,0,0:0:0:0:
402,192,14847,1,0,0:0:0:0:
182,192,14847,1,0,0:0:0:0:
36,192,14847,1,0,0:0:0:0:
402,192,14936,1,0,0:0:0:0:
475,192,14936,1,0,0:0:0:0:
109,192,14980,1,0,0:0:0:0:
36,192,14980,1,0,0:0:0:0:
475,192,15024,1,0,0:0:0:0:
402,192,15024,1,0,0:0:0:0:
182,192,15046,1,0,0:0:0:0:
329,192,15113,1,0,0:0:0:0:
109,192,15113,1,0,0:0:0:0:
36,192,15113,1,0,0:0:0:0:
256,192,15113,1,0,0:0:0:0:
402,192,15290,1,0,0:0:0:0:
475,192,15290,1,0,0:0:0:0:
182,192,15290,1,0,0:0:0:0:
329,192,15378,1,0,0:0:0:0:
109,192,15378,1,0,0:0:0:0:
36,192,15378,1,0,0:0:0:0:
256,192,15378,1,0,0:0:0:0:
256,192,15478,1,0,0:0:0:0:
475,192,15511,1,0,0:0:0:0:
402,192,15511,1,0,0:0:0:0:
182,192,15511,1,0,0:0:0:0:
109,192,15511,1,0,0:0:0:0:
329,192,15577,1,0,0:0:0:0:
182,192,15644,1,0,0:0:0:0:
36,192,15644,1,0,0:0:0:0:
36,192,15732,1,0,0:0:0:0:
182,192,15732,1,0,0:0:0:0:
402,192,15776,1,0,0:0:0:0:
36,192,15821,1,0,0:0:0:0:
182,192,15821,1,0,0:0:0:0:
109,192,15909,1,0,0:0:0:0:
256,192,15909,1,0,0:0:0:0:
402,192,15909,1,0,0:0:0:0:
475,192,15909,1,0,0:0:0:0:
182,192,16042,1,0,0:0:0:0:
329,192,16042,1,0,0:0:0:0:
109,192,16042,1,0,0:0:0:0:
402,192,16108,1,0,0:0:0:0:
256,192,16108,1,0,0:0:0:0:
182,192,16175,1,0,0:0:0:0:
475,192,16175,1,0,0:0:0:0:
36,192,16175,1,0,0:0:0:0:
329,192,16175,1,0,0:0:0:0:
109,192,16263,1,0,0:0:0:0:
402,192,16263,1,0,0:0:0:0:
256,192,16307,1,0,0:0:0:0:
109,192,16352,1,0,0:0:0:0:
402,192,16352,1,0,0:0:0:0:
182,192,16440,1,0,0:0:0:0:
475,192,16440,1,0,0:0:0:0:
36,192,16440,1,0,0:0:0:0:
256,192,16473,1,0,0:0:0:0:
329,192,16507,1,0,0:0:0:0:
109,192,16507,1,0,0:0:0:0:
182,192,16573,1,0,0:0:0:0:
475,192,16573,1,0,0:0:0:0:
402,192,16573,1,0,0:0:0:0:
256,192,16639,1,0,0:0:0:0:
329,192,16639,1,0,0:0:0:0:
36,192,16706,1,0,0:0:0:0:
109,192,16706,1,0,0:0:0:0:
402,192,16706,1,0,0:0:0:0:
475,192,16706,1,0,0:0:0:0:
475,192,16838,1,0,0:0:0:0:
256,192,16838,1,0,0:0:0:0:
109,192,16838,1,0,0:0:0:0:
182,192,16905,1,0,0:0:0:0:
402,192,16905,1,0,0:0:0:0:
109,192,16938,1,0,0:0:0:0:
36,192,16971,1,0,0:0:0:0:
256,192,16971,1,0,0:0:0:0:
329,192,16971,1,0,0:0:0:0:
329,192,17104,1,0,0:0:0:0:
109,192,17104,1,0,0:0:0:0:
36,192,17104,1,0,0:0:0:0:
256,192,17170,1,0,0:0:0:0:
402,192,17170,1,0,0:0:0:0:
182,192,17170,1,0,0:0:0:0:
475,192,17237,1,0,0:0:0:0:
329,192,17237,1,0,0:0:0:0:
109,192,17237,1,0,0:0:0:0:
36,192,17237,1,0,0:0:0:0:
109,192,17369,1,0,0:0:0:0:
329,192,17369,1,0,0:0:0:0:
475,192,17369,1,0,0:0:0:0:
36,192,17369,1,0,0:0:0:0:
402,192,17502,1,0,0:0:0:0:
329,192,17502,1,0,0:0:0:0:
109,192,17502,1,0,0:0:0:0:
36,192,17535,1,0,0:0:0:0:
256,192,17569,1,0,0:0:0:0:
475,192,17602,1,0,0:0:0:0:
109,192,17635,1,0,0:0:0:0:
182,192,17635,1,0,0:0:0:0:
402,192,17635,1,0,0:0:0:0:
329,192,17701,1,0,0:0:0:0:
36,192,17768,1,0,0:0:0:0:
109,192,17768,1,0,0:0:0:0:
475,192,17768,1,0,0:0:0:0:
256,192,17768,1,0,0:0:0:0:
182,192,17834,1,0,0:0:0:0:
329,192,17834,1,0,0:0:0:0:
256,192,17900,1,0,0:0:0:0:
36,192,17900,1,0,0:0:0:0:
402,192,17900,1,0,0:0:0:0:
475,192,17900,1,0,0:0:0:0:
36,192,18033,1,0,0:0:0:0:
182,192,18033,1,0,0:0:0:0:
329,192,18033,1,0,0:0:0:0:
329,192,18166,1,0,0:0:0:0:
109,192,18166,1,0,0:0:0:0:
182,192,18210,1,0,0:0:0:0:
402,192,18210,1,0,0:0:0:0:
256,192,18254,1,0,0:0:0:0:
475,192,18254,1,0,0:0:0:0:
329,192,18299,1,0,0:0:0:0:
109,192,18299,1,0,0:0:0:0:
36,192,18299,1,0,0:0:0:0:
36,192,18387,1,0,0:0:0:0:
109,192,18387,1,0,0:0:0:0:
402,192,18431,1,0,0:0:0:0:
329,192,18431,1,0,0:0:0:0:
109,192,18476,1,0,0:0:0:0:
36,192,18476,1,0,0:0:0:0:
475,192,18564,1,0,0:0:0:0:
402,192,18564,1,0,0:0:0:0:
329,192,18597,1,0,0:0:0:0:
256,192,18630,1,0,0:0:0:0:
182,192,18664,1,0,0:0:0:0:
109,192,18697,1,0,0:0:0:0:
36,192,18697,1,0,0:0:0:0:
475,192,18697,1,0,0:0:0:0:
329,192,18697,1,0,0:0:0:0:
329,192,18830,1,0,0:0:0:0:
109,192,18830,1,0,0:0:0:0:
36,192,18830,1,0,0:0:0:0:
475,192,18830,1,0,0:0:0:0:
36,192,18962,1,0,0:0:0:0:
329,192,18962,1,0,0:0:0:0:
109,192,18962,1,0,0:0:0:0:
475,192,18962,1,0,0:0:0:0:
182,192,19029,1,0,0:0:0:0:
256,192,19095,1,0,0:0:0:0:
36,192,19095,1,0,0:0:0:0:
402,192,19095,1,0,0:0:0:0:
475,192,19095,1,0,0:0:0:0:
256,192,19228,1,0,0:0:0:0:
182,192,19228,1,0,0:0:0:0:
109,192,19228,1,0,0:0:0:0:
256,192,19294,1,0,0:0:0:0:
329,192,19294,1,0,0:0:0:0:
475,192,19361,1,0,0:0:0:0:
402,192,19361,1,0,0:0:0:0:
36,192,19361,1,0,0:0:0:0:
109,192,19361,1,0,0:0:0:0:
475,192,19493,1,0,0:0:0:0:
329,192,19493,1,0,0:0:0:0:
256,192,19526,1,0,0:0:0:0:
182,192,19560,1,0,0:0:0:0:
109,192,19593,1,0,0:0:0:0:
402,192,19626,1,0,0:0:0:0:
329,192,19626,1,0,0:0:0:0:
36,192,19626,1,0,0:0:0:0:
256,192,19692,1,0,0:0:0:0:
182,192,19759,1,0,0:0:0:0:
402,192,19759,1,0,0:0:0:0:
475,192,19759,1,0,0:0:0:0:
109,192,19759,1,0,0:0:0:0:
36,192,19892,1,0,0:0:0:0:
256,192,19892,1,0,0:0:0:0:
475,192,19892,1,0,0:0:0:0:
329,192,19958,1,0,0:0:0:0:
36,192,20024,1,0,0:0:0:0:
182,192,20024,1,0,0:0:0:0:
109,192,20024,1,0,0:0:0:0:
402,192,20024,1,0,0:0:0:0:
329,192,20157,1,0,0:0:0:0:
475,192,20157,1,0,0:0:0:0:
329,192,20246,1,0,0:0:0:0:
475,192,20246,1,0,0:0:0:0:
109,192,20290,1,0,0:0:0:0:
36,192,20290,1,0,0:0:0:0:
329,192,20334,1,0,0:0:0:0:
475,192,20334,1,0,0:0:0:0:
182,192,20356,1,0,0:0:0:0:
402,192,20423,1,0,0:0:0:0:
109,192,20423,1,0,0:0:0:0:
36,192,20423,1,0,0:0:0:0:
256,192,20423,1,0,0:0:0:0:
475,192,20555,1,0,0:0:0:0:
329,192,20555,1,0,0:0:0:0:
256,192,20588,1,0,0:0:0:0:
182,192,20622,1,0,0:0:0:0:
109,192,20655,1,0,0:0:0:0:
475,192,20688,1,0,0:0:0:0:
402,192,20688,1,0,0:0:0:0:
36,192,20688,1,0,0:0:0:0:
329,192,20721,1,0,0:0:0:0:
256,192,20754,1,0,0:0:0:0:
475,192,20821,1,0,0:0:0:0:
109,192,20821,1,0,0:0:0:0:
182,192,20821,1,0,0:0:0:0:
256,192,20887,1,0,0:0:0:0:
402,192,20887,1,0,0:0:0:0:
182,192,20953,1,0,0:0:0:0:
36,192,20953,1,0,0:0:0:0:
329,192,20953,1,0,0:0:0:0:
475,192,20953,1,0,0:0:0:0:
182,192,21042,1,0,0:0:0:0:
36,192,21042,1,0,0:0:0:0:
402,192,21086,1,0,0:0:0:0:
329,192,21086,1,0,0:0:0:0:
36,192,21130,1,0,0:0:0:0:
182,192,21130,1,0,0:0:0:0:
109,192,21219,1,0,0:0:0:0:
256,192,21219,1,0,0:0:0:0:
475,192,21219,1,0,0:0:0:0:
402,192,21219,1,0,0:0:0:0:
329,192,21352,1,0,0:0:0:0:
109,192,21352,1,0,0:0:0:0:
36,192,21352,1,0,0:0:0:0:
329,192,21418,1,0,0:0:0:0:
182,192,21418,1,0,0:0:0:0:
256,192,21484,1,0,0:0:0:0:
475,192,21484,1,0,0:0:0:0:
402,192,21484,1,0,0:0:0:0:
36,192,21484,1,0,0:0:0:0:
402,192,21617,1,0,0:0:0:0:
329,192,21617,1,0,0:0:0:0:
182,192,21617,1,0,0:0:0:0:
256,192,21684,1,0,0:0:0:0:
109,192,21684,1,0,0:0:0:0:
36,192,21750,1,0,0:0:0:0:
402,192,21750,1,0,0:0:0:0:
475,192,21750,1,0,0:0:0:0:
182,192,21750,1,0,0:0:0:0:
36,192,21883,1,0,0:0:0:0:
182,192,21883,1,0,0:0:0:0:
402,192,21883,1,0,0:0:0:0:
475,192,21883,1,0,0:0:0:0:
256,192,21949,1,0,0:0:0:0:
402,192,22015,1,0,0:0:0:0:
329,192,22148,1,0,0:0:0:0:
36,192,22148,1,0,0:0:0:0:
109,192,22148,1,0,0:0:0:0:
475,192,22148,1,0,0:0:0:0:
256,192,22148,1,0,0:0:0:0:
109,192,22281,1,0,0:0:0:0:
182,192,22347,1,0,0:0:0:0:
329,192,22414,1,0,0:0:0:0:
36,192,22414,1,0,0:0:0:0:
475,192,22414,1,0,0:0:0:0:
329,192,22480,1,0,0:0:0:0:
475,192,22480,1,0,0:0:0:0:
109,192,22546,1,0,0:0:0:0:
402,192,22546,1,0,0:0:0:0:
256,192,22546,1,0,0:0:0:0:
36,192,22546,1,0,0:0:0:0:
475,192,22679,1,0,0:0:0:0:
402,192,22701,1,0,0:0:0:0:
329,192,22723,1,0,0:0:0:0:
256,192,22746,1,0,0:0:0:0:
182,192,22768,1,0,0:0:0:0:
109,192,22790,1,0,0:0:0:0:
475,192,22812,1,0,0:0:0:0:
402,192,22812,1,0,0:0:0:0:
36,192,22812,1,0,0:0:0:0:
256,192,22856,1,0,0:0:0:0:
182,192,22900,1,0,0:0:0:0:
402,192,22945,1,0,0:0:0:0:
36,192,22945,1,0,0:0:0:0:
256,192,23011,1,0,0:0:0:0:
329,192,23011,1,0,0:0:0:0:
475,192,23011,1,0,0:0:0:0:
109,192,23077,1,0,0:0:0:0:
36,192,23077,1,0,0:0:0:0:
109,192,23144,1,0,0:0:0:0:
36,192,23144,1,0,0:0:0:0:
475,192,23210,1,0,0:0:0:0:
402,192,23210,1,0,0:0:0:0:
182,192,23210,1,0,0:0:0:0:
256,192,23243,1,0,0:0:0:0:
329,192,23276,1,0,0:0:0:0:
402,192,23310,1,0,0:0:0:0:
475,192,23343,1,0,0:0:0:0:
182,192,23343,1,0,0:0:0:0:
109,192,23343,1,0,0:0:0:0:
36,192,23343,1,0,0:0:0:0:
329,192,23476,1,0,0:0:0:0:
109,192,23476,1,0,0:0:0:0:
402,192,23476,1,0,0:0:0:0:
109,192,23542,1,0,0:0:0:0:
256,192,23542,1,0,0:0:0:0:
36,192,23608,1,0,0:0:0:0:
475,192,23608,1,0,0:0:0:0:
402,192,23608,1,0,0:0:0:0:
182,192,23608,1,0,0:0:0:0:
109,192,23741,1,0,0:0:0:0:
329,192,23741,1,0,0:0:0:0:
182,192,23807,1,0,0:0:0:0:
402,192,23807,1,0,0:0:0:0:
475,192,23874,1,0,0:0:0:0:
329,192,23874,1,0,0:0:0:0:
256,192,23874,1,0,0:0:0:0:
36,192,23874,1,0,0:0:0:0:
182,192,23973,1,0,0:0:0:0:
475,192,24007,1,0,0:0:0:0:
109,192,24007,1,0,0:0:0:0:
36,192,24007,1,0,0:0:0:0:
402,192,24040,1,0,0:0:0:0:
329,192,24073,1,0,0:0:0:0:
256,192,24106,1,0,0:0:0:0:
182,192,24139,1,0,0:0:0:0:
109,192,24173,1,0,0:0:0:0:
36,192,24206,1,0,0:0:0:0:
475,192,24272,1,0,0:0:0:0:
329,192,24272,1,0,0:0:0:0:
402,192,24338,1,0,0:0:0:0:
256,192,24338,1,0,0:0:0:0:
182,192,24405,1,0,0:0:0:0:
36,192,24405,1,0,0:0:0:0:
329,192,24405,1,0,0:0:0:0:
256,192,24471,1,0,0:0:0:0:
109,192,24471,1,0,0:0:0:0:
475,192,24538,1,0,0:0:0:0:
182,192,24538,1,0,0:0:0:0:
329,192,24538,1,0,0:0:0:0:
109,192,24604,1,0,0:0:0:0:
475,192,24604,1,0,0:0:0:0:
402,192,24670,1,0,0:0:0:0:
329,192,24670,1,0,0:0:0:0:
36,192,24670,1,0,0:0:0:0:
256,192,24670,1,0,0:0:0:0:
475,192,24803,1,0,0:0:0:0:
402,192,24803,1,0,0:0:0:0:
109,192,24803,1,0,0:0:0:0:
182,192,24836,1,0,0:0:0:0:
256,192,24869,1,0,0:0:0:0:
329,192,24903,1,0,0:0:0:0:
475,192,24936,1,0,0:0:0:0:
402,192,24936,1,0,0:0:0:0:
36,192,24936,1,0,0:0:0:0:
109,192,24969,1,0,0:0:0:0:
182,192,25002,1,0,0:0:0:0:
256,192,25002,1,0,0:0:0:0:
475,192,25069,1,0,0:0:0:0:
329,192,25069,1,0,0:0:0:0:
36,192,25069,1,0,0:0:0:0:
109,192,25135,1,0,0:0:0:0:
402,192,25135,1,0,0:0:0:0:
182,192,25201,1,0,0:0:0:0:
36,192,25201,1,0,0:0:0:0:
256,192,25201,1,0,0:0:0:0:
475,192,25201,1,0,0:0:0:0:
329,192,25334,1,0,0:0:0:0:
109,192,25334,1,0,0:0:0:0:
36,192,25334,1,0,0:0:0:0:
475,192,25400,1,0,0:0:0:0:
182,192,25400,1,0,0:0:0:0:
402,192,25434,1,0,0:0:0:0:
256,192,25467,1,0,0:0:0:0:
109,192,25467,1,0,0:0:0:0:
329,192,25467,1,0,0:0:0:0:
182,192,25555,1,0,0:0:0:0:
36,192,25555,1,0,0:0:0:0:
475,192,25600,1,0,0:0:0:0:
402,192,25600,1,0,0:0:0:0:
36,192,25644,1,0,0:0:0:0:
182,192,25644,1,0,0:0:0:0:
329,192,25666,1,0,0:0:0:0:
109,192,25732,1,0,0:0:0:0:
402,192,25732,1,0,0:0:0:0:
256,192,25732,1,0,0:0:0:0:
475,192,25732,1,0,0:0:0:0:
329,192,25865,1,0,0:0:0:0:
182,192,25865,1,0,0:0:0:0:
475,192,25909,1,0,0:0:0:0:
36,192,25909,1,0,0:0:0:0:
256,192,25909,1,0,0:0:0:0:
109,192,25998,1,0,0:0:0:0:
402,192,25998,1,0,0:0:0:0:
182,192,25998,1,0,0:0:0:0:
329,192,25998,1,0,0:0:0:0:
256,192,26097,1,0,0:0:0:0:
36,192,26130,1,0,0:0:0:0:
109,192,26130,1,0,0:0:0:0:
402,192,26130,1,0,0:0:0:0:
475,192,26130,1,0,0:0:0:0:
182,192,26197,1,0,0:0:0:0:
36,192,26263,1,0,0:0:0:0:
256,192,26263,1,0,0:0:0:0:
402,192,26263,1,0,0:0:0:0:
182,192,26330,1,0,0:0:0:0:
475,192,26352,1,0,0:0:0:0:
329,192,26352,1,0,0:0:0:0:
36,192,26396,1,0,0:0:0:0:
109,192,26396,1,0,0:0:0:0:
475,192,26440,1,0,0:0:0:0:
329,192,26440,1,0,0:0:0:0:
402,192,26529,1,0,0:0:0:0:
256,192,26529,1,0,0:0:0:0:
182,192,26529,1,0,0:0:0:0:
109,192,26661,1,0,0:0:0:0:
475,192,26661,1,0,0:0:0:0:
329,192,26661,1,0,0:0:0:0:
256,192,26706,1,0,0:0:0:0:
402,192,26706,1,0,0:0:0:0:
329,192,26750,1,0,0:0:0:0:
182,192,26750,1,0,0:0:0:0:
36,192,26794,1,0,0:0:0:0:
109,192,26794,1,0,0:0:0:0:
475,192,26794,1,0,0:0:0:0:
109,192,26883,1,0,0:0:0:0:
36,192,26883,1,0,0:0:0:0:
329,192,26927,1,0,0:0:0:0:
475,192,26927,1,0,0:0:0:0:
36,192,26971,1,0,0:0:0:0:
109,192,26971,1,0,0:0:0:0:
182,192,27026,1,0,0:0:0:0:
475,192,27060,1,0,0:0:0:0:
402,192,27060,1,0,0:0:0:0:
256,192,27060,1,0,0:0:0:0:
402,192,27192,1,0,0:0:0:0:
329,192,27192,1,0,0:0:0:0:
109,192,27192,1,0,0:0:0:0:
182,192,27192,1,0,0:0:0:0:
109,192,27325,1,0,0:0:0:0:
36,192,27325,1,0,0:0:0:0:
329,192,27325,1,0,0:0:0:0:
256,192,27325,1,0,0:0:0:0:
402,192,27392,1,0,0:0:0:0:
475,192,27392,1,0,0:0:0:0:
182,192,27392,1,0,0:0:0:0:
329,192,27458,1,0,0:0:0:0:
109,192,27458,1,0,0:0:0:0:
36,192,27458,1,0,0:0:0:0:
256,192,27524,1,0,0:0:0:0:
475,192,27524,1,0,0:0:0:0:
402,192,27524,1,0,0:0:0:0:
329,192,27591,1,0,0:0:0:0:
109,192,27591,1,0,0:0:0:0:
36,192,27591,1,0,0:0:0:0:
182,192,27591,1,0,0:0:0:0:
109,192,27723,1,0,0:0:0:0:
475,192,27723,1,0,0:0:0:0:
256,192,27723,1,0,0:0:0:0:
475,192,27790,1,0,0:0:0:0:
182,192,27790,1,0,0:0:0:0:
36,192,27856,1,0,0:0:0:0:
109,192,27856,1,0,0:0:0:0:
402,192,27856,1,0,0:0:0:0:
329,192,27856,1,0,0:0:0:0:
182,192,27923,1,0,0:0:0:0:
256,192,27989,1,0,0:0:0:0:
329,192,28055,1,0,0:0:0:0:
182,192,28122,1,0,0:0:0:0:
109,192,28122,1,0,0:0:0:0:
36,192,28122,1,0,0:0:0:0:
475,192,28122,1,0,0:0:0:0:
402,192,28166,1,0,0:0:0:0:
329,192,28210,1,0,0:0:0:0:
256,192,28254,1,0,0:0:0:0:
36,192,28254,1,0,0:0:0:0:
475,192,28254,1,0,0:0:0:0:
182,192,28299,1,0,0:0:0:0:
109,192,28343,1,0,0:0:0:0:
36,192,28387,1,0,0:0:0:0:
329,192,28387,1,0,0:0:0:0:
475,192,28387,1,0,0:0:0:0:
256,192,28453,1,0,0:0:0:0:
402,192,28520,1,0,0:0:0:0:
109,192,28520,1,0,0:0:0:0:
182,192,28520,1,0,0:0:0:0:
256,192,28586,1,0,0:0:0:0:
329,192,28653,1,0,0:0:0:0:
475,192,28653,1,0,0:0:0:0:
182,192,28719,1,0,0:0:0:0:
36,192,28719,1,0,0:0:0:0:
402,192,28785,1,0,0:0:0:0:
329,192,28785,1,0,0:0:0:0:
256,192,28852,1,0,0:0:0:0:
329,192,28852,1,0,0:0:0:0:
182,192,28918,1,0,0:0:0:0:
109,192,28918,1,0,0:0:0:0:
36,192,28918,128,0,29051:0:0:0:0:
182,192,29051,1,0,0:0:0:0:
329,192,29051,1,0,0:0:0:0:
256,192,29150,1,0,0:0:0:0:
475,192,29184,1,0,0:0:0:0:
402,192,29184,1,0,0:0:0:0:
36,192,29184,1,0,0:0:0:0:
329,192,29228,1,0,0:0:0:0:
182,192,29272,1,0,0:0:0:0:
109,192,29272,1,0,0:0:0:0:
182,192,29361,1,0,0:0:0:0:
109,192,29361,1,0,0:0:0:0:
36,192,29449,1,0,0:0:0:0:
329,192,29449,1,0,0:0:0:0:
402,192,29449,1,0,0:0:0:0:
329,192,29538,1,0,0:0:0:0:
402,192,29538,1,0,0:0:0:0:
109,192,29582,1,0,0:0:0:0:
182,192,29648,1,0,0:0:0:0:
36,192,29715,1,0,0:0:0:0:
256,192,29715,1,0,0:0:0:0:
475,192,29715,1,0,0:0:0:0:
109,192,29914,1,0,0:0:0:0:
256,192,29914,1,0,0:0:0:0:
36,192,29914,1,0,0:0:0:0:
256,192,29980,1,0,0:0:0:0:
402,192,29980,1,0,0:0:0:0:
475,192,29980,1,0,0:0:0:0:
182,192,30113,1,0,0:0:0:0:
329,192,30113,1,0,0:0:0:0:
402,192,30113,1,0,0:0:0:0:
256,192,30246,1,0,0:0:0:0:
182,192,30246,1,0,0:0:0:0:
36,192,30246,1,0,0:0:0:0:
329,192,30378,1,0,0:0:0:0:
402,192,30445,1,0,0:0:0:0:
36,192,30445,1,0,0:0:0:0:
475,192,30445,1,0,0:0:0:0:
182,192,30511,128,0,30644:0:0:0:0:
109,192,30577,128,0,30644:0:0:0:0:
329,192,30644,1,0,0:0:0:0:
475,192,30644,1,0,0:0:0:0:
256,192,30644,1,0,0:0:0:0:
182,192,30776,1,0,0:0:0:0:
109,192,30843,1,0,0:0:0:0:
475,192,30909,1,0,0:0:0:0:
36,192,30909,1,0,0:0:0:0:
36,192,30976,1,0,0:0:0:0:
402,192,30976,1,0,0:0:0:0:
256,192,31042,1,0,0:0:0:0:
182,192,31042,1,0,0:0:0:0:
329,192,31042,1,0,0:0:0:0:
256,192,31175,1,0,0:0:0:0:
109,192,31175,1,0,0:0:0:0:
402,192,31175,1,0,0:0:0:0:
182,192,31307,1,0,0:0:0:0:
109,192,31374,1,0,0:0:0:0:
36,192,31440,1,0,0:0:0:0:
329,192,31440,1,0,0:0:0:0:
475,192,31440,1,0,0:0:0:0:
182,192,31573,1,0,0:0:0:0:
36,192,31573,1,0,0:0:0:0:
475,192,31573,1,0,0:0:0:0:
329,192,31706,1,0,0:0:0:0:
182,192,31706,1,0,0:0:0:0:
36,192,31706,1,0,0:0:0:0:
36,192,31838,1,0,0:0:0:0:
182,192,31838,1,0,0:0:0:0:
329,192,31838,1,0,0:0:0:0:
475,192,31838,1,0,0:0:0:0:
256,192,31838,1,0,0:0:0:0:
256,192,35553,128,0,37677:0:0:0:0:
36,192,37677,1,0,0:0:0:0:
109,192,37677,1,0,0:0:0:0:
475,192,37677,1,0,0:0:0:0:
329,192,37744,1,0,0:0:0:0:
256,192,37744,1,0,0:0:0:0:
182,192,37744,1,0,0:0:0:0:
475,192,37810,1,0,0:0:0:0:
36,192,37810,1,0,0:0:0:0:
109,192,37810,1,0,0:0:0:0:
402,192,37876,1,0,0:0:0:0:
329,192,37876,1,0,0:0:0:0:
36,192,37943,1,0,0:0:0:0:
475,192,37943,1,0,0:0:0:0:
256,192,37943,1,0,0:0:0:0:
182,192,37943,1,0,0:0:0:0:
182,192,38076,1,0,0:0:0:0:
109,192,38076,1,0,0:0:0:0:
402,192,38142,1,0,0:0:0:0:
329,192,38142,1,0,0:0:0:0:
475,192,38208,1,0,0:0:0:0:
256,192,38208,1,0,0:0:0:0:
36,192,38208,1,0,0:0:0:0:
182,192,38341,1,0,0:0:0:0:
402,192,38407,1,0,0:0:0:0:
256,192,38474,1,0,0:0:0:0:
475,192,38474,1,0,0:0:0:0:
36,192,38474,1,0,0:0:0:0:
182,192,38607,1,0,0:0:0:0:
402,192,38673,1,0,0:0:0:0:
36,192,38739,1,0,0:0:0:0:
475,192,38739,1,0,0:0:0:0:
256,192,38739,1,0,0:0:0:0:
182,192,38872,1,0,0:0:0:0:
402,192,38938,1,0,0:0:0:0:
256,192,39005,1,0,0:0:0:0:
475,192,39005,1,0,0:0:0:0:
36,192,39005,1,0,0:0:0:0:
182,192,39138,1,0,0:0:0:0:
402,192,39204,1,0,0:0:0:0:
36,192,39270,1,0,0:0:0:0:
475,192,39270,1,0,0:0:0:0:
256,192,39270,1,0,0:0:0:0:
182,192,39403,1,0,0:0:0:0:
402,192,39469,1,0,0:0:0:0:
256,192,39536,1,0,0:0:0:0:
475,192,39536,1,0,0:0:0:0:
36,192,39536,1,0,0:0:0:0:
182,192,39668,1,0,0:0:0:0:
402,192,39735,1,0,0:0:0:0:
36,192,39801,1,0,0:0:0:0:
475,192,39801,1,0,0:0:0:0:
256,192,39801,1,0,0:0:0:0:
182,192,39934,1,0,0:0:0:0:
402,192,40000,1,0,0:0:0:0:
256,192,40067,1,0,0:0:0:0:
475,192,40067,1,0,0:0:0:0:
36,192,40067,1,0,0:0:0:0:
182,192,40199,1,0,0:0:0:0:
402,192,40266,1,0,0:0:0:0:
36,192,40332,1,0,0:0:0:0:
475,192,40332,1,0,0:0:0:0:
256,192,40332,1,0,0:0:0:0:
182,192,40465,1,0,0:0:0:0:
402,192,40531,1,0,0:0:0:0:
36,192,40598,1,0,0:0:0:0:
475,192,40598,1,0,0:0:0:0:
256,192,40598,1,0,0:0:0:0:
182,192,40730,1,0,0:0:0:0:
402,192,40797,1,0,0:0:0:0:
256,192,40863,1,0,0:0:0:0:
475,192,40863,1,0,0:0:0:0:
36,192,40863,1,0,0:0:0:0:
182,192,40996,1,0,0:0:0:0:
402,192,41062,1,0,0:0:0:0:
36,192,41129,1,0,0:0:0:0:
475,192,41129,1,0,0:0:0:0:
256,192,41129,1,0,0:0:0:0:
182,192,41261,1,0,0:0:0:0:
402,192,41328,1,0,0:0:0:0:
256,192,41394,1,0,0:0:0:0:
475,192,41394,1,0,0:0:0:0:
36,192,41394,1,0,0:0:0:0:
182,192,41527,1,0,0:0:0:0:
402,192,41593,1,0,0:0:0:0:
256,192,41660,1,0,0:0:0:0:
475,192,41660,1,0,0:0:0:0:
36,192,41660,1,0,0:0:0:0:
109,192,41660,1,0,0:0:0:0:
329,192,41726,1,0,0:0:0:0:
182,192,41792,1,0,0:0:0:0:
36,192,41792,1,0,0:0:0:0:
402,192,41859,1,0,0:0:0:0:
475,192,41859,1,0,0:0:0:0:
329,192,41925,1,0,0:0:0:0:
182,192,41992,1,0,0:0:0:0:
109,192,41992,1,0,0:0:0:0:
36,192,41992,1,0,0:0:0:0:
402,192,42058,1,0,0:0:0:0:
475,192,42058,1,0,0:0:0:0:
256,192,42058,1,0,0:0:0:0:
109,192,42124,1,0,0:0:0:0:
36,192,42124,1,0,0:0:0:0:
182,192,42191,1,0,0:0:0:0:
329,192,42191,1,0,0:0:0:0:
475,192,42191,1,0,0:0:0:0:
402,192,42191,1,0,0:0:0:0:
109,192,42323,1,0,0:0:0:0:
36,192,42323,1,0,0:0:0:0:
182,192,42323,1,0,0:0:0:0:
329,192,42390,1,0,0:0:0:0:
475,192,42456,1,0,0:0:0:0:
256,192,42456,1,0,0:0:0:0:
36,192,42456,1,0,0:0:0:0:
329,192,42589,1,0,0:0:0:0:
109,192,42655,1,0,0:0:0:0:
475,192,42722,1,0,0:0:0:0:
36,192,42722,1,0,0:0:0:0:
256,192,42722,1,0,0:0:0:0:
329,192,42854,1,0,0:0:0:0:
109,192,42921,1,0,0:0:0:0:
256,192,42987,1,0,0:0:0:0:
36,192,42987,1,0,0:0:0:0:
475,192,42987,1,0,0:0:0:0:
329,192,43120,1,0,0:0:0:0:
109,192,43186,1,0,0:0:0:0:
475,192,43253,1,0,0:0:0:0:
36,192,43253,1,0,0:0:0:0:
256,192,43253,1,0,0:0:0:0:
329,192,43385,1,0,0:0:0:0:
109,192,43452,1,0,0:0:0:0:
256,192,43518,1,0,0:0:0:0:
36,192,43518,1,0,0:0:0:0:
475,192,43518,1,0,0:0:0:0:
329,192,43651,1,0,0:0:0:0:
109,192,43717,1,0,0:0:0:0:
475,192,43784,1,0,0:0:0:0:
36,192,43784,1,0,0:0:0:0:
256,192,43784,1,0,0:0:0:0:
329,192,43916,1,0,0:0:0:0:
109,192,43983,1,0,0:0:0:0:
256,192,44049,1,0,0:0:0:0:
36,192,44049,1,0,0:0:0:0:
475,192,44049,1,0,0:0:0:0:
329,192,44182,1,0,0:0:0:0:
109,192,44248,1,0,0:0:0:0:
475,192,44315,1,0,0:0:0:0:
36,192,44315,1,0,0:0:0:0:
256,192,44315,1,0,0:0:0:0:
329,192,44447,1,0,0:0:0:0:
109,192,44514,1,0,0:0:0:0:
256,192,44580,1,0,0:0:0:0:
36,192,44580,1,0,0:0:0:0:
475,192,44580,1,0,0:0:0:0:
329,192,44713,1,0,0:0:0:0:
109,192,44779,1,0,0:0:0:0:
475,192,44845,1,0,0:0:0:0:
36,192,44845,1,0,0:0:0:0:
256,192,44845,1,0,0:0:0:0:
329,192,44978,1,0,0:0:0:0:
109,192,45045,1,0,0:0:0:0:
256,192,45111,1,0,0:0:0:0:
36,192,45111,1,0,0:0:0:0:
475,192,45111,1,0,0:0:0:0:
329,192,45244,1,0,0:0:0:0:
109,192,45310,1,0,0:0:0:0:
475,192,45376,1,0,0:0:0:0:
36,192,45376,1,0,0:0:0:0:
256,192,45376,1,0,0:0:0:0:
329,192,45509,1,0,0:0:0:0:
109,192,45576,1,0,0:0:0:0:
256,192,45642,1,0,0:0:0:0:
475,192,45642,1,0,0:0:0:0:
36,192,45642,1,0,0:0:0:0:
402,192,45708,1,0,0:0:0:0:
329,192,45708,1,0,0:0:0:0:
182,192,45708,1,0,0:0:0:0:
182,192,45841,1,0,0:0:0:0:
329,192,45841,1,0,0:0:0:0:
109,192,45841,1,0,0:0:0:0:
36,192,45907,1,0,0:0:0:0:
475,192,45907,1,0,0:0:0:0:
182,192,46040,1,0,0:0:0:0:
109,192,46040,1,0,0:0:0:0:
402,192,46107,1,0,0:0:0:0:
329,192,46107,1,0,0:0:0:0:
475,192,46173,1,0,0:0:0:0:
36,192,46173,1,0,0:0:0:0:
109,192,46173,1,0,0:0:0:0:
182,192,46173,1,0,0:0:0:0:
256,192,46239,1,0,0:0:0:0:
329,192,46239,1,0,0:0:0:0:
109,192,46306,1,0,0:0:0:0:
402,192,46306,1,0,0:0:0:0:
182,192,46372,1,0,0:0:0:0:
256,192,46372,1,0,0:0:0:0:
36,192,46438,1,0,0:0:0:0:
475,192,46438,1,0,0:0:0:0:
329,192,46438,1,0,0:0:0:0:
402,192,46438,1,0,0:0:0:0:
182,192,46571,1,0,0:0:0:0:
329,192,46638,1,0,0:0:0:0:
256,192,46704,1,0,0:0:0:0:
475,192,46704,1,0,0:0:0:0:
36,192,46704,1,0,0:0:0:0:
182,192,46837,1,0,0:0:0:0:
329,192,46903,1,0,0:0:0:0:
36,192,46969,1,0,0:0:0:0:
475,192,46969,1,0,0:0:0:0:
256,192,46969,1,0,0:0:0:0:
182,192,47102,1,0,0:0:0:0:
329,192,47168,1,0,0:0:0:0:
256,192,47235,1,0,0:0:0:0:
475,192,47235,1,0,0:0:0:0:
36,192,47235,1,0,0:0:0:0:
182,192,47368,1,0,0:0:0:0:
329,192,47434,1,0,0:0:0:0:
36,192,47500,1,0,0:0:0:0:
475,192,47500,1,0,0:0:0:0:
256,192,47500,1,0,0:0:0:0:
182,192,47633,1,0,0:0:0:0:
329,192,47699,1,0,0:0:0:0:
256,192,47766,1,0,0:0:0:0:
475,192,47766,1,0,0:0:0:0:
36,192,47766,1,0,0:0:0:0:
182,192,47899,1,0,0:0:0:0:
329,192,47965,1,0,0:0:0:0:
36,192,48031,1,0,0:0:0:0:
475,192,48031,1,0,0:0:0:0:
256,192,48031,1,0,0:0:0:0:
182,192,48164,1,0,0:0:0:0:
329,192,48230,1,0,0:0:0:0:
256,192,48297,1,0,0:0:0:0:
475,192,48297,1,0,0:0:0:0:
36,192,48297,1,0,0:0:0:0:
182,192,48430,1,0,0:0:0:0:
329,192,48496,1,0,0:0:0:0:
36,192,48562,1,0,0:0:0:0:
475,192,48562,1,0,0:0:0:0:
256,192,48562,1,0,0:0:0:0:
182,192,48695,1,0,0:0:0:0:
329,192,48761,1,0,0:0:0:0:
256,192,48828,1,0,0:0:0:0:
475,192,48828,1,0,0:0:0:0:
36,192,48828,1,0,0:0:0:0:
182,192,48961,1,0,0:0:0:0:
329,192,49027,1,0,0:0:0:0:
36,192,49093,1,0,0:0:0:0:
475,192,49093,1,0,0:0:0:0:
256,192,49093,1,0,0:0:0:0:
182,192,49226,1,0,0:0:0:0:
329,192,49292,1,0,0:0:0:0:
256,192,49359,1,0,0:0:0:0:
475,192,49359,1,0,0:0:0:0:
36,192,49359,1,0,0:0:0:0:
182,192,49492,1,0,0:0:0:0:
329,192,49558,1,0,0:0:0:0:
36,192,49624,1,0,0:0:0:0:
475,192,49624,1,0,0:0:0:0:
256,192,49624,1,0,0:0:0:0:
182,192,49757,1,0,0:0:0:0:
329,192,49823,1,0,0:0:0:0:
256,192,49890,1,0,0:0:0:0:
475,192,49890,1,0,0:0:0:0:
36,192,49890,1,0,0:0:0:0:
182,192,50022,1,0,0:0:0:0:
329,192,50089,1,0,0:0:0:0:
256,192,50089,1,0,0:0:0:0:
36,192,50155,1,0,0:0:0:0:
475,192,50155,1,0,0:0:0:0:
109,192,50155,1,0,0:0:0:0:
402,192,50155,1,0,0:0:0:0:
256,192,50222,1,0,0:0:0:0:
182,192,50288,1,0,0:0:0:0:
36,192,50288,1,0,0:0:0:0:
329,192,50354,1,0,0:0:0:0:
475,192,50354,1,0,0:0:0:0:
36,192,50421,1,0,0:0:0:0:
109,192,50421,1,0,0:0:0:0:
256,192,50487,1,0,0:0:0:0:
402,192,50487,1,0,0:0:0:0:
475,192,50487,1,0,0:0:0:0:
182,192,50553,1,0,0:0:0:0:
109,192,50553,1,0,0:0:0:0:
402,192,50620,1,0,0:0:0:0:
329,192,50620,1,0,0:0:0:0:
36,192,50686,1,0,0:0:0:0:
475,192,50686,1,0,0:0:0:0:
256,192,50686,1,0,0:0:0:0:
109,192,50686,1,0,0:0:0:0:
402,192,50819,1,0,0:0:0:0:
329,192,50819,1,0,0:0:0:0:
109,192,50885,1,0,0:0:0:0:
182,192,50885,1,0,0:0:0:0:
256,192,50952,1,0,0:0:0:0:
475,192,50952,1,0,0:0:0:0:
36,192,50952,1,0,0:0:0:0:
402,192,51084,1,0,0:0:0:0:
109,192,51151,1,0,0:0:0:0:
36,192,51217,1,0,0:0:0:0:
475,192,51217,1,0,0:0:0:0:
256,192,51217,1,0,0:0:0:0:
402,192,51350,1,0,0:0:0:0:
109,192,51416,1,0,0:0:0:0:
256,192,51483,1,0,0:0:0:0:
36,192,51483,1,0,0:0:0:0:
475,192,51483,1,0,0:0:0:0:
402,192,51615,1,0,0:0:0:0:
109,192,51682,1,0,0:0:0:0:
475,192,51748,1,0,0:0:0:0:
36,192,51748,1,0,0:0:0:0:
256,192,51748,1,0,0:0:0:0:
402,192,51881,1,0,0:0:0:0:
109,192,51947,1,0,0:0:0:0:
256,192,52014,1,0,0:0:0:0:
36,192,52014,1,0,0:0:0:0:
475,192,52014,1,0,0:0:0:0:
402,192,52146,1,0,0:0:0:0:
109,192,52213,1,0,0:0:0:0:
475,192,52279,1,0,0:0:0:0:
36,192,52279,1,0,0:0:0:0:
256,192,52279,1,0,0:0:0:0:
402,192,52412,1,0,0:0:0:0:
109,192,52478,1,0,0:0:0:0:
256,192,52545,1,0,0:0:0:0:
36,192,52545,1,0,0:0:0:0:
475,192,52545,1,0,0:0:0:0:
402,192,52677,1,0,0:0:0:0:
109,192,52744,1,0,0:0:0:0:
475,192,52810,1,0,0:0:0:0:
36,192,52810,1,0,0:0:0:0:
256,192,52810,1,0,0:0:0:0:
402,192,52943,1,0,0:0:0:0:
109,192,53009,1,0,0:0:0:0:
256,192,53076,1,0,0:0:0:0:
36,192,53076,1,0,0:0:0:0:
475,192,53076,1,0,0:0:0:0:
402,192,53208,1,0,0:0:0:0:
109,192,53275,1,0,0:0:0:0:
475,192,53341,1,0,0:0:0:0:
36,192,53341,1,0,0:0:0:0:
256,192,53341,1,0,0:0:0:0:
402,192,53474,1,0,0:0:0:0:
109,192,53540,1,0,0:0:0:0:
36,192,53607,128,0,53739:0:0:0:0:
475,192,53607,128,0,53739:0:0:0:0:
402,192,53739,1,0,0:0:0:0:
109,192,53806,1,0,0:0:0:0:
36,192,53872,128,0,54005:0:0:0:0:
475,192,53872,128,0,54005:0:0:0:0:
402,192,54005,1,0,0:0:0:0:
109,192,54071,1,0,0:0:0:0:
36,192,54138,128,0,54270:0:0:0:0:
475,192,54138,128,0,54270:0:0:0:0:
402,192,54270,1,0,0:0:0:0:
109,192,54337,1,0,0:0:0:0:
36,192,54403,128,0,54536:0:0:0:0:
475,192,54403,128,0,54536:0:0:0:0:
402,192,54536,1,0,0:0:0:0:
109,192,54602,1,0,0:0:0:0:
36,192,54668,1,0,0:0:0:0:
256,192,54668,1,0,0:0:0:0:
329,192,54668,1,0,0:0:0:0:
475,192,54668,1,0,0:0:0:0:
402,192,54668,1,0,0:0:0:0:
182,192,54735,1,0,0:0:0:0:
36,192,54801,1,0,0:0:0:0:
256,192,54801,1,0,0:0:0:0:
329,192,54868,1,0,0:0:0:0:
36,192,54934,1,0,0:0:0:0:
402,192,54934,1,0,0:0:0:0:
109,192,55000,1,0,0:0:0:0:
182,192,55067,1,0,0:0:0:0:
475,192,55067,1,0,0:0:0:0:
402,192,55067,1,0,0:0:0:0:
256,192,55067,1,0,0:0:0:0:
36,192,55067,1,0,0:0:0:0:
329,192,55133,1,0,0:0:0:0:
182,192,55199,1,0,0:0:0:0:
475,192,55199,1,0,0:0:0:0:
402,192,55266,1,0,0:0:0:0:
329,192,55332,1,0,0:0:0:0:
109,192,55332,1,0,0:0:0:0:
36,192,55332,1,0,0:0:0:0:
256,192,55332,1,0,0:0:0:0:
182,192,55332,1,0,0:0:0:0:
475,192,55399,1,0,0:0:0:0:
329,192,55465,1,0,0:0:0:0:
182,192,55465,1,0,0:0:0:0:
36,192,55531,1,0,0:0:0:0:
329,192,55598,1,0,0:0:0:0:
109,192,55598,1,0,0:0:0:0:
256,192,55664,1,0,0:0:0:0:
402,192,55730,1,0,0:0:0:0:
182,192,55730,1,0,0:0:0:0:
36,192,55730,1,0,0:0:0:0:
475,192,55730,1,0,0:0:0:0:
109,192,55730,1,0,0:0:0:0:
329,192,55797,1,0,0:0:0:0:
402,192,55863,1,0,0:0:0:0:
109,192,55863,1,0,0:0:0:0:
256,192,55930,1,0,0:0:0:0:
402,192,55996,1,0,0:0:0:0:
182,192,55996,1,0,0:0:0:0:
109,192,56062,1,0,0:0:0:0:
256,192,56129,1,0,0:0:0:0:
36,192,56129,1,0,0:0:0:0:
329,192,56129,1,0,0:0:0:0:
475,192,56129,1,0,0:0:0:0:
402,192,56129,1,0,0:0:0:0:
182,192,56195,1,0,0:0:0:0:
256,192,56261,1,0,0:0:0:0:
402,192,56261,1,0,0:0:0:0:
475,192,56328,1,0,0:0:0:0:
109,192,56394,1,0,0:0:0:0:
36,192,56394,1,0,0:0:0:0:
329,192,56394,1,0,0:0:0:0:
182,192,56394,1,0,0:0:0:0:
256,192,56394,1,0,0:0:0:0:
402,192,56461,1,0,0:0:0:0:
109,192,56527,1,0,0:0:0:0:
256,192,56527,1,0,0:0:0:0:
329,192,56593,1,0,0:0:0:0:
109,192,56660,1,0,0:0:0:0:
402,192,56660,1,0,0:0:0:0:
329,192,56726,1,0,0:0:0:0:
475,192,56792,1,0,0:0:0:0:
256,192,56792,1,0,0:0:0:0:
36,192,56792,1,0,0:0:0:0:
182,192,56792,1,0,0:0:0:0:
109,192,56792,1,0,0:0:0:0:
402,192,56859,1,0,0:0:0:0:
475,192,56925,1,0,0:0:0:0:
109,192,56925,1,0,0:0:0:0:
182,192,56992,1,0,0:0:0:0:
475,192,57058,1,0,0:0:0:0:
256,192,57058,1,0,0:0:0:0:
402,192,57124,1,0,0:0:0:0:
329,192,57191,1,0,0:0:0:0:
36,192,57191,1,0,0:0:0:0:
182,192,57191,1,0,0:0:0:0:
109,192,57191,1,0,0:0:0:0:
256,192,57191,1,0,0:0:0:0:
402,192,57257,1,0,0:0:0:0:
329,192,57323,1,0,0:0:0:0:
475,192,57323,1,0,0:0:0:0:
256,192,57390,1,0,0:0:0:0:
182,192,57456,1,0,0:0:0:0:
36,192,57456,1,0,0:0:0:0:
402,192,57456,1,0,0:0:0:0:
109,192,57456,1,0,0:0:0:0:
475,192,57456,1,0,0:0:0:0:
329,192,57522,1,0,0:0:0:0:
36,192,57589,1,0,0:0:0:0:
256,192,57589,1,0,0:0:0:0:
109,192,57655,1,0,0:0:0:0:
36,192,57722,1,0,0:0:0:0:
329,192,57722,1,0,0:0:0:0:
402,192,57722,1,0,0:0:0:0:
475,192,57722,1,0,0:0:0:0:
182,192,57722,1,0,0:0:0:0:
256,192,57788,1,0,0:0:0:0:
182,192,57854,1,0,0:0:0:0:
109,192,57921,1,0,0:0:0:0:
256,192,57987,1,0,0:0:0:0:
329,192,57987,1,0,0:0:0:0:
182,192,57987,1,0,0:0:0:0:
36,192,57987,1,0,0:0:0:0:
402,192,57987,1,0,0:0:0:0:
475,192,58053,1,0,0:0:0:0:
256,192,58120,1,0,0:0:0:0:
402,192,58120,1,0,0:0:0:0:
182,192,58186,1,0,0:0:0:0:
402,192,58253,1,0,0:0:0:0:
475,192,58253,1,0,0:0:0:0:
109,192,58253,1,0,0:0:0:0:
36,192,58253,1,0,0:0:0:0:
329,192,58253,1,0,0:0:0:0:
182,192,58319,1,0,0:0:0:0:
475,192,58385,1,0,0:0:0:0:
256,192,58385,1,0,0:0:0:0:
402,192,58385,1,0,0:0:0:0:
36,192,58385,1,0,0:0:0:0:
109,192,58385,1,0,0:0:0:0:
329,192,58452,1,0,0:0:0:0:
475,192,58518,1,0,0:0:0:0:
109,192,58518,1,0,0:0:0:0:
182,192,58518,1,0,0:0:0:0:
402,192,58518,1,0,0:0:0:0:
36,192,58518,1,0,0:0:0:0:
256,192,58584,1,0,0:0:0:0:
109,192,58651,1,0,0:0:0:0:
329,192,58651,1,0,0:0:0:0:
402,192,58717,1,0,0:0:0:0:
109,192,58784,1,0,0:0:0:0:
256,192,58784,1,0,0:0:0:0:
329,192,58850,1,0,0:0:0:0:
475,192,58916,1,0,0:0:0:0:
182,192,58916,1,0,0:0:0:0:
36,192,58916,1,0,0:0:0:0:
402,192,58916,1,0,0:0:0:0:
109,192,58916,1,0,0:0:0:0:
329,192,58983,1,0,0:0:0:0:
475,192,59049,1,0,0:0:0:0:
36,192,59049,1,0,0:0:0:0:
109,192,59115,1,0,0:0:0:0:
475,192,59182,1,0,0:0:0:0:
182,192,59182,1,0,0:0:0:0:
256,192,59248,1,0,0:0:0:0:
329,192,59315,1,0,0:0:0:0:
36,192,59315,1,0,0:0:0:0:
182,192,59315,1,0,0:0:0:0:
109,192,59315,1,0,0:0:0:0:
475,192,59315,1,0,0:0:0:0:
402,192,59381,1,0,0:0:0:0:
329,192,59447,1,0,0:0:0:0:
109,192,59447,1,0,0:0:0:0:
256,192,59514,1,0,0:0:0:0:
182,192,59580,1,0,0:0:0:0:
402,192,59580,1,0,0:0:0:0:
475,192,59580,1,0,0:0:0:0:
36,192,59580,1,0,0:0:0:0:
109,192,59580,1,0,0:0:0:0:
256,192,59646,1,0,0:0:0:0:
182,192,59713,1,0,0:0:0:0:
329,192,59713,1,0,0:0:0:0:
402,192,59779,1,0,0:0:0:0:
182,192,59845,1,0,0:0:0:0:
36,192,59845,1,0,0:0:0:0:
256,192,59912,1,0,0:0:0:0:
109,192,59978,1,0,0:0:0:0:
329,192,59978,1,0,0:0:0:0:
475,192,59978,1,0,0:0:0:0:
402,192,59978,1,0,0:0:0:0:
36,192,59978,1,0,0:0:0:0:
182,192,60045,1,0,0:0:0:0:
109,192,60111,1,0,0:0:0:0:
256,192,60111,1,0,0:0:0:0:
402,192,60177,1,0,0:0:0:0:
109,192,60244,1,0,0:0:0:0:
475,192,60244,1,0,0:0:0:0:
329,192,60310,1,0,0:0:0:0:
256,192,60376,1,0,0:0:0:0:
475,192,60376,1,0,0:0:0:0:
182,192,60376,1,0,0:0:0:0:
36,192,60376,1,0,0:0:0:0:
109,192,60376,1,0,0:0:0:0:
402,192,60443,1,0,0:0:0:0:
256,192,60509,1,0,0:0:0:0:
329,192,60509,1,0,0:0:0:0:
182,192,60576,1,0,0:0:0:0:
402,192,60642,1,0,0:0:0:0:
475,192,60642,1,0,0:0:0:0:
109,192,60642,1,0,0:0:0:0:
36,192,60642,1,0,0:0:0:0:
329,192,60642,1,0,0:0:0:0:
256,192,60708,1,0,0:0:0:0:
402,192,60775,1,0,0:0:0:0:
182,192,60775,1,0,0:0:0:0:
36,192,60841,1,0,0:0:0:0:
402,192,60907,1,0,0:0:0:0:
109,192,60907,1,0,0:0:0:0:
329,192,60974,1,0,0:0:0:0:
36,192,61040,1,0,0:0:0:0:
256,192,61040,1,0,0:0:0:0:
475,192,61040,1,0,0:0:0:0:
182,192,61040,1,0,0:0:0:0:
109,192,61040,1,0,0:0:0:0:
402,192,61107,1,0,0:0:0:0:
36,192,61173,1,0,0:0:0:0:
329,192,61173,1,0,0:0:0:0:
182,192,61239,1,0,0:0:0:0:
36,192,61306,1,0,0:0:0:0:
256,192,61306,1,0,0:0:0:0:
329,192,61372,1,0,0:0:0:0:
182,192,61438,1,0,0:0:0:0:
475,192,61438,1,0,0:0:0:0:
402,192,61438,1,0,0:0:0:0:
109,192,61438,1,0,0:0:0:0:
36,192,61438,1,0,0:0:0:0:
256,192,61505,1,0,0:0:0:0:
182,192,61571,1,0,0:0:0:0:
329,192,61571,1,0,0:0:0:0:
402,192,61638,1,0,0:0:0:0:
329,192,61704,1,0,0:0:0:0:
475,192,61704,1,0,0:0:0:0:
109,192,61704,1,0,0:0:0:0:
256,192,61704,1,0,0:0:0:0:
36,192,61704,1,0,0:0:0:0:
182,192,61770,1,0,0:0:0:0:
109,192,61837,1,0,0:0:0:0:
402,192,61837,1,0,0:0:0:0:
256,192,61903,1,0,0:0:0:0:
475,192,61969,1,0,0:0:0:0:
182,192,61969,1,0,0:0:0:0:
109,192,61969,1,0,0:0:0:0:
36,192,61969,1,0,0:0:0:0:
329,192,61969,1,0,0:0:0:0:
402,192,62036,1,0,0:0:0:0:
475,192,62102,1,0,0:0:0:0:
256,192,62102,1,0,0:0:0:0:
182,192,62168,1,0,0:0:0:0:
256,192,62235,1,0,0:0:0:0:
109,192,62235,1,0,0:0:0:0:
36,192,62235,1,0,0:0:0:0:
475,192,62235,1,0,0:0:0:0:
329,192,62235,1,0,0:0:0:0:
402,192,62301,1,0,0:0:0:0:
256,192,62368,1,0,0:0:0:0:
182,192,62368,1,0,0:0:0:0:
109,192,62434,1,0,0:0:0:0:
182,192,62500,1,0,0:0:0:0:
36,192,62500,1,0,0:0:0:0:
402,192,62500,1,0,0:0:0:0:
475,192,62500,1,0,0:0:0:0:
329,192,62500,1,0,0:0:0:0:
256,192,62567,1,0,0:0:0:0:
109,192,62633,1,0,0:0:0:0:
329,192,62633,1,0,0:0:0:0:
182,192,62699,1,0,0:0:0:0:
256,192,62766,1,0,0:0:0:0:
402,192,62766,1,0,0:0:0:0:
475,192,62766,1,0,0:0:0:0:
36,192,62766,1,0,0:0:0:0:
329,192,62766,1,0,0:0:0:0:
182,192,62832,1,0,0:0:0:0:
109,192,62899,1,0,0:0:0:0:
475,192,62899,1,0,0:0:0:0:
256,192,62899,1,0,0:0:0:0:
36,192,62965,1,0,0:0:0:0:
402,192,63031,1,0,0:0:0:0:
182,192,63031,1,0,0:0:0:0:
329,192,63098,1,0,0:0:0:0:
36,192,63164,1,0,0:0:0:0:
475,192,63164,1,0,0:0:0:0:
256,192,63164,1,0,0:0:0:0:
109,192,63164,1,0,0:0:0:0:
182,192,63164,1,0,0:0:0:0:
402,192,63230,1,0,0:0:0:0:
256,192,63297,1,0,0:0:0:0:
182,192,63297,1,0,0:0:0:0:
36,192,63363,1,0,0:0:0:0:
256,192,63430,1,0,0:0:0:0:
475,192,63430,1,0,0:0:0:0:
182,192,63496,1,0,0:0:0:0:
109,192,63562,1,0,0:0:0:0:
402,192,63562,1,0,0:0:0:0:
329,192,63562,1,0,0:0:0:0:
36,192,63562,1,0,0:0:0:0:
475,192,63562,1,0,0:0:0:0:
256,192,63629,1,0,0:0:0:0:
329,192,63695,1,0,0:0:0:0:
182,192,63695,1,0,0:0:0:0:
109,192,63761,1,0,0:0:0:0:
475,192,63828,1,0,0:0:0:0:
256,192,63828,1,0,0:0:0:0:
182,192,63828,1,0,0:0:0:0:
402,192,63828,1,0,0:0:0:0:
36,192,63828,1,0,0:0:0:0:
109,192,63894,1,0,0:0:0:0:
329,192,63961,1,0,0:0:0:0:
256,192,63961,1,0,0:0:0:0:
402,192,64027,1,0,0:0:0:0:
329,192,64093,1,0,0:0:0:0:
475,192,64093,1,0,0:0:0:0:
36,192,64093,1,0,0:0:0:0:
109,192,64093,1,0,0:0:0:0:
256,192,64093,1,0,0:0:0:0:
182,192,64160,1,0,0:0:0:0:
329,192,64226,1,0,0:0:0:0:
36,192,64226,1,0,0:0:0:0:
402,192,64292,1,0,0:0:0:0:
329,192,64359,1,0,0:0:0:0:
256,192,64359,1,0,0:0:0:0:
475,192,64359,1,0,0:0:0:0:
109,192,64359,1,0,0:0:0:0:
36,192,64359,1,0,0:0:0:0:
182,192,64425,1,0,0:0:0:0:
36,192,64492,1,0,0:0:0:0:
402,192,64492,1,0,0:0:0:0:
475,192,64492,1,0,0:0:0:0:
256,192,64492,1,0,0:0:0:0:
109,192,64558,1,0,0:0:0:0:
329,192,64624,1,0,0:0:0:0:
182,192,64624,1,0,0:0:0:0:
109,192,64691,1,0,0:0:0:0:
256,192,64757,1,0,0:0:0:0:
475,192,64757,1,0,0:0:0:0:
402,192,64757,1,0,0:0:0:0:
36,192,64757,1,0,0:0:0:0:
329,192,64757,1,0,0:0:0:0:
182,192,64823,1,0,0:0:0:0:
475,192,64890,1,0,0:0:0:0:
402,192,64890,1,0,0:0:0:0:
109,192,64890,1,0,0:0:0:0:
329,192,64890,1,0,0:0:0:0:
36,192,64890,1,0,0:0:0:0:
256,192,64956,1,0,0:0:0:0:
36,192,65022,1,0,0:0:0:0:
109,192,65022,1,0,0:0:0:0:
182,192,65022,1,0,0:0:0:0:
329,192,65022,1,0,0:0:0:0:
475,192,65022,1,0,0:0:0:0:
402,192,65093,1,0,0:0:0:0:
182,192,65164,1,0,0:0:0:0:
256,192,65164,1,0,0:0:0:0:
475,192,65164,1,0,0:0:0:0:
36,192,65164,1,0,0:0:0:0:
109,192,65164,1,0,0:0:0:0:
329,192,65234,1,0,0:0:0:0:
475,192,65305,1,0,0:0:0:0:
402,192,65305,1,0,0:0:0:0:
256,192,65305,1,0,0:0:0:0:
109,192,65305,1,0,0:0:0:0:
36,192,65305,1,0,0:0:0:0:
182,192,65376,1,0,0:0:0:0:
329,192,65446,1,0,0:0:0:0:
109,192,65446,1,0,0:0:0:0:
36,192,65446,1,0,0:0:0:0:
402,192,65446,1,0,0:0:0:0:
475,192,65446,1,0,0:0:0:0:
256,192,65516,1,0,0:0:0:0:
182,192,65587,1,0,0:0:0:0:
329,192,65587,1,0,0:0:0:0:
475,192,65587,1,0,0:0:0:0:
36,192,65587,1,0,0:0:0:0:
402,192,65587,1,0,0:0:0:0:
109,192,65664,1,0,0:0:0:0:
182,192,65742,1,0,0:0:0:0:
256,192,65742,1,0,0:0:0:0:
402,192,65742,1,0,0:0:0:0:
475,192,65742,1,0,0:0:0:0:
329,192,65742,1,0,0:0:0:0:
36,192,65819,1,0,0:0:0:0:
182,192,65902,1,0,0:0:0:0:
109,192,65902,1,0,0:0:0:0:
402,192,65902,1,0,0:0:0:0:
329,192,65902,1,0,0:0:0:0:
256,192,65902,1,0,0:0:0:0:
475,192,65968,1,0,0:0:0:0:
329,192,66068,1,0,0:0:0:0:
256,192,66068,1,0,0:0:0:0:
182,192,66068,1,0,0:0:0:0:
36,192,66068,1,0,0:0:0:0:
109,192,66134,1,0,0:0:0:0:
475,192,66134,1,0,0:0:0:0:
402,192,66134,1,0,0:0:0:0:
182,192,66250,1,0,0:0:0:0:
256,192,66250,1,0,0:0:0:0:
329,192,66250,1,0,0:0:0:0:
109,192,66300,1,0,0:0:0:0:
36,192,66300,1,0,0:0:0:0:
329,192,66350,1,0,0:0:0:0:
475,192,66350,1,0,0:0:0:0:
402,192,66350,1,0,0:0:0:0:
182,192,66416,1,0,0:0:0:0:
36,192,66416,1,0,0:0:0:0:
402,192,66483,1,0,0:0:0:0:
256,192,66483,1,0,0:0:0:0:
109,192,66483,1,0,0:0:0:0:
329,192,66532,1,0,0:0:0:0:
475,192,66532,1,0,0:0:0:0:
36,192,66615,1,0,0:0:0:0:
182,192,66615,1,0,0:0:0:0:
256,192,66615,1,0,0:0:0:0:
329,192,66649,1,0,0:0:0:0:
475,192,66748,1,0,0:0:0:0:
402,192,66748,1,0,0:0:0:0:
109,192,66748,1,0,0:0:0:0:
36,192,66748,1,0,0:0:0:0:
182,192,66815,1,0,0:0:0:0:
329,192,66815,1,0,0:0:0:0:
256,192,66881,1,0,0:0:0:0:
256,192,66947,1,0,0:0:0:0:
182,192,67014,1,0,0:0:0:0:
36,192,67014,1,0,0:0:0:0:
109,192,67014,1,0,0:0:0:0:
475,192,67014,1,0,0:0:0:0:
402,192,67014,1,0,0:0:0:0:
329,192,67014,1,0,0:0:0:0:
182,192,67412,1,0,0:0:0:0:
36,192,67810,1,0,0:0:0:0:
475,192,68142,1,0,0:0:0:0:
329,192,68540,1,0,0:0:0:0:
475,192,70995,128,0,71128:0:0:0:0:
402,192,71061,128,0,71194:0:0:0:0:
329,192,71128,128,0,71460:0:0:0:0:
36,192,71128,1,0,0:0:0:0:
256,192,71194,128,0,71260:0:0:0:0:
402,192,71260,128,0,71327:0:0:0:0:
36,192,71260,1,0,0:0:0:0:
256,192,71327,128,0,71725:0:0:0:0:
182,192,71393,128,0,71526:0:0:0:0:
475,192,71393,1,0,0:0:0:0:
109,192,71460,128,0,71592:0:0:0:0:
329,192,71526,128,0,71592:0:0:0:0:
182,192,71592,128,0,71924:0:0:0:0:
109,192,71659,128,0,71791:0:0:0:0:
402,192,71659,1,0,0:0:0:0:
36,192,71725,128,0,71858:0:0:0:0:
256,192,71791,128,0,72057:0:0:0:0:
402,192,71791,1,0,0:0:0:0:
109,192,71858,128,0,71991:0:0:0:0:
36,192,71924,128,0,72057:0:0:0:0:
329,192,71991,128,0,72057:0:0:0:0:
402,192,72057,1,0,0:0:0:0:
475,192,72057,1,0,0:0:0:0:
182,192,72057,1,0,0:0:0:0:
109,192,72057,1,0,0:0:0:0:
256,192,72189,1,0,0:0:0:0:
182,192,72256,1,0,0:0:0:0:
329,192,72322,128,0,72718:0:0:0:0:
36,192,72322,1,0,0:0:0:0:
475,192,72322,1,0,0:0:0:0:
109,192,72388,1,0,0:0:0:0:
475,192,72455,1,0,0:0:0:0:
182,192,72455,1,0,0:0:0:0:
402,192,72455,1,0,0:0:0:0:
36,192,72521,1,0,0:0:0:0:
256,192,72587,1,0,0:0:0:0:
109,192,72652,1,0,0:0:0:0:
182,192,72718,128,0,73243:0:0:0:0:
402,192,72718,1,0,0:0:0:0:
475,192,72718,1,0,0:0:0:0:
256,192,72784,1,0,0:0:0:0:
109,192,72850,1,0,0:0:0:0:
329,192,72850,1,0,0:0:0:0:
402,192,72915,1,0,0:0:0:0:
475,192,72981,1,0,0:0:0:0:
256,192,72981,1,0,0:0:0:0:
36,192,72981,1,0,0:0:0:0:
329,192,73047,1,0,0:0:0:0:
402,192,73113,1,0,0:0:0:0:
329,192,73178,1,0,0:0:0:0:
256,192,73243,1,0,0:0:0:0:
36,192,73243,1,0,0:0:0:0:
109,192,73243,1,0,0:0:0:0:
402,192,73308,1,0,0:0:0:0:
36,192,73373,1,0,0:0:0:0:
182,192,73373,1,0,0:0:0:0:
329,192,73373,1,0,0:0:0:0:
475,192,73439,1,0,0:0:0:0:
402,192,73504,1,0,0:0:0:0:
329,192,73504,1,0,0:0:0:0:
256,192,73504,1,0,0:0:0:0:
109,192,73569,1,0,0:0:0:0:
256,192,73634,128,0,75677:0:0:0:0:
36,192,73634,1,0,0:0:0:0:
329,192,73698,1,0,0:0:0:0:
402,192,73763,1,0,0:0:0:0:
475,192,73763,1,0,0:0:0:0:
182,192,73827,1,0,0:0:0:0:
109,192,73892,1,0,0:0:0:0:
36,192,73892,1,0,0:0:0:0:
402,192,73892,1,0,0:0:0:0:
329,192,74021,1,0,0:0:0:0:
182,192,74086,1,0,0:0:0:0:
109,192,74086,1,0,0:0:0:0:
475,192,74151,128,0,74216:0:0:0:0:
36,192,74152,1,0,0:0:0:0:
402,192,74152,1,0,0:0:0:0:
182,192,74216,1,0,0:0:0:0:
329,192,74216,1,0,0:0:0:0:
475,192,74280,128,0,74472:0:0:0:0:
109,192,74280,1,0,0:0:0:0:
402,192,74280,1,0,0:0:0:0:
182,192,74408,1,0,0:0:0:0:
36,192,74408,1,0,0:0:0:0:
36,192,74536,1,0,0:0:0:0:
329,192,74536,1,0,0:0:0:0:
182,192,74536,1,0,0:0:0:0:
402,192,74664,1,0,0:0:0:0:
475,192,74727,1,0,0:0:0:0:
329,192,74791,1,0,0:0:0:0:
182,192,74791,1,0,0:0:0:0:
109,192,74791,1,0,0:0:0:0:
329,192,74918,1,0,0:0:0:0:
182,192,74918,1,0,0:0:0:0:
109,192,75045,1,0,0:0:0:0:
182,192,75108,1,0,0:0:0:0:
36,192,75172,1,0,0:0:0:0:
402,192,75172,1,0,0:0:0:0:
475,192,75173,1,0,0:0:0:0:
329,192,75236,1,0,0:0:0:0:
182,192,75299,1,0,0:0:0:0:
109,192,75299,1,0,0:0:0:0:
402,192,75425,1,0,0:0:0:0:
109,192,75425,1,0,0:0:0:0:
329,192,75488,1,0,0:0:0:0:
182,192,75551,1,0,0:0:0:0:
475,192,75551,1,0,0:0:0:0:
402,192,75677,1,0,0:0:0:0:
182,192,75677,1,0,0:0:0:0:
36,192,75677,1,0,0:0:0:0:
329,192,75677,1,0,0:0:0:0:
109,192,75802,1,0,0:0:0:0:
182,192,75864,1,0,0:0:0:0:
402,192,75927,128,0,76301:0:0:0:0:
256,192,75927,1,0,0:0:0:0:
36,192,75927,1,0,0:0:0:0:
109,192,75989,1,0,0:0:0:0:
182,192,76052,1,0,0:0:0:0:
329,192,76052,1,0,0:0:0:0:
256,192,76052,1,0,0:0:0:0:
475,192,76114,1,0,0:0:0:0:
36,192,76177,1,0,0:0:0:0:
182,192,76239,1,0,0:0:0:0:
109,192,76301,128,0,76795:0:0:0:0:
475,192,76301,1,0,0:0:0:0:
36,192,76301,1,0,0:0:0:0:
329,192,76301,1,0,0:0:0:0:
256,192,76363,1,0,0:0:0:0:
182,192,76425,1,0,0:0:0:0:
402,192,76425,1,0,0:0:0:0:
329,192,76487,1,0,0:0:0:0:
475,192,76549,1,0,0:0:0:0:
256,192,76549,1,0,0:0:0:0:
182,192,76549,1,0,0:0:0:0:
402,192,76611,1,0,0:0:0:0:
329,192,76673,1,0,0:0:0:0:
182,192,76734,1,0,0:0:0:0:
329,192,76795,1,0,0:0:0:0:
36,192,76795,1,0,0:0:0:0:
475,192,76795,1,0,0:0:0:0:
256,192,76857,1,0,0:0:0:0:
402,192,76918,1,0,0:0:0:0:
475,192,76918,1,0,0:0:0:0:
109,192,76918,1,0,0:0:0:0:
182,192,76980,1,0,0:0:0:0:
36,192,77041,1,0,0:0:0:0:
402,192,77041,1,0,0:0:0:0:
256,192,77041,1,0,0:0:0:0:
182,192,77103,1,0,0:0:0:0:
329,192,77164,1,0,0:0:0:0:
36,192,77165,128,0,79094:0:0:0:0:
475,192,77165,1,0,0:0:0:0:
109,192,77225,1,0,0:0:0:0:
256,192,77286,1,0,0:0:0:0:
402,192,77286,1,0,0:0:0:0:
182,192,77347,1,0,0:0:0:0:
256,192,77408,1,0,0:0:0:0:
109,192,77408,1,0,0:0:0:0:
475,192,77408,1,0,0:0:0:0:
402,192,77469,1,0,0:0:0:0:
329,192,77530,1,0,0:0:0:0:
329,192,77653,128,0,77834:0:0:0:0:
182,192,77653,1,0,0:0:0:0:
182,192,77743,1,0,0:0:0:0:
475,192,77773,1,0,0:0:0:0:
402,192,77773,1,0,0:0:0:0:
256,192,77834,1,0,0:0:0:0:
329,192,77894,128,0,78076:0:0:0:0:
109,192,77894,1,0,0:0:0:0:
182,192,78015,1,0,0:0:0:0:
475,192,78015,1,0,0:0:0:0:
402,192,78015,1,0,0:0:0:0:
256,192,78137,1,0,0:0:0:0:
109,192,78137,1,0,0:0:0:0:
256,192,78257,1,0,0:0:0:0:
402,192,78257,1,0,0:0:0:0:
182,192,78257,1,0,0:0:0:0:
329,192,78377,1,0,0:0:0:0:
475,192,78457,1,0,0:0:0:0:
182,192,78497,1,0,0:0:0:0:
402,192,78537,1,0,0:0:0:0:
182,192,78617,1,0,0:0:0:0:
329,192,78617,1,0,0:0:0:0:
256,192,78617,1,0,0:0:0:0:
109,192,78696,1,0,0:0:0:0:
329,192,78736,1,0,0:0:0:0:
402,192,78736,1,0,0:0:0:0:
182,192,78775,1,0,0:0:0:0:
256,192,78855,1,0,0:0:0:0:
475,192,78974,1,0,0:0:0:0:
329,192,78974,1,0,0:0:0:0:
182,192,79033,1,0,0:0:0:0:
109,192,79033,1,0,0:0:0:0:
256,192,79093,1,0,0:0:0:0:
402,192,79093,1,0,0:0:0:0:
475,192,79093,1,0,0:0:0:0:
109,192,79212,1,0,0:0:0:0:
182,192,79271,1,0,0:0:0:0:
475,192,79330,128,0,79683:0:0:0:0:
36,192,79330,1,0,0:0:0:0:
329,192,79330,1,0,0:0:0:0:
256,192,79389,1,0,0:0:0:0:
182,192,79448,1,0,0:0:0:0:
36,192,79448,1,0,0:0:0:0:
109,192,79448,1,0,0:0:0:0:
329,192,79507,1,0,0:0:0:0:
182,192,79566,1,0,0:0:0:0:
256,192,79624,1,0,0:0:0:0:
329,192,79683,128,0,80151:0:0:0:0:
109,192,79683,1,0,0:0:0:0:
402,192,79683,1,0,0:0:0:0:
36,192,79683,1,0,0:0:0:0:
182,192,79741,1,0,0:0:0:0:
36,192,79800,1,0,0:0:0:0:
475,192,79800,1,0,0:0:0:0:
256,192,79858,1,0,0:0:0:0:
109,192,79917,1,0,0:0:0:0:
475,192,79917,1,0,0:0:0:0:
402,192,79917,1,0,0:0:0:0:
182,192,79976,1,0,0:0:0:0:
36,192,80035,1,0,0:0:0:0:
256,192,80093,1,0,0:0:0:0:
109,192,80151,1,0,0:0:0:0:
182,192,80151,1,0,0:0:0:0:
475,192,80151,1,0,0:0:0:0:
402,192,80209,1,0,0:0:0:0:
329,192,80267,1,0,0:0:0:0:
36,192,80267,1,0,0:0:0:0:
109,192,80267,1,0,0:0:0:0:
182,192,80325,1,0,0:0:0:0:
329,192,80383,1,0,0:0:0:0:
475,192,80383,1,0,0:0:0:0:
256,192,80383,1,0,0:0:0:0:
109,192,80441,1,0,0:0:0:0:
182,192,80500,128,0,82326:0:0:0:0:
402,192,80500,1,0,0:0:0:0:
36,192,80500,1,0,0:0:0:0:
329,192,80557,1,0,0:0:0:0:
256,192,80615,1,0,0:0:0:0:
109,192,80673,1,0,0:0:0:0:
36,192,80730,1,0,0:0:0:0:
475,192,80730,1,0,0:0:0:0:
402,192,80730,1,0,0:0:0:0:
256,192,80817,1,0,0:0:0:0:
329,192,80903,1,0,0:0:0:0:
475,192,80962,128,0,81133:0:0:0:0:
402,192,81019,1,0,0:0:0:0:
109,192,81076,1,0,0:0:0:0:
36,192,81076,1,0,0:0:0:0:
329,192,81105,1,0,0:0:0:0:
475,192,81191,128,0,81248:0:0:0:0:
256,192,81191,1,0,0:0:0:0:
36,192,81276,1,0,0:0:0:0:
475,192,81305,128,0,81362:0:0:0:0:
402,192,81305,1,0,0:0:0:0:
329,192,81305,1,0,0:0:0:0:
109,192,81362,1,0,0:0:0:0:
475,192,81420,128,0,81476:0:0:0:0:
256,192,81448,1,0,0:0:0:0:
329,192,81533,1,0,0:0:0:0:
109,192,81533,1,0,0:0:0:0:
36,192,81533,1,0,0:0:0:0:
329,192,81647,1,0,0:0:0:0:
475,192,81647,1,0,0:0:0:0:
256,192,81723,1,0,0:0:0:0:
36,192,81760,1,0,0:0:0:0:
402,192,81760,1,0,0:0:0:0:
329,192,81798,1,0,0:0:0:0:
109,192,81836,1,0,0:0:0:0:
36,192,81875,1,0,0:0:0:0:
475,192,81875,1,0,0:0:0:0:
402,192,81875,1,0,0:0:0:0:
256,192,81950,1,0,0:0:0:0:
109,192,81987,1,0,0:0:0:0:
36,192,81987,1,0,0:0:0:0:
329,192,82062,1,0,0:0:0:0:
402,192,82100,1,0,0:0:0:0:
475,192,82100,1,0,0:0:0:0:
402,192,82213,1,0,0:0:0:0:
109,192,82213,1,0,0:0:0:0:
329,192,82326,1,0,0:0:0:0:
256,192,82326,1,0,0:0:0:0:
36,192,82326,1,0,0:0:0:0:
475,192,82326,1,0,0:0:0:0:
109,192,82437,1,0,0:0:0:0:
182,192,82493,1,0,0:0:0:0:
256,192,82549,128,0,82885:0:0:0:0:
36,192,82549,1,0,0:0:0:0:
402,192,82549,1,0,0:0:0:0:
329,192,82605,1,0,0:0:0:0:
109,192,82661,1,0,0:0:0:0:
182,192,82661,1,0,0:0:0:0:
475,192,82661,1,0,0:0:0:0:
402,192,82717,1,0,0:0:0:0:
329,192,82773,1,0,0:0:0:0:
182,192,82829,1,0,0:0:0:0:
402,192,82885,128,0,83328:0:0:0:0:
36,192,82885,1,0,0:0:0:0:
109,192,82885,1,0,0:0:0:0:
475,192,82885,1,0,0:0:0:0:
329,192,82940,1,0,0:0:0:0:
182,192,82996,1,0,0:0:0:0:
256,192,83051,1,0,0:0:0:0:
329,192,83107,1,0,0:0:0:0:
475,192,83107,1,0,0:0:0:0:
36,192,83107,1,0,0:0:0:0:
109,192,83162,1,0,0:0:0:0:
182,192,83218,1,0,0:0:0:0:
256,192,83273,1,0,0:0:0:0:
109,192,83328,1,0,0:0:0:0:
36,192,83328,1,0,0:0:0:0:
329,192,83328,1,0,0:0:0:0:
256,192,83383,1,0,0:0:0:0:
182,192,83438,1,0,0:0:0:0:
475,192,83438,1,0,0:0:0:0:
402,192,83438,1,0,0:0:0:0:
329,192,83493,1,0,0:0:0:0:
256,192,83548,1,0,0:0:0:0:
475,192,83548,1,0,0:0:0:0:
109,192,83548,1,0,0:0:0:0:
402,192,83604,1,0,0:0:0:0:
182,192,83659,1,0,0:0:0:0:
329,192,83660,128,0,85392:0:0:0:0:
36,192,83714,1,0,0:0:0:0:
109,192,83769,1,0,0:0:0:0:
182,192,83824,1,0,0:0:0:0:
256,192,83878,1,0,0:0:0:0:
402,192,83878,1,0,0:0:0:0:
475,192,83878,1,0,0:0:0:0:
256,192,83988,1,0,0:0:0:0:
109,192,83988,1,0,0:0:0:0:
36,192,83988,1,0,0:0:0:0:
182,192,84097,128,0,84151:0:0:0:0:
402,192,84097,1,0,0:0:0:0:
182,192,84205,128,0,84368:0:0:0:0:
475,192,84205,1,0,0:0:0:0:
402,192,84205,1,0,0:0:0:0:
109,192,84314,1,0,0:0:0:0:
36,192,84314,1,0,0:0:0:0:
182,192,84423,128,0,84477:0:0:0:0:
36,192,84423,1,0,0:0:0:0:
256,192,84423,1,0,0:0:0:0:
402,192,84423,1,0,0:0:0:0:
475,192,84531,1,0,0:0:0:0:
475,192,84639,1,0,0:0:0:0:
109,192,84639,1,0,0:0:0:0:
109,192,84747,1,0,0:0:0:0:
256,192,84747,1,0,0:0:0:0:
182,192,84747,1,0,0:0:0:0:
256,192,84855,1,0,0:0:0:0:
36,192,84855,1,0,0:0:0:0:
475,192,84855,1,0,0:0:0:0:
402,192,84855,1,0,0:0:0:0:
182,192,84963,1,0,0:0:0:0:
109,192,84963,1,0,0:0:0:0:
182,192,85070,1,0,0:0:0:0:
109,192,85177,1,0,0:0:0:0:
36,192,85177,1,0,0:0:0:0:
402,192,85177,1,0,0:0:0:0:
475,192,85177,1,0,0:0:0:0:
256,192,85284,1,0,0:0:0:0:
182,192,85391,1,0,0:0:0:0:
109,192,85391,1,0,0:0:0:0:
36,192,85392,1,0,0:0:0:0:
402,192,85392,1,0,0:0:0:0:
475,192,85498,1,0,0:0:0:0:
402,192,85551,1,0,0:0:0:0:
182,192,85604,128,0,85922:0:0:0:0:
329,192,85604,1,0,0:0:0:0:
36,192,85604,1,0,0:0:0:0:
256,192,85657,1,0,0:0:0:0:
475,192,85711,1,0,0:0:0:0:
109,192,85711,1,0,0:0:0:0:
329,192,85764,1,0,0:0:0:0:
402,192,85817,1,0,0:0:0:0:
256,192,85869,1,0,0:0:0:0:
36,192,85922,128,0,86344:0:0:0:0:
109,192,85922,1,0,0:0:0:0:
475,192,85922,1,0,0:0:0:0:
329,192,85975,1,0,0:0:0:0:
256,192,86028,1,0,0:0:0:0:
182,192,86081,1,0,0:0:0:0:
109,192,86133,1,0,0:0:0:0:
402,192,86133,1,0,0:0:0:0:
329,192,86186,1,0,0:0:0:0:
475,192,86239,1,0,0:0:0:0:
256,192,86292,1,0,0:0:0:0:
329,192,86344,1,0,0:0:0:0:
109,192,86344,1,0,0:0:0:0:
402,192,86397,1,0,0:0:0:0:
475,192,86449,1,0,0:0:0:0:
182,192,86449,1,0,0:0:0:0:
36,192,86449,1,0,0:0:0:0:
256,192,86502,1,0,0:0:0:0:
329,192,86554,1,0,0:0:0:0:
109,192,86554,1,0,0:0:0:0:
402,192,86554,1,0,0:0:0:0:
182,192,86607,1,0,0:0:0:0:
475,192,86659,128,0,88308:0:0:0:0:
256,192,86659,1,0,0:0:0:0:
36,192,86659,1,0,0:0:0:0:
109,192,86711,1,0,0:0:0:0:
329,192,86763,1,0,0:0:0:0:
182,192,86815,1,0,0:0:0:0:
256,192,86867,1,0,0:0:0:0:
402,192,86867,1,0,0:0:0:0:
256,192,86971,1,0,0:0:0:0:
182,192,87023,1,0,0:0:0:0:
36,192,87076,128,0,87231:0:0:0:0:
109,192,87076,1,0,0:0:0:0:
329,192,87127,1,0,0:0:0:0:
402,192,87179,1,0,0:0:0:0:
182,192,87179,1,0,0:0:0:0:
36,192,87282,128,0,87438:0:0:0:0:
256,192,87282,1,0,0:0:0:0:
329,192,87386,1,0,0:0:0:0:
402,192,87386,1,0,0:0:0:0:
36,192,87489,128,0,87643:0:0:0:0:
109,192,87489,1,0,0:0:0:0:
182,192,87540,1,0,0:0:0:0:
256,192,87591,1,0,0:0:0:0:
402,192,87591,1,0,0:0:0:0:
182,192,87694,1,0,0:0:0:0:
329,192,87694,1,0,0:0:0:0:
109,192,87797,1,0,0:0:0:0:
182,192,87848,1,0,0:0:0:0:
256,192,87899,1,0,0:0:0:0:
36,192,87900,1,0,0:0:0:0:
109,192,87951,1,0,0:0:0:0:
256,192,88002,1,0,0:0:0:0:
402,192,88002,1,0,0:0:0:0:
182,192,88104,1,0,0:0:0:0:
329,192,88104,1,0,0:0:0:0:
182,192,88206,1,0,0:0:0:0:
36,192,88206,1,0,0:0:0:0:
109,192,88308,1,0,0:0:0:0:
36,192,88308,1,0,0:0:0:0:
256,192,88308,1,0,0:0:0:0:
402,192,88308,1,0,0:0:0:0:
329,192,88409,1,0,0:0:0:0:
256,192,88460,1,0,0:0:0:0:
402,192,88510,128,0,88814:0:0:0:0:
109,192,88510,1,0,0:0:0:0:
182,192,88561,1,0,0:0:0:0:
36,192,88612,1,0,0:0:0:0:
329,192,88612,1,0,0:0:0:0:
256,192,88662,1,0,0:0:0:0:
109,192,88714,1,0,0:0:0:0:
182,192,88764,1,0,0:0:0:0:
256,192,88814,128,0,89216:0:0:0:0:
475,192,88814,1,0,0:0:0:0:
36,192,88814,1,0,0:0:0:0:
109,192,88865,1,0,0:0:0:0:
329,192,88915,1,0,0:0:0:0:
402,192,88965,1,0,0:0:0:0:
475,192,89016,1,0,0:0:0:0:
182,192,89016,1,0,0:0:0:0:
109,192,89066,1,0,0:0:0:0:
402,192,89116,1,0,0:0:0:0:
329,192,89166,1,0,0:0:0:0:
182,192,89216,1,0,0:0:0:0:
36,192,89216,1,0,0:0:0:0:
402,192,89266,1,0,0:0:0:0:
109,192,89316,1,0,0:0:0:0:
475,192,89316,1,0,0:0:0:0:
256,192,89366,1,0,0:0:0:0:
329,192,89416,1,0,0:0:0:0:
36,192,89416,1,0,0:0:0:0:
402,192,89466,1,0,0:0:0:0:
475,192,89516,1,0,0:0:0:0:
109,192,89517,128,0,91091:0:0:0:0:
256,192,89566,1,0,0:0:0:0:
402,192,89616,1,0,0:0:0:0:
182,192,89666,1,0,0:0:0:0:
329,192,89715,1,0,0:0:0:0:
36,192,89715,1,0,0:0:0:0:
329,192,89815,1,0,0:0:0:0:
475,192,89914,128,0,89963:0:0:0:0:
36,192,89914,1,0,0:0:0:0:
256,192,89914,1,0,0:0:0:0:
182,192,89988,1,0,0:0:0:0:
475,192,90012,128,0,90062:0:0:0:0:
329,192,90012,1,0,0:0:0:0:
36,192,90062,1,0,0:0:0:0:
256,192,90062,1,0,0:0:0:0:
475,192,90111,128,0,90160:0:0:0:0:
402,192,90111,1,0,0:0:0:0:
182,192,90111,1,0,0:0:0:0:
256,192,90210,1,0,0:0:0:0:
329,192,90210,1,0,0:0:0:0:
182,192,90309,1,0,0:0:0:0:
402,192,90309,1,0,0:0:0:0:
256,192,90407,1,0,0:0:0:0:
402,192,90407,1,0,0:0:0:0:
329,192,90505,1,0,0:0:0:0:
36,192,90505,1,0,0:0:0:0:
182,192,90570,1,0,0:0:0:0:
475,192,90603,1,0,0:0:0:0:
256,192,90635,1,0,0:0:0:0:
475,192,90701,1,0,0:0:0:0:
402,192,90701,1,0,0:0:0:0:
36,192,90701,1,0,0:0:0:0:
329,192,90765,1,0,0:0:0:0:
36,192,90798,1,0,0:0:0:0:
182,192,90798,1,0,0:0:0:0:
256,192,90830,1,0,0:0:0:0:
329,192,90895,1,0,0:0:0:0:
402,192,90993,1,0,0:0:0:0:
329,192,91041,1,0,0:0:0:0:
475,192,91090,1,0,0:0:0:0:
256,192,91090,1,0,0:0:0:0:
36,192,91091,1,0,0:0:0:0:
109,192,91187,1,0,0:0:0:0:
182,192,91236,1,0,0:0:0:0:
475,192,91284,128,0,91574:0:0:0:0:
36,192,91284,1,0,0:0:0:0:
256,192,91332,1,0,0:0:0:0:
109,192,91381,1,0,0:0:0:0:
402,192,91381,1,0,0:0:0:0:
329,192,91429,1,0,0:0:0:0:
256,192,91478,1,0,0:0:0:0:
109,192,91526,1,0,0:0:0:0:
182,192,91574,128,0,91958:0:0:0:0:
402,192,91574,1,0,0:0:0:0:
329,192,91574,1,0,0:0:0:0:
36,192,91622,1,0,0:0:0:0:
109,192,91670,1,0,0:0:0:0:
256,192,91718,1,0,0:0:0:0:
475,192,91718,1,0,0:0:0:0:
402,192,91766,1,0,0:0:0:0:
329,192,91814,1,0,0:0:0:0:
256,192,91863,1,0,0:0:0:0:
109,192,91910,1,0,0:0:0:0:
36,192,91958,1,0,0:0:0:0:
329,192,91958,1,0,0:0:0:0:
402,192,92006,1,0,0:0:0:0:
475,192,92054,1,0,0:0:0:0:
182,192,92054,1,0,0:0:0:0:
256,192,92101,1,0,0:0:0:0:
36,192,92149,1,0,0:0:0:0:
329,192,92149,1,0,0:0:0:0:
109,192,92197,1,0,0:0:0:0:
402,192,92245,128,0,93750:0:0:0:0:
182,192,92245,1,0,0:0:0:0:
256,192,92292,1,0,0:0:0:0:
109,192,92339,1,0,0:0:0:0:
329,192,92387,1,0,0:0:0:0:
182,192,92434,1,0,0:0:0:0:
36,192,92434,1,0,0:0:0:0:
256,192,92506,1,0,0:0:0:0:
109,192,92577,1,0,0:0:0:0:
36,192,92624,128,0,92672:0:0:0:0:
475,192,92625,1,0,0:0:0:0:
182,192,92672,1,0,0:0:0:0:
36,192,92719,128,0,92766:0:0:0:0:
475,192,92719,1,0,0:0:0:0:
329,192,92719,1,0,0:0:0:0:
256,192,92742,1,0,0:0:0:0:
182,192,92813,1,0,0:0:0:0:
36,192,92884,1,0,0:0:0:0:
329,192,92908,1,0,0:0:0:0:
475,192,92908,1,0,0:0:0:0:
109,192,92955,1,0,0:0:0:0:
256,192,93002,1,0,0:0:0:0:
36,192,93025,1,0,0:0:0:0:
256,192,93095,1,0,0:0:0:0:
329,192,93095,1,0,0:0:0:0:
182,192,93095,1,0,0:0:0:0:
109,192,93189,1,0,0:0:0:0:
182,192,93236,1,0,0:0:0:0:
256,192,93283,1,0,0:0:0:0:
329,192,93330,1,0,0:0:0:0:
36,192,93378,1,0,0:0:0:0:
182,192,93424,1,0,0:0:0:0:
36,192,93471,1,0,0:0:0:0:
329,192,93471,1,0,0:0:0:0:
109,192,93517,1,0,0:0:0:0:
182,192,93564,1,0,0:0:0:0:
475,192,93564,1,0,0:0:0:0:
475,192,93657,1,0,0:0:0:0:
256,192,93657,1,0,0:0:0:0:
329,192,93750,1,0,0:0:0:0:
182,192,93750,1,0,0:0:0:0:
36,192,93750,1,0,0:0:0:0:
256,192,93842,1,0,0:0:0:0:
329,192,93888,1,0,0:0:0:0:
36,192,93935,128,0,94213:0:0:0:0:
402,192,93935,1,0,0:0:0:0:
182,192,93981,1,0,0:0:0:0:
109,192,94027,1,0,0:0:0:0:
475,192,94027,1,0,0:0:0:0:
329,192,94074,1,0,0:0:0:0:
256,192,94120,1,0,0:0:0:0:
182,192,94167,1,0,0:0:0:0:
475,192,94213,128,0,94580:0:0:0:0:
402,192,94213,1,0,0:0:0:0:
109,192,94213,1,0,0:0:0:0:
256,192,94259,1,0,0:0:0:0:
329,192,94305,1,0,0:0:0:0:
182,192,94351,1,0,0:0:0:0:
36,192,94397,1,0,0:0:0:0:
402,192,94397,1,0,0:0:0:0:
109,192,94443,1,0,0:0:0:0:
182,192,94489,1,0,0:0:0:0:
256,192,94534,1,0,0:0:0:0:
329,192,94580,1,0,0:0:0:0:
109,192,94626,1,0,0:0:0:0:
36,192,94671,1,0,0:0:0:0:
402,192,94671,1,0,0:0:0:0:
329,192,94717,1,0,0:0:0:0:
182,192,94763,1,0,0:0:0:0:
475,192,94763,1,0,0:0:0:0:
109,192,94809,1,0,0:0:0:0:
256,192,94855,128,0,96295:0:0:0:0:
36,192,94855,1,0,0:0:0:0:
402,192,94900,1,0,0:0:0:0:
182,192,94945,1,0,0:0:0:0:
329,192,94991,1,0,0:0:0:0:
475,192,95036,1,0,0:0:0:0:
402,192,95036,1,0,0:0:0:0:
109,192,95082,1,0,0:0:0:0:
36,192,95082,1,0,0:0:0:0:
182,192,95127,1,0,0:0:0:0:
329,192,95218,1,0,0:0:0:0:
329,192,95308,1,0,0:0:0:0:
475,192,95308,1,0,0:0:0:0:
182,192,95398,1,0,0:0:0:0:
36,192,95398,1,0,0:0:0:0:
109,192,95398,1,0,0:0:0:0:
36,192,95489,1,0,0:0:0:0:
109,192,95534,1,0,0:0:0:0:
402,192,95579,1,0,0:0:0:0:
475,192,95579,1,0,0:0:0:0:
329,192,95579,1,0,0:0:0:0:
475,192,95668,1,0,0:0:0:0:
402,192,95713,1,0,0:0:0:0:
182,192,95758,1,0,0:0:0:0:
109,192,95758,1,0,0:0:0:0:
36,192,95758,1,0,0:0:0:0:
329,192,95803,1,0,0:0:0:0:
109,192,95848,1,0,0:0:0:0:
36,192,95938,1,0,0:0:0:0:
475,192,95938,1,0,0:0:0:0:
329,192,96027,1,0,0:0:0:0:
402,192,96027,1,0,0:0:0:0:
475,192,96027,1,0,0:0:0:0:
182,192,96071,1,0,0:0:0:0:
402,192,96116,1,0,0:0:0:0:
109,192,96205,1,0,0:0:0:0:
36,192,96295,1,0,0:0:0:0:
475,192,96295,1,0,0:0:0:0:
182,192,96295,1,0,0:0:0:0:
402,192,96339,1,0,0:0:0:0:
256,192,96383,1,0,0:0:0:0:
36,192,96383,1,0,0:0:0:0:
329,192,96428,1,0,0:0:0:0:
402,192,96472,1,0,0:0:0:0:
109,192,96472,1,0,0:0:0:0:
475,192,96561,1,0,0:0:0:0:
182,192,96561,1,0,0:0:0:0:
36,192,96561,1,0,0:0:0:0:
402,192,96605,1,0,0:0:0:0:
329,192,96650,1,0,0:0:0:0:
182,192,96650,1,0,0:0:0:0:
475,192,96694,1,0,0:0:0:0:
402,192,96738,1,0,0:0:0:0:
256,192,96738,1,0,0:0:0:0:
329,192,96827,1,0,0:0:0:0:
36,192,96827,1,0,0:0:0:0:
475,192,96827,1,0,0:0:0:0:
109,192,96871,1,0,0:0:0:0:
329,192,96916,1,0,0:0:0:0:
182,192,96916,1,0,0:0:0:0:
36,192,96960,1,0,0:0:0:0:
109,192,97005,1,0,0:0:0:0:
256,192,97005,1,0,0:0:0:0:
182,192,97093,1,0,0:0:0:0:
475,192,97093,1,0,0:0:0:0:
402,192,97093,1,0,0:0:0:0:
329,192,97138,1,0,0:0:0:0:
256,192,97182,1,0,0:0:0:0:
475,192,97182,1,0,0:0:0:0:
182,192,97226,1,0,0:0:0:0:
109,192,97271,1,0,0:0:0:0:
36,192,97271,1,0,0:0:0:0:
475,192,97360,1,0,0:0:0:0:
402,192,97382,1,0,0:0:0:0:
329,192,97404,1,0,0:0:0:0:
256,192,97426,1,0,0:0:0:0:
182,192,97448,1,0,0:0:0:0:
109,192,97471,1,0,0:0:0:0:
36,192,97493,1,0,0:0:0:0:
256,192,97537,1,0,0:0:0:0:
329,192,97566,1,0,0:0:0:0:
402,192,97596,1,0,0:0:0:0:
475,192,97625,1,0,0:0:0:0:
256,192,97655,1,0,0:0:0:0:
329,192,97684,1,0,0:0:0:0:
402,192,97714,1,0,0:0:0:0:
475,192,97744,1,0,0:0:0:0:
256,192,97773,1,0,0:0:0:0:
329,192,97803,1,0,0:0:0:0:
402,192,97832,1,0,0:0:0:0:
475,192,97862,1,0,0:0:0:0:
109,192,97892,1,0,0:0:0:0:
36,192,97892,1,0,0:0:0:0:
182,192,97892,1,0,0:0:0:0:
109,192,98010,1,0,0:0:0:0:
36,192,98010,1,0,0:0:0:0:
182,192,98010,1,0,0:0:0:0:
182,192,98128,1,0,0:0:0:0:
36,192,98128,1,0,0:0:0:0:
109,192,98128,1,0,0:0:0:0:
109,192,98247,1,0,0:0:0:0:
36,192,98247,1,0,0:0:0:0:
182,192,98247,1,0,0:0:0:0:
182,192,98365,1,0,0:0:0:0:
36,192,98365,1,0,0:0:0:0:
109,192,98365,1,0,0:0:0:0:
109,192,98483,1,0,0:0:0:0:
36,192,98483,1,0,0:0:0:0:
182,192,98483,1,0,0:0:0:0:
182,192,98602,1,0,0:0:0:0:
36,192,98602,1,0,0:0:0:0:
109,192,98602,1,0,0:0:0:0:
36,192,98720,1,0,0:0:0:0:
109,192,98720,1,0,0:0:0:0:
182,192,98720,1,0,0:0:0:0:
475,192,98779,1,0,0:0:0:0:
402,192,98779,1,0,0:0:0:0:
329,192,98779,1,0,0:0:0:0:
256,192,98808,1,0,0:0:0:0:
182,192,98838,1,0,0:0:0:0:
109,192,98867,1,0,0:0:0:0:
329,192,98897,1,0,0:0:0:0:
256,192,98926,1,0,0:0:0:0:
182,192,98956,1,0,0:0:0:0:
109,192,98986,1,0,0:0:0:0:
329,192,99015,1,0,0:0:0:0:
256,192,99045,1,0,0:0:0:0:
182,192,99074,1,0,0:0:0:0:
109,192,99104,1,0,0:0:0:0:
36,192,99134,1,0,0:0:0:0:
402,192,99134,1,0,0:0:0:0:
475,192,99134,1,0,0:0:0:0:
329,192,99134,1,0,0:0:0:0:
256,192,99222,1,0,0:0:0:0:
402,192,99311,1,0,0:0:0:0:
329,192,99311,1,0,0:0:0:0:
109,192,99311,1,0,0:0:0:0:
182,192,99311,1,0,0:0:0:0:
402,192,99400,1,0,0:0:0:0:
109,192,99400,1,0,0:0:0:0:
256,192,99489,1,0,0:0:0:0:
36,192,99489,1,0,0:0:0:0:
475,192,99489,1,0,0:0:0:0:
182,192,99489,1,0,0:0:0:0:
402,192,99577,1,0,0:0:0:0:
329,192,99666,1,0,0:0:0:0:
182,192,99666,1,0,0:0:0:0:
36,192,99666,1,0,0:0:0:0:
109,192,99666,1,0,0:0:0:0:
36,192,99755,1,0,0:0:0:0:
329,192,99755,1,0,0:0:0:0:
109,192,99844,1,0,0:0:0:0:
256,192,99844,1,0,0:0:0:0:
182,192,99844,1,0,0:0:0:0:
475,192,99844,1,0,0:0:0:0:
329,192,99932,1,0,0:0:0:0:
402,192,99932,1,0,0:0:0:0:
109,192,100021,1,0,0:0:0:0:
182,192,100021,1,0,0:0:0:0:
36,192,100021,1,0,0:0:0:0:
475,192,100021,1,0,0:0:0:0:
256,192,100050,1,0,0:0:0:0:
329,192,100080,1,0,0:0:0:0:
402,192,100109,1,0,0:0:0:0:
182,192,100139,1,0,0:0:0:0:
256,192,100168,1,0,0:0:0:0:
329,192,100198,1,0,0:0:0:0:
402,192,100228,1,0,0:0:0:0:
182,192,100257,1,0,0:0:0:0:
256,192,100287,1,0,0:0:0:0:
329,192,100316,1,0,0:0:0:0:
402,192,100346,1,0,0:0:0:0:
475,192,100376,1,0,0:0:0:0:
109,192,100376,1,0,0:0:0:0:
36,192,100376,1,0,0:0:0:0:
182,192,100376,1,0,0:0:0:0:
256,192,100464,1,0,0:0:0:0:
109,192,100553,1,0,0:0:0:0:
182,192,100553,1,0,0:0:0:0:
402,192,100553,1,0,0:0:0:0:
329,192,100553,1,0,0:0:0:0:
109,192,100642,1,0,0:0:0:0:
402,192,100642,1,0,0:0:0:0:
256,192,100731,1,0,0:0:0:0:
475,192,100731,1,0,0:0:0:0:
36,192,100731,1,0,0:0:0:0:
329,192,100731,1,0,0:0:0:0:
109,192,100819,1,0,0:0:0:0:
182,192,100908,1,0,0:0:0:0:
402,192,100908,1,0,0:0:0:0:
475,192,100908,1,0,0:0:0:0:
329,192,100908,1,0,0:0:0:0:
475,192,100997,1,0,0:0:0:0:
182,192,100997,1,0,0:0:0:0:
36,192,101086,1,0,0:0:0:0:
256,192,101086,1,0,0:0:0:0:
329,192,101086,1,0,0:0:0:0:
402,192,101086,1,0,0:0:0:0:
109,192,101174,1,0,0:0:0:0:
182,192,101174,1,0,0:0:0:0:
402,192,101263,1,0,0:0:0:0:
475,192,101263,1,0,0:0:0:0:
329,192,101263,1,0,0:0:0:0:
36,192,101263,1,0,0:0:0:0:
256,192,101293,1,0,0:0:0:0:
182,192,101323,1,0,0:0:0:0:
329,192,101397,1,0,0:0:0:0:
256,192,101426,1,0,0:0:0:0:
182,192,101456,1,0,0:0:0:0:
329,192,101530,1,0,0:0:0:0:
256,192,101559,1,0,0:0:0:0:
182,192,101589,1,0,0:0:0:0:
109,192,101619,1,0,0:0:0:0:
475,192,101619,1,0,0:0:0:0:
402,192,101619,1,0,0:0:0:0:
36,192,101619,1,0,0:0:0:0:
256,192,101707,1,0,0:0:0:0:
109,192,101796,1,0,0:0:0:0:
329,192,101796,1,0,0:0:0:0:
402,192,101796,1,0,0:0:0:0:
36,192,101796,1,0,0:0:0:0:
109,192,101885,1,0,0:0:0:0:
329,192,101885,1,0,0:0:0:0:
256,192,101974,1,0,0:0:0:0:
182,192,101974,1,0,0:0:0:0:
36,192,101974,1,0,0:0:0:0:
475,192,101974,1,0,0:0:0:0:
329,192,102062,1,0,0:0:0:0:
475,192,102151,1,0,0:0:0:0:
402,192,102151,1,0,0:0:0:0:
36,192,102151,1,0,0:0:0:0:
256,192,102151,1,0,0:0:0:0:
475,192,102240,1,0,0:0:0:0:
402,192,102240,1,0,0:0:0:0:
109,192,102240,1,0,0:0:0:0:
182,192,102329,1,0,0:0:0:0:
256,192,102329,1,0,0:0:0:0:
329,192,102329,1,0,0:0:0:0:
109,192,102417,1,0,0:0:0:0:
36,192,102417,1,0,0:0:0:0:
182,192,102506,1,0,0:0:0:0:
109,192,102506,1,0,0:0:0:0:
36,192,102506,1,0,0:0:0:0:
475,192,102506,1,0,0:0:0:0:
402,192,102535,1,0,0:0:0:0:
329,192,102565,1,0,0:0:0:0:
256,192,102594,1,0,0:0:0:0:
475,192,102624,1,0,0:0:0:0:
402,192,102653,1,0,0:0:0:0:
329,192,102683,1,0,0:0:0:0:
256,192,102713,1,0,0:0:0:0:
475,192,102742,1,0,0:0:0:0:
402,192,102772,1,0,0:0:0:0:
329,192,102801,1,0,0:0:0:0:
256,192,102831,1,0,0:0:0:0:
475,192,102861,1,0,0:0:0:0:
182,192,102861,1,0,0:0:0:0:
109,192,102861,1,0,0:0:0:0:
36,192,102861,1,0,0:0:0:0:
329,192,102949,1,0,0:0:0:0:
402,192,103038,1,0,0:0:0:0:
256,192,103038,1,0,0:0:0:0:
36,192,103038,1,0,0:0:0:0:
109,192,103038,1,0,0:0:0:0:
109,192,103127,1,0,0:0:0:0:
256,192,103127,1,0,0:0:0:0:
402,192,103216,1,0,0:0:0:0:
182,192,103216,1,0,0:0:0:0:
329,192,103216,1,0,0:0:0:0:
475,192,103216,1,0,0:0:0:0:
109,192,103304,1,0,0:0:0:0:
182,192,103393,1,0,0:0:0:0:
475,192,103393,1,0,0:0:0:0:
329,192,103393,1,0,0:0:0:0:
36,192,103393,1,0,0:0:0:0:
329,192,103482,1,0,0:0:0:0:
182,192,103482,1,0,0:0:0:0:
475,192,103571,1,0,0:0:0:0:
36,192,103571,1,0,0:0:0:0:
109,192,103571,1,0,0:0:0:0:
402,192,103571,1,0,0:0:0:0:
182,192,103659,1,0,0:0:0:0:
256,192,103659,1,0,0:0:0:0:
402,192,103748,1,0,0:0:0:0:
329,192,103748,1,0,0:0:0:0:
475,192,103749,1,0,0:0:0:0:
36,192,103749,1,0,0:0:0:0:
109,192,103778,1,0,0:0:0:0:
182,192,103808,1,0,0:0:0:0:
256,192,103837,1,0,0:0:0:0:
36,192,103867,1,0,0:0:0:0:
109,192,103896,1,0,0:0:0:0:
182,192,103926,1,0,0:0:0:0:
256,192,103956,1,0,0:0:0:0:
36,192,103985,1,0,0:0:0:0:
109,192,104015,1,0,0:0:0:0:
182,192,104044,1,0,0:0:0:0:
256,192,104074,1,0,0:0:0:0:
36,192,104104,1,0,0:0:0:0:
329,192,104104,1,0,0:0:0:0:
475,192,104104,1,0,0:0:0:0:
402,192,104104,1,0,0:0:0:0:
109,192,104192,1,0,0:0:0:0:
182,192,104281,1,0,0:0:0:0:
475,192,104281,1,0,0:0:0:0:
329,192,104281,1,0,0:0:0:0:
402,192,104281,1,0,0:0:0:0:
182,192,104370,1,0,0:0:0:0:
329,192,104370,1,0,0:0:0:0:
475,192,104459,1,0,0:0:0:0:
109,192,104459,1,0,0:0:0:0:
36,192,104459,1,0,0:0:0:0:
256,192,104459,1,0,0:0:0:0:
182,192,104547,1,0,0:0:0:0:
329,192,104547,1,0,0:0:0:0:
36,192,104636,1,0,0:0:0:0:
256,192,104636,1,0,0:0:0:0:
475,192,104636,1,0,0:0:0:0:
402,192,104636,1,0,0:0:0:0:
256,192,104725,1,0,0:0:0:0:
402,192,104725,1,0,0:0:0:0:
475,192,104814,1,0,0:0:0:0:
182,192,104814,1,0,0:0:0:0:
109,192,104814,1,0,0:0:0:0:
329,192,104902,1,0,0:0:0:0:
402,192,104902,1,0,0:0:0:0:
36,192,104991,1,0,0:0:0:0:
109,192,104991,1,0,0:0:0:0:
182,192,104991,1,0,0:0:0:0:
475,192,104992,1,0,0:0:0:0:
256,192,105021,1,0,0:0:0:0:
329,192,105051,1,0,0:0:0:0:
402,192,105080,1,0,0:0:0:0:
182,192,105110,1,0,0:0:0:0:
256,192,105139,1,0,0:0:0:0:
329,192,105169,1,0,0:0:0:0:
402,192,105199,1,0,0:0:0:0:
182,192,105228,1,0,0:0:0:0:
256,192,105258,1,0,0:0:0:0:
329,192,105287,1,0,0:0:0:0:
402,192,105317,1,0,0:0:0:0:
475,192,105347,1,0,0:0:0:0:
109,192,105347,1,0,0:0:0:0:
36,192,105347,1,0,0:0:0:0:
182,192,105347,1,0,0:0:0:0:
256,192,105435,1,0,0:0:0:0:
36,192,105524,1,0,0:0:0:0:
109,192,105524,1,0,0:0:0:0:
402,192,105524,1,0,0:0:0:0:
329,192,105524,1,0,0:0:0:0:
402,192,105613,1,0,0:0:0:0:
109,192,105613,1,0,0:0:0:0:
182,192,105702,1,0,0:0:0:0:
475,192,105702,1,0,0:0:0:0:
36,192,105702,1,0,0:0:0:0:
256,192,105702,1,0,0:0:0:0:
402,192,105790,1,0,0:0:0:0:
109,192,105879,1,0,0:0:0:0:
182,192,105879,1,0,0:0:0:0:
475,192,105879,1,0,0:0:0:0:
329,192,105879,1,0,0:0:0:0:
182,192,105968,1,0,0:0:0:0:
329,192,105968,1,0,0:0:0:0:
402,192,106057,1,0,0:0:0:0:
256,192,106057,1,0,0:0:0:0:
36,192,106057,1,0,0:0:0:0:
475,192,106057,1,0,0:0:0:0:
109,192,106145,1,0,0:0:0:0:
182,192,106145,1,0,0:0:0:0:
402,192,106234,1,0,0:0:0:0:
329,192,106234,1,0,0:0:0:0:
475,192,106234,1,0,0:0:0:0:
36,192,106234,1,0,0:0:0:0:
256,192,106263,1,0,0:0:0:0:
182,192,106293,1,0,0:0:0:0:
329,192,106367,1,0,0:0:0:0:
256,192,106396,1,0,0:0:0:0:
182,192,106426,1,0,0:0:0:0:
329,192,106500,1,0,0:0:0:0:
256,192,106529,1,0,0:0:0:0:
182,192,106559,1,0,0:0:0:0:
36,192,106589,1,0,0:0:0:0:
402,192,106589,1,0,0:0:0:0:
475,192,106589,1,0,0:0:0:0:
109,192,106589,1,0,0:0:0:0:
256,192,106677,1,0,0:0:0:0:
475,192,106766,1,0,0:0:0:0:
182,192,106766,1,0,0:0:0:0:
36,192,106766,1,0,0:0:0:0:
329,192,106766,1,0,0:0:0:0:
475,192,106855,1,0,0:0:0:0:
36,192,106855,1,0,0:0:0:0:
182,192,106944,1,0,0:0:0:0:
109,192,106944,1,0,0:0:0:0:
402,192,106944,1,0,0:0:0:0:
329,192,106944,1,0,0:0:0:0:
256,192,107032,5,0,0:0:0:0:
329,192,107121,1,0,0:0:0:0:
109,192,107121,1,0,0:0:0:0:
36,192,107121,1,0,0:0:0:0:
182,192,107121,1,0,0:0:0:0:
475,192,107210,1,0,0:0:0:0:
402,192,107225,1,0,0:0:0:0:
329,192,107239,1,0,0:0:0:0:
256,192,107254,1,0,0:0:0:0:
182,192,107269,1,0,0:0:0:0:
36,192,107313,1,0,0:0:0:0:
329,192,107343,1,0,0:0:0:0:
109,192,107365,1,0,0:0:0:0:
402,192,107387,1,0,0:0:0:0:
182,192,107410,1,0,0:0:0:0:
475,192,107432,1,0,0:0:0:0:
36,192,107477,5,0,0:0:0:0:
109,192,107499,1,0,0:0:0:0:
256,192,107521,1,0,0:0:0:0:
402,192,107543,1,0,0:0:0:0:
475,192,107565,1,0,0:0:0:0:
36,192,107595,5,0,0:0:0:0:
109,192,107617,1,0,0:0:0:0:
256,192,107639,1,0,0:0:0:0:
402,192,107661,1,0,0:0:0:0:
475,192,107684,1,0,0:0:0:0:
36,192,107713,5,0,0:0:0:0:
109,192,107735,1,0,0:0:0:0:
256,192,107758,1,0,0:0:0:0:
402,192,107780,1,0,0:0:0:0:
475,192,107802,1,0,0:0:0:0:
36,192,107832,1,0,0:0:0:0:
109,192,107832,1,0,0:0:0:0:
182,192,107832,1,0,0:0:0:0:
36,192,107964,1,0,0:0:0:0:
402,192,107964,1,0,0:0:0:0:
329,192,107964,1,0,0:0:0:0:
182,192,107964,1,0,0:0:0:0:
475,192,107964,1,0,0:0:0:0:
109,192,108095,1,0,0:0:0:0:
36,192,108095,1,0,0:0:0:0:
475,192,108095,1,0,0:0:0:0:
256,192,108095,1,0,0:0:0:0:
402,192,108095,1,0,0:0:0:0:
182,192,108225,1,0,0:0:0:0:
109,192,108225,1,0,0:0:0:0:
475,192,108225,1,0,0:0:0:0:
36,192,108225,1,0,0:0:0:0:
329,192,108225,1,0,0:0:0:0:
109,192,108355,1,0,0:0:0:0:
182,192,108355,1,0,0:0:0:0:
256,192,108355,1,0,0:0:0:0:
329,192,108355,1,0,0:0:0:0:
402,192,108355,1,0,0:0:0:0:
256,192,108484,1,0,0:0:0:0:
109,192,108484,1,0,0:0:0:0:
36,192,108484,1,0,0:0:0:0:
402,192,108484,1,0,0:0:0:0:
475,192,108484,1,0,0:0:0:0:
329,192,108612,1,0,0:0:0:0:
36,192,108612,1,0,0:0:0:0:
182,192,108612,1,0,0:0:0:0:
475,192,108612,1,0,0:0:0:0:
109,192,108697,1,0,0:0:0:0:
36,192,108697,1,0,0:0:0:0:
475,192,108697,1,0,0:0:0:0:
402,192,108697,1,0,0:0:0:0:
256,192,108725,1,0,0:0:0:0:
329,192,108753,1,0,0:0:0:0:
182,192,108810,1,0,0:0:0:0:
329,192,108839,1,0,0:0:0:0:
402,192,108867,1,0,0:0:0:0:
256,192,108924,1,0,0:0:0:0:
402,192,108952,1,0,0:0:0:0:
475,192,108981,1,0,0:0:0:0:
109,192,109037,1,0,0:0:0:0:
36,192,109037,1,0,0:0:0:0:
182,192,109037,1,0,0:0:0:0:
256,192,109037,1,0,0:0:0:0:
36,192,109123,1,0,0:0:0:0:
109,192,109123,1,0,0:0:0:0:
182,192,109123,1,0,0:0:0:0:
475,192,109208,1,0,0:0:0:0:
402,192,109208,1,0,0:0:0:0:
329,192,109208,1,0,0:0:0:0:
329,192,109293,1,0,0:0:0:0:
402,192,109293,1,0,0:0:0:0:
475,192,109293,1,0,0:0:0:0:
256,192,109378,1,0,0:0:0:0:
109,192,109378,1,0,0:0:0:0:
329,192,109464,1,0,0:0:0:0:
182,192,109464,1,0,0:0:0:0:
402,192,109549,1,0,0:0:0:0:
475,192,109549,1,0,0:0:0:0:
256,192,109549,1,0,0:0:0:0:
36,192,109549,1,0,0:0:0:0:
475,192,109634,1,0,0:0:0:0:
402,192,109634,1,0,0:0:0:0:
256,192,109634,1,0,0:0:0:0:
109,192,109634,1,0,0:0:0:0:
329,192,109719,1,0,0:0:0:0:
182,192,109719,1,0,0:0:0:0:
256,192,109804,1,0,0:0:0:0:
109,192,109804,1,0,0:0:0:0:
36,192,109890,1,0,0:0:0:0:
402,192,109890,1,0,0:0:0:0:
182,192,109890,1,0,0:0:0:0:
475,192,109890,1,0,0:0:0:0:
329,192,109918,1,0,0:0:0:0:
256,192,109946,1,0,0:0:0:0:
402,192,110003,1,0,0:0:0:0:
329,192,110032,1,0,0:0:0:0:
256,192,110060,1,0,0:0:0:0:
402,192,110117,1,0,0:0:0:0:
329,192,110145,1,0,0:0:0:0:
256,192,110174,1,0,0:0:0:0:
182,192,110230,1,0,0:0:0:0:
36,192,110230,1,0,0:0:0:0:
475,192,110230,1,0,0:0:0:0:
402,192,110230,1,0,0:0:0:0:
402,192,110316,1,0,0:0:0:0:
475,192,110316,1,0,0:0:0:0:
182,192,110316,1,0,0:0:0:0:
329,192,110401,1,0,0:0:0:0:
109,192,110401,1,0,0:0:0:0:
36,192,110401,1,0,0:0:0:0:
329,192,110486,1,0,0:0:0:0:
109,192,110486,1,0,0:0:0:0:
36,192,110486,1,0,0:0:0:0:
256,192,110571,1,0,0:0:0:0:
402,192,110571,1,0,0:0:0:0:
475,192,110571,1,0,0:0:0:0:
329,192,110657,1,0,0:0:0:0:
182,192,110657,1,0,0:0:0:0:
109,192,110742,1,0,0:0:0:0:
36,192,110742,1,0,0:0:0:0:
256,192,110742,1,0,0:0:0:0:
475,192,110742,1,0,0:0:0:0:
36,192,110827,1,0,0:0:0:0:
109,192,110827,1,0,0:0:0:0:
256,192,110827,1,0,0:0:0:0:
402,192,110827,1,0,0:0:0:0:
329,192,110912,1,0,0:0:0:0:
182,192,110912,1,0,0:0:0:0:
256,192,110997,1,0,0:0:0:0:
402,192,110997,1,0,0:0:0:0:
36,192,111083,1,0,0:0:0:0:
109,192,111083,1,0,0:0:0:0:
475,192,111083,1,0,0:0:0:0:
329,192,111083,1,0,0:0:0:0:
182,192,111111,1,0,0:0:0:0:
256,192,111139,1,0,0:0:0:0:
109,192,111210,1,0,0:0:0:0:
182,192,111239,1,0,0:0:0:0:
256,192,111267,1,0,0:0:0:0:
109,192,111338,1,0,0:0:0:0:
182,192,111367,1,0,0:0:0:0:
256,192,111395,1,0,0:0:0:0:
36,192,111423,1,0,0:0:0:0:
475,192,111423,1,0,0:0:0:0:
109,192,111423,1,0,0:0:0:0:
329,192,111423,1,0,0:0:0:0:
329,192,111509,1,0,0:0:0:0:
475,192,111509,1,0,0:0:0:0:
109,192,111509,1,0,0:0:0:0:
182,192,111594,1,0,0:0:0:0:
36,192,111594,1,0,0:0:0:0:
402,192,111594,1,0,0:0:0:0:
36,192,111679,1,0,0:0:0:0:
182,192,111679,1,0,0:0:0:0:
402,192,111679,1,0,0:0:0:0:
109,192,111764,1,0,0:0:0:0:
256,192,111764,1,0,0:0:0:0:
475,192,111764,1,0,0:0:0:0:
182,192,111850,1,0,0:0:0:0:
329,192,111850,1,0,0:0:0:0:
109,192,111935,1,0,0:0:0:0:
36,192,111935,1,0,0:0:0:0:
402,192,111935,1,0,0:0:0:0:
256,192,111935,1,0,0:0:0:0:
109,192,112020,1,0,0:0:0:0:
402,192,112020,1,0,0:0:0:0:
36,192,112020,1,0,0:0:0:0:
256,192,112020,1,0,0:0:0:0:
182,192,112105,1,0,0:0:0:0:
475,192,112105,1,0,0:0:0:0:
182,192,112190,1,0,0:0:0:0:
475,192,112190,1,0,0:0:0:0:
329,192,112276,1,0,0:0:0:0:
36,192,112276,1,0,0:0:0:0:
109,192,112276,1,0,0:0:0:0:
402,192,112276,1,0,0:0:0:0:
256,192,112304,1,0,0:0:0:0:
475,192,112332,1,0,0:0:0:0:
36,192,112389,1,0,0:0:0:0:
256,192,112418,1,0,0:0:0:0:
475,192,112446,1,0,0:0:0:0:
36,192,112503,1,0,0:0:0:0:
256,192,112531,1,0,0:0:0:0:
475,192,112560,1,0,0:0:0:0:
109,192,112616,1,0,0:0:0:0:
329,192,112616,1,0,0:0:0:0:
182,192,112616,1,0,0:0:0:0:
402,192,112616,1,0,0:0:0:0:
329,192,112702,1,0,0:0:0:0:
182,192,112702,1,0,0:0:0:0:
109,192,112702,1,0,0:0:0:0:
256,192,112787,1,0,0:0:0:0:
402,192,112787,1,0,0:0:0:0:
36,192,112787,1,0,0:0:0:0:
256,192,112872,1,0,0:0:0:0:
402,192,112872,1,0,0:0:0:0:
36,192,112872,1,0,0:0:0:0:
182,192,112957,1,0,0:0:0:0:
329,192,112957,1,0,0:0:0:0:
475,192,112957,1,0,0:0:0:0:
256,192,113043,1,0,0:0:0:0:
109,192,113128,1,0,0:0:0:0:
36,192,113128,1,0,0:0:0:0:
182,192,113128,1,0,0:0:0:0:
402,192,113128,1,0,0:0:0:0:
109,192,113213,1,0,0:0:0:0:
36,192,113213,1,0,0:0:0:0:
329,192,113213,1,0,0:0:0:0:
182,192,113213,1,0,0:0:0:0:
475,192,113298,1,0,0:0:0:0:
402,192,113298,1,0,0:0:0:0:
182,192,113383,1,0,0:0:0:0:
256,192,113383,1,0,0:0:0:0:
109,192,113469,1,0,0:0:0:0:
36,192,113469,1,0,0:0:0:0:
402,192,113469,1,0,0:0:0:0:
475,192,113469,1,0,0:0:0:0:
329,192,113497,1,0,0:0:0:0:
182,192,113525,1,0,0:0:0:0:
402,192,113582,1,0,0:0:0:0:
329,192,113611,1,0,0:0:0:0:
182,192,113639,1,0,0:0:0:0:
402,192,113696,1,0,0:0:0:0:
329,192,113724,1,0,0:0:0:0:
182,192,113753,1,0,0:0:0:0:
36,192,113809,1,0,0:0:0:0:
256,192,113809,1,0,0:0:0:0:
402,192,113809,1,0,0:0:0:0:
475,192,113809,1,0,0:0:0:0:
256,192,113895,1,0,0:0:0:0:
475,192,113895,1,0,0:0:0:0:
402,192,113895,1,0,0:0:0:0:
329,192,113980,1,0,0:0:0:0:
109,192,113980,1,0,0:0:0:0:
36,192,113980,1,0,0:0:0:0:
109,192,114065,1,0,0:0:0:0:
329,192,114065,1,0,0:0:0:0:
36,192,114065,1,0,0:0:0:0:
256,192,114150,1,0,0:0:0:0:
182,192,114150,1,0,0:0:0:0:
402,192,114150,1,0,0:0:0:0:
475,192,114150,1,0,0:0:0:0:
36,192,114236,1,0,0:0:0:0:
109,192,114236,1,0,0:0:0:0:
475,192,114321,1,0,0:0:0:0:
182,192,114321,1,0,0:0:0:0:
329,192,114321,1,0,0:0:0:0:
256,192,114321,1,0,0:0:0:0:
329,192,114406,1,0,0:0:0:0:
109,192,114406,1,0,0:0:0:0:
256,192,114406,1,0,0:0:0:0:
475,192,114406,1,0,0:0:0:0:
36,192,114491,1,0,0:0:0:0:
402,192,114491,1,0,0:0:0:0:
256,192,114576,1,0,0:0:0:0:
329,192,114576,1,0,0:0:0:0:
402,192,114662,1,0,0:0:0:0:
475,192,114662,1,0,0:0:0:0:
109,192,114662,1,0,0:0:0:0:
36,192,114662,1,0,0:0:0:0:
182,192,114690,1,0,0:0:0:0:
329,192,114718,1,0,0:0:0:0:
109,192,114775,1,0,0:0:0:0:
182,192,114804,1,0,0:0:0:0:
329,192,114832,1,0,0:0:0:0:
109,192,114889,1,0,0:0:0:0:
182,192,114917,1,0,0:0:0:0:
329,192,114946,1,0,0:0:0:0:
475,192,115002,1,0,0:0:0:0:
256,192,115002,1,0,0:0:0:0:
109,192,115002,1,0,0:0:0:0:
36,192,115002,1,0,0:0:0:0:
256,192,115088,1,0,0:0:0:0:
36,192,115088,1,0,0:0:0:0:
109,192,115088,1,0,0:0:0:0:
182,192,115173,1,0,0:0:0:0:
402,192,115173,1,0,0:0:0:0:
329,192,115173,1,0,0:0:0:0:
475,192,115173,1,0,0:0:0:0:
402,192,115258,1,0,0:0:0:0:
182,192,115258,1,0,0:0:0:0:
475,192,115258,1,0,0:0:0:0:
256,192,115343,1,0,0:0:0:0:
329,192,115343,1,0,0:0:0:0:
109,192,115343,1,0,0:0:0:0:
36,192,115343,1,0,0:0:0:0:
475,192,115429,1,0,0:0:0:0:
402,192,115429,1,0,0:0:0:0:
329,192,115514,1,0,0:0:0:0:
36,192,115514,1,0,0:0:0:0:
182,192,115514,1,0,0:0:0:0:
256,192,115514,1,0,0:0:0:0:
256,192,115599,1,0,0:0:0:0:
402,192,115599,1,0,0:0:0:0:
182,192,115599,1,0,0:0:0:0:
36,192,115599,1,0,0:0:0:0:
109,192,115684,1,0,0:0:0:0:
475,192,115684,1,0,0:0:0:0:
256,192,115769,1,0,0:0:0:0:
329,192,115769,1,0,0:0:0:0:
402,192,115855,1,0,0:0:0:0:
475,192,115856,1,0,0:0:0:0:
109,192,115856,1,0,0:0:0:0:
36,192,115856,1,0,0:0:0:0:
256,192,115884,1,0,0:0:0:0:
182,192,115912,1,0,0:0:0:0:
329,192,115983,1,0,0:0:0:0:
182,192,116012,1,0,0:0:0:0:
109,192,116040,1,0,0:0:0:0:
256,192,116111,1,0,0:0:0:0:
109,192,116140,1,0,0:0:0:0:
36,192,116168,1,0,0:0:0:0:
329,192,116196,1,0,0:0:0:0:
402,192,116196,1,0,0:0:0:0:
475,192,116196,1,0,0:0:0:0:
182,192,116196,1,0,0:0:0:0:
475,192,116282,1,0,0:0:0:0:
402,192,116282,1,0,0:0:0:0:
329,192,116282,1,0,0:0:0:0:
36,192,116367,1,0,0:0:0:0:
109,192,116367,1,0,0:0:0:0:
182,192,116367,1,0,0:0:0:0:
109,192,116452,1,0,0:0:0:0:
36,192,116452,1,0,0:0:0:0:
182,192,116452,1,0,0:0:0:0:
256,192,116537,1,0,0:0:0:0:
402,192,116537,1,0,0:0:0:0:
182,192,116623,1,0,0:0:0:0:
329,192,116623,1,0,0:0:0:0:
256,192,116708,1,0,0:0:0:0:
109,192,116708,1,0,0:0:0:0:
36,192,116708,1,0,0:0:0:0:
475,192,116708,1,0,0:0:0:0:
182,192,116850,1,0,0:0:0:0:
329,192,116864,1,0,0:0:0:0:
109,192,116878,1,0,0:0:0:0:
256,192,116893,1,0,0:0:0:0:
402,192,116907,1,0,0:0:0:0:
36,192,116963,1,0,0:0:0:0:
109,192,116978,1,0,0:0:0:0:
182,192,116992,1,0,0:0:0:0:
256,192,117006,1,0,0:0:0:0:
329,192,117020,1,0,0:0:0:0:
402,192,117034,1,0,0:0:0:0:
475,192,117049,1,0,0:0:0:0:
36,192,117049,128,0,117134:0:0:0:0:
109,192,117134,128,0,117219:0:0:0:0:
182,192,117219,128,0,117304:0:0:0:0:
402,192,117219,1,0,0:0:0:0:
256,192,117304,128,0,117389:0:0:0:0:
329,192,117389,128,0,117475:0:0:0:0:
475,192,117389,1,0,0:0:0:0:
109,192,117389,1,0,0:0:0:0:
36,192,117389,1,0,0:0:0:0:
402,192,117475,128,0,117560:0:0:0:0:
475,192,117560,128,0,117645:0:0:0:0:
329,192,117645,128,0,117730:0:0:0:0:
36,192,117645,1,0,0:0:0:0:
109,192,117645,1,0,0:0:0:0:
182,192,117645,1,0,0:0:0:0:
256,192,117730,128,0,117816:0:0:0:0:
109,192,117816,128,0,117901:0:0:0:0:
36,192,117901,128,0,117986:0:0:0:0:
475,192,117901,1,0,0:0:0:0:
402,192,117901,1,0,0:0:0:0:
329,192,117986,128,0,118071:0:0:0:0:
182,192,117986,1,0,0:0:0:0:
256,192,118071,128,0,118156:0:0:0:0:
475,192,118071,1,0,0:0:0:0:
402,192,118071,1,0,0:0:0:0:
182,192,118156,128,0,118242:0:0:0:0:
329,192,118242,128,0,118327:0:0:0:0:
109,192,118242,1,0,0:0:0:0:
36,192,118242,1,0,0:0:0:0:
475,192,118242,1,0,0:0:0:0:
402,192,118327,128,0,118412:0:0:0:0:
256,192,118412,128,0,118497:0:0:0:0:
109,192,118412,1,0,0:0:0:0:
36,192,118412,1,0,0:0:0:0:
182,192,118497,128,0,118583:0:0:0:0:
109,192,118583,128,0,118668:0:0:0:0:
329,192,118583,1,0,0:0:0:0:
475,192,118583,1,0,0:0:0:0:
36,192,118668,128,0,118753:0:0:0:0:
256,192,118753,1,0,0:0:0:0:
402,192,118753,1,0,0:0:0:0:
109,192,118753,1,0,0:0:0:0:
182,192,118838,1,0,0:0:0:0:
36,192,118924,1,0,0:0:0:0:
475,192,118924,1,0,0:0:0:0:
329,192,118924,1,0,0:0:0:0:
109,192,119009,1,0,0:0:0:0:
36,192,119094,1,0,0:0:0:0:
402,192,119094,1,0,0:0:0:0:
182,192,119094,1,0,0:0:0:0:
256,192,119179,1,0,0:0:0:0:
182,192,119264,1,0,0:0:0:0:
329,192,119264,1,0,0:0:0:0:
475,192,119264,1,0,0:0:0:0:
109,192,119350,1,0,0:0:0:0:
256,192,119350,1,0,0:0:0:0:
36,192,119350,1,0,0:0:0:0:
402,192,119350,1,0,0:0:0:0:
329,192,119435,1,0,0:0:0:0:
402,192,119520,1,0,0:0:0:0:
475,192,119605,1,0,0:0:0:0:
182,192,119605,1,0,0:0:0:0:
109,192,119605,1,0,0:0:0:0:
256,192,119691,1,0,0:0:0:0:
329,192,119691,1,0,0:0:0:0:
36,192,119776,1,0,0:0:0:0:
402,192,119776,1,0,0:0:0:0:
109,192,119776,1,0,0:0:0:0:
256,192,119861,1,0,0:0:0:0:
182,192,119861,1,0,0:0:0:0:
402,192,119946,1,0,0:0:0:0:
475,192,119946,1,0,0:0:0:0:
109,192,119946,1,0,0:0:0:0:
329,192,119946,1,0,0:0:0:0:
256,192,120031,1,0,0:0:0:0:
36,192,120117,1,0,0:0:0:0:
475,192,120117,1,0,0:0:0:0:
182,192,120117,1,0,0:0:0:0:
402,192,120117,1,0,0:0:0:0:
329,192,120202,1,0,0:0:0:0:
256,192,120287,1,0,0:0:0:0:
475,192,120287,1,0,0:0:0:0:
182,192,120372,1,0,0:0:0:0:
329,192,120372,1,0,0:0:0:0:
109,192,120372,1,0,0:0:0:0:
36,192,120458,128,0,120543:0:0:0:0:
475,192,120458,1,0,0:0:0:0:
256,192,120458,1,0,0:0:0:0:
402,192,120458,1,0,0:0:0:0:
109,192,120543,128,0,120628:0:0:0:0:
329,192,120543,1,0,0:0:0:0:
182,192,120628,128,0,120713:0:0:0:0:
402,192,120713,128,0,120799:0:0:0:0:
256,192,120799,128,0,120884:0:0:0:0:
109,192,120799,1,0,0:0:0:0:
36,192,120799,1,0,0:0:0:0:
182,192,120884,1,0,0:0:0:0:
329,192,120884,128,0,120969:0:0:0:0:
475,192,120969,128,0,121054:0:0:0:0:
402,192,121054,128,0,121139:0:0:0:0:
36,192,121054,1,0,0:0:0:0:
109,192,121054,1,0,0:0:0:0:
256,192,121054,1,0,0:0:0:0:
182,192,121139,128,0,121225:0:0:0:0:
109,192,121225,128,0,121310:0:0:0:0:
36,192,121310,128,0,121395:0:0:0:0:
475,192,121310,1,0,0:0:0:0:
329,192,121310,1,0,0:0:0:0:
256,192,121395,128,0,121480:0:0:0:0:
402,192,121395,1,0,0:0:0:0:
182,192,121480,128,0,121566:0:0:0:0:
475,192,121480,1,0,0:0:0:0:
36,192,121480,1,0,0:0:0:0:
109,192,121566,128,0,121651:0:0:0:0:
329,192,121566,1,0,0:0:0:0:
256,192,121651,128,0,121736:0:0:0:0:
402,192,121651,1,0,0:0:0:0:
36,192,121651,1,0,0:0:0:0:
475,192,121651,1,0,0:0:0:0:
329,192,121736,128,0,121821:0:0:0:0:
402,192,121821,128,0,121906:0:0:0:0:
36,192,121821,1,0,0:0:0:0:
475,192,121821,1,0,0:0:0:0:
256,192,121906,128,0,121992:0:0:0:0:
109,192,121906,1,0,0:0:0:0:
182,192,121992,128,0,122077:0:0:0:0:
329,192,121992,1,0,0:0:0:0:
475,192,121992,1,0,0:0:0:0:
109,192,122077,128,0,122162:0:0:0:0:
329,192,122077,1,0,0:0:0:0:
36,192,122162,128,0,122333:0:0:0:0:
402,192,122162,1,0,0:0:0:0:
475,192,122162,1,0,0:0:0:0:
109,192,122247,128,0,122418:0:0:0:0:
256,192,122247,1,0,0:0:0:0:
182,192,122333,128,0,122503:0:0:0:0:
475,192,122333,1,0,0:0:0:0:
329,192,122333,1,0,0:0:0:0:
256,192,122418,128,0,122588:0:0:0:0:
402,192,122418,1,0,0:0:0:0:
329,192,122503,128,0,122674:0:0:0:0:
36,192,122503,1,0,0:0:0:0:
109,192,122503,1,0,0:0:0:0:
402,192,122588,128,0,122844:0:0:0:0:
182,192,122588,1,0,0:0:0:0:
475,192,122674,128,0,122759:0:0:0:0:
256,192,122674,1,0,0:0:0:0:
109,192,122674,1,0,0:0:0:0:
329,192,122759,128,0,122929:0:0:0:0:
182,192,122759,1,0,0:0:0:0:
36,192,122759,1,0,0:0:0:0:
256,192,122844,128,0,123014:0:0:0:0:
36,192,122887,1,0,0:0:0:0:
182,192,122929,128,0,123100:0:0:0:0:
109,192,123014,128,0,123270:0:0:0:0:
475,192,123014,1,0,0:0:0:0:
402,192,123014,1,0,0:0:0:0:
36,192,123100,128,0,123185:0:0:0:0:
256,192,123100,1,0,0:0:0:0:
182,192,123185,128,0,123355:0:0:0:0:
329,192,123185,1,0,0:0:0:0:
475,192,123185,1,0,0:0:0:0:
256,192,123270,128,0,123441:0:0:0:0:
402,192,123270,1,0,0:0:0:0:
329,192,123355,128,0,123526:0:0:0:0:
36,192,123355,1,0,0:0:0:0:
475,192,123355,1,0,0:0:0:0:
109,192,123355,1,0,0:0:0:0:
402,192,123441,128,0,123526:0:0:0:0:
256,192,123526,1,0,0:0:0:0:
475,192,123526,1,0,0:0:0:0:
182,192,123526,1,0,0:0:0:0:
36,192,123526,128,0,123583:0:0:0:0:
109,192,123583,128,0,123639:0:0:0:0:
182,192,123639,128,0,123696:0:0:0:0:
256,192,123696,1,0,0:0:0:0:
475,192,123696,128,0,123753:0:0:0:0:
402,192,123753,128,0,123810:0:0:0:0:
36,192,123753,1,0,0:0:0:0:
329,192,123810,128,0,123867:0:0:0:0:
109,192,123810,1,0,0:0:0:0:
182,192,123867,5,0,0:0:0:0:
475,192,123867,1,0,0:0:0:0:
402,192,123867,1,0,0:0:0:0:
36,192,123909,1,0,0:0:0:0:
256,192,123952,1,0,0:0:0:0:
109,192,123995,1,0,0:0:0:0:
329,192,124037,1,0,0:0:0:0:
182,192,124080,1,0,0:0:0:0:
402,192,124122,1,0,0:0:0:0:
256,192,124165,1,0,0:0:0:0:
109,192,124208,1,0,0:0:0:0:
475,192,124208,1,0,0:0:0:0:
36,192,124208,1,0,0:0:0:0:
329,192,124250,1,0,0:0:0:0:
182,192,124293,1,0,0:0:0:0:
402,192,124335,1,0,0:0:0:0:
256,192,124378,1,0,0:0:0:0:
475,192,124421,1,0,0:0:0:0:
329,192,124463,1,0,0:0:0:0:
109,192,124463,1,0,0:0:0:0:
36,192,124463,1,0,0:0:0:0:
182,192,124506,1,0,0:0:0:0:
402,192,124549,1,0,0:0:0:0:
256,192,124591,1,0,0:0:0:0:
36,192,124634,1,0,0:0:0:0:
182,192,124676,1,0,0:0:0:0:
329,192,124719,1,0,0:0:0:0:
475,192,124719,1,0,0:0:0:0:
109,192,124762,1,0,0:0:0:0:
256,192,124804,1,0,0:0:0:0:
402,192,124804,1,0,0:0:0:0:
36,192,124847,1,0,0:0:0:0:
182,192,124889,1,0,0:0:0:0:
475,192,124889,1,0,0:0:0:0:
329,192,124889,1,0,0:0:0:0:
109,192,124932,1,0,0:0:0:0:
256,192,124975,1,0,0:0:0:0:
182,192,125017,1,0,0:0:0:0:
402,192,125060,1,0,0:0:0:0:
475,192,125060,1,0,0:0:0:0:
36,192,125060,1,0,0:0:0:0:
329,192,125102,1,0,0:0:0:0:
109,192,125145,1,0,0:0:0:0:
182,192,125188,1,0,0:0:0:0:
475,192,125230,1,0,0:0:0:0:
36,192,125230,1,0,0:0:0:0:
329,192,125230,1,0,0:0:0:0:
256,192,125273,1,0,0:0:0:0:
402,192,125316,1,0,0:0:0:0:
329,192,125358,1,0,0:0:0:0:
182,192,125401,1,0,0:0:0:0:
256,192,125443,1,0,0:0:0:0:
109,192,125486,1,0,0:0:0:0:
182,192,125529,1,0,0:0:0:0:
36,192,125571,1,0,0:0:0:0:
475,192,125571,1,0,0:0:0:0:
402,192,125571,1,0,0:0:0:0:
256,192,125614,1,0,0:0:0:0:
109,192,125656,1,0,0:0:0:0:
329,192,125699,1,0,0:0:0:0:
182,192,125742,1,0,0:0:0:0:
402,192,125784,1,0,0:0:0:0:
256,192,125827,1,0,0:0:0:0:
109,192,125870,1,0,0:0:0:0:
329,192,125912,1,0,0:0:0:0:
475,192,125912,1,0,0:0:0:0:
36,192,125912,1,0,0:0:0:0:
182,192,125955,1,0,0:0:0:0:
402,192,125997,1,0,0:0:0:0:
256,192,126040,1,0,0:0:0:0:
475,192,126083,1,0,0:0:0:0:
329,192,126125,1,0,0:0:0:0:
402,192,126168,1,0,0:0:0:0:
109,192,126168,1,0,0:0:0:0:
36,192,126168,1,0,0:0:0:0:
256,192,126210,1,0,0:0:0:0:
329,192,126253,1,0,0:0:0:0:
182,192,126296,1,0,0:0:0:0:
256,192,126338,1,0,0:0:0:0:
109,192,126381,1,0,0:0:0:0:
182,192,126424,1,0,0:0:0:0:
475,192,126424,1,0,0:0:0:0:
402,192,126424,1,0,0:0:0:0:
36,192,126466,1,0,0:0:0:0:
256,192,126509,1,0,0:0:0:0:
109,192,126551,1,0,0:0:0:0:
329,192,126594,1,0,0:0:0:0:
475,192,126594,1,0,0:0:0:0:
36,192,126594,1,0,0:0:0:0:
182,192,126637,1,0,0:0:0:0:
402,192,126679,1,0,0:0:0:0:
256,192,126722,1,0,0:0:0:0:
475,192,126764,1,0,0:0:0:0:
36,192,126764,1,0,0:0:0:0:
109,192,126764,1,0,0:0:0:0:
329,192,126807,1,0,0:0:0:0:
182,192,126850,1,0,0:0:0:0:
109,192,126892,1,0,0:0:0:0:
256,192,126935,1,0,0:0:0:0:
475,192,126935,1,0,0:0:0:0:
36,192,126935,1,0,0:0:0:0:
402,192,126977,1,0,0:0:0:0:
182,192,127020,1,0,0:0:0:0:
329,192,127063,1,0,0:0:0:0:
109,192,127105,1,0,0:0:0:0:
256,192,127148,1,0,0:0:0:0:
402,192,127191,1,0,0:0:0:0:
329,192,127233,1,0,0:0:0:0:
109,192,127276,1,0,0:0:0:0:
475,192,127276,1,0,0:0:0:0:
256,192,127276,1,0,0:0:0:0:
36,192,127318,1,0,0:0:0:0:
182,192,127361,1,0,0:0:0:0:
402,192,127361,1,0,0:0:0:0:
109,192,127404,1,0,0:0:0:0:
256,192,127446,1,0,0:0:0:0:
182,192,127489,1,0,0:0:0:0:
329,192,127531,1,0,0:0:0:0:
256,192,127574,1,0,0:0:0:0:
402,192,127617,1,0,0:0:0:0:
109,192,127617,1,0,0:0:0:0:
36,192,127617,1,0,0:0:0:0:
329,192,127659,1,0,0:0:0:0:
475,192,127702,1,0,0:0:0:0:
182,192,127702,1,0,0:0:0:0:
402,192,127745,1,0,0:0:0:0:
256,192,127787,1,0,0:0:0:0:
182,192,127830,1,0,0:0:0:0:
329,192,127872,1,0,0:0:0:0:
109,192,127872,1,0,0:0:0:0:
36,192,127872,1,0,0:0:0:0:
475,192,127915,1,0,0:0:0:0:
256,192,127958,1,0,0:0:0:0:
402,192,128000,1,0,0:0:0:0:
182,192,128043,1,0,0:0:0:0:
329,192,128085,1,0,0:0:0:0:
109,192,128128,1,0,0:0:0:0:
475,192,128128,1,0,0:0:0:0:
256,192,128171,1,0,0:0:0:0:
36,192,128213,1,0,0:0:0:0:
329,192,128213,1,0,0:0:0:0:
182,192,128256,1,0,0:0:0:0:
475,192,128299,1,0,0:0:0:0:
402,192,128299,1,0,0:0:0:0:
256,192,128299,1,0,0:0:0:0:
109,192,128341,1,0,0:0:0:0:
329,192,128384,1,0,0:0:0:0:
182,192,128426,1,0,0:0:0:0:
402,192,128469,1,0,0:0:0:0:
36,192,128469,1,0,0:0:0:0:
109,192,128469,1,0,0:0:0:0:
475,192,128512,1,0,0:0:0:0:
329,192,128554,1,0,0:0:0:0:
402,192,128597,1,0,0:0:0:0:
256,192,128639,1,0,0:0:0:0:
475,192,128639,1,0,0:0:0:0:
36,192,128639,1,0,0:0:0:0:
329,192,128682,1,0,0:0:0:0:
182,192,128725,1,0,0:0:0:0:
256,192,128767,1,0,0:0:0:0:
109,192,128810,1,0,0:0:0:0:
182,192,128852,1,0,0:0:0:0:
36,192,128895,1,0,0:0:0:0:
109,192,128938,1,0,0:0:0:0:
475,192,128980,1,0,0:0:0:0:
329,192,128980,1,0,0:0:0:0:
402,192,128980,1,0,0:0:0:0:
256,192,129023,1,0,0:0:0:0:
36,192,129066,1,0,0:0:0:0:
182,192,129108,1,0,0:0:0:0:
329,192,129151,1,0,0:0:0:0:
109,192,129193,1,0,0:0:0:0:
256,192,129236,1,0,0:0:0:0:
182,192,129279,1,0,0:0:0:0:
402,192,129321,1,0,0:0:0:0:
475,192,129321,1,0,0:0:0:0:
36,192,129321,1,0,0:0:0:0:
256,192,129364,1,0,0:0:0:0:
329,192,129406,1,0,0:0:0:0:
109,192,129406,1,0,0:0:0:0:
182,192,129449,1,0,0:0:0:0:
475,192,129492,1,0,0:0:0:0:
329,192,129534,1,0,0:0:0:0:
402,192,129577,1,0,0:0:0:0:
109,192,129577,1,0,0:0:0:0:
36,192,129577,1,0,0:0:0:0:
256,192,129620,1,0,0:0:0:0:
475,192,129662,1,0,0:0:0:0:
182,192,129705,1,0,0:0:0:0:
329,192,129747,1,0,0:0:0:0:
256,192,129790,1,0,0:0:0:0:
402,192,129833,1,0,0:0:0:0:
36,192,129833,1,0,0:0:0:0:
475,192,129833,1,0,0:0:0:0:
109,192,129875,1,0,0:0:0:0:
256,192,129918,1,0,0:0:0:0:
182,192,129960,1,0,0:0:0:0:
402,192,130003,1,0,0:0:0:0:
475,192,130003,1,0,0:0:0:0:
36,192,130046,1,0,0:0:0:0:
182,192,130088,1,0,0:0:0:0:
329,192,130088,1,0,0:0:0:0:
109,192,130131,1,0,0:0:0:0:
256,192,130174,1,0,0:0:0:0:
475,192,130174,1,0,0:0:0:0:
402,192,130174,1,0,0:0:0:0:
182,192,130216,1,0,0:0:0:0:
329,192,130259,1,0,0:0:0:0:
256,192,130301,1,0,0:0:0:0:
36,192,130344,1,0,0:0:0:0:
109,192,130344,1,0,0:0:0:0:
182,192,130344,1,0,0:0:0:0:
475,192,130408,1,0,0:0:0:0:
402,192,130408,1,0,0:0:0:0:
329,192,130408,1,0,0:0:0:0:
36,192,130472,1,0,0:0:0:0:
109,192,130472,1,0,0:0:0:0:
182,192,130472,1,0,0:0:0:0:
475,192,130536,1,0,0:0:0:0:
402,192,130536,1,0,0:0:0:0:
329,192,130536,1,0,0:0:0:0:
36,192,130600,1,0,0:0:0:0:
109,192,130600,1,0,0:0:0:0:
182,192,130600,1,0,0:0:0:0:
475,192,130642,1,0,0:0:0:0:
402,192,130642,1,0,0:0:0:0:
329,192,130642,1,0,0:0:0:0:
109,192,130685,128,0,130770:0:0:0:0:
182,192,130685,128,0,130855:0:0:0:0:
36,192,130685,1,0,0:0:0:0:
402,192,130770,128,0,130855:0:0:0:0:
256,192,130770,128,0,130941:0:0:0:0:
475,192,130855,128,0,130941:0:0:0:0:
329,192,130941,128,0,131196:0:0:0:0:
182,192,130941,1,0,0:0:0:0:
36,192,130941,128,0,131111:0:0:0:0:
402,192,131026,128,0,131196:0:0:0:0:
109,192,131026,128,0,131111:0:0:0:0:
256,192,131026,1,0,0:0:0:0:
475,192,131111,128,0,131281:0:0:0:0:
182,192,131111,128,0,131281:0:0:0:0:
109,192,131196,128,0,131452:0:0:0:0:
256,192,131196,128,0,131537:0:0:0:0:
36,192,131196,1,0,0:0:0:0:
402,192,131281,128,0,131367:0:0:0:0:
329,192,131281,128,0,131452:0:0:0:0:
182,192,131367,128,0,131622:0:0:0:0:
475,192,131367,128,0,131537:0:0:0:0:
402,192,131452,128,0,131708:0:0:0:0:
36,192,131537,128,0,131793:0:0:0:0:
329,192,131537,128,0,131708:0:0:0:0:
109,192,131537,1,0,0:0:0:0:
475,192,131622,128,0,132049:0:0:0:0:
256,192,131622,128,0,131793:0:0:0:0:
182,192,131708,128,0,131878:0:0:0:0:
402,192,131793,128,0,131963:0:0:0:0:
109,192,131793,128,0,132049:0:0:0:0:
329,192,131793,1,0,0:0:0:0:
256,192,131878,128,0,132049:0:0:0:0:
36,192,131878,128,0,132304:0:0:0:0:
182,192,131963,128,0,132134:0:0:0:0:
329,192,131963,128,0,132219:0:0:0:0:
402,192,132049,128,0,132304:0:0:0:0:
109,192,132134,1,0,0:0:0:0:
256,192,132134,128,0,132304:0:0:0:0:
475,192,132134,128,0,132389:0:0:0:0:
182,192,132219,128,0,132389:0:0:0:0:
109,192,132304,128,0,132389:0:0:0:0:
329,192,132389,128,0,132560:0:0:0:0:
256,192,132389,1,0,0:0:0:0:
36,192,132389,1,0,0:0:0:0:
182,192,132475,128,0,132816:0:0:0:0:
402,192,132475,128,0,132645:0:0:0:0:
475,192,132560,128,0,132816:0:0:0:0:
109,192,132645,128,0,132901:0:0:0:0:
329,192,132645,1,0,0:0:0:0:
256,192,132645,1,0,0:0:0:0:
402,192,132730,128,0,132901:0:0:0:0:
36,192,132730,128,0,133156:0:0:0:0:
329,192,132816,128,0,132986:0:0:0:0:
182,192,132901,1,0,0:0:0:0:
475,192,132901,128,0,133156:0:0:0:0:
256,192,132901,1,0,0:0:0:0:
402,192,132986,128,0,133242:0:0:0:0:
109,192,132986,128,0,133242:0:0:0:0:
329,192,133071,128,0,133583:0:0:0:0:
182,192,133071,128,0,133156:0:0:0:0:
256,192,133156,128,0,133327:0:0:0:0:
182,192,133242,128,0,133412:0:0:0:0:
475,192,133242,1,0,0:0:0:0:
36,192,133242,1,0,0:0:0:0:
402,192,133327,128,0,133753:0:0:0:0:
109,192,133327,128,0,133412:0:0:0:0:
256,192,133412,128,0,133497:0:0:0:0:
182,192,133497,128,0,133668:0:0:0:0:
109,192,133497,1,0,0:0:0:0:
36,192,133497,1,0,0:0:0:0:
475,192,133583,128,0,133753:0:0:0:0:
256,192,133583,128,0,133924:0:0:0:0:
109,192,133668,128,0,133838:0:0:0:0:
329,192,133668,128,0,133838:0:0:0:0:
182,192,133753,128,0,134094:0:0:0:0:
402,192,133838,1,0,0:0:0:0:
36,192,133838,128,0,133924:0:0:0:0:
475,192,133838,1,0,0:0:0:0:
109,192,133924,128,0,134009:0:0:0:0:
329,192,133924,128,0,134094:0:0:0:0:
256,192,134009,128,0,134094:0:0:0:0:
402,192,134094,128,0,134435:0:0:0:0:
475,192,134094,1,0,0:0:0:0:
36,192,134094,128,0,134264:0:0:0:0:
329,192,134179,128,0,134350:0:0:0:0:
109,192,134179,128,0,134350:0:0:0:0:
182,192,134264,128,0,134520:0:0:0:0:
475,192,134350,128,0,134520:0:0:0:0:
36,192,134350,1,0,0:0:0:0:
256,192,134350,128,0,134691:0:0:0:0:
109,192,134435,128,0,134605:0:0:0:0:
329,192,134435,128,0,134605:0:0:0:0:
402,192,134520,128,0,134946:0:0:0:0:
36,192,134605,128,0,134691:0:0:0:0:
182,192,134605,1,0,0:0:0:0:
475,192,134605,128,0,134861:0:0:0:0:
109,192,134691,128,0,134861:0:0:0:0:
329,192,134691,128,0,134861:0:0:0:0:
36,192,134776,128,0,134946:0:0:0:0:
256,192,134776,128,0,135117:0:0:0:0:
182,192,134861,128,0,135031:0:0:0:0:
475,192,134946,128,0,135202:0:0:0:0:
329,192,134946,1,0,0:0:0:0:
109,192,134946,128,0,135287:0:0:0:0:
402,192,135031,128,0,135287:0:0:0:0:
36,192,135031,128,0,135202:0:0:0:0:
329,192,135117,128,0,135202:0:0:0:0:
182,192,135117,128,0,135458:0:0:0:0:
256,192,135202,128,0,135543:0:0:0:0:
36,192,135287,128,0,135458:0:0:0:0:
475,192,135287,1,0,0:0:0:0:
329,192,135287,128,0,135458:0:0:0:0:
109,192,135372,128,0,135543:0:0:0:0:
402,192,135372,128,0,135628:0:0:0:0:
475,192,135458,128,0,135543:0:0:0:0:
182,192,135543,128,0,135628:0:0:0:0:
36,192,135543,1,0,0:0:0:0:
329,192,135543,128,0,135713:0:0:0:0:
109,192,135628,128,0,135799:0:0:0:0:
256,192,135628,128,0,135799:0:0:0:0:
182,192,135713,128,0,135799:0:0:0:0:
475,192,135799,128,0,135884:0:0:0:0:
36,192,135799,128,0,135969:0:0:0:0:
329,192,135799,128,0,135969:0:0:0:0:
402,192,135884,128,0,136139:0:0:0:0:
256,192,135884,128,0,136225:0:0:0:0:
109,192,135969,128,0,136054:0:0:0:0:
36,192,136054,128,0,136225:0:0:0:0:
475,192,136054,128,0,136310:0:0:0:0:
329,192,136054,128,0,136395:0:0:0:0:
109,192,136139,128,0,136225:0:0:0:0:
182,192,136139,128,0,136225:0:0:0:0:
402,192,136225,128,0,136480:0:0:0:0:
109,192,136310,128,0,136395:0:0:0:0:
36,192,136310,128,0,136566:0:0:0:0:
256,192,136310,128,0,136566:0:0:0:0:
182,192,136395,128,0,136736:0:0:0:0:
475,192,136395,128,0,136566:0:0:0:0:
109,192,136480,128,0,136651:0:0:0:0:
329,192,136480,128,0,136566:0:0:0:0:
402,192,136566,128,0,136821:0:0:0:0:
475,192,136651,128,0,136821:0:0:0:0:
36,192,136651,128,0,136992:0:0:0:0:
256,192,136651,128,0,136821:0:0:0:0:
109,192,136736,128,0,136821:0:0:0:0:
329,192,136736,128,0,136906:0:0:0:0:
182,192,136821,128,0,137077:0:0:0:0:
475,192,136906,128,0,137162:0:0:0:0:
402,192,136906,128,0,136992:0:0:0:0:
256,192,136906,128,0,137247:0:0:0:0:
329,192,136992,128,0,137418:0:0:0:0:
109,192,136992,128,0,137162:0:0:0:0:
402,192,137077,128,0,137162:0:0:0:0:
36,192,137077,128,0,137162:0:0:0:0:
182,192,137162,128,0,137333:0:0:0:0:
36,192,137247,128,0,137503:0:0:0:0:
475,192,137247,128,0,137418:0:0:0:0:
109,192,137247,128,0,137503:0:0:0:0:
402,192,137333,128,0,137418:0:0:0:0:
256,192,137333,128,0,137503:0:0:0:0:
182,192,137418,128,0,137503:0:0:0:0:
475,192,137503,1,0,0:0:0:0:
402,192,137503,1,0,0:0:0:0:
329,192,137503,1,0,0:0:0:0:
36,192,137588,128,0,138185:0:0:0:0:
109,192,137674,128,0,138100:0:0:0:0:
182,192,137759,128,0,138014:0:0:0:0:
329,192,137844,128,0,138270:0:0:0:0:
402,192,137929,128,0,138441:0:0:0:0:
475,192,138014,128,0,138355:0:0:0:0:
256,192,138014,128,0,138355:0:0:0:0:
182,192,138100,128,0,138441:0:0:0:0:
109,192,138185,128,0,138696:0:0:0:0:
36,192,138270,128,0,138611:0:0:0:0:
329,192,138355,128,0,138526:0:0:0:0:
256,192,138441,128,0,139037:0:0:0:0:
182,192,138526,128,0,138781:0:0:0:0:
329,192,138611,128,0,139122:0:0:0:0:
402,192,138696,128,0,139208:0:0:0:0:
475,192,138781,128,0,139208:0:0:0:0:
182,192,138867,128,0,139122:0:0:0:0:
109,192,138952,128,0,139208:0:0:0:0:
36,192,139037,128,0,139208:0:0:0:0:
256,192,139122,128,0,139208:0:0:0:0:
182,192,139208,128,0,139463:0:0:0:0:
329,192,139293,128,0,139549:0:0:0:0:
36,192,139378,128,0,140230:0:0:0:0:
475,192,139463,128,0,140316:0:0:0:0:
109,192,139549,128,0,140060:0:0:0:0:
402,192,139634,128,0,140145:0:0:0:0:
182,192,139719,128,0,139889:0:0:0:0:
329,192,139804,128,0,139975:0:0:0:0:
256,192,139889,128,0,140401:0:0:0:0:
182,192,139975,128,0,140571:0:0:0:0:
329,192,140060,128,0,140486:0:0:0:0:
109,192,140145,128,0,140827:0:0:0:0:
402,192,140230,128,0,140656:0:0:0:0:
36,192,140316,128,0,140912:0:0:0:0:
475,192,140401,128,0,140912:0:0:0:0:
256,192,140486,128,0,140656:0:0:0:0:
329,192,140571,128,0,140742:0:0:0:0:
182,192,140656,128,0,140742:0:0:0:0:
402,192,140742,128,0,140827:0:0:0:0:
256,192,140827,128,0,140912:0:0:0:0:
182,192,140912,128,0,141338:0:0:0:0:
36,192,140997,128,0,141509:0:0:0:0:
109,192,141083,128,0,141424:0:0:0:0:
329,192,141168,128,0,141764:0:0:0:0:
475,192,141253,128,0,141594:0:0:0:0:
402,192,141338,128,0,141679:0:0:0:0:
256,192,141424,128,0,142105:0:0:0:0:
182,192,141509,128,0,142020:0:0:0:0:
109,192,141594,128,0,141935:0:0:0:0:
36,192,141679,128,0,141850:0:0:0:0:
475,192,141764,128,0,142361:0:0:0:0:
402,192,141850,128,0,142276:0:0:0:0:
329,192,141935,128,0,142191:0:0:0:0:
36,192,142020,128,0,142617:0:0:0:0:
109,192,142105,128,0,142531:0:0:0:0:
182,192,142191,128,0,142446:0:0:0:0:
256,192,142276,128,0,142361:0:0:0:0:
329,192,142361,128,0,142446:0:0:0:0:
256,192,142446,128,0,142531:0:0:0:0:
182,192,142531,128,0,142617:0:0:0:0:
109,192,142617,128,0,143213:0:0:0:0:
329,192,142702,128,0,143299:0:0:0:0:
182,192,142787,128,0,143043:0:0:0:0:
402,192,142872,128,0,143128:0:0:0:0:
256,192,142958,128,0,143469:0:0:0:0:
475,192,143043,128,0,143554:0:0:0:0:
182,192,143128,128,0,143554:0:0:0:0:
402,192,143213,128,0,143639:0:0:0:0:
109,192,143299,128,0,143639:0:0:0:0:
329,192,143384,128,0,143725:0:0:0:0:
36,192,143469,128,0,143725:0:0:0:0:
256,192,143554,128,0,143895:0:0:0:0:
475,192,143639,128,0,143810:0:0:0:0:
182,192,143639,128,0,143725:0:0:0:0:
402,192,143725,128,0,143895:0:0:0:0:
109,192,143725,128,0,143810:0:0:0:0:
329,192,143810,128,0,143980:0:0:0:0:
36,192,143810,128,0,143895:0:0:0:0:
182,192,143895,128,0,144066:0:0:0:0:
475,192,143895,128,0,143980:0:0:0:0:
109,192,143980,128,0,144066:0:0:0:0:
36,192,143980,128,0,144066:0:0:0:0:
256,192,143980,128,0,144151:0:0:0:0:
402,192,144066,128,0,144236:0:0:0:0:
475,192,144066,128,0,144236:0:0:0:0:
329,192,144066,128,0,144151:0:0:0:0:
36,192,144151,128,0,144236:0:0:0:0:
109,192,144151,128,0,144236:0:0:0:0:
182,192,144151,128,0,144236:0:0:0:0:
329,192,144236,128,0,144321:0:0:0:0:
256,192,144236,128,0,144321:0:0:0:0:
182,192,144321,1,0,0:0:0:0:
36,192,144321,128,0,144492:0:0:0:0:
109,192,144321,128,0,144406:0:0:0:0:
475,192,144321,128,0,144406:0:0:0:0:
402,192,144321,1,0,0:0:0:0:
329,192,144406,1,0,0:0:0:0:
256,192,144492,1,0,0:0:0:0:
182,192,144492,1,0,0:0:0:0:
36,192,144577,128,0,144747:0:0:0:0:
109,192,144577,128,0,144662:0:0:0:0:
402,192,144577,1,0,0:0:0:0:
475,192,144577,128,0,144662:0:0:0:0:
329,192,144577,1,0,0:0:0:0:
182,192,144662,1,0,0:0:0:0:
256,192,144747,1,0,0:0:0:0:
329,192,144747,1,0,0:0:0:0:
182,192,144833,128,0,144918:0:0:0:0:
109,192,144833,128,0,145003:0:0:0:0:
36,192,144833,128,0,145088:0:0:0:0:
402,192,144833,128,0,144918:0:0:0:0:
475,192,144833,128,0,145003:0:0:0:0:
329,192,144918,1,0,0:0:0:0:
256,192,145003,1,0,0:0:0:0:
182,192,145088,1,0,0:0:0:0:
329,192,145088,1,0,0:0:0:0:
109,192,145174,1,0,0:0:0:0:
402,192,145174,128,0,145259:0:0:0:0:
475,192,145174,128,0,145344:0:0:0:0:
36,192,145174,128,0,145259:0:0:0:0:
256,192,145174,1,0,0:0:0:0:
329,192,145259,1,0,0:0:0:0:
182,192,145344,1,0,0:0:0:0:
256,192,145344,1,0,0:0:0:0:
475,192,145429,128,0,145685:0:0:0:0:
402,192,145429,128,0,145600:0:0:0:0:
329,192,145429,128,0,145514:0:0:0:0:
109,192,145429,128,0,145514:0:0:0:0:
36,192,145429,128,0,145600:0:0:0:0:
182,192,145514,1,0,0:0:0:0:
256,192,145600,1,0,0:0:0:0:
109,192,145685,1,0,0:0:0:0:
36,192,145685,1,0,0:0:0:0:
182,192,145770,128,0,145855:0:0:0:0:
256,192,145770,128,0,145941:0:0:0:0:
329,192,145770,128,0,145855:0:0:0:0:
475,192,145770,1,0,0:0:0:0:
402,192,145770,1,0,0:0:0:0:
109,192,145855,1,0,0:0:0:0:
475,192,145941,1,0,0:0:0:0:
402,192,145941,1,0,0:0:0:0:
109,192,146026,1,0,0:0:0:0:
36,192,146026,1,0,0:0:0:0:
182,192,146026,128,0,146111:0:0:0:0:
256,192,146026,128,0,146196:0:0:0:0:
329,192,146026,128,0,146111:0:0:0:0:
402,192,146111,1,0,0:0:0:0:
475,192,146196,1,0,0:0:0:0:
36,192,146196,1,0,0:0:0:0:
256,192,146281,1,0,0:0:0:0:
182,192,146281,128,0,146367:0:0:0:0:
109,192,146281,128,0,146452:0:0:0:0:
329,192,146281,128,0,146367:0:0:0:0:
402,192,146281,128,0,146452:0:0:0:0:
475,192,146367,1,0,0:0:0:0:
256,192,146452,1,0,0:0:0:0:
182,192,146537,128,0,146793:0:0:0:0:
109,192,146537,128,0,146708:0:0:0:0:
36,192,146537,128,0,146622:0:0:0:0:
402,192,146537,128,0,146708:0:0:0:0:
329,192,146537,128,0,146793:0:0:0:0:
475,192,146537,128,0,146622:0:0:0:0:
256,192,146622,1,0,0:0:0:0:
36,192,146708,1,0,0:0:0:0:
475,192,146793,1,0,0:0:0:0:
402,192,146793,1,0,0:0:0:0:
109,192,146878,1,0,0:0:0:0:
182,192,146878,1,0,0:0:0:0:
256,192,146878,128,0,146963:0:0:0:0:
329,192,146878,128,0,147049:0:0:0:0:
36,192,146878,128,0,146963:0:0:0:0:
402,192,146963,1,0,0:0:0:0:
109,192,147049,1,0,0:0:0:0:
36,192,147049,1,0,0:0:0:0:
329,192,147134,1,0,0:0:0:0:
402,192,147134,1,0,0:0:0:0:
182,192,147134,128,0,147304:0:0:0:0:
256,192,147134,128,0,147219:0:0:0:0:
475,192,147134,128,0,147219:0:0:0:0:
109,192,147219,1,0,0:0:0:0:
475,192,147304,1,0,0:0:0:0:
402,192,147304,1,0,0:0:0:0:
329,192,147389,1,0,0:0:0:0:
182,192,147389,1,0,0:0:0:0:
36,192,147389,1,0,0:0:0:0:
256,192,147475,1,0,0:0:0:0:
402,192,147475,1,0,0:0:0:0:
475,192,147475,1,0,0:0:0:0:
475,192,147560,1,0,0:0:0:0:
329,192,147560,1,0,0:0:0:0:
182,192,147560,1,0,0:0:0:0:
402,192,147560,1,0,0:0:0:0:
256,192,147645,1,0,0:0:0:0:
109,192,147645,1,0,0:0:0:0:
36,192,147645,1,0,0:0:0:0:
36,192,147730,1,0,0:0:0:0:
109,192,147730,128,0,147816:0:0:0:0:
182,192,147730,128,0,147901:0:0:0:0:
329,192,147730,128,0,147816:0:0:0:0:
475,192,147730,1,0,0:0:0:0:
402,192,147816,1,0,0:0:0:0:
256,192,147901,1,0,0:0:0:0:
475,192,147901,1,0,0:0:0:0:
36,192,147986,1,0,0:0:0:0:
182,192,147986,128,0,148156:0:0:0:0:
109,192,147986,128,0,148071:0:0:0:0:
402,192,147986,1,0,0:0:0:0:
329,192,147986,128,0,148071:0:0:0:0:
256,192,148071,1,0,0:0:0:0:
402,192,148156,1,0,0:0:0:0:
475,192,148156,1,0,0:0:0:0:
36,192,148242,128,0,148327:0:0:0:0:
109,192,148242,128,0,148412:0:0:0:0:
182,192,148242,128,0,148497:0:0:0:0:
256,192,148242,128,0,148412:0:0:0:0:
329,192,148242,128,0,148327:0:0:0:0:
475,192,148327,1,0,0:0:0:0:
402,192,148412,1,0,0:0:0:0:
329,192,148497,1,0,0:0:0:0:
256,192,148497,1,0,0:0:0:0:
36,192,148583,128,0,148753:0:0:0:0:
109,192,148583,128,0,148668:0:0:0:0:
402,192,148583,128,0,148668:0:0:0:0:
475,192,148583,128,0,148753:0:0:0:0:
182,192,148583,1,0,0:0:0:0:
256,192,148668,1,0,0:0:0:0:
182,192,148753,1,0,0:0:0:0:
329,192,148753,1,0,0:0:0:0:
36,192,148838,128,0,148924:0:0:0:0:
109,192,148838,128,0,148924:0:0:0:0:
402,192,148838,128,0,148924:0:0:0:0:
475,192,148838,128,0,148924:0:0:0:0:
256,192,148838,1,0,0:0:0:0:
182,192,148924,1,0,0:0:0:0:
109,192,149009,128,0,149094:0:0:0:0:
36,192,149009,128,0,149094:0:0:0:0:
329,192,149009,128,0,149094:0:0:0:0:
475,192,149009,128,0,149094:0:0:0:0:
256,192,149009,1,0,0:0:0:0:
402,192,149094,1,0,0:0:0:0:
256,192,149179,1,0,0:0:0:0:
36,192,149179,128,0,149350:0:0:0:0:
182,192,149179,128,0,149264:0:0:0:0:
329,192,149179,128,0,149264:0:0:0:0:
475,192,149179,128,0,149350:0:0:0:0:
402,192,149264,1,0,0:0:0:0:
256,192,149350,1,0,0:0:0:0:
109,192,149350,1,0,0:0:0:0:
475,192,149435,1,0,0:0:0:0:
402,192,149435,128,0,149520:0:0:0:0:
329,192,149435,128,0,149605:0:0:0:0:
182,192,149435,128,0,149520:0:0:0:0:
36,192,149435,1,0,0:0:0:0:
109,192,149520,1,0,0:0:0:0:
256,192,149605,1,0,0:0:0:0:
36,192,149605,1,0,0:0:0:0:
475,192,149691,1,0,0:0:0:0:
329,192,149691,128,0,149861:0:0:0:0:
402,192,149691,128,0,149776:0:0:0:0:
109,192,149691,1,0,0:0:0:0:
182,192,149691,128,0,149776:0:0:0:0:
256,192,149776,1,0,0:0:0:0:
109,192,149861,1,0,0:0:0:0:
36,192,149861,1,0,0:0:0:0:
475,192,149946,128,0,150031:0:0:0:0:
402,192,149946,128,0,150117:0:0:0:0:
329,192,149946,128,0,150202:0:0:0:0:
256,192,149946,128,0,150117:0:0:0:0:
182,192,149946,128,0,150031:0:0:0:0:
36,192,150031,1,0,0:0:0:0:
182,192,150117,1,0,0:0:0:0:
109,192,150202,1,0,0:0:0:0:
402,192,150202,1,0,0:0:0:0:
256,192,150287,128,0,150458:0:0:0:0:
182,192,150287,128,0,150372:0:0:0:0:
329,192,150287,128,0,150372:0:0:0:0:
475,192,150287,1,0,0:0:0:0:
36,192,150287,1,0,0:0:0:0:
402,192,150372,1,0,0:0:0:0:
109,192,150458,1,0,0:0:0:0:
36,192,150458,1,0,0:0:0:0:
182,192,150543,1,0,0:0:0:0:
329,192,150543,1,0,0:0:0:0:
402,192,150543,1,0,0:0:0:0:
475,192,150543,1,0,0:0:0:0:
256,192,150543,1,0,0:0:0:0:
109,192,150628,1,0,0:0:0:0:
36,192,150713,1,0,0:0:0:0:
182,192,150713,1,0,0:0:0:0:
256,192,150713,1,0,0:0:0:0:
475,192,150713,1,0,0:0:0:0:
402,192,150713,1,0,0:0:0:0:
329,192,150799,1,0,0:0:0:0:
109,192,150884,1,0,0:0:0:0:
36,192,150884,1,0,0:0:0:0:
256,192,150884,1,0,0:0:0:0:
109,192,150969,1,0,0:0:0:0:
36,192,150969,1,0,0:0:0:0:
182,192,150969,1,0,0:0:0:0:
329,192,150969,1,0,0:0:0:0:
475,192,151054,1,0,0:0:0:0:
402,192,151054,1,0,0:0:0:0:
256,192,151054,1,0,0:0:0:0:
329,192,151139,1,0,0:0:0:0:
402,192,151139,1,0,0:0:0:0:
475,192,151139,1,0,0:0:0:0:
182,192,151139,1,0,0:0:0:0:
109,192,151139,1,0,0:0:0:0:
36,192,151139,1,0,0:0:0:0:
36,192,153658,1,0,0:0:0:0:
329,192,153806,1,0,0:0:0:0:
182,192,153881,1,0,0:0:0:0:
329,192,153955,1,0,0:0:0:0:
182,192,154030,1,0,0:0:0:0:
36,192,154104,1,0,0:0:0:0:
329,192,154253,1,0,0:0:0:0:
182,192,154327,1,0,0:0:0:0:
329,192,154402,1,0,0:0:0:0:
182,192,154476,1,0,0:0:0:0:
329,192,154551,1,0,0:0:0:0:
182,192,154625,1,0,0:0:0:0:
36,192,154700,1,0,0:0:0:0:
36,192,154849,1,0,0:0:0:0:
329,192,154997,1,0,0:0:0:0:
182,192,155072,1,0,0:0:0:0:
329,192,155146,1,0,0:0:0:0:
182,192,155221,1,0,0:0:0:0:
36,192,155295,1,0,0:0:0:0:
329,192,155444,1,0,0:0:0:0:
182,192,155519,1,0,0:0:0:0:
329,192,155593,1,0,0:0:0:0:
182,192,155667,1,0,0:0:0:0:
329,192,155742,1,0,0:0:0:0:
182,192,155816,1,0,0:0:0:0:
36,192,155891,1,0,0:0:0:0:
182,192,156040,128,0,156183:0:0:0:0:
475,192,156183,128,0,156255:0:0:0:0:
329,192,156255,128,0,156327:0:0:0:0:
475,192,156327,128,0,156398:0:0:0:0:
329,192,156398,128,0,156470:0:0:0:0:
182,192,156470,128,0,156614:0:0:0:0:
475,192,156614,128,0,156685:0:0:0:0:
329,192,156685,128,0,156757:0:0:0:0:
475,192,156757,128,0,156829:0:0:0:0:
329,192,156829,128,0,156901:0:0:0:0:
475,192,156901,128,0,156973:0:0:0:0:
329,192,156973,128,0,157044:0:0:0:0:
182,192,157044,128,0,157188:0:0:0:0:
36,192,157188,1,0,0:0:0:0:
329,192,157331,1,0,0:0:0:0:
182,192,157403,1,0,0:0:0:0:
329,192,157475,1,0,0:0:0:0:
182,192,157547,1,0,0:0:0:0:
36,192,157618,1,0,0:0:0:0:
329,192,157762,1,0,0:0:0:0:
182,192,157834,1,0,0:0:0:0:
329,192,157906,1,0,0:0:0:0:
182,192,157977,1,0,0:0:0:0:
329,192,158049,1,0,0:0:0:0:
182,192,158121,1,0,0:0:0:0:
36,192,158193,1,0,0:0:0:0:
182,192,158336,128,0,158477:0:0:0:0:
475,192,158477,128,0,158548:0:0:0:0:
329,192,158548,128,0,158619:0:0:0:0:
475,192,158619,128,0,158689:0:0:0:0:
329,192,158689,128,0,158760:0:0:0:0:
182,192,158760,128,0,158902:0:0:0:0:
475,192,158902,128,0,158972:0:0:0:0:
329,192,158972,128,0,159043:0:0:0:0:
475,192,159043,128,0,159114:0:0:0:0:
329,192,159114,128,0,159185:0:0:0:0:
475,192,159185,128,0,159255:0:0:0:0:
329,192,159255,128,0,159326:0:0:0:0:
182,192,159326,128,0,159468:0:0:0:0:
36,192,159468,1,0,0:0:0:0:
329,192,159609,1,0,0:0:0:0:
182,192,159680,1,0,0:0:0:0:
329,192,159751,1,0,0:0:0:0:
182,192,159821,1,0,0:0:0:0:
36,192,159892,1,0,0:0:0:0:
329,192,160034,1,0,0:0:0:0:
182,192,160104,1,0,0:0:0:0:
329,192,160175,1,0,0:0:0:0:
182,192,160246,1,0,0:0:0:0:
36,192,160317,1,0,0:0:0:0:
36,192,160458,1,0,0:0:0:0:
256,192,160458,128,0,168524:0:0:0:0:
329,192,160600,128,0,160741:0:0:0:0:
36,192,160741,128,0,160812:0:0:0:0:
182,192,160812,128,0,160883:0:0:0:0:
36,192,160883,128,0,160953:0:0:0:0:
182,192,160953,128,0,161024:0:0:0:0:
329,192,161024,128,0,161166:0:0:0:0:
36,192,161166,128,0,161236:0:0:0:0:
182,192,161236,128,0,161307:0:0:0:0:
36,192,161307,128,0,161378:0:0:0:0:
182,192,161378,128,0,161449:0:0:0:0:
36,192,161449,128,0,161519:0:0:0:0:
182,192,161519,128,0,161590:0:0:0:0:
329,192,161590,128,0,161732:0:0:0:0:
475,192,161732,1,0,0:0:0:0:
182,192,161873,1,0,0:0:0:0:
329,192,161944,1,0,0:0:0:0:
182,192,162015,1,0,0:0:0:0:
329,192,162086,1,0,0:0:0:0:
475,192,162156,1,0,0:0:0:0:
182,192,162298,1,0,0:0:0:0:
329,192,162369,1,0,0:0:0:0:
182,192,162439,1,0,0:0:0:0:
329,192,162510,1,0,0:0:0:0:
475,192,162581,1,0,0:0:0:0:
475,192,162722,1,0,0:0:0:0:
329,192,162864,128,0,163005:0:0:0:0:
36,192,163005,128,0,163076:0:0:0:0:
182,192,163076,128,0,163147:0:0:0:0:
36,192,163147,128,0,163218:0:0:0:0:
182,192,163218,128,0,163288:0:0:0:0:
329,192,163288,128,0,163430:0:0:0:0:
36,192,163430,128,0,163501:0:0:0:0:
182,192,163501,128,0,163571:0:0:0:0:
36,192,163571,128,0,163642:0:0:0:0:
182,192,163642,128,0,163713:0:0:0:0:
36,192,163713,128,0,163784:0:0:0:0:
182,192,163784,128,0,163854:0:0:0:0:
329,192,163854,128,0,163996:0:0:0:0:
475,192,163996,1,0,0:0:0:0:
182,192,164137,1,0,0:0:0:0:
329,192,164208,1,0,0:0:0:0:
182,192,164279,1,0,0:0:0:0:
329,192,164350,1,0,0:0:0:0:
475,192,164420,1,0,0:0:0:0:
182,192,164562,1,0,0:0:0:0:
329,192,164633,1,0,0:0:0:0:
182,192,164703,1,0,0:0:0:0:
329,192,164774,1,0,0:0:0:0:
475,192,164845,1,0,0:0:0:0:
475,192,164986,1,0,0:0:0:0:
402,192,164986,128,0,168524:0:0:0:0:
109,192,164986,128,0,168524:0:0:0:0:
182,192,165128,128,0,165269:0:0:0:0:
475,192,165269,128,0,165340:0:0:0:0:
329,192,165340,128,0,165411:0:0:0:0:
475,192,165411,128,0,165482:0:0:0:0:
329,192,165482,128,0,165552:0:0:0:0:
182,192,165552,128,0,165694:0:0:0:0:
475,192,165694,128,0,165765:0:0:0:0:
329,192,165765,128,0,165836:0:0:0:0:
475,192,165836,128,0,165906:0:0:0:0:
329,192,165906,128,0,165977:0:0:0:0:
182,192,165977,128,0,166119:0:0:0:0:
475,192,166119,128,0,166189:0:0:0:0:
329,192,166189,128,0,166260:0:0:0:0:
36,192,166260,1,0,0:0:0:0:
329,192,166402,1,0,0:0:0:0:
182,192,166472,1,0,0:0:0:0:
329,192,166543,1,0,0:0:0:0:
182,192,166614,1,0,0:0:0:0:
36,192,166685,1,0,0:0:0:0:
329,192,166826,1,0,0:0:0:0:
182,192,166897,1,0,0:0:0:0:
329,192,166968,1,0,0:0:0:0:
182,192,167038,1,0,0:0:0:0:
36,192,167109,128,0,168524:0:0:0:0:
329,192,167251,1,0,0:0:0:0:
182,192,167321,1,0,0:0:0:0:
329,192,167392,128,0,167463:0:0:0:0:
182,192,167463,128,0,167604:0:0:0:0:
475,192,167604,128,0,167675:0:0:0:0:
329,192,167675,128,0,167746:0:0:0:0:
475,192,167746,128,0,167817:0:0:0:0:
182,192,167817,128,0,167958:0:0:0:0:
329,192,167958,128,0,168029:0:0:0:0:
475,192,168029,128,0,168100:0:0:0:0:
329,192,168100,128,0,168170:0:0:0:0:
182,192,168170,128,0,168524:0:0:0:0:
475,192,168312,128,0,168383:0:0:0:0:
329,192,168383,128,0,168524:0:0:0:0:
475,192,168453,128,0,168524:0:0:0:0:
475,192,170364,1,0,0:0:0:0:
402,192,170364,1,0,0:0:0:0:
256,192,170364,1,0,0:0:0:0:
109,192,170505,1,0,0:0:0:0:
256,192,170505,1,0,0:0:0:0:
402,192,170505,1,0,0:0:0:0:
109,192,170647,1,0,0:0:0:0:
36,192,170647,1,0,0:0:0:0:
256,192,170647,1,0,0:0:0:0:
256,192,170718,1,0,0:0:0:0:
182,192,170788,128,0,171001:0:0:0:0:
109,192,170788,128,0,171001:0:0:0:0:
36,192,170788,128,0,171001:0:0:0:0:
329,192,170788,128,0,171001:0:0:0:0:
402,192,170788,128,0,171001:0:0:0:0:
475,192,170788,128,0,171001:0:0:0:0:
329,192,171071,128,0,171284:0:0:0:0:
402,192,171071,128,0,171284:0:0:0:0:
475,192,171071,128,0,171284:0:0:0:0:
182,192,171071,128,0,171284:0:0:0:0:
109,192,171071,128,0,171284:0:0:0:0:
36,192,171071,128,0,171284:0:0:0:0:
256,192,171354,1,0,0:0:0:0:
475,192,171354,1,0,0:0:0:0:
109,192,171425,1,0,0:0:0:0:
182,192,171496,1,0,0:0:0:0:
402,192,171496,1,0,0:0:0:0:
36,192,171567,1,0,0:0:0:0:
256,192,171567,1,0,0:0:0:0:
182,192,171637,1,0,0:0:0:0:
402,192,171637,1,0,0:0:0:0:
329,192,171708,1,0,0:0:0:0:
256,192,171779,1,0,0:0:0:0:
475,192,171779,1,0,0:0:0:0:
109,192,171850,1,0,0:0:0:0:
329,192,171850,1,0,0:0:0:0:
402,192,171920,1,0,0:0:0:0:
475,192,171920,1,0,0:0:0:0:
402,192,172015,1,0,0:0:0:0:
109,192,172015,1,0,0:0:0:0:
36,192,172109,1,0,0:0:0:0:
109,192,172109,1,0,0:0:0:0:
329,192,172203,1,0,0:0:0:0:
402,192,172203,1,0,0:0:0:0:
329,192,172298,1,0,0:0:0:0:
182,192,172298,1,0,0:0:0:0:
182,192,172392,1,0,0:0:0:0:
109,192,172392,1,0,0:0:0:0:
329,192,172486,1,0,0:0:0:0:
256,192,172522,1,0,0:0:0:0:
182,192,172557,1,0,0:0:0:0:
329,192,172675,1,0,0:0:0:0:
36,192,172675,1,0,0:0:0:0:
109,192,172722,1,0,0:0:0:0:
402,192,172722,1,0,0:0:0:0:
182,192,172769,1,0,0:0:0:0:
475,192,172769,1,0,0:0:0:0:
329,192,172864,1,0,0:0:0:0:
256,192,172911,1,0,0:0:0:0:
182,192,172958,1,0,0:0:0:0:
109,192,173005,1,0,0:0:0:0:
36,192,173052,128,0,173265:0:0:0:0:
256,192,173052,128,0,173265:0:0:0:0:
402,192,173052,128,0,173265:0:0:0:0:
475,192,173052,128,0,173265:0:0:0:0:
182,192,173052,128,0,173265:0:0:0:0:
329,192,173052,128,0,173265:0:0:0:0:
329,192,173335,128,0,173548:0:0:0:0:
182,192,173335,128,0,173548:0:0:0:0:
256,192,173335,128,0,173548:0:0:0:0:
402,192,173335,128,0,173548:0:0:0:0:
475,192,173335,128,0,173548:0:0:0:0:
36,192,173335,128,0,173548:0:0:0:0:
109,192,173619,1,0,0:0:0:0:
182,192,173642,1,0,0:0:0:0:
256,192,173666,1,0,0:0:0:0:
402,192,173760,1,0,0:0:0:0:
329,192,173784,1,0,0:0:0:0:
182,192,173831,1,0,0:0:0:0:
36,192,173831,1,0,0:0:0:0:
475,192,173884,1,0,0:0:0:0:
36,192,173937,1,0,0:0:0:0:
475,192,173990,1,0,0:0:0:0:
256,192,173990,1,0,0:0:0:0:
109,192,174043,1,0,0:0:0:0:
182,192,174043,1,0,0:0:0:0:
329,192,174102,1,0,0:0:0:0:
182,192,174161,1,0,0:0:0:0:
402,192,174220,1,0,0:0:0:0:
329,192,174220,1,0,0:0:0:0:
36,192,174279,1,0,0:0:0:0:
182,192,174302,1,0,0:0:0:0:
475,192,174326,1,0,0:0:0:0:
402,192,174373,1,0,0:0:0:0:
329,192,174420,1,0,0:0:0:0:
36,192,174444,1,0,0:0:0:0:
109,192,174491,1,0,0:0:0:0:
182,192,174538,1,0,0:0:0:0:
256,192,174585,1,0,0:0:0:0:
402,192,174609,1,0,0:0:0:0:
475,192,174609,1,0,0:0:0:0:
109,192,174656,1,0,0:0:0:0:
36,192,174656,1,0,0:0:0:0:
256,192,174727,1,0,0:0:0:0:
329,192,174762,1,0,0:0:0:0:
182,192,174798,1,0,0:0:0:0:
109,192,174821,1,0,0:0:0:0:
36,192,174845,1,0,0:0:0:0:
256,192,174892,1,0,0:0:0:0:
182,192,174927,1,0,0:0:0:0:
329,192,174963,1,0,0:0:0:0:
402,192,174986,1,0,0:0:0:0:
475,192,175010,1,0,0:0:0:0:
36,192,175057,1,0,0:0:0:0:
109,192,175104,1,0,0:0:0:0:
182,192,175152,1,0,0:0:0:0:
256,192,175199,1,0,0:0:0:0:
329,192,175246,1,0,0:0:0:0:
402,192,175281,1,0,0:0:0:0:
329,192,175317,128,0,175529:0:0:0:0:
256,192,175317,128,0,175529:0:0:0:0:
182,192,175317,128,0,175529:0:0:0:0:
36,192,175317,128,0,175529:0:0:0:0:
109,192,175317,128,0,175529:0:0:0:0:
475,192,175317,128,0,175529:0:0:0:0:
475,192,175600,128,0,175812:0:0:0:0:
329,192,175600,128,0,175812:0:0:0:0:
256,192,175600,128,0,175812:0:0:0:0:
182,192,175600,128,0,175812:0:0:0:0:
109,192,175600,128,0,175812:0:0:0:0:
36,192,175600,128,0,175812:0:0:0:0:
329,192,175883,1,0,0:0:0:0:
402,192,175897,1,0,0:0:0:0:
475,192,175911,1,0,0:0:0:0:
256,192,175996,1,0,0:0:0:0:
329,192,176010,1,0,0:0:0:0:
402,192,176024,1,0,0:0:0:0:
182,192,176109,1,0,0:0:0:0:
256,192,176123,1,0,0:0:0:0:
329,192,176137,1,0,0:0:0:0:
182,192,176222,1,0,0:0:0:0:
109,192,176236,1,0,0:0:0:0:
36,192,176251,1,0,0:0:0:0:
256,192,176336,1,0,0:0:0:0:
182,192,176350,1,0,0:0:0:0:
109,192,176364,1,0,0:0:0:0:
329,192,176449,1,0,0:0:0:0:
182,192,176496,1,0,0:0:0:0:
329,192,176543,1,0,0:0:0:0:
182,192,176590,1,0,0:0:0:0:
329,192,176637,1,0,0:0:0:0:
182,192,176685,1,0,0:0:0:0:
402,192,176732,1,0,0:0:0:0:
256,192,176779,1,0,0:0:0:0:
402,192,176826,1,0,0:0:0:0:
182,192,176826,1,0,0:0:0:0:
109,192,176873,1,0,0:0:0:0:
256,192,176920,1,0,0:0:0:0:
329,192,176968,1,0,0:0:0:0:
109,192,176968,1,0,0:0:0:0:
402,192,177015,1,0,0:0:0:0:
182,192,177085,1,0,0:0:0:0:
109,192,177121,1,0,0:0:0:0:
36,192,177156,1,0,0:0:0:0:
329,192,177227,1,0,0:0:0:0:
256,192,177262,1,0,0:0:0:0:
182,192,177298,1,0,0:0:0:0:
475,192,177369,1,0,0:0:0:0:
402,192,177404,1,0,0:0:0:0:
182,192,177439,1,0,0:0:0:0:
329,192,177439,1,0,0:0:0:0:
182,192,177510,1,0,0:0:0:0:
329,192,177510,1,0,0:0:0:0:
402,192,177581,128,0,177793:0:0:0:0:
475,192,177581,128,0,177793:0:0:0:0:
256,192,177581,128,0,177793:0:0:0:0:
109,192,177581,128,0,177793:0:0:0:0:
36,192,177581,128,0,177793:0:0:0:0:
182,192,177722,1,0,0:0:0:0:
256,192,177864,128,0,178076:0:0:0:0:
36,192,177864,128,0,178076:0:0:0:0:
109,192,177864,128,0,178076:0:0:0:0:
475,192,177864,128,0,178076:0:0:0:0:
402,192,177864,128,0,178076:0:0:0:0:
329,192,177935,1,0,0:0:0:0:
329,192,178076,1,0,0:0:0:0:
475,192,178147,128,0,178359:0:0:0:0:
402,192,178147,128,0,178359:0:0:0:0:
109,192,178147,128,0,178359:0:0:0:0:
256,192,178147,128,0,178359:0:0:0:0:
36,192,178147,128,0,178359:0:0:0:0:
182,192,178288,1,0,0:0:0:0:
256,192,178430,128,0,178642:0:0:0:0:
36,192,178430,128,0,178642:0:0:0:0:
109,192,178430,128,0,178642:0:0:0:0:
475,192,178430,128,0,178642:0:0:0:0:
402,192,178430,128,0,178642:0:0:0:0:
329,192,178642,1,0,0:0:0:0:
36,192,178713,128,0,178854:0:0:0:0:
182,192,178713,128,0,178854:0:0:0:0:
256,192,178713,128,0,178854:0:0:0:0:
109,192,178713,128,0,178854:0:0:0:0:
475,192,178713,128,0,178854:0:0:0:0:
329,192,178784,1,0,0:0:0:0:
402,192,178854,1,0,0:0:0:0:
36,192,178925,128,0,179067:0:0:0:0:
182,192,178925,128,0,179067:0:0:0:0:
329,192,178925,128,0,179067:0:0:0:0:
475,192,178925,128,0,179067:0:0:0:0:
109,192,178925,128,0,179067:0:0:0:0:
256,192,178996,1,0,0:0:0:0:
475,192,179137,128,0,179279:0:0:0:0:
402,192,179137,128,0,179279:0:0:0:0:
329,192,179137,128,0,179279:0:0:0:0:
36,192,179137,128,0,179279:0:0:0:0:
256,192,179137,128,0,179279:0:0:0:0:
109,192,179208,1,0,0:0:0:0:
36,192,179350,128,0,179491:0:0:0:0:
402,192,179350,128,0,179491:0:0:0:0:
329,192,179350,128,0,179491:0:0:0:0:
475,192,179350,128,0,179491:0:0:0:0:
182,192,179350,128,0,179491:0:0:0:0:
256,192,179420,1,0,0:0:0:0:
109,192,179491,1,0,0:0:0:0:
256,192,179562,128,0,179633:0:0:0:0:
109,192,179703,128,0,179798:0:0:0:0:
402,192,179703,128,0,179798:0:0:0:0:
109,192,179845,128,0,180057:0:0:0:0:
36,192,179845,128,0,180057:0:0:0:0:
329,192,179845,128,0,180057:0:0:0:0:
475,192,179845,128,0,180057:0:0:0:0:
402,192,179845,128,0,180057:0:0:0:0:
182,192,179845,128,0,179916:0:0:0:0:
182,192,179986,1,0,0:0:0:0:
256,192,180057,1,0,0:0:0:0:
402,192,180128,128,0,180340:0:0:0:0:
36,192,180128,128,0,180340:0:0:0:0:
109,192,180128,128,0,180340:0:0:0:0:
475,192,180128,128,0,180340:0:0:0:0:
329,192,180128,128,0,180199:0:0:0:0:
182,192,180128,128,0,180340:0:0:0:0:
329,192,180269,1,0,0:0:0:0:
256,192,180340,1,0,0:0:0:0:
36,192,180411,1,0,0:0:0:0:
329,192,180411,1,0,0:0:0:0:
475,192,180411,1,0,0:0:0:0:
109,192,180411,1,0,0:0:0:0:
182,192,180482,1,0,0:0:0:0:
36,192,180552,128,0,180906:0:0:0:0:
182,192,180623,128,0,180835:0:0:0:0:
329,192,180694,128,0,180765:0:0:0:0:
109,192,180694,1,0,0:0:0:0:
256,192,180694,1,0,0:0:0:0:
402,192,180765,128,0,180835:0:0:0:0:
256,192,180835,128,0,180906:0:0:0:0:
109,192,180906,128,0,180977:0:0:0:0:
329,192,180906,128,0,180977:0:0:0:0:
182,192,180977,1,0,0:0:0:0:
402,192,180977,1,0,0:0:0:0:
475,192,180977,1,0,0:0:0:0:
256,192,180977,1,0,0:0:0:0:
182,192,181071,1,0,0:0:0:0:
402,192,181071,1,0,0:0:0:0:
256,192,181166,1,0,0:0:0:0:
36,192,181166,1,0,0:0:0:0:
182,192,181260,1,0,0:0:0:0:
475,192,181260,1,0,0:0:0:0:
329,192,181260,1,0,0:0:0:0:
109,192,181260,1,0,0:0:0:0:
109,192,181354,1,0,0:0:0:0:
329,192,181354,1,0,0:0:0:0:
402,192,181449,1,0,0:0:0:0:
256,192,181449,1,0,0:0:0:0:
36,192,181543,1,0,0:0:0:0:
475,192,181543,1,0,0:0:0:0:
329,192,181543,128,0,181685:0:0:0:0:
182,192,181543,128,0,181685:0:0:0:0:
182,192,181755,1,0,0:0:0:0:
256,192,181755,128,0,181897:0:0:0:0:
329,192,181755,1,0,0:0:0:0:
36,192,181826,1,0,0:0:0:0:
475,192,181826,1,0,0:0:0:0:
36,192,181968,1,0,0:0:0:0:
329,192,181968,128,0,182463:0:0:0:0:
256,192,182038,128,0,182534:0:0:0:0:
36,192,182109,1,0,0:0:0:0:
109,192,182109,1,0,0:0:0:0:
182,192,182109,128,0,182604:0:0:0:0:
109,192,182251,1,0,0:0:0:0:
36,192,182251,1,0,0:0:0:0:
475,192,182392,1,0,0:0:0:0:
402,192,182392,1,0,0:0:0:0:
475,192,182534,1,0,0:0:0:0:
402,192,182534,1,0,0:0:0:0:
109,192,182604,128,0,184302:0:0:0:0:
36,192,182675,1,0,0:0:0:0:
256,192,182675,128,0,184019:0:0:0:0:
329,192,182675,1,0,0:0:0:0:
402,192,182746,128,0,184302:0:0:0:0:
36,192,182817,1,0,0:0:0:0:
329,192,182817,1,0,0:0:0:0:
182,192,182958,1,0,0:0:0:0:
475,192,182958,1,0,0:0:0:0:
475,192,183100,1,0,0:0:0:0:
182,192,183100,1,0,0:0:0:0:
36,192,183241,1,0,0:0:0:0:
182,192,183241,1,0,0:0:0:0:
36,192,183383,1,0,0:0:0:0:
182,192,183383,128,0,184161:0:0:0:0:
329,192,183524,1,0,0:0:0:0:
475,192,183524,1,0,0:0:0:0:
329,192,183666,128,0,184161:0:0:0:0:
475,192,183666,1,0,0:0:0:0:
36,192,183807,128,0,183878:0:0:0:0:
475,192,183807,128,0,183878:0:0:0:0:
36,192,183949,128,0,184019:0:0:0:0:
475,192,183949,128,0,184019:0:0:0:0:
36,192,184090,128,0,184161:0:0:0:0:
475,192,184090,128,0,184161:0:0:0:0:
36,192,184232,128,0,184302:0:0:0:0:
475,192,184232,128,0,184302:0:0:0:0:
256,192,184302,128,0,184373:0:0:0:0:
182,192,184302,128,0,184373:0:0:0:0:
329,192,184302,128,0,184373:0:0:0:0:
402,192,184373,128,0,184444:0:0:0:0:
475,192,184373,128,0,184444:0:0:0:0:
109,192,184373,128,0,184444:0:0:0:0:
256,192,184444,128,0,184515:0:0:0:0:
36,192,184444,128,0,184515:0:0:0:0:
329,192,184444,128,0,184515:0:0:0:0:
182,192,184515,128,0,184656:0:0:0:0:
475,192,184515,128,0,184585:0:0:0:0:
402,192,184515,128,0,184585:0:0:0:0:
256,192,184585,128,0,184939:0:0:0:0:
109,192,184585,128,0,184656:0:0:0:0:
36,192,184585,128,0,184656:0:0:0:0:
402,192,184656,128,0,184727:0:0:0:0:
475,192,184656,128,0,184727:0:0:0:0:
329,192,184656,128,0,184727:0:0:0:0:
109,192,184727,128,0,184798:0:0:0:0:
36,192,184727,128,0,184798:0:0:0:0:
182,192,184727,128,0,184798:0:0:0:0:
475,192,184798,128,0,184939:0:0:0:0:
402,192,184798,128,0,184939:0:0:0:0:
329,192,184798,128,0,184939:0:0:0:0:
109,192,184869,128,0,184939:0:0:0:0:
182,192,184869,128,0,184939:0:0:0:0:
36,192,184869,128,0,184939:0:0:0:0:
182,192,185081,1,0,0:0:0:0:
329,192,185081,1,0,0:0:0:0:
182,192,185152,1,0,0:0:0:0:
329,192,185152,1,0,0:0:0:0:
36,192,185222,128,0,185435:0:0:0:0:
109,192,185222,128,0,185435:0:0:0:0:
402,192,185222,128,0,185435:0:0:0:0:
475,192,185222,128,0,185435:0:0:0:0:
182,192,185364,128,0,185435:0:0:0:0:
329,192,185364,128,0,185435:0:0:0:0:
256,192,185435,128,0,187774:0:0:0:0:
182,192,185505,128,0,185575:0:0:0:0:
109,192,185505,128,0,185623:0:0:0:0:
36,192,185505,128,0,185670:0:0:0:0:
402,192,185505,1,0,0:0:0:0:
329,192,185505,1,0,0:0:0:0:
475,192,185599,1,0,0:0:0:0:
182,192,185646,1,0,0:0:0:0:
402,192,185646,128,0,185717:0:0:0:0:
109,192,185694,1,0,0:0:0:0:
36,192,185741,1,0,0:0:0:0:
329,192,185788,128,0,185859:0:0:0:0:
402,192,185788,128,0,185906:0:0:0:0:
475,192,185788,128,0,185954:0:0:0:0:
182,192,185788,1,0,0:0:0:0:
36,192,185883,1,0,0:0:0:0:
109,192,185930,128,0,186001:0:0:0:0:
329,192,185930,1,0,0:0:0:0:
402,192,185977,1,0,0:0:0:0:
475,192,186025,1,0,0:0:0:0:
182,192,186072,128,0,186143:0:0:0:0:
109,192,186072,128,0,186190:0:0:0:0:
36,192,186072,128,0,186237:0:0:0:0:
329,192,186072,1,0,0:0:0:0:
475,192,186166,1,0,0:0:0:0:
402,192,186214,128,0,186285:0:0:0:0:
182,192,186214,1,0,0:0:0:0:
109,192,186261,1,0,0:0:0:0:
36,192,186308,1,0,0:0:0:0:
402,192,186356,128,0,186474:0:0:0:0:
329,192,186356,128,0,186426:0:0:0:0:
182,192,186356,1,0,0:0:0:0:
475,192,186356,128,0,186521:0:0:0:0:
36,192,186450,1,0,0:0:0:0:
329,192,186497,1,0,0:0:0:0:
109,192,186497,128,0,186568:0:0:0:0:
402,192,186545,1,0,0:0:0:0:
475,192,186592,1,0,0:0:0:0:
329,192,186639,1,0,0:0:0:0:
182,192,186639,128,0,186805:0:0:0:0:
36,192,186639,128,0,186710:0:0:0:0:
109,192,186639,128,0,186757:0:0:0:0:
402,192,186734,1,0,0:0:0:0:
36,192,186781,1,0,0:0:0:0:
475,192,186781,128,0,186852:0:0:0:0:
109,192,186828,1,0,0:0:0:0:
182,192,186876,1,0,0:0:0:0:
36,192,186923,1,0,0:0:0:0:
329,192,186923,128,0,187088:0:0:0:0:
402,192,186923,128,0,187041:0:0:0:0:
475,192,186923,128,0,186994:0:0:0:0:
109,192,187018,1,0,0:0:0:0:
36,192,187065,128,0,187136:0:0:0:0:
475,192,187065,1,0,0:0:0:0:
402,192,187112,1,0,0:0:0:0:
329,192,187159,1,0,0:0:0:0:
182,192,187207,128,0,187419:0:0:0:0:
36,192,187207,128,0,187278:0:0:0:0:
109,192,187207,128,0,187348:0:0:0:0:
475,192,187207,128,0,187278:0:0:0:0:
402,192,187278,128,0,187348:0:0:0:0:
36,192,187348,128,0,187419:0:0:0:0:
329,192,187419,128,0,187632:0:0:0:0:
402,192,187419,128,0,187561:0:0:0:0:
475,192,187419,128,0,187490:0:0:0:0:
109,192,187419,128,0,187490:0:0:0:0:
182,192,187490,128,0,187561:0:0:0:0:
475,192,187561,128,0,187632:0:0:0:0:
402,192,187632,128,0,187703:0:0:0:0:
182,192,187632,128,0,187845:0:0:0:0:
36,192,187632,128,0,187703:0:0:0:0:
109,192,187632,128,0,187703:0:0:0:0:
329,192,187703,128,0,187845:0:0:0:0:
475,192,187774,128,0,187939:0:0:0:0:
402,192,187774,128,0,187892:0:0:0:0:
36,192,187774,128,0,187845:0:0:0:0:
109,192,187774,128,0,187845:0:0:0:0:
256,192,187869,1,0,0:0:0:0:
36,192,187916,128,0,187987:0:0:0:0:
109,192,187916,1,0,0:0:0:0:
329,192,187963,1,0,0:0:0:0:
182,192,187987,128,0,188058:0:0:0:0:
402,192,188010,1,0,0:0:0:0:
36,192,188058,128,0,188223:0:0:0:0:
256,192,188058,128,0,188129:0:0:0:0:
109,192,188058,128,0,188176:0:0:0:0:
475,192,188058,128,0,188129:0:0:0:0:
329,192,188152,1,0,0:0:0:0:
182,192,188200,1,0,0:0:0:0:
402,192,188200,128,0,188270:0:0:0:0:
256,192,188247,1,0,0:0:0:0:
109,192,188270,128,0,188341:0:0:0:0:
329,192,188294,1,0,0:0:0:0:
475,192,188341,128,0,188507:0:0:0:0:
182,192,188341,128,0,188412:0:0:0:0:
402,192,188341,128,0,188460:0:0:0:0:
36,192,188341,128,0,188412:0:0:0:0:
256,192,188436,1,0,0:0:0:0:
109,192,188483,1,0,0:0:0:0:
329,192,188483,128,0,188554:0:0:0:0:
36,192,188531,1,0,0:0:0:0:
402,192,188554,128,0,188625:0:0:0:0:
182,192,188578,1,0,0:0:0:0:
256,192,188625,128,0,188696:0:0:0:0:
475,192,188625,128,0,188791:0:0:0:0:
329,192,188625,128,0,188743:0:0:0:0:
109,192,188625,128,0,188696:0:0:0:0:
36,192,188720,1,0,0:0:0:0:
256,192,188767,128,0,188838:0:0:0:0:
182,192,188767,1,0,0:0:0:0:
402,192,188814,1,0,0:0:0:0:
109,192,188838,128,0,188909:0:0:0:0:
475,192,188861,1,0,0:0:0:0:
256,192,188909,128,0,189027:0:0:0:0:
329,192,188909,128,0,189074:0:0:0:0:
36,192,188909,128,0,188980:0:0:0:0:
182,192,188909,128,0,188980:0:0:0:0:
402,192,189003,1,0,0:0:0:0:
109,192,189051,128,0,189122:0:0:0:0:
182,192,189051,1,0,0:0:0:0:
256,192,189098,1,0,0:0:0:0:
475,192,189122,128,0,189192:0:0:0:0:
329,192,189145,1,0,0:0:0:0:
109,192,189192,128,0,189311:0:0:0:0:
182,192,189192,128,0,189263:0:0:0:0:
36,192,189192,128,0,189358:0:0:0:0:
402,192,189192,128,0,189263:0:0:0:0:
329,192,189287,1,0,0:0:0:0:
256,192,189334,1,0,0:0:0:0:
475,192,189334,128,0,189405:0:0:0:0:
182,192,189382,1,0,0:0:0:0:
329,192,189405,128,0,189476:0:0:0:0:
109,192,189429,1,0,0:0:0:0:
402,192,189476,128,0,189594:0:0:0:0:
256,192,189476,128,0,189547:0:0:0:0:
475,192,189476,128,0,189642:0:0:0:0:
36,192,189476,128,0,189547:0:0:0:0:
182,192,189571,1,0,0:0:0:0:
256,192,189618,1,0,0:0:0:0:
36,192,189618,128,0,189689:0:0:0:0:
329,192,189665,1,0,0:0:0:0:
109,192,189689,128,0,189760:0:0:0:0:
402,192,189713,1,0,0:0:0:0:
36,192,189760,1,0,0:0:0:0:
475,192,189760,128,0,189831:0:0:0:0:
256,192,189760,128,0,189831:0:0:0:0:
182,192,189760,128,0,189878:0:0:0:0:
402,192,189831,1,0,0:0:0:0:
329,192,189878,1,0,0:0:0:0:
256,192,189925,1,0,0:0:0:0:
182,192,189973,1,0,0:0:0:0:
36,192,189973,128,0,192029:0:0:0:0:
109,192,189973,1,0,0:0:0:0:
402,192,189973,128,0,190044:0:0:0:0:
475,192,189973,128,0,190114:0:0:0:0:
256,192,190044,1,0,0:0:0:0:
109,192,190114,128,0,190256:0:0:0:0:
182,192,190114,128,0,190185:0:0:0:0:
329,192,190114,1,0,0:0:0:0:
475,192,190185,1,0,0:0:0:0:
402,192,190233,1,0,0:0:0:0:
329,192,190280,1,0,0:0:0:0:
256,192,190327,128,0,190493:0:0:0:0:
109,192,190327,128,0,190398:0:0:0:0:
182,192,190327,128,0,190445:0:0:0:0:
475,192,190327,1,0,0:0:0:0:
329,192,190422,1,0,0:0:0:0:
475,192,190469,128,0,190540:0:0:0:0:
402,192,190469,1,0,0:0:0:0:
109,192,190516,1,0,0:0:0:0:
182,192,190564,1,0,0:0:0:0:
475,192,190611,128,0,190776:0:0:0:0:
402,192,190611,128,0,190729:0:0:0:0:
329,192,190611,128,0,190682:0:0:0:0:
256,192,190611,1,0,0:0:0:0:
109,192,190705,1,0,0:0:0:0:
182,192,190753,128,0,190824:0:0:0:0:
329,192,190753,1,0,0:0:0:0:
402,192,190800,1,0,0:0:0:0:
475,192,190847,1,0,0:0:0:0:
182,192,190895,128,0,191013:0:0:0:0:
256,192,190895,128,0,190965:0:0:0:0:
329,192,190895,1,0,0:0:0:0:
109,192,190895,128,0,191060:0:0:0:0:
475,192,190989,1,0,0:0:0:0:
256,192,191036,1,0,0:0:0:0:
402,192,191036,128,0,191107:0:0:0:0:
182,192,191084,1,0,0:0:0:0:
109,192,191131,1,0,0:0:0:0:
256,192,191178,1,0,0:0:0:0:
329,192,191178,128,0,191344:0:0:0:0:
475,192,191178,128,0,191249:0:0:0:0:
402,192,191178,128,0,191296:0:0:0:0:
182,192,191273,1,0,0:0:0:0:
475,192,191320,1,0,0:0:0:0:
109,192,191320,128,0,191391:0:0:0:0:
402,192,191367,1,0,0:0:0:0:
329,192,191415,1,0,0:0:0:0:
475,192,191462,1,0,0:0:0:0:
256,192,191462,128,0,191627:0:0:0:0:
182,192,191462,128,0,191580:0:0:0:0:
109,192,191462,128,0,191533:0:0:0:0:
402,192,191557,1,0,0:0:0:0:
475,192,191604,128,0,191675:0:0:0:0:
109,192,191604,1,0,0:0:0:0:
182,192,191651,1,0,0:0:0:0:
256,192,191698,1,0,0:0:0:0:
402,192,191746,128,0,191864:0:0:0:0:
475,192,191746,128,0,191911:0:0:0:0:
109,192,191746,1,0,0:0:0:0:
329,192,191746,128,0,191817:0:0:0:0:
182,192,191840,1,0,0:0:0:0:
109,192,191887,128,0,191958:0:0:0:0:
329,192,191887,1,0,0:0:0:0:
402,192,191935,1,0,0:0:0:0:
475,192,191982,1,0,0:0:0:0:
182,192,192029,1,0,0:0:0:0:
109,192,192029,1,0,0:0:0:0:
256,192,192029,1,0,0:0:0:0:
329,192,192100,1,0,0:0:0:0:
402,192,192100,1,0,0:0:0:0:
256,192,192171,1,0,0:0:0:0:
182,192,192171,128,0,192242:0:0:0:0:
475,192,192171,128,0,192242:0:0:0:0:
36,192,192171,1,0,0:0:0:0:
402,192,192242,128,0,192313:0:0:0:0:
109,192,192242,128,0,192313:0:0:0:0:
36,192,192313,128,0,192526:0:0:0:0:
329,192,192313,128,0,192490:0:0:0:0:
402,192,192384,128,0,192526:0:0:0:0:
256,192,192384,128,0,192455:0:0:0:0:
475,192,192455,128,0,192526:0:0:0:0:
182,192,192455,1,0,0:0:0:0:
109,192,192490,1,0,0:0:0:0:
256,192,192526,1,0,0:0:0:0:
329,192,192561,1,0,0:0:0:0:
36,192,192597,128,0,192739:0:0:0:0:
109,192,192597,128,0,192739:0:0:0:0:
402,192,192597,128,0,192668:0:0:0:0:
475,192,192597,128,0,192739:0:0:0:0:
256,192,192668,128,0,192739:0:0:0:0:
182,192,192668,128,0,192739:0:0:0:0:
402,192,192739,128,0,192809:0:0:0:0:
329,192,192739,128,0,192809:0:0:0:0:
256,192,192809,1,0,0:0:0:0:
182,192,192845,1,0,0:0:0:0:
109,192,192880,128,0,192951:0:0:0:0:
36,192,192880,128,0,193022:0:0:0:0:
402,192,192880,128,0,193022:0:0:0:0:
475,192,192880,128,0,193022:0:0:0:0:
329,192,192951,128,0,193022:0:0:0:0:
256,192,192951,128,0,193022:0:0:0:0:
109,192,193022,128,0,193235:0:0:0:0:
182,192,193022,128,0,193093:0:0:0:0:
329,192,193093,128,0,193164:0:0:0:0:
36,192,193164,128,0,193235:0:0:0:0:
182,192,193164,128,0,193235:0:0:0:0:
402,192,193164,128,0,193377:0:0:0:0:
475,192,193164,128,0,193377:0:0:0:0:
256,192,193235,128,0,193306:0:0:0:0:
329,192,193235,128,0,193306:0:0:0:0:
36,192,193306,128,0,193448:0:0:0:0:
109,192,193330,128,0,193448:0:0:0:0:
182,192,193353,128,0,193448:0:0:0:0:
329,192,193377,128,0,193448:0:0:0:0:
475,192,193448,1,0,0:0:0:0:
402,192,193448,1,0,0:0:0:0:
256,192,193448,1,0,0:0:0:0:
329,192,193519,1,0,0:0:0:0:
109,192,193519,1,0,0:0:0:0:
36,192,193519,1,0,0:0:0:0:
182,192,193590,1,0,0:0:0:0:
402,192,193590,1,0,0:0:0:0:
475,192,193590,1,0,0:0:0:0:
256,192,193661,1,0,0:0:0:0:
109,192,193661,1,0,0:0:0:0:
36,192,193661,1,0,0:0:0:0:
329,192,193731,128,0,193873:0:0:0:0:
402,192,193731,128,0,193873:0:0:0:0:
475,192,193731,128,0,193873:0:0:0:0:
182,192,193731,128,0,193873:0:0:0:0:
109,192,193873,1,0,0:0:0:0:
36,192,193873,1,0,0:0:0:0:
256,192,193873,1,0,0:0:0:0:
182,192,193944,1,0,0:0:0:0:
402,192,193944,1,0,0:0:0:0:
475,192,193944,1,0,0:0:0:0:
329,192,194015,1,0,0:0:0:0:
109,192,194015,1,0,0:0:0:0:
36,192,194015,1,0,0:0:0:0:
256,192,194086,1,0,0:0:0:0:
402,192,194086,1,0,0:0:0:0:
475,192,194086,1,0,0:0:0:0:
36,192,194157,128,0,194299:0:0:0:0:
109,192,194157,128,0,194299:0:0:0:0:
182,192,194157,128,0,194299:0:0:0:0:
329,192,194157,128,0,194299:0:0:0:0:
256,192,194299,1,0,0:0:0:0:
475,192,194322,1,0,0:0:0:0:
402,192,194346,1,0,0:0:0:0:
329,192,194370,1,0,0:0:0:0:
182,192,194393,1,0,0:0:0:0:
109,192,194417,1,0,0:0:0:0:
36,192,194441,1,0,0:0:0:0:
329,192,194512,128,0,194866:0:0:0:0:
182,192,194583,128,0,194701:0:0:0:0:
256,192,194583,128,0,194748:0:0:0:0:
109,192,194583,128,0,194653:0:0:0:0:
475,192,194583,1,0,0:0:0:0:
402,192,194583,1,0,0:0:0:0:
36,192,194677,1,0,0:0:0:0:
109,192,194724,1,0,0:0:0:0:
402,192,194724,128,0,194795:0:0:0:0:
182,192,194772,1,0,0:0:0:0:
256,192,194819,1,0,0:0:0:0:
109,192,194866,128,0,194984:0:0:0:0:
36,192,194866,128,0,195032:0:0:0:0:
475,192,194866,128,0,194937:0:0:0:0:
402,192,194866,1,0,0:0:0:0:
329,192,194961,1,0,0:0:0:0:
256,192,195008,1,0,0:0:0:0:
402,192,195008,128,0,195079:0:0:0:0:
182,192,195055,1,0,0:0:0:0:
475,192,195079,128,0,195434:0:0:0:0:
109,192,195103,1,0,0:0:0:0:
256,192,195150,128,0,195221:0:0:0:0:
402,192,195150,128,0,195315:0:0:0:0:
329,192,195150,128,0,195268:0:0:0:0:
36,192,195150,1,0,0:0:0:0:
109,192,195244,1,0,0:0:0:0:
182,192,195292,1,0,0:0:0:0:
36,192,195292,128,0,195363:0:0:0:0:
256,192,195339,1,0,0:0:0:0:
329,192,195386,1,0,0:0:0:0:
36,192,195434,128,0,195599:0:0:0:0:
182,192,195434,128,0,195505:0:0:0:0:
109,192,195434,128,0,195552:0:0:0:0:
402,192,195434,1,0,0:0:0:0:
256,192,195528,1,0,0:0:0:0:
182,192,195575,1,0,0:0:0:0:
329,192,195575,128,0,195646:0:0:0:0:
402,192,195575,128,0,195788:0:0:0:0:
109,192,195623,1,0,0:0:0:0:
36,192,195670,1,0,0:0:0:0:
182,192,195717,128,0,195883:0:0:0:0:
475,192,195717,1,0,0:0:0:0:
329,192,195717,128,0,195788:0:0:0:0:
256,192,195717,128,0,195835:0:0:0:0:
109,192,195788,128,0,196001:0:0:0:0:
475,192,195859,1,0,0:0:0:0:
36,192,195859,128,0,195930:0:0:0:0:
402,192,195906,1,0,0:0:0:0:
329,192,195954,1,0,0:0:0:0:
182,192,196001,128,0,196072:0:0:0:0:
402,192,196001,128,0,196119:0:0:0:0:
475,192,196001,128,0,196166:0:0:0:0:
256,192,196001,1,0,0:0:0:0:
36,192,196096,1,0,0:0:0:0:
256,192,196143,128,0,196214:0:0:0:0:
109,192,196143,1,0,0:0:0:0:
182,192,196190,1,0,0:0:0:0:
329,192,196214,128,0,196568:0:0:0:0:
475,192,196237,1,0,0:0:0:0:
36,192,196285,128,0,196426:0:0:0:0:
256,192,196285,128,0,196497:0:0:0:0:
109,192,196285,128,0,196356:0:0:0:0:
402,192,196285,1,0,0:0:0:0:
182,192,196403,1,0,0:0:0:0:
109,192,196450,1,0,0:0:0:0:
36,192,196497,128,0,196710:0:0:0:0:
182,192,196497,128,0,196639:0:0:0:0:
475,192,196497,128,0,196568:0:0:0:0:
402,192,196497,128,0,196568:0:0:0:0:
256,192,196616,1,0,0:0:0:0:
329,192,196663,1,0,0:0:0:0:
182,192,196710,128,0,197136:0:0:0:0:
109,192,196710,128,0,196781:0:0:0:0:
475,192,196710,128,0,196781:0:0:0:0:
402,192,196710,128,0,196781:0:0:0:0:
256,192,196781,1,0,0:0:0:0:
329,192,196852,128,0,196923:0:0:0:0:
402,192,196852,128,0,196970:0:0:0:0:
475,192,196852,128,0,197018:0:0:0:0:
36,192,196852,1,0,0:0:0:0:
256,192,196947,1,0,0:0:0:0:
329,192,196994,1,0,0:0:0:0:
109,192,196994,128,0,197065:0:0:0:0:
402,192,197041,1,0,0:0:0:0:
475,192,197088,1,0,0:0:0:0:
36,192,197136,128,0,197207:0:0:0:0:
256,192,197136,128,0,197254:0:0:0:0:
329,192,197136,128,0,197301:0:0:0:0:
109,192,197136,1,0,0:0:0:0:
402,192,197230,1,0,0:0:0:0:
36,192,197278,128,0,197561:0:0:0:0:
109,192,197278,128,0,197348:0:0:0:0:
182,192,197278,1,0,0:0:0:0:
256,192,197325,1,0,0:0:0:0:
329,192,197372,1,0,0:0:0:0:
109,192,197419,1,0,0:0:0:0:
182,192,197419,128,0,197490:0:0:0:0:
402,192,197419,128,0,197538:0:0:0:0:
475,192,197419,128,0,197585:0:0:0:0:
329,192,197514,1,0,0:0:0:0:
109,192,197561,128,0,197703:0:0:0:0:
256,192,197561,128,0,197632:0:0:0:0:
182,192,197561,1,0,0:0:0:0:
402,192,197609,1,0,0:0:0:0:
475,192,197656,1,0,0:0:0:0:
36,192,197703,128,0,197869:0:0:0:0:
182,192,197703,128,0,197821:0:0:0:0:
329,192,197703,128,0,197774:0:0:0:0:
256,192,197703,1,0,0:0:0:0:
475,192,197798,1,0,0:0:0:0:
256,192,197845,128,0,198270:0:0:0:0:
402,192,197845,128,0,197916:0:0:0:0:
329,192,197845,1,0,0:0:0:0:
182,192,197892,1,0,0:0:0:0:
109,192,197939,1,0,0:0:0:0:
36,192,197987,1,0,0:0:0:0:
329,192,197987,128,0,198058:0:0:0:0:
402,192,197987,128,0,198105:0:0:0:0:
475,192,197987,128,0,198152:0:0:0:0:
182,192,198081,1,0,0:0:0:0:
329,192,198129,1,0,0:0:0:0:
109,192,198129,128,0,198200:0:0:0:0:
402,192,198176,1,0,0:0:0:0:
475,192,198223,1,0,0:0:0:0:
329,192,198270,128,0,198412:0:0:0:0:
182,192,198270,128,0,198341:0:0:0:0:
36,192,198270,128,0,198460:0:0:0:0:
109,192,198270,128,0,198389:0:0:0:0:
256,192,198365,1,0,0:0:0:0:
182,192,198412,128,0,198554:0:0:0:0:
475,192,198412,1,0,0:0:0:0:
402,192,198460,1,0,0:0:0:0:
329,192,198507,1,0,0:0:0:0:
475,192,198554,128,0,198625:0:0:0:0:
256,192,198554,128,0,198625:0:0:0:0:
109,192,198554,128,0,198672:0:0:0:0:
36,192,198554,128,0,198720:0:0:0:0:
402,192,198625,128,0,198767:0:0:0:0:
182,192,198649,1,0,0:0:0:0:
256,192,198696,1,0,0:0:0:0:
475,192,198696,128,0,198767:0:0:0:0:
182,192,198743,1,0,0:0:0:0:
329,192,198767,128,0,198980:0:0:0:0:
109,192,198791,1,0,0:0:0:0:
256,192,198838,128,0,198909:0:0:0:0:
475,192,198838,128,0,198909:0:0:0:0:
402,192,198838,128,0,199051:0:0:0:0:
36,192,198838,128,0,198909:0:0:0:0:
109,192,198909,128,0,198980:0:0:0:0:
182,192,198980,128,0,199405:0:0:0:0:
256,192,198980,128,0,199051:0:0:0:0:
109,192,199051,128,0,199122:0:0:0:0:
36,192,199051,128,0,199122:0:0:0:0:
329,192,199051,128,0,199122:0:0:0:0:
475,192,199051,128,0,199122:0:0:0:0:
402,192,199122,128,0,199192:0:0:0:0:
475,192,199192,128,0,199263:0:0:0:0:
256,192,199192,128,0,199263:0:0:0:0:
109,192,199192,128,0,199263:0:0:0:0:
36,192,199192,128,0,199263:0:0:0:0:
402,192,199263,128,0,199334:0:0:0:0:
329,192,199334,128,0,199405:0:0:0:0:
36,192,199405,128,0,199547:0:0:0:0:
402,192,199405,128,0,199571:0:0:0:0:
109,192,199405,128,0,199523:0:0:0:0:
475,192,199405,128,0,199476:0:0:0:0:
256,192,199500,1,0,0:0:0:0:
475,192,199547,128,0,199689:0:0:0:0:
182,192,199547,1,0,0:0:0:0:
329,192,199547,128,0,199618:0:0:0:0:
109,192,199594,1,0,0:0:0:0:
402,192,199642,1,0,0:0:0:0:
109,192,199689,128,0,199831:0:0:0:0:
256,192,199689,128,0,199760:0:0:0:0:
329,192,199689,128,0,199807:0:0:0:0:
36,192,199689,128,0,199878:0:0:0:0:
182,192,199783,1,0,0:0:0:0:
475,192,199831,128,0,199973:0:0:0:0:
402,192,199831,128,0,199902:0:0:0:0:
256,192,199831,1,0,0:0:0:0:
329,192,199878,1,0,0:0:0:0:
109,192,199925,1,0,0:0:0:0:
36,192,199973,128,0,200114:0:0:0:0:
182,192,199973,128,0,200044:0:0:0:0:
256,192,199973,128,0,200091:0:0:0:0:
329,192,199973,128,0,200138:0:0:0:0:
109,192,200067,1,0,0:0:0:0:
475,192,200114,128,0,200256:0:0:0:0:
182,192,200114,1,0,0:0:0:0:
402,192,200114,128,0,200185:0:0:0:0:
256,192,200162,1,0,0:0:0:0:
329,192,200209,1,0,0:0:0:0:
36,192,200256,128,0,200398:0:0:0:0:
109,192,200256,128,0,200327:0:0:0:0:
256,192,200256,128,0,200374:0:0:0:0:
402,192,200256,128,0,200422:0:0:0:0:
475,192,200351,1,0,0:0:0:0:
182,192,200398,128,0,200540:0:0:0:0:
329,192,200398,1,0,0:0:0:0:
109,192,200398,128,0,200469:0:0:0:0:
256,192,200445,1,0,0:0:0:0:
402,192,200493,1,0,0:0:0:0:
329,192,200540,128,0,200682:0:0:0:0:
475,192,200540,128,0,200611:0:0:0:0:
36,192,200540,128,0,200705:0:0:0:0:
109,192,200540,128,0,200658:0:0:0:0:
256,192,200635,1,0,0:0:0:0:
475,192,200682,128,0,200965:0:0:0:0:
182,192,200682,1,0,0:0:0:0:
402,192,200682,128,0,200753:0:0:0:0:
109,192,200729,1,0,0:0:0:0:
36,192,200776,1,0,0:0:0:0:
256,192,200824,128,0,200895:0:0:0:0:
329,192,200824,128,0,200942:0:0:0:0:
182,192,200824,1,0,0:0:0:0:
402,192,200824,128,0,200989:0:0:0:0:
109,192,200918,1,0,0:0:0:0:
36,192,200965,128,0,201249:0:0:0:0:
182,192,200965,128,0,201036:0:0:0:0:
256,192,200965,1,0,0:0:0:0:
329,192,201013,1,0,0:0:0:0:
402,192,201060,1,0,0:0:0:0:
182,192,201107,1,0,0:0:0:0:
109,192,201107,1,0,0:0:0:0:
475,192,201178,1,0,0:0:0:0:
402,192,201214,1,0,0:0:0:0:
109,192,201249,1,0,0:0:0:0:
256,192,201249,128,0,201673:0:0:0:0:
329,192,201249,1,0,0:0:0:0:
182,192,201249,1,0,0:0:0:0:
36,192,201391,128,0,201461:0:0:0:0:
109,192,201426,128,0,201496:0:0:0:0:
182,192,201461,128,0,201532:0:0:0:0:
329,192,201496,128,0,201567:0:0:0:0:
402,192,201532,128,0,201602:0:0:0:0:
475,192,201567,128,0,201638:0:0:0:0:
36,192,201602,1,0,0:0:0:0:
109,192,201638,1,0,0:0:0:0:
182,192,201673,128,0,201743:0:0:0:0:
402,192,201673,128,0,201814:0:0:0:0:
329,192,201673,128,0,201885:0:0:0:0:
109,192,201743,128,0,201814:0:0:0:0:
36,192,201743,128,0,201885:0:0:0:0:
182,192,201814,128,0,202096:0:0:0:0:
256,192,201814,128,0,201885:0:0:0:0:
475,192,201885,1,0,0:0:0:0:
402,192,201920,1,0,0:0:0:0:
36,192,201955,128,0,202120:0:0:0:0:
109,192,201955,128,0,202073:0:0:0:0:
329,192,201955,128,0,202026:0:0:0:0:
402,192,202049,1,0,0:0:0:0:
329,192,202096,128,0,202379:0:0:0:0:
256,192,202096,128,0,202167:0:0:0:0:
475,192,202096,1,0,0:0:0:0:
109,192,202143,1,0,0:0:0:0:
36,192,202191,1,0,0:0:0:0:
402,192,202238,128,0,202355:0:0:0:0:
256,192,202238,128,0,202308:0:0:0:0:
182,192,202238,128,0,202308:0:0:0:0:
475,192,202238,128,0,202402:0:0:0:0:
109,192,202332,1,0,0:0:0:0:
36,192,202379,128,0,202802:0:0:0:0:
256,192,202379,1,0,0:0:0:0:
182,192,202379,128,0,202449:0:0:0:0:
402,192,202426,1,0,0:0:0:0:
329,192,202473,1,0,0:0:0:0:
475,192,202520,1,0,0:0:0:0:
182,192,202520,1,0,0:0:0:0:
256,192,202520,1,0,0:0:0:0:
109,192,202520,1,0,0:0:0:0:
329,192,202591,1,0,0:0:0:0:
402,192,202591,1,0,0:0:0:0:
182,192,202661,1,0,0:0:0:0:
109,192,202661,1,0,0:0:0:0:
475,192,202661,1,0,0:0:0:0:
329,192,202732,1,0,0:0:0:0:
256,192,202732,1,0,0:0:0:0:
109,192,202802,1,0,0:0:0:0:
182,192,202802,1,0,0:0:0:0:
475,192,202802,1,0,0:0:0:0:
402,192,202802,1,0,0:0:0:0:
475,192,202943,128,0,203226:0:0:0:0:
36,192,202943,1,0,0:0:0:0:
256,192,202943,1,0,0:0:0:0:
402,192,202943,1,0,0:0:0:0:
329,192,202943,1,0,0:0:0:0:
109,192,203014,1,0,0:0:0:0:
182,192,203014,1,0,0:0:0:0:
402,192,203085,1,0,0:0:0:0:
329,192,203085,1,0,0:0:0:0:
36,192,203085,1,0,0:0:0:0:
256,192,203155,1,0,0:0:0:0:
182,192,203155,1,0,0:0:0:0:
402,192,203226,1,0,0:0:0:0:
329,192,203226,1,0,0:0:0:0:
109,192,203226,1,0,0:0:0:0:
36,192,203226,1,0,0:0:0:0:
256,192,203367,1,0,0:0:0:0:
36,192,203391,1,0,0:0:0:0:
109,192,203414,1,0,0:0:0:0:
182,192,203438,1,0,0:0:0:0:
329,192,203461,1,0,0:0:0:0:
402,192,203485,1,0,0:0:0:0:
475,192,203508,1,0,0:0:0:0:
36,192,203508,128,0,203579:0:0:0:0:
109,192,203508,128,0,203579:0:0:0:0:
256,192,203579,128,0,205908:0:0:0:0:
475,192,203649,128,0,203814:0:0:0:0:
329,192,203649,128,0,203720:0:0:0:0:
402,192,203649,128,0,203767:0:0:0:0:
182,192,203649,128,0,203720:0:0:0:0:
36,192,203720,128,0,203791:0:0:0:0:
109,192,203720,128,0,203861:0:0:0:0:
182,192,203791,128,0,203861:0:0:0:0:
329,192,203791,1,0,0:0:0:0:
402,192,203838,1,0,0:0:0:0:
475,192,203885,1,0,0:0:0:0:
36,192,203932,128,0,204096:0:0:0:0:
329,192,203932,128,0,204002:0:0:0:0:
109,192,203932,128,0,204049:0:0:0:0:
402,192,204002,128,0,204143:0:0:0:0:
475,192,204002,128,0,204073:0:0:0:0:
329,192,204073,128,0,204143:0:0:0:0:
182,192,204073,1,0,0:0:0:0:
109,192,204120,1,0,0:0:0:0:
36,192,204167,1,0,0:0:0:0:
475,192,204214,128,0,204379:0:0:0:0:
402,192,204214,128,0,204332:0:0:0:0:
182,192,204214,128,0,204285:0:0:0:0:
36,192,204285,128,0,204426:0:0:0:0:
109,192,204285,128,0,204355:0:0:0:0:
329,192,204355,1,0,0:0:0:0:
182,192,204355,128,0,204426:0:0:0:0:
402,192,204402,1,0,0:0:0:0:
475,192,204449,1,0,0:0:0:0:
329,192,204496,128,0,204567:0:0:0:0:
109,192,204496,128,0,204614:0:0:0:0:
36,192,204496,128,0,204661:0:0:0:0:
475,192,204567,128,0,204708:0:0:0:0:
402,192,204567,128,0,204638:0:0:0:0:
329,192,204638,128,0,204708:0:0:0:0:
182,192,204638,1,0,0:0:0:0:
109,192,204685,1,0,0:0:0:0:
36,192,204732,1,0,0:0:0:0:
329,192,204779,128,0,204943:0:0:0:0:
402,192,204779,128,0,204896:0:0:0:0:
475,192,204779,128,0,204849:0:0:0:0:
36,192,204849,128,0,204991:0:0:0:0:
182,192,204849,128,0,204920:0:0:0:0:
109,192,204920,128,0,204991:0:0:0:0:
475,192,204920,1,0,0:0:0:0:
402,192,204967,1,0,0:0:0:0:
329,192,205014,1,0,0:0:0:0:
36,192,205061,128,0,205132:0:0:0:0:
109,192,205061,128,0,205179:0:0:0:0:
182,192,205061,128,0,205226:0:0:0:0:
329,192,205132,128,0,205202:0:0:0:0:
475,192,205132,128,0,205273:0:0:0:0:
402,192,205202,128,0,205273:0:0:0:0:
36,192,205202,1,0,0:0:0:0:
109,192,205249,1,0,0:0:0:0:
182,192,205296,1,0,0:0:0:0:
329,192,205343,128,0,205555:0:0:0:0:
402,192,205343,128,0,205485:0:0:0:0:
475,192,205343,128,0,205414:0:0:0:0:
36,192,205414,128,0,205485:0:0:0:0:
109,192,205414,128,0,205485:0:0:0:0:
475,192,205485,128,0,205555:0:0:0:0:
182,192,205555,128,0,205767:0:0:0:0:
109,192,205555,128,0,205696:0:0:0:0:
36,192,205555,128,0,205626:0:0:0:0:
402,192,205626,128,0,205696:0:0:0:0:
329,192,205626,128,0,205696:0:0:0:0:
36,192,205696,128,0,205767:0:0:0:0:
109,192,205767,128,0,205838:0:0:0:0:
329,192,205767,128,0,205979:0:0:0:0:
402,192,205767,128,0,205838:0:0:0:0:
475,192,205767,128,0,205838:0:0:0:0:
182,192,205838,128,0,205979:0:0:0:0:
475,192,205908,128,0,205979:0:0:0:0:
402,192,205908,128,0,205979:0:0:0:0:
109,192,205908,128,0,206026:0:0:0:0:
36,192,205908,128,0,206073:0:0:0:0:
256,192,205979,128,0,206120:0:0:0:0:
182,192,206049,1,0,0:0:0:0:
402,192,206049,128,0,206120:0:0:0:0:
109,192,206096,1,0,0:0:0:0:
329,192,206120,128,0,206191:0:0:0:0:
36,192,206143,1,0,0:0:0:0:
182,192,206191,128,0,206261:0:0:0:0:
402,192,206191,128,0,206308:0:0:0:0:
475,192,206191,128,0,206355:0:0:0:0:
256,192,206261,128,0,206332:0:0:0:0:
36,192,206261,128,0,206402:0:0:0:0:
109,192,206332,1,0,0:0:0:0:
329,192,206332,128,0,206402:0:0:0:0:
182,192,206379,1,0,0:0:0:0:
402,192,206402,128,0,206473:0:0:0:0:
256,192,206426,1,0,0:0:0:0:
475,192,206473,128,0,206591:0:0:0:0:
36,192,206473,128,0,206638:0:0:0:0:
329,192,206473,128,0,206543:0:0:0:0:
182,192,206543,128,0,206614:0:0:0:0:
109,192,206543,128,0,206685:0:0:0:0:
402,192,206614,128,0,206685:0:0:0:0:
329,192,206614,1,0,0:0:0:0:
256,192,206661,1,0,0:0:0:0:
475,192,206685,128,0,206755:0:0:0:0:
182,192,206708,1,0,0:0:0:0:
402,192,206755,128,0,206920:0:0:0:0:
329,192,206755,128,0,206873:0:0:0:0:
36,192,206755,128,0,206826:0:0:0:0:
182,192,206826,128,0,206896:0:0:0:0:
109,192,206826,128,0,206967:0:0:0:0:
256,192,206896,1,0,0:0:0:0:
475,192,206896,128,0,206967:0:0:0:0:
329,192,206943,1,0,0:0:0:0:
182,192,206967,128,0,207038:0:0:0:0:
402,192,206991,1,0,0:0:0:0:
256,192,207038,128,0,207202:0:0:0:0:
109,192,207038,128,0,207155:0:0:0:0:
36,192,207038,128,0,207108:0:0:0:0:
475,192,207108,128,0,207179:0:0:0:0:
182,192,207108,128,0,207249:0:0:0:0:
36,192,207179,128,0,207249:0:0:0:0:
402,192,207179,1,0,0:0:0:0:
329,192,207226,1,0,0:0:0:0:
109,192,207249,128,0,207320:0:0:0:0:
256,192,207273,1,0,0:0:0:0:
329,192,207320,128,0,207391:0:0:0:0:
402,192,207320,128,0,207438:0:0:0:0:
475,192,207320,128,0,207485:0:0:0:0:
36,192,207391,128,0,207532:0:0:0:0:
182,192,207391,128,0,207461:0:0:0:0:
256,192,207461,1,0,0:0:0:0:
109,192,207461,128,0,207532:0:0:0:0:
329,192,207508,1,0,0:0:0:0:
182,192,207532,128,0,207602:0:0:0:0:
402,192,207555,1,0,0:0:0:0:
109,192,207602,128,0,207720:0:0:0:0:
36,192,207602,128,0,207767:0:0:0:0:
256,192,207602,128,0,207673:0:0:0:0:
402,192,207673,128,0,207743:0:0:0:0:
329,192,207673,128,0,207814:0:0:0:0:
256,192,207743,1,0,0:0:0:0:
475,192,207743,128,0,207885:0:0:0:0:
182,192,207791,1,0,0:0:0:0:
402,192,207814,128,0,207885:0:0:0:0:
109,192,207838,1,0,0:0:0:0:
36,192,207885,1,0,0:0:0:0:
329,192,207885,1,0,0:0:0:0:
256,192,207920,1,0,0:0:0:0:
109,192,207955,1,0,0:0:0:0:
182,192,207991,1,0,0:0:0:0:
329,192,208026,1,0,0:0:0:0:
402,192,208061,1,0,0:0:0:0:
256,192,208096,1,0,0:0:0:0:
475,192,208096,128,0,210143:0:0:0:0:
109,192,208096,128,0,208167:0:0:0:0:
36,192,208096,128,0,208238:0:0:0:0:
329,192,208167,1,0,0:0:0:0:
182,192,208238,1,0,0:0:0:0:
256,192,208238,128,0,208308:0:0:0:0:
402,192,208238,128,0,208379:0:0:0:0:
36,192,208308,1,0,0:0:0:0:
109,192,208355,1,0,0:0:0:0:
182,192,208402,1,0,0:0:0:0:
256,192,208449,128,0,208614:0:0:0:0:
329,192,208449,128,0,208567:0:0:0:0:
402,192,208449,128,0,208520:0:0:0:0:
36,192,208449,128,0,208520:0:0:0:0:
109,192,208520,128,0,208661:0:0:0:0:
182,192,208520,128,0,208591:0:0:0:0:
402,192,208591,1,0,0:0:0:0:
36,192,208591,128,0,208661:0:0:0:0:
329,192,208638,1,0,0:0:0:0:
256,192,208685,1,0,0:0:0:0:
182,192,208732,128,0,208802:0:0:0:0:
109,192,208732,128,0,208849:0:0:0:0:
36,192,208732,128,0,208896:0:0:0:0:
329,192,208802,128,0,208943:0:0:0:0:
402,192,208802,128,0,208873:0:0:0:0:
256,192,208873,128,0,208943:0:0:0:0:
182,192,208873,1,0,0:0:0:0:
109,192,208920,1,0,0:0:0:0:
36,192,208967,1,0,0:0:0:0:
256,192,209014,128,0,209085:0:0:0:0:
329,192,209014,128,0,209132:0:0:0:0:
402,192,209014,128,0,209179:0:0:0:0:
36,192,209085,128,0,209226:0:0:0:0:
182,192,209085,128,0,209155:0:0:0:0:
109,192,209155,128,0,209226:0:0:0:0:
256,192,209155,1,0,0:0:0:0:
329,192,209202,1,0,0:0:0:0:
402,192,209249,1,0,0:0:0:0:
36,192,209296,128,0,209367:0:0:0:0:
109,192,209296,128,0,209414:0:0:0:0:
182,192,209296,128,0,209461:0:0:0:0:
256,192,209367,128,0,209438:0:0:0:0:
329,192,209367,128,0,209508:0:0:0:0:
402,192,209438,128,0,209508:0:0:0:0:
36,192,209438,1,0,0:0:0:0:
109,192,209485,1,0,0:0:0:0:
182,192,209532,1,0,0:0:0:0:
329,192,209579,128,0,209696:0:0:0:0:
256,192,209579,128,0,209743:0:0:0:0:
402,192,209579,128,0,209649:0:0:0:0:
182,192,209649,128,0,209791:0:0:0:0:
36,192,209649,128,0,209720:0:0:0:0:
109,192,209720,128,0,209791:0:0:0:0:
402,192,209720,1,0,0:0:0:0:
329,192,209767,1,0,0:0:0:0:
256,192,209814,1,0,0:0:0:0:
182,192,209861,128,0,209932:0:0:0:0:
36,192,209861,128,0,210026:0:0:0:0:
109,192,209861,128,0,209979:0:0:0:0:
256,192,209932,128,0,210073:0:0:0:0:
402,192,209932,128,0,210002:0:0:0:0:
329,192,210002,128,0,210073:0:0:0:0:
182,192,210002,1,0,0:0:0:0:
109,192,210049,1,0,0:0:0:0:
36,192,210096,1,0,0:0:0:0:
256,192,210143,1,0,0:0:0:0:
402,192,210143,1,0,0:0:0:0:
329,192,210143,1,0,0:0:0:0:
109,192,210214,1,0,0:0:0:0:
182,192,210214,1,0,0:0:0:0:
36,192,210285,128,0,210355:0:0:0:0:
475,192,210285,1,0,0:0:0:0:
256,192,210285,1,0,0:0:0:0:
329,192,210285,128,0,210355:0:0:0:0:
402,192,210355,128,0,210426:0:0:0:0:
109,192,210355,128,0,210426:0:0:0:0:
475,192,210426,128,0,210638:0:0:0:0:
182,192,210426,128,0,210567:0:0:0:0:
402,192,210496,128,0,210638:0:0:0:0:
109,192,210496,128,0,210638:0:0:0:0:
36,192,210567,128,0,210638:0:0:0:0:
329,192,210567,128,0,210708:0:0:0:0:
256,192,210638,128,0,210708:0:0:0:0:
182,192,210638,128,0,210708:0:0:0:0:
109,192,210708,128,0,210779:0:0:0:0:
36,192,210708,128,0,210849:0:0:0:0:
475,192,210708,128,0,210849:0:0:0:0:
402,192,210708,128,0,210849:0:0:0:0:
329,192,210779,128,0,210849:0:0:0:0:
256,192,210779,128,0,210849:0:0:0:0:
182,192,210849,128,0,210920:0:0:0:0:
109,192,210849,128,0,210920:0:0:0:0:
256,192,210920,1,0,0:0:0:0:
329,192,210955,1,0,0:0:0:0:
109,192,210991,128,0,211132:0:0:0:0:
36,192,210991,128,0,211132:0:0:0:0:
402,192,210991,128,0,211061:0:0:0:0:
475,192,210991,128,0,211132:0:0:0:0:
256,192,211061,128,0,211132:0:0:0:0:
182,192,211061,128,0,211132:0:0:0:0:
329,192,211132,128,0,211202:0:0:0:0:
402,192,211132,128,0,211343:0:0:0:0:
182,192,211202,128,0,211273:0:0:0:0:
36,192,211273,128,0,211485:0:0:0:0:
109,192,211273,128,0,211485:0:0:0:0:
475,192,211273,128,0,211343:0:0:0:0:
329,192,211273,128,0,211343:0:0:0:0:
182,192,211343,128,0,211414:0:0:0:0:
256,192,211343,128,0,211414:0:0:0:0:
475,192,211414,128,0,211555:0:0:0:0:
402,192,211438,128,0,211555:0:0:0:0:
329,192,211461,128,0,211555:0:0:0:0:
182,192,211485,128,0,211555:0:0:0:0:
256,192,211555,1,0,0:0:0:0:
109,192,211555,1,0,0:0:0:0:
36,192,211555,1,0,0:0:0:0:
475,192,211626,1,0,0:0:0:0:
402,192,211626,1,0,0:0:0:0:
182,192,211626,1,0,0:0:0:0:
36,192,211696,1,0,0:0:0:0:
109,192,211696,1,0,0:0:0:0:
329,192,211696,1,0,0:0:0:0:
475,192,211767,1,0,0:0:0:0:
402,192,211767,1,0,0:0:0:0:
256,192,211767,1,0,0:0:0:0:
36,192,211838,128,0,211979:0:0:0:0:
329,192,211838,128,0,211979:0:0:0:0:
182,192,211838,128,0,211979:0:0:0:0:
109,192,211838,128,0,211979:0:0:0:0:
256,192,211979,1,0,0:0:0:0:
475,192,211979,1,0,0:0:0:0:
402,192,211979,1,0,0:0:0:0:
36,192,212049,1,0,0:0:0:0:
109,192,212049,1,0,0:0:0:0:
329,192,212049,1,0,0:0:0:0:
475,192,212120,1,0,0:0:0:0:
402,192,212120,1,0,0:0:0:0:
182,192,212120,1,0,0:0:0:0:
36,192,212191,1,0,0:0:0:0:
109,192,212191,1,0,0:0:0:0:
256,192,212191,1,0,0:0:0:0:
329,192,212261,128,0,212402:0:0:0:0:
182,192,212261,128,0,212402:0:0:0:0:
475,192,212261,128,0,212402:0:0:0:0:
402,192,212261,128,0,212402:0:0:0:0:
256,192,212402,1,0,0:0:0:0:
36,192,212426,1,0,0:0:0:0:
109,192,212449,1,0,0:0:0:0:
182,192,212473,1,0,0:0:0:0:
329,192,212496,1,0,0:0:0:0:
402,192,212520,1,0,0:0:0:0:
475,192,212543,1,0,0:0:0:0:
182,192,212614,128,0,212967:0:0:0:0:
402,192,212685,128,0,212755:0:0:0:0:
329,192,212685,128,0,212802:0:0:0:0:
256,192,212685,128,0,212849:0:0:0:0:
36,192,212685,128,0,212755:0:0:0:0:
109,192,212755,128,0,212896:0:0:0:0:
475,192,212755,128,0,212826:0:0:0:0:
36,192,212826,128,0,212896:0:0:0:0:
402,192,212826,1,0,0:0:0:0:
329,192,212873,1,0,0:0:0:0:
256,192,212920,1,0,0:0:0:0:
36,192,212967,128,0,213038:0:0:0:0:
402,192,212967,128,0,213061:0:0:0:0:
475,192,212967,128,0,213132:0:0:0:0:
109,192,213038,128,0,213179:0:0:0:0:
256,192,213038,128,0,213108:0:0:0:0:
182,192,213108,128,0,213179:0:0:0:0:
329,192,213108,1,0,0:0:0:0:
402,192,213155,1,0,0:0:0:0:
36,192,213179,128,0,213532:0:0:0:0:
475,192,213202,1,0,0:0:0:0:
182,192,213249,128,0,213367:0:0:0:0:
256,192,213249,128,0,213320:0:0:0:0:
109,192,213249,128,0,213414:0:0:0:0:
329,192,213320,128,0,213391:0:0:0:0:
402,192,213320,128,0,213461:0:0:0:0:
475,192,213391,128,0,213461:0:0:0:0:
256,192,213391,1,0,0:0:0:0:
182,192,213438,1,0,0:0:0:0:
109,192,213485,1,0,0:0:0:0:
402,192,213532,128,0,213649:0:0:0:0:
475,192,213532,128,0,213696:0:0:0:0:
329,192,213532,128,0,213602:0:0:0:0:
36,192,213602,128,0,213673:0:0:0:0:
256,192,213602,128,0,213743:0:0:0:0:
109,192,213673,128,0,213885:0:0:0:0:
329,192,213673,1,0,0:0:0:0:
182,192,213673,128,0,213743:0:0:0:0:
402,192,213720,1,0,0:0:0:0:
475,192,213767,1,0,0:0:0:0:
182,192,213814,128,0,213885:0:0:0:0:
256,192,213814,128,0,213932:0:0:0:0:
329,192,213814,128,0,213979:0:0:0:0:
402,192,213885,128,0,214096:0:0:0:0:
36,192,213885,128,0,214026:0:0:0:0:
475,192,213955,128,0,214026:0:0:0:0:
109,192,213955,1,0,0:0:0:0:
182,192,214002,1,0,0:0:0:0:
256,192,214049,1,0,0:0:0:0:
109,192,214096,128,0,214261:0:0:0:0:
329,192,214096,128,0,214167:0:0:0:0:
182,192,214096,128,0,214214:0:0:0:0:
36,192,214096,128,0,214167:0:0:0:0:
475,192,214167,1,0,0:0:0:0:
256,192,214167,128,0,214308:0:0:0:0:
329,192,214238,1,0,0:0:0:0:
36,192,214238,128,0,214308:0:0:0:0:
402,192,214285,1,0,0:0:0:0:
182,192,214308,128,0,214661:0:0:0:0:
475,192,214332,1,0,0:0:0:0:
402,192,214379,128,0,214449:0:0:0:0:
329,192,214379,128,0,214520:0:0:0:0:
256,192,214379,128,0,214591:0:0:0:0:
36,192,214379,128,0,214449:0:0:0:0:
109,192,214496,1,0,0:0:0:0:
402,192,214543,1,0,0:0:0:0:
36,192,214591,128,0,214661:0:0:0:0:
109,192,214591,128,0,214661:0:0:0:0:
475,192,214591,128,0,214802:0:0:0:0:
329,192,214591,128,0,214732:0:0:0:0:
256,192,214708,1,0,0:0:0:0:
182,192,214755,1,0,0:0:0:0:
36,192,214802,128,0,214873:0:0:0:0:
109,192,214802,128,0,214873:0:0:0:0:
329,192,214802,128,0,215226:0:0:0:0:
402,192,214802,128,0,214873:0:0:0:0:
256,192,214873,128,0,214943:0:0:0:0:
36,192,214943,128,0,215108:0:0:0:0:
182,192,214943,128,0,215014:0:0:0:0:
109,192,214943,128,0,215061:0:0:0:0:
256,192,215014,128,0,215085:0:0:0:0:
475,192,215014,128,0,215155:0:0:0:0:
402,192,215085,128,0,215155:0:0:0:0:
182,192,215085,1,0,0:0:0:0:
109,192,215132,1,0,0:0:0:0:
36,192,215179,1,0,0:0:0:0:
182,192,215226,128,0,215391:0:0:0:0:
475,192,215226,128,0,215296:0:0:0:0:
256,192,215226,128,0,215343:0:0:0:0:
109,192,215296,128,0,215438:0:0:0:0:
329,192,215296,128,0,215367:0:0:0:0:
402,192,215367,1,0,0:0:0:0:
36,192,215367,128,0,215438:0:0:0:0:
475,192,215367,128,0,215649:0:0:0:0:
256,192,215414,1,0,0:0:0:0:
329,192,215461,1,0,0:0:0:0:
109,192,215508,128,0,215626:0:0:0:0:
182,192,215508,128,0,215673:0:0:0:0:
36,192,215508,128,0,215579:0:0:0:0:
256,192,215579,128,0,215720:0:0:0:0:
402,192,215579,128,0,215649:0:0:0:0:
329,192,215649,128,0,215791:0:0:0:0:
36,192,215649,1,0,0:0:0:0:
109,192,215696,1,0,0:0:0:0:
182,192,215743,1,0,0:0:0:0:
256,192,215791,128,0,215861:0:0:0:0:
475,192,215791,128,0,215955:0:0:0:0:
402,192,215791,128,0,215908:0:0:0:0:
182,192,215861,128,0,215932:0:0:0:0:
109,192,215861,128,0,216002:0:0:0:0:
329,192,215932,1,0,0:0:0:0:
36,192,215932,128,0,216002:0:0:0:0:
256,192,215932,128,0,216355:0:0:0:0:
402,192,215979,1,0,0:0:0:0:
475,192,216026,1,0,0:0:0:0:
109,192,216073,128,0,216191:0:0:0:0:
36,192,216073,128,0,216238:0:0:0:0:
182,192,216073,128,0,216143:0:0:0:0:
329,192,216143,128,0,216214:0:0:0:0:
402,192,216143,128,0,216285:0:0:0:0:
475,192,216214,128,0,216285:0:0:0:0:
182,192,216214,1,0,0:0:0:0:
109,192,216261,1,0,0:0:0:0:
36,192,216308,1,0,0:0:0:0:
475,192,216355,128,0,216520:0:0:0:0:
182,192,216355,128,0,216496:0:0:0:0:
329,192,216355,128,0,216426:0:0:0:0:
402,192,216355,128,0,216473:0:0:0:0:
109,192,216426,128,0,216567:0:0:0:0:
256,192,216426,128,0,216496:0:0:0:0:
36,192,216496,128,0,216638:0:0:0:0:
329,192,216496,1,0,0:0:0:0:
402,192,216543,1,0,0:0:0:0:
475,192,216591,1,0,0:0:0:0:
329,192,216638,128,0,216708:0:0:0:0:
182,192,216638,128,0,216732:0:0:0:0:
109,192,216638,128,0,216779:0:0:0:0:
256,192,216638,128,0,216708:0:0:0:0:
475,192,216708,128,0,216849:0:0:0:0:
36,192,216708,128,0,216779:0:0:0:0:
256,192,216779,128,0,216849:0:0:0:0:
329,192,216779,1,0,0:0:0:0:
402,192,216826,1,0,0:0:0:0:
182,192,216849,128,0,217061:0:0:0:0:
329,192,216873,1,0,0:0:0:0:
256,192,216920,128,0,216991:0:0:0:0:
109,192,216920,128,0,217132:0:0:0:0:
36,192,216920,128,0,216991:0:0:0:0:
475,192,216920,128,0,216991:0:0:0:0:
402,192,216991,128,0,217061:0:0:0:0:
475,192,217061,128,0,217132:0:0:0:0:
329,192,217061,128,0,217485:0:0:0:0:
402,192,217132,128,0,217202:0:0:0:0:
256,192,217132,128,0,217202:0:0:0:0:
182,192,217132,128,0,217202:0:0:0:0:
36,192,217132,128,0,217202:0:0:0:0:
109,192,217202,128,0,217273:0:0:0:0:
402,192,217273,128,0,217343:0:0:0:0:
475,192,217273,128,0,217343:0:0:0:0:
36,192,217273,128,0,217343:0:0:0:0:
256,192,217273,128,0,217343:0:0:0:0:
182,192,217343,128,0,217414:0:0:0:0:
36,192,217414,128,0,217485:0:0:0:0:
182,192,217485,128,0,217602:0:0:0:0:
256,192,217485,128,0,217555:0:0:0:0:
475,192,217485,128,0,217626:0:0:0:0:
109,192,217485,128,0,217649:0:0:0:0:
402,192,217555,128,0,217696:0:0:0:0:
329,192,217626,128,0,217696:0:0:0:0:
256,192,217626,1,0,0:0:0:0:
36,192,217626,128,0,217767:0:0:0:0:
182,192,217673,1,0,0:0:0:0:
109,192,217720,1,0,0:0:0:0:
329,192,217767,128,0,217885:0:0:0:0:
402,192,217767,128,0,217932:0:0:0:0:
475,192,217767,128,0,217908:0:0:0:0:
256,192,217767,128,0,217838:0:0:0:0:
182,192,217838,128,0,217979:0:0:0:0:
256,192,217908,1,0,0:0:0:0:
36,192,217908,128,0,218049:0:0:0:0:
109,192,217908,128,0,217979:0:0:0:0:
329,192,217955,1,0,0:0:0:0:
402,192,218002,1,0,0:0:0:0:
182,192,218049,128,0,218167:0:0:0:0:
109,192,218049,128,0,218214:0:0:0:0:
475,192,218049,128,0,218191:0:0:0:0:
256,192,218049,128,0,218120:0:0:0:0:
329,192,218120,128,0,218261:0:0:0:0:
402,192,218191,128,0,218261:0:0:0:0:
256,192,218191,1,0,0:0:0:0:
36,192,218191,128,0,218332:0:0:0:0:
182,192,218238,1,0,0:0:0:0:
109,192,218285,1,0,0:0:0:0:
182,192,218332,128,0,218449:0:0:0:0:
256,192,218332,128,0,218496:0:0:0:0:
475,192,218332,128,0,218473:0:0:0:0:
329,192,218332,128,0,218402:0:0:0:0:
402,192,218402,128,0,218543:0:0:0:0:
36,192,218473,128,0,218543:0:0:0:0:
109,192,218473,1,0,0:0:0:0:
329,192,218473,128,0,218614:0:0:0:0:
182,192,218520,1,0,0:0:0:0:
256,192,218567,1,0,0:0:0:0:
109,192,218614,128,0,218755:0:0:0:0:
402,192,218614,128,0,218732:0:0:0:0:
475,192,218614,128,0,218779:0:0:0:0:
36,192,218614,128,0,218685:0:0:0:0:
182,192,218685,128,0,218826:0:0:0:0:
36,192,218755,128,0,219038:0:0:0:0:
329,192,218755,1,0,0:0:0:0:
256,192,218755,128,0,218826:0:0:0:0:
402,192,218802,1,0,0:0:0:0:
475,192,218849,1,0,0:0:0:0:
109,192,218896,128,0,219073:0:0:0:0:
256,192,218896,128,0,218967:0:0:0:0:
182,192,218896,128,0,219014:0:0:0:0:
329,192,218896,1,0,0:0:0:0:
402,192,218967,128,0,219108:0:0:0:0:
256,192,219038,1,0,0:0:0:0:
329,192,219038,128,0,219108:0:0:0:0:
475,192,219038,128,0,219320:0:0:0:0:
182,192,219085,1,0,0:0:0:0:
109,192,219132,1,0,0:0:0:0:
329,192,219179,1,0,0:0:0:0:
402,192,219179,1,0,0:0:0:0:
36,192,219226,1,0,0:0:0:0:
109,192,219273,1,0,0:0:0:0:
256,192,219320,128,0,219744:0:0:0:0:
182,192,219320,128,0,219496:0:0:0:0:
329,192,219320,128,0,219461:0:0:0:0:
402,192,219320,128,0,219426:0:0:0:0:
475,192,219461,128,0,219531:0:0:0:0:
402,192,219496,128,0,219567:0:0:0:0:
329,192,219531,128,0,219602:0:0:0:0:
182,192,219567,128,0,219637:0:0:0:0:
109,192,219602,128,0,219673:0:0:0:0:
36,192,219637,128,0,219708:0:0:0:0:
475,192,219673,1,0,0:0:0:0:
402,192,219708,1,0,0:0:0:0:
329,192,219744,128,0,219814:0:0:0:0:
182,192,219744,128,0,219956:0:0:0:0:
109,192,219744,128,0,219885:0:0:0:0:
402,192,219814,128,0,219885:0:0:0:0:
475,192,219814,128,0,219956:0:0:0:0:
256,192,219885,128,0,219956:0:0:0:0:
329,192,219885,128,0,220168:0:0:0:0:
36,192,219956,1,0,0:0:0:0:
109,192,219991,1,0,0:0:0:0:
256,192,220027,128,0,220192:0:0:0:0:
402,192,220027,128,0,220144:0:0:0:0:
475,192,220027,128,0,220097:0:0:0:0:
36,192,220097,128,0,220239:0:0:0:0:
475,192,220168,1,0,0:0:0:0:
182,192,220168,128,0,220451:0:0:0:0:
109,192,220168,128,0,220239:0:0:0:0:
402,192,220215,1,0,0:0:0:0:
329,192,220262,1,0,0:0:0:0:
256,192,220310,128,0,220498:0:0:0:0:
109,192,220310,128,0,220427:0:0:0:0:
475,192,220310,128,0,220380:0:0:0:0:
36,192,220310,128,0,220380:0:0:0:0:
402,192,220380,128,0,220522:0:0:0:0:
36,192,220451,1,0,0:0:0:0:
329,192,220451,128,0,220522:0:0:0:0:
475,192,220451,128,0,220876:0:0:0:0:
109,192,220498,1,0,0:0:0:0:
182,192,220545,1,0,0:0:0:0:
329,192,220593,1,0,0:0:0:0:
256,192,220593,1,0,0:0:0:0:
36,192,220593,1,0,0:0:0:0:
402,192,220593,1,0,0:0:0:0:
182,192,220663,1,0,0:0:0:0:
109,192,220663,1,0,0:0:0:0:
36,192,220734,1,0,0:0:0:0:
329,192,220734,1,0,0:0:0:0:
402,192,220734,1,0,0:0:0:0:
256,192,220805,1,0,0:0:0:0:
182,192,220805,1,0,0:0:0:0:
109,192,220876,1,0,0:0:0:0:
36,192,220876,1,0,0:0:0:0:
329,192,220876,1,0,0:0:0:0:
402,192,220876,1,0,0:0:0:0:
182,192,221017,1,0,0:0:0:0:
109,192,221017,1,0,0:0:0:0:
36,192,221017,128,0,221300:0:0:0:0:
475,192,221017,1,0,0:0:0:0:
256,192,221017,1,0,0:0:0:0:
402,192,221088,1,0,0:0:0:0:
329,192,221088,1,0,0:0:0:0:
109,192,221159,1,0,0:0:0:0:
475,192,221159,1,0,0:0:0:0:
182,192,221159,1,0,0:0:0:0:
256,192,221229,1,0,0:0:0:0:
329,192,221229,1,0,0:0:0:0:
109,192,221300,1,0,0:0:0:0:
475,192,221300,1,0,0:0:0:0:
402,192,221300,1,0,0:0:0:0:
182,192,221300,1,0,0:0:0:0:
256,192,221442,1,0,0:0:0:0:
475,192,221465,1,0,0:0:0:0:
402,192,221489,1,0,0:0:0:0:
329,192,221512,1,0,0:0:0:0:
182,192,221536,1,0,0:0:0:0:
109,192,221560,1,0,0:0:0:0:
402,192,221583,128,0,221654:0:0:0:0:
475,192,221583,128,0,221654:0:0:0:0:
36,192,221583,1,0,0:0:0:0:
256,192,221654,128,0,222008:0:0:0:0:
182,192,221725,128,0,221819:0:0:0:0:
109,192,221725,128,0,221866:0:0:0:0:
36,192,221725,128,0,221913:0:0:0:0:
329,192,221725,1,0,0:0:0:0:
475,192,221772,128,0,221866:0:0:0:0:
402,192,221819,128,0,221913:0:0:0:0:
329,192,221866,128,0,221961:0:0:0:0:
182,192,221913,1,0,0:0:0:0:
109,192,221961,1,0,0:0:0:0:
475,192,222008,1,0,0:0:0:0:
402,192,222008,1,0,0:0:0:0:
36,192,222008,1,0,0:0:0:0:
329,192,222078,1,0,0:0:0:0:
109,192,222149,128,0,222220:0:0:0:0:
402,192,222149,128,0,222220:0:0:0:0:
475,192,222149,128,0,222220:0:0:0:0:
182,192,222149,128,0,222291:0:0:0:0:
256,192,222149,128,0,222361:0:0:0:0:
329,192,222220,1,0,0:0:0:0:
36,192,222291,1,0,0:0:0:0:
475,192,222291,1,0,0:0:0:0:
402,192,222361,1,0,0:0:0:0:
182,192,222361,1,0,0:0:0:0:
36,192,222432,1,0,0:0:0:0:
329,192,222432,1,0,0:0:0:0:
256,192,222432,1,0,0:0:0:0:
109,192,222479,1,0,0:0:0:0:
182,192,222527,1,0,0:0:0:0:
109,192,222574,128,0,222715:0:0:0:0:
36,192,222574,128,0,222786:0:0:0:0:
256,192,222574,128,0,222644:0:0:0:0:
402,192,222574,128,0,222644:0:0:0:0:
475,192,222574,128,0,222644:0:0:0:0:
329,192,222644,128,0,222715:0:0:0:0:
475,192,222715,1,0,0:0:0:0:
182,192,222715,128,0,222786:0:0:0:0:
256,192,222715,1,0,0:0:0:0:
402,192,222762,1,0,0:0:0:0:
329,192,222810,1,0,0:0:0:0:
36,192,222857,128,0,222927:0:0:0:0:
109,192,222857,128,0,222998:0:0:0:0:
256,192,222857,128,0,223069:0:0:0:0:
402,192,222857,128,0,222998:0:0:0:0:
475,192,222857,128,0,222927:0:0:0:0:
182,192,222927,1,0,0:0:0:0:
36,192,222998,1,0,0:0:0:0:
329,192,222998,1,0,0:0:0:0:
109,192,223069,1,0,0:0:0:0:
402,192,223069,1,0,0:0:0:0:
182,192,223140,1,0,0:0:0:0:
475,192,223140,1,0,0:0:0:0:
329,192,223140,1,0,0:0:0:0:
109,192,223211,1,0,0:0:0:0:
329,192,223281,128,0,223352:0:0:0:0:
402,192,223281,128,0,223423:0:0:0:0:
475,192,223281,128,0,223494:0:0:0:0:
256,192,223281,128,0,223352:0:0:0:0:
36,192,223281,128,0,223352:0:0:0:0:
182,192,223352,1,0,0:0:0:0:
329,192,223423,1,0,0:0:0:0:
36,192,223423,1,0,0:0:0:0:
256,192,223494,1,0,0:0:0:0:
109,192,223494,1,0,0:0:0:0:
182,192,223564,1,0,0:0:0:0:
402,192,223564,1,0,0:0:0:0:
475,192,223564,1,0,0:0:0:0:
329,192,223611,1,0,0:0:0:0:
256,192,223659,1,0,0:0:0:0:
36,192,223706,128,0,223777:0:0:0:0:
109,192,223706,128,0,223777:0:0:0:0:
182,192,223706,128,0,223777:0:0:0:0:
475,192,223706,128,0,223847:0:0:0:0:
402,192,223706,128,0,223918:0:0:0:0:
256,192,223777,128,0,223847:0:0:0:0:
109,192,223847,1,0,0:0:0:0:
36,192,223847,1,0,0:0:0:0:
329,192,223847,128,0,223918:0:0:0:0:
182,192,223894,1,0,0:0:0:0:
256,192,223942,1,0,0:0:0:0:
109,192,223989,128,0,224060:0:0:0:0:
36,192,223989,128,0,224130:0:0:0:0:
329,192,223989,128,0,224201:0:0:0:0:
402,192,223989,128,0,224130:0:0:0:0:
475,192,223989,128,0,224060:0:0:0:0:
182,192,224060,128,0,224130:0:0:0:0:
256,192,224130,1,0,0:0:0:0:
109,192,224130,128,0,224201:0:0:0:0:
475,192,224201,1,0,0:0:0:0:
36,192,224201,128,0,224272:0:0:0:0:
402,192,224272,1,0,0:0:0:0:
256,192,224272,1,0,0:0:0:0:
182,192,224272,128,0,224343:0:0:0:0:
109,192,224343,128,0,224413:0:0:0:0:
329,192,224413,128,0,224484:0:0:0:0:
182,192,224413,128,0,224555:0:0:0:0:
36,192,224413,128,0,224626:0:0:0:0:
402,192,224413,128,0,224484:0:0:0:0:
475,192,224413,128,0,224484:0:0:0:0:
256,192,224484,128,0,224555:0:0:0:0:
475,192,224555,1,0,0:0:0:0:
402,192,224555,128,0,224626:0:0:0:0:
109,192,224626,1,0,0:0:0:0:
329,192,224626,128,0,224696:0:0:0:0:
256,192,224696,1,0,0:0:0:0:
36,192,224696,1,0,0:0:0:0:
475,192,224696,128,0,224767:0:0:0:0:
182,192,224744,1,0,0:0:0:0:
109,192,224791,1,0,0:0:0:0:
475,192,224838,128,0,224909:0:0:0:0:
329,192,224838,128,0,224909:0:0:0:0:
256,192,224838,128,0,224909:0:0:0:0:
402,192,224838,128,0,224979:0:0:0:0:
36,192,224838,128,0,225050:0:0:0:0:
182,192,224909,128,0,224979:0:0:0:0:
256,192,224979,1,0,0:0:0:0:
109,192,224979,128,0,225050:0:0:0:0:
475,192,224979,128,0,225050:0:0:0:0:
329,192,225027,1,0,0:0:0:0:
402,192,225074,1,0,0:0:0:0:
256,192,225121,128,0,225262:0:0:0:0:
475,192,225121,128,0,225192:0:0:0:0:
182,192,225121,128,0,225333:0:0:0:0:
36,192,225121,128,0,225192:0:0:0:0:
109,192,225121,128,0,225262:0:0:0:0:
329,192,225192,128,0,225262:0:0:0:0:
36,192,225262,1,0,0:0:0:0:
402,192,225262,128,0,225333:0:0:0:0:
109,192,225333,1,0,0:0:0:0:
329,192,225333,128,0,225404:0:0:0:0:
475,192,225404,1,0,0:0:0:0:
182,192,225404,1,0,0:0:0:0:
256,192,225404,128,0,225475:0:0:0:0:
402,192,225475,128,0,225545:0:0:0:0:
36,192,225545,128,0,225616:0:0:0:0:
109,192,225545,128,0,225616:0:0:0:0:
475,192,225545,128,0,225758:0:0:0:0:
182,192,225545,128,0,225616:0:0:0:0:
329,192,225545,128,0,225687:0:0:0:0:
256,192,225616,128,0,225687:0:0:0:0:
402,192,225687,1,0,0:0:0:0:
182,192,225687,128,0,225758:0:0:0:0:
256,192,225758,1,0,0:0:0:0:
109,192,225758,128,0,225828:0:0:0:0:
475,192,225828,1,0,0:0:0:0:
329,192,225828,1,0,0:0:0:0:
36,192,225828,128,0,225899:0:0:0:0:
182,192,225876,1,0,0:0:0:0:
256,192,225923,1,0,0:0:0:0:
36,192,225970,1,0,0:0:0:0:
109,192,225970,1,0,0:0:0:0:
402,192,225970,1,0,0:0:0:0:
475,192,225970,1,0,0:0:0:0:
329,192,226017,1,0,0:0:0:0:
182,192,226064,1,0,0:0:0:0:
109,192,226064,1,0,0:0:0:0:
256,192,226064,1,0,0:0:0:0:
402,192,226111,1,0,0:0:0:0:
475,192,226159,1,0,0:0:0:0:
36,192,226159,1,0,0:0:0:0:
182,192,226206,1,0,0:0:0:0:
329,192,226206,1,0,0:0:0:0:
109,192,226253,128,0,226394:0:0:0:0:
36,192,226253,128,0,226465:0:0:0:0:
475,192,226253,128,0,226465:0:0:0:0:
402,192,226253,128,0,226394:0:0:0:0:
256,192,226253,128,0,226324:0:0:0:0:
329,192,226324,1,0,0:0:0:0:
182,192,226394,1,0,0:0:0:0:
256,192,226394,1,0,0:0:0:0:
109,192,226465,1,0,0:0:0:0:
402,192,226465,1,0,0:0:0:0:
36,192,226536,1,0,0:0:0:0:
475,192,226536,1,0,0:0:0:0:
256,192,226536,1,0,0:0:0:0:
329,192,226607,1,0,0:0:0:0:
182,192,226677,128,0,226890:0:0:0:0:
109,192,226677,128,0,226819:0:0:0:0:
36,192,226677,128,0,226748:0:0:0:0:
402,192,226677,128,0,226748:0:0:0:0:
475,192,226677,128,0,226748:0:0:0:0:
256,192,226748,1,0,0:0:0:0:
402,192,226819,1,0,0:0:0:0:
475,192,226819,1,0,0:0:0:0:
329,192,226890,1,0,0:0:0:0:
36,192,226890,1,0,0:0:0:0:
109,192,226961,1,0,0:0:0:0:
182,192,226961,1,0,0:0:0:0:
475,192,226961,1,0,0:0:0:0:
402,192,227008,1,0,0:0:0:0:
256,192,227055,1,0,0:0:0:0:
36,192,227102,128,0,227173:0:0:0:0:
109,192,227102,128,0,227173:0:0:0:0:
182,192,227102,128,0,227173:0:0:0:0:
475,192,227102,128,0,227244:0:0:0:0:
329,192,227102,128,0,227314:0:0:0:0:
256,192,227173,128,0,227244:0:0:0:0:
402,192,227244,1,0,0:0:0:0:
36,192,227244,1,0,0:0:0:0:
182,192,227244,128,0,227314:0:0:0:0:
109,192,227291,1,0,0:0:0:0:
256,192,227338,1,0,0:0:0:0:
475,192,227385,128,0,227527:0:0:0:0:
329,192,227385,128,0,227456:0:0:0:0:
402,192,227385,128,0,227597:0:0:0:0:
36,192,227385,128,0,227456:0:0:0:0:
109,192,227385,128,0,227527:0:0:0:0:
182,192,227456,1,0,0:0:0:0:
256,192,227527,1,0,0:0:0:0:
36,192,227527,1,0,0:0:0:0:
329,192,227597,1,0,0:0:0:0:
109,192,227597,1,0,0:0:0:0:
402,192,227668,1,0,0:0:0:0:
475,192,227668,1,0,0:0:0:0:
182,192,227668,1,0,0:0:0:0:
256,192,227739,1,0,0:0:0:0:
475,192,227810,128,0,227880:0:0:0:0:
182,192,227810,128,0,227880:0:0:0:0:
109,192,227810,128,0,228022:0:0:0:0:
402,192,227810,128,0,227880:0:0:0:0:
36,192,227810,128,0,227951:0:0:0:0:
329,192,227880,1,0,0:0:0:0:
475,192,227951,1,0,0:0:0:0:
256,192,227951,1,0,0:0:0:0:
182,192,228022,1,0,0:0:0:0:
402,192,228022,1,0,0:0:0:0:
36,192,228093,1,0,0:0:0:0:
109,192,228093,1,0,0:0:0:0:
329,192,228093,1,0,0:0:0:0:
256,192,228140,1,0,0:0:0:0:
182,192,228187,1,0,0:0:0:0:
329,192,228234,128,0,228376:0:0:0:0:
402,192,228234,128,0,228446:0:0:0:0:
475,192,228234,128,0,228305:0:0:0:0:
36,192,228234,128,0,228305:0:0:0:0:
109,192,228234,128,0,228305:0:0:0:0:
256,192,228305,128,0,228376:0:0:0:0:
475,192,228376,128,0,228446:0:0:0:0:
36,192,228376,1,0,0:0:0:0:
109,192,228376,1,0,0:0:0:0:
182,192,228423,1,0,0:0:0:0:
256,192,228470,1,0,0:0:0:0:
402,192,228517,128,0,228588:0:0:0:0:
475,192,228517,128,0,228659:0:0:0:0:
329,192,228517,1,0,0:0:0:0:
36,192,228517,1,0,0:0:0:0:
109,192,228517,128,0,228588:0:0:0:0:
182,192,228588,128,0,228659:0:0:0:0:
329,192,228659,128,0,228729:0:0:0:0:
256,192,228659,1,0,0:0:0:0:
182,192,228729,128,0,228800:0:0:0:0:
109,192,228729,128,0,228871:0:0:0:0:
36,192,228729,1,0,0:0:0:0:
475,192,228729,1,0,0:0:0:0:
402,192,228729,128,0,228800:0:0:0:0:
256,192,228800,128,0,228871:0:0:0:0:
329,192,228871,128,0,228942:0:0:0:0:
182,192,228871,1,0,0:0:0:0:
36,192,228942,128,0,229012:0:0:0:0:
109,192,228942,128,0,229012:0:0:0:0:
402,192,228942,1,0,0:0:0:0:
475,192,228942,1,0,0:0:0:0:
256,192,228942,128,0,229012:0:0:0:0:
182,192,229012,128,0,229083:0:0:0:0:
109,192,229083,1,0,0:0:0:0:
402,192,229083,128,0,229154:0:0:0:0:
475,192,229083,128,0,229225:0:0:0:0:
36,192,229083,1,0,0:0:0:0:
329,192,229083,128,0,229154:0:0:0:0:
256,192,229154,128,0,229225:0:0:0:0:
36,192,229225,1,0,0:0:0:0:
109,192,229248,1,0,0:0:0:0:
182,192,229272,1,0,0:0:0:0:
329,192,229295,1,0,0:0:0:0:
402,192,229319,1,0,0:0:0:0:
475,192,229343,1,0,0:0:0:0:
36,192,229366,1,0,0:0:0:0:
182,192,229366,128,0,229437:0:0:0:0:
256,192,229366,128,0,229508:0:0:0:0:
109,192,229366,128,0,229437:0:0:0:0:
402,192,229437,128,0,229508:0:0:0:0:
329,192,229437,128,0,229508:0:0:0:0:
109,192,229508,1,0,0:0:0:0:
36,192,229508,1,0,0:0:0:0:
182,192,229555,1,0,0:0:0:0:
329,192,229555,1,0,0:0:0:0:
402,192,229602,1,0,0:0:0:0:
475,192,229602,1,0,0:0:0:0:
109,192,229649,1,0,0:0:0:0:
36,192,229649,1,0,0:0:0:0:
256,192,229649,1,0,0:0:0:0:
182,192,229720,1,0,0:0:0:0:
329,192,229720,1,0,0:0:0:0:
36,192,229791,1,0,0:0:0:0:
256,192,229791,1,0,0:0:0:0:
402,192,229791,1,0,0:0:0:0:
475,192,229791,1,0,0:0:0:0:
329,192,229861,1,0,0:0:0:0:
109,192,229861,1,0,0:0:0:0:
475,192,229932,1,0,0:0:0:0:
36,192,229932,1,0,0:0:0:0:
256,192,229932,1,0,0:0:0:0:
182,192,229932,1,0,0:0:0:0:
109,192,230003,1,0,0:0:0:0:
402,192,230003,1,0,0:0:0:0:
475,192,230074,1,0,0:0:0:0:
36,192,230074,1,0,0:0:0:0:
256,192,230074,1,0,0:0:0:0:
182,192,230074,1,0,0:0:0:0:
329,192,230074,1,0,0:0:0:0:
402,192,230144,1,0,0:0:0:0:
109,192,230144,1,0,0:0:0:0:
475,192,230215,1,0,0:0:0:0:
329,192,230239,1,0,0:0:0:0:
256,192,230262,1,0,0:0:0:0:
182,192,230286,1,0,0:0:0:0:
36,192,230310,1,0,0:0:0:0:
402,192,230333,1,0,0:0:0:0:
329,192,230357,1,0,0:0:0:0:
256,192,230380,1,0,0:0:0:0:
182,192,230404,1,0,0:0:0:0:
109,192,230427,1,0,0:0:0:0:
475,192,230451,1,0,0:0:0:0:
402,192,230475,1,0,0:0:0:0:
182,192,230498,1,0,0:0:0:0:
36,192,230498,1,0,0:0:0:0:
256,192,230522,1,0,0:0:0:0:
329,192,230545,1,0,0:0:0:0:
402,192,230569,1,0,0:0:0:0:
475,192,230593,1,0,0:0:0:0:
109,192,230593,1,0,0:0:0:0:
182,192,230616,1,0,0:0:0:0:
256,192,230640,1,0,0:0:0:0:
329,192,230663,1,0,0:0:0:0:
402,192,230687,1,0,0:0:0:0:
36,192,230687,1,0,0:0:0:0:
109,192,230711,1,0,0:0:0:0:
182,192,230734,1,0,0:0:0:0:
256,192,230758,1,0,0:0:0:0:
329,192,230781,1,0,0:0:0:0:
402,192,230781,1,0,0:0:0:0:
36,192,230781,128,0,234177:0:0:0:0:
475,192,230781,128,0,235310:0:0:0:0:
256,192,231206,128,0,231277:0:0:0:0:
256,192,231347,128,0,231418:0:0:0:0:
256,192,231489,128,0,231560:0:0:0:0:
256,192,231630,128,0,231701:0:0:0:0:
256,192,231772,128,0,231843:0:0:0:0:
256,192,231913,128,0,231984:0:0:0:0:
256,192,232055,128,0,232126:0:0:0:0:
256,192,232196,128,0,232267:0:0:0:0:
256,192,232338,128,0,232409:0:0:0:0:
256,192,232479,128,0,232550:0:0:0:0:
256,192,232621,128,0,232692:0:0:0:0:
256,192,232762,128,0,232833:0:0:0:0:
256,192,232904,128,0,232975:0:0:0:0:
109,192,233045,128,0,233116:0:0:0:0:
109,192,233187,128,0,233258:0:0:0:0:
109,192,233328,128,0,233376:0:0:0:0:
109,192,233470,128,0,233517:0:0:0:0:
402,192,233611,1,0,0:0:0:0:
402,192,233753,1,0,0:0:0:0:
402,192,233894,1,0,0:0:0:0:
402,192,234036,1,0,0:0:0:0:
109,192,234177,1,0,0:0:0:0:
109,192,234319,1,0,0:0:0:0:
109,192,234460,1,0,0:0:0:0:
109,192,234602,1,0,0:0:0:0:
402,192,234744,1,0,0:0:0:0:
402,192,234885,1,0,0:0:0:0:
402,192,235027,1,0,0:0:0:0:
402,192,235168,1,0,0:0:0:0:
36,192,235310,1,0,0:0:0:0:
36,192,235451,1,0,0:0:0:0:
182,192,235593,1,0,0:0:0:0:
182,192,235734,1,0,0:0:0:0:
329,192,235876,1,0,0:0:0:0:
329,192,236017,1,0,0:0:0:0:
475,192,236159,1,0,0:0:0:0:
475,192,236300,1,0,0:0:0:0:
36,192,236442,1,0,0:0:0:0:
182,192,236583,1,0,0:0:0:0:
329,192,236725,1,0,0:0:0:0:
475,192,236866,1,0,0:0:0:0:
36,192,237008,1,0,0:0:0:0:
182,192,237149,1,0,0:0:0:0:
329,192,237291,1,0,0:0:0:0:
475,192,237432,1,0,0:0:0:0:
182,192,237574,128,0,239456:0:0:0:0:
329,192,237730,128,0,239456:0:0:0:0:
475,192,237887,128,0,239456:0:0:0:0:
36,192,238044,128,0,241338:0:0:0:0:
256,192,239456,128,0,243221:0:0:0:0:
402,192,239456,128,0,241338:0:0:0:0:
182,192,241338,128,0,243221:0:0:0:0:
329,192,241338,128,0,243221:0:0:0:0:
475,192,242907,128,0,243221:0:0:0:0:
109,192,243221,1,0,0:0:0:0:
36,192,243221,1,0,0:0:0:0:
402,192,243221,128,0,243691:0:0:0:0:
182,192,243377,128,0,246985:0:0:0:0:
475,192,243534,128,0,246985:0:0:0:0:
329,192,243691,128,0,246985:0:0:0:0:
109,192,243848,1,0,0:0:0:0:
36,192,243848,1,0,0:0:0:0:
109,192,244162,1,0,0:0:0:0:
36,192,244162,1,0,0:0:0:0:
109,192,244789,1,0,0:0:0:0:
36,192,244789,1,0,0:0:0:0:
109,192,245103,1,0,0:0:0:0:
36,192,245103,1,0,0:0:0:0:
109,192,245730,1,0,0:0:0:0:
36,192,245730,1,0,0:0:0:0:
109,192,246044,1,0,0:0:0:0:
36,192,246044,1,0,0:0:0:0:
109,192,246436,1,0,0:0:0:0:
36,192,246436,1,0,0:0:0:0:
109,192,246672,1,0,0:0:0:0:
36,192,246672,1,0,0:0:0:0:
36,192,246985,1,0,0:0:0:0:
256,192,246985,1,0,0:0:0:0:
109,192,246985,128,0,247456:0:0:0:0:
402,192,246985,1,0,0:0:0:0:
329,192,247142,128,0,249809:0:0:0:0:
182,192,247299,128,0,249809:0:0:0:0:
402,192,247377,1,0,0:0:0:0:
475,192,247377,1,0,0:0:0:0:
36,192,247456,128,0,249809:0:0:0:0:
256,192,247613,1,0,0:0:0:0:
402,192,247613,1,0,0:0:0:0:
109,192,247691,1,0,0:0:0:0:
475,192,247691,1,0,0:0:0:0:
256,192,247848,1,0,0:0:0:0:
109,192,247848,1,0,0:0:0:0:
402,192,247926,1,0,0:0:0:0:
475,192,247926,1,0,0:0:0:0:
402,192,248319,1,0,0:0:0:0:
256,192,248319,1,0,0:0:0:0:
402,192,248554,1,0,0:0:0:0:
475,192,248554,1,0,0:0:0:0:
256,192,248554,1,0,0:0:0:0:
475,192,248868,1,0,0:0:0:0:
402,192,248868,1,0,0:0:0:0:
256,192,249495,1,0,0:0:0:0:
402,192,249495,1,0,0:0:0:0:
475,192,249495,1,0,0:0:0:0:
109,192,249574,1,0,0:0:0:0:
475,192,249730,1,0,0:0:0:0:
256,192,249809,128,0,251691:0:0:0:0:
109,192,249809,128,0,251691:0:0:0:0:
402,192,249809,128,0,251691:0:0:0:0:
182,192,250201,1,0,0:0:0:0:
36,192,250201,1,0,0:0:0:0:
329,192,250201,1,0,0:0:0:0:
182,192,250436,1,0,0:0:0:0:
36,192,250436,1,0,0:0:0:0:
36,192,250750,1,0,0:0:0:0:
182,192,250750,1,0,0:0:0:0:
329,192,251142,1,0,0:0:0:0:
475,192,251142,1,0,0:0:0:0:
182,192,251377,1,0,0:0:0:0:
36,192,251377,1,0,0:0:0:0:
329,192,251377,1,0,0:0:0:0:
475,192,251456,1,0,0:0:0:0:
182,192,251613,1,0,0:0:0:0:
36,192,251691,128,0,254515:0:0:0:0:
475,192,251691,128,0,254515:0:0:0:0:
329,192,251691,1,0,0:0:0:0:
256,192,252083,1,0,0:0:0:0:
402,192,252083,1,0,0:0:0:0:
109,192,252319,1,0,0:0:0:0:
402,192,252319,1,0,0:0:0:0:
256,192,252319,1,0,0:0:0:0:
256,192,252632,1,0,0:0:0:0:
109,192,252632,1,0,0:0:0:0:
109,192,253260,1,0,0:0:0:0:
182,192,253260,1,0,0:0:0:0:
256,192,253260,1,0,0:0:0:0:
329,192,253417,1,0,0:0:0:0:
402,192,253417,1,0,0:0:0:0:
182,192,253574,1,0,0:0:0:0:
109,192,253574,1,0,0:0:0:0:
402,192,253730,1,0,0:0:0:0:
256,192,253730,1,0,0:0:0:0:
256,192,253966,1,0,0:0:0:0:
109,192,253966,1,0,0:0:0:0:
402,192,253966,1,0,0:0:0:0:
402,192,254201,1,0,0:0:0:0:
256,192,254201,1,0,0:0:0:0:
109,192,254201,1,0,0:0:0:0:
109,192,254515,1,0,0:0:0:0:
182,192,254515,1,0,0:0:0:0:
329,192,254515,1,0,0:0:0:0:
402,192,254515,1,0,0:0:0:0:
256,192,254515,128,0,255377:0:0:0:0:
475,192,254985,1,0,0:0:0:0:
475,192,255377,1,0,0:0:0:0:
475,192,255926,1,0,0:0:0:0:
475,192,256319,1,0,0:0:0:0:
475,192,256868,1,0,0:0:0:0:
475,192,257260,1,0,0:0:0:0:
182,192,258603,1,0,0:0:0:0:
329,192,258669,1,0,0:0:0:0:
182,192,258735,1,0,0:0:0:0:
329,192,258802,1,0,0:0:0:0:
182,192,258868,1,0,0:0:0:0:
109,192,258868,1,0,0:0:0:0:
329,192,258934,1,0,0:0:0:0:
402,192,258934,1,0,0:0:0:0:
182,192,259001,1,0,0:0:0:0:
109,192,259001,1,0,0:0:0:0:
329,192,259067,1,0,0:0:0:0:
402,192,259067,1,0,0:0:0:0:
182,192,259133,1,0,0:0:0:0:
109,192,259133,1,0,0:0:0:0:
36,192,259211,1,0,0:0:0:0:
402,192,259211,128,0,259367:0:0:0:0:
475,192,259211,128,0,259367:0:0:0:0:
256,192,259211,128,0,259289:0:0:0:0:
329,192,259211,128,0,259289:0:0:0:0:
329,192,259367,1,0,0:0:0:0:
109,192,259446,1,0,0:0:0:0:
256,192,259446,1,0,0:0:0:0:
36,192,259446,1,0,0:0:0:0:
475,192,259446,1,0,0:0:0:0:
36,192,259603,128,0,259838:0:0:0:0:
109,192,259603,128,0,259838:0:0:0:0:
182,192,259603,128,0,259838:0:0:0:0:
256,192,259603,128,0,259838:0:0:0:0:
475,192,259603,128,0,259838:0:0:0:0:
329,192,259838,1,0,0:0:0:0:
402,192,259916,1,0,0:0:0:0:
109,192,259916,1,0,0:0:0:0:
36,192,259916,1,0,0:0:0:0:
475,192,259916,1,0,0:0:0:0:
182,192,259995,1,0,0:0:0:0:
109,192,260073,128,0,260387:0:0:0:0:
36,192,260073,128,0,260387:0:0:0:0:
402,192,260073,128,0,260387:0:0:0:0:
475,192,260073,128,0,260387:0:0:0:0:
256,192,260073,128,0,260309:0:0:0:0:
182,192,260387,1,0,0:0:0:0:
256,192,260387,1,0,0:0:0:0:
329,192,260387,1,0,0:0:0:0:
109,192,260465,1,0,0:0:0:0:
36,192,260544,128,0,260779:0:0:0:0:
182,192,260544,128,0,260779:0:0:0:0:
256,192,260544,128,0,260701:0:0:0:0:
329,192,260544,128,0,260779:0:0:0:0:
475,192,260544,128,0,260779:0:0:0:0:
109,192,260779,1,0,0:0:0:0:
256,192,260779,1,0,0:0:0:0:
402,192,260779,1,0,0:0:0:0:
182,192,260858,128,0,261014:0:0:0:0:
36,192,260858,128,0,261014:0:0:0:0:
329,192,260858,1,0,0:0:0:0:
475,192,260858,1,0,0:0:0:0:
402,192,260936,1,0,0:0:0:0:
329,192,261014,1,0,0:0:0:0:
256,192,261093,1,0,0:0:0:0:
475,192,261093,1,0,0:0:0:0:
402,192,261093,1,0,0:0:0:0:
182,192,261093,128,0,261563:0:0:0:0:
109,192,261122,128,0,261622:0:0:0:0:
36,192,261152,128,0,261681:0:0:0:0:
402,192,261250,1,0,0:0:0:0:
329,192,261328,1,0,0:0:0:0:
475,192,261328,1,0,0:0:0:0:
475,192,261485,1,0,0:0:0:0:
256,192,261485,1,0,0:0:0:0:
402,192,261485,1,0,0:0:0:0:
329,192,261563,128,0,261681:0:0:0:0:
256,192,261622,128,0,261740:0:0:0:0:
182,192,261681,128,0,261799:0:0:0:0:
109,192,261740,128,0,261916:0:0:0:0:
475,192,261799,1,0,0:0:0:0:
402,192,261799,1,0,0:0:0:0:
36,192,261799,128,0,261858:0:0:0:0:
182,192,261858,128,0,261975:0:0:0:0:
256,192,261916,128,0,262034:0:0:0:0:
475,192,261956,1,0,0:0:0:0:
329,192,261975,128,0,262093:0:0:0:0:
182,192,262034,1,0,0:0:0:0:
36,192,262034,1,0,0:0:0:0:
402,192,262034,128,0,262269:0:0:0:0:
475,192,262112,128,0,262191:0:0:0:0:
36,192,262191,1,0,0:0:0:0:
329,192,262191,128,0,262328:0:0:0:0:
182,192,262269,1,0,0:0:0:0:
109,192,262269,1,0,0:0:0:0:
256,192,262269,128,0,262661:0:0:0:0:
475,192,262387,128,0,262661:0:0:0:0:
109,192,262426,1,0,0:0:0:0:
36,192,262426,1,0,0:0:0:0:
182,192,262505,1,0,0:0:0:0:
329,192,262505,1,0,0:0:0:0:
402,192,262505,128,0,262661:0:0:0:0:
475,192,262740,1,0,0:0:0:0:
109,192,262740,128,0,262896:0:0:0:0:
36,192,262740,128,0,262896:0:0:0:0:
256,192,262740,128,0,262818:0:0:0:0:
402,192,262740,128,0,262818:0:0:0:0:
182,192,262896,1,0,0:0:0:0:
402,192,262975,1,0,0:0:0:0:
256,192,262975,1,0,0:0:0:0:
475,192,262975,1,0,0:0:0:0:
36,192,262975,1,0,0:0:0:0:
475,192,263132,128,0,263367:0:0:0:0:
402,192,263132,128,0,263367:0:0:0:0:
256,192,263132,128,0,263367:0:0:0:0:
182,192,263132,128,0,263367:0:0:0:0:
36,192,263132,128,0,263367:0:0:0:0:
329,192,263367,1,0,0:0:0:0:
256,192,263445,1,0,0:0:0:0:
402,192,263445,1,0,0:0:0:0:
475,192,263445,1,0,0:0:0:0:
36,192,263445,1,0,0:0:0:0:
182,192,263524,1,0,0:0:0:0:
402,192,263602,128,0,263916:0:0:0:0:
475,192,263602,128,0,263916:0:0:0:0:
109,192,263602,128,0,263916:0:0:0:0:
36,192,263602,128,0,263916:0:0:0:0:
256,192,263602,128,0,263838:0:0:0:0:
256,192,263916,1,0,0:0:0:0:
182,192,263916,1,0,0:0:0:0:
329,192,263916,128,0,263994:0:0:0:0:
402,192,263994,128,0,264308:0:0:0:0:
475,192,264073,128,0,264563:0:0:0:0:
329,192,264073,128,0,264524:0:0:0:0:
256,192,264073,128,0,264308:0:0:0:0:
182,192,264073,128,0,264485:0:0:0:0:
109,192,264210,1,0,0:0:0:0:
36,192,264210,1,0,0:0:0:0:
109,192,264347,1,0,0:0:0:0:
36,192,264347,1,0,0:0:0:0:
256,192,264387,128,0,264504:0:0:0:0:
402,192,264387,128,0,264543:0:0:0:0:
109,192,264485,1,0,0:0:0:0:
36,192,264485,1,0,0:0:0:0:
256,192,264622,1,0,0:0:0:0:
36,192,264622,1,0,0:0:0:0:
182,192,264622,1,0,0:0:0:0:
329,192,264622,128,0,264857:0:0:0:0:
402,192,264651,128,0,264916:0:0:0:0:
475,192,264681,128,0,265328:0:0:0:0:
109,192,264779,1,0,0:0:0:0:
256,192,264857,1,0,0:0:0:0:
36,192,264857,1,0,0:0:0:0:
182,192,264975,128,0,265092:0:0:0:0:
329,192,265014,1,0,0:0:0:0:
402,192,265014,1,0,0:0:0:0:
109,192,265034,128,0,265210:0:0:0:0:
256,192,265092,128,0,265210:0:0:0:0:
36,192,265092,1,0,0:0:0:0:
182,192,265151,128,0,265328:0:0:0:0:
329,192,265210,128,0,265328:0:0:0:0:
256,192,265269,128,0,265445:0:0:0:0:
402,192,265328,128,0,265445:0:0:0:0:
109,192,265328,1,0,0:0:0:0:
36,192,265328,1,0,0:0:0:0:
329,192,265387,128,0,265563:0:0:0:0:
475,192,265445,128,0,265720:0:0:0:0:
182,192,265485,1,0,0:0:0:0:
402,192,265504,128,0,265641:0:0:0:0:
109,192,265563,1,0,0:0:0:0:
36,192,265563,1,0,0:0:0:0:
182,192,265602,1,0,0:0:0:0:
256,192,265641,1,0,0:0:0:0:
329,192,265681,1,0,0:0:0:0:
402,192,265720,1,0,0:0:0:0:
36,192,265720,1,0,0:0:0:0:
109,192,265759,1,0,0:0:0:0:
329,192,265798,1,0,0:0:0:0:
256,192,265798,1,0,0:0:0:0:
182,192,265798,128,0,266190:0:0:0:0:
475,192,265798,1,0,0:0:0:0:
36,192,265955,128,0,266190:0:0:0:0:
402,192,265955,1,0,0:0:0:0:
329,192,265955,1,0,0:0:0:0:
109,192,265955,128,0,266190:0:0:0:0:
475,192,266034,1,0,0:0:0:0:
256,192,266034,1,0,0:0:0:0:
329,192,266190,1,0,0:0:0:0:
256,192,266269,128,0,266425:0:0:0:0:
36,192,266269,128,0,266425:0:0:0:0:
402,192,266269,128,0,266347:0:0:0:0:
475,192,266269,128,0,266425:0:0:0:0:
109,192,266269,128,0,266347:0:0:0:0:
109,192,266425,1,0,0:0:0:0:
182,192,266425,1,0,0:0:0:0:
329,192,266484,1,0,0:0:0:0:
475,192,266484,1,0,0:0:0:0:
256,192,266504,1,0,0:0:0:0:
182,192,266543,1,0,0:0:0:0:
36,192,266543,1,0,0:0:0:0:
329,192,266602,1,0,0:0:0:0:
402,192,266602,1,0,0:0:0:0:
36,192,266661,128,0,266896:0:0:0:0:
109,192,266661,128,0,266837:0:0:0:0:
182,192,266661,128,0,266837:0:0:0:0:
475,192,266661,128,0,266896:0:0:0:0:
256,192,266700,128,0,266837:0:0:0:0:
329,192,266837,1,0,0:0:0:0:
402,192,266837,1,0,0:0:0:0:
182,192,266896,1,0,0:0:0:0:
109,192,266896,1,0,0:0:0:0:
329,192,266955,1,0,0:0:0:0:
475,192,266955,1,0,0:0:0:0:
256,192,266974,1,0,0:0:0:0:
36,192,267014,1,0,0:0:0:0:
182,192,267014,1,0,0:0:0:0:
402,192,267072,1,0,0:0:0:0:
475,192,267072,1,0,0:0:0:0:
329,192,267131,128,0,267308:0:0:0:0:
256,192,267131,128,0,267386:0:0:0:0:
182,192,267131,128,0,267386:0:0:0:0:
109,192,267131,128,0,267386:0:0:0:0:
36,192,267131,128,0,267386:0:0:0:0:
402,192,267308,128,0,267445:0:0:0:0:
36,192,267445,1,0,0:0:0:0:
109,192,267445,1,0,0:0:0:0:
329,192,267445,1,0,0:0:0:0:
182,192,267504,1,0,0:0:0:0:
256,192,267504,1,0,0:0:0:0:
475,192,267523,1,0,0:0:0:0:
109,192,267563,1,0,0:0:0:0:
36,192,267563,1,0,0:0:0:0:
182,192,267621,128,0,268385:0:0:0:0:
256,192,267621,128,0,268385:0:0:0:0:
329,192,267621,128,0,268385:0:0:0:0:
402,192,267661,128,0,269209:0:0:0:0:
475,192,267661,128,0,269209:0:0:0:0:
36,192,268385,1,0,0:0:0:0:
109,192,268385,1,0,0:0:0:0:
36,192,268621,1,0,0:0:0:0:
256,192,268856,1,0,0:0:0:0:
256,192,268974,1,0,0:0:0:0:
256,192,269091,1,0,0:0:0:0:
109,192,269209,1,0,0:0:0:0:
182,192,269209,1,0,0:0:0:0:
329,192,269268,1,0,0:0:0:0:
402,192,269268,1,0,0:0:0:0:
109,192,269327,1,0,0:0:0:0:
182,192,269327,1,0,0:0:0:0:
402,192,269385,1,0,0:0:0:0:
329,192,269385,1,0,0:0:0:0:
182,192,269444,1,0,0:0:0:0:
36,192,269444,1,0,0:0:0:0:
109,192,269444,1,0,0:0:0:0:
329,192,269503,1,0,0:0:0:0:
402,192,269503,1,0,0:0:0:0:
475,192,269503,1,0,0:0:0:0:
256,192,269562,1,0,0:0:0:0:
182,192,269562,1,0,0:0:0:0:
109,192,269562,1,0,0:0:0:0:
36,192,269562,1,0,0:0:0:0:
256,192,269680,1,0,0:0:0:0:
402,192,269680,1,0,0:0:0:0:
475,192,269680,1,0,0:0:0:0:
109,192,269797,1,0,0:0:0:0:
402,192,269915,1,0,0:0:0:0:
475,192,269915,1,0,0:0:0:0:
109,192,269915,1,0,0:0:0:0:
36,192,269915,1,0,0:0:0:0:
329,192,270032,1,0,0:0:0:0:
182,192,270150,1,0,0:0:0:0:
329,192,270150,1,0,0:0:0:0:
475,192,270150,1,0,0:0:0:0:
36,192,270268,1,0,0:0:0:0:
475,192,270385,1,0,0:0:0:0:
256,192,270385,1,0,0:0:0:0:
36,192,270385,1,0,0:0:0:0:
109,192,270385,1,0,0:0:0:0:
402,192,270503,1,0,0:0:0:0:
329,192,270621,1,0,0:0:0:0:
402,192,270621,1,0,0:0:0:0:
109,192,270621,1,0,0:0:0:0:
182,192,270621,1,0,0:0:0:0:
109,192,270738,1,0,0:0:0:0:
256,192,270738,1,0,0:0:0:0:
475,192,270738,1,0,0:0:0:0:
402,192,270856,1,0,0:0:0:0:
329,192,270974,1,0,0:0:0:0:
182,192,270974,1,0,0:0:0:0:
36,192,270974,1,0,0:0:0:0:
109,192,270974,1,0,0:0:0:0:
182,192,271091,1,0,0:0:0:0:
36,192,271091,1,0,0:0:0:0:
329,192,271091,1,0,0:0:0:0:
109,192,271091,1,0,0:0:0:0:
182,192,271209,1,0,0:0:0:0:
256,192,271209,1,0,0:0:0:0:
402,192,271209,1,0,0:0:0:0:
475,192,271209,1,0,0:0:0:0:
329,192,271327,1,0,0:0:0:0:
36,192,271444,1,0,0:0:0:0:
475,192,271444,1,0,0:0:0:0:
402,192,271444,1,0,0:0:0:0:
256,192,271444,1,0,0:0:0:0:
36,192,271562,1,0,0:0:0:0:
109,192,271562,1,0,0:0:0:0:
182,192,271562,1,0,0:0:0:0:
182,192,271680,1,0,0:0:0:0:
329,192,271680,1,0,0:0:0:0:
256,192,271680,1,0,0:0:0:0:
402,192,271797,1,0,0:0:0:0:
329,192,271797,1,0,0:0:0:0:
475,192,271797,1,0,0:0:0:0:
36,192,271797,1,0,0:0:0:0:
475,192,271915,1,0,0:0:0:0:
329,192,272032,1,0,0:0:0:0:
256,192,272032,1,0,0:0:0:0:
402,192,272032,1,0,0:0:0:0:
182,192,272150,1,0,0:0:0:0:
256,192,272150,1,0,0:0:0:0:
109,192,272150,1,0,0:0:0:0:
36,192,272268,1,0,0:0:0:0:
402,192,272268,1,0,0:0:0:0:
475,192,272268,1,0,0:0:0:0:
109,192,272268,1,0,0:0:0:0:
402,192,272385,1,0,0:0:0:0:
182,192,272503,1,0,0:0:0:0:
36,192,272503,1,0,0:0:0:0:
329,192,272503,1,0,0:0:0:0:
475,192,272503,1,0,0:0:0:0:
182,192,272621,1,0,0:0:0:0:
256,192,272621,1,0,0:0:0:0:
402,192,272621,1,0,0:0:0:0:
36,192,272738,1,0,0:0:0:0:
109,192,272738,1,0,0:0:0:0:
475,192,272738,1,0,0:0:0:0:
402,192,272738,1,0,0:0:0:0:
109,192,272856,1,0,0:0:0:0:
256,192,272856,1,0,0:0:0:0:
329,192,272856,1,0,0:0:0:0:
329,192,272974,1,0,0:0:0:0:
182,192,272974,1,0,0:0:0:0:
36,192,272974,1,0,0:0:0:0:
475,192,272974,1,0,0:0:0:0:
256,192,273032,1,0,0:0:0:0:
182,192,273091,1,0,0:0:0:0:
36,192,273091,1,0,0:0:0:0:
475,192,273091,1,0,0:0:0:0:
402,192,273091,128,0,273149:0:0:0:0:
402,192,273208,128,0,273443:0:0:0:0:
109,192,273208,1,0,0:0:0:0:
329,192,273208,1,0,0:0:0:0:
256,192,273326,1,0,0:0:0:0:
109,192,273443,128,0,273502:0:0:0:0:
36,192,273443,1,0,0:0:0:0:
256,192,273443,1,0,0:0:0:0:
329,192,273443,1,0,0:0:0:0:
109,192,273561,128,0,273796:0:0:0:0:
475,192,273561,1,0,0:0:0:0:
256,192,273679,1,0,0:0:0:0:
402,192,273679,1,0,0:0:0:0:
475,192,273796,128,0,273855:0:0:0:0:
182,192,273796,1,0,0:0:0:0:
475,192,273914,128,0,274149:0:0:0:0:
36,192,273914,1,0,0:0:0:0:
182,192,273914,1,0,0:0:0:0:
329,192,273914,1,0,0:0:0:0:
109,192,274032,1,0,0:0:0:0:
36,192,274149,128,0,274208:0:0:0:0:
329,192,274149,1,0,0:0:0:0:
256,192,274149,1,0,0:0:0:0:
109,192,274149,1,0,0:0:0:0:
36,192,274267,128,0,274502:0:0:0:0:
402,192,274267,1,0,0:0:0:0:
475,192,274267,1,0,0:0:0:0:
256,192,274267,1,0,0:0:0:0:
182,192,274385,1,0,0:0:0:0:
475,192,274502,128,0,274561:0:0:0:0:
329,192,274502,1,0,0:0:0:0:
109,192,274502,1,0,0:0:0:0:
182,192,274502,1,0,0:0:0:0:
36,192,274620,128,0,274679:0:0:0:0:
182,192,274620,1,0,0:0:0:0:
109,192,274620,1,0,0:0:0:0:
329,192,274620,1,0,0:0:0:0:
256,192,274738,128,0,274796:0:0:0:0:
329,192,274738,1,0,0:0:0:0:
402,192,274738,1,0,0:0:0:0:
109,192,274855,1,0,0:0:0:0:
475,192,274855,128,0,274973:0:0:0:0:
402,192,274973,1,0,0:0:0:0:
329,192,274973,1,0,0:0:0:0:
36,192,274973,1,0,0:0:0:0:
109,192,274973,1,0,0:0:0:0:
182,192,275091,1,0,0:0:0:0:
329,192,275091,1,0,0:0:0:0:
256,192,275091,1,0,0:0:0:0:
256,192,275208,1,0,0:0:0:0:
109,192,275208,1,0,0:0:0:0:
182,192,275208,1,0,0:0:0:0:
109,192,275326,1,0,0:0:0:0:
36,192,275326,1,0,0:0:0:0:
182,192,275326,1,0,0:0:0:0:
329,192,275326,1,0,0:0:0:0:
475,192,275443,1,0,0:0:0:0:
256,192,275561,1,0,0:0:0:0:
402,192,275561,1,0,0:0:0:0:
329,192,275561,1,0,0:0:0:0:
475,192,275679,1,0,0:0:0:0:
402,192,275679,1,0,0:0:0:0:
329,192,275679,1,0,0:0:0:0:
475,192,275796,1,0,0:0:0:0:
256,192,275796,1,0,0:0:0:0:
36,192,275796,1,0,0:0:0:0:
109,192,275796,1,0,0:0:0:0:
256,192,275914,1,0,0:0:0:0:
402,192,276032,1,0,0:0:0:0:
36,192,276032,1,0,0:0:0:0:
182,192,276032,1,0,0:0:0:0:
329,192,276032,1,0,0:0:0:0:
329,192,276149,1,0,0:0:0:0:
256,192,276149,1,0,0:0:0:0:
109,192,276149,1,0,0:0:0:0:
475,192,276267,1,0,0:0:0:0:
402,192,276267,1,0,0:0:0:0:
36,192,276267,1,0,0:0:0:0:
109,192,276267,1,0,0:0:0:0:
402,192,276385,1,0,0:0:0:0:
256,192,276385,1,0,0:0:0:0:
182,192,276385,1,0,0:0:0:0:
475,192,276502,1,0,0:0:0:0:
182,192,276502,1,0,0:0:0:0:
329,192,276502,1,0,0:0:0:0:
109,192,276561,1,0,0:0:0:0:
256,192,276561,1,0,0:0:0:0:
402,192,276620,1,0,0:0:0:0:
475,192,276620,1,0,0:0:0:0:
182,192,276620,1,0,0:0:0:0:
36,192,276620,128,0,277090:0:0:0:0:
182,192,276737,128,0,277208:0:0:0:0:
402,192,276737,1,0,0:0:0:0:
256,192,276737,1,0,0:0:0:0:
329,192,276855,128,0,277325:0:0:0:0:
475,192,276972,128,0,277443:0:0:0:0:
109,192,276972,1,0,0:0:0:0:
256,192,276972,1,0,0:0:0:0:
402,192,276972,1,0,0:0:0:0:
109,192,277090,1,0,0:0:0:0:
36,192,277208,1,0,0:0:0:0:
256,192,277208,1,0,0:0:0:0:
402,192,277208,1,0,0:0:0:0:
182,192,277325,1,0,0:0:0:0:
329,192,277443,1,0,0:0:0:0:
402,192,277443,1,0,0:0:0:0:
182,192,277443,1,0,0:0:0:0:
109,192,277443,1,0,0:0:0:0:
256,192,277561,1,0,0:0:0:0:
256,192,277678,1,0,0:0:0:0:
475,192,277678,1,0,0:0:0:0:
402,192,277678,1,0,0:0:0:0:
36,192,277678,1,0,0:0:0:0:
329,192,277796,1,0,0:0:0:0:
475,192,277796,1,0,0:0:0:0:
182,192,277796,1,0,0:0:0:0:
109,192,277914,1,0,0:0:0:0:
182,192,278031,1,0,0:0:0:0:
329,192,278031,1,0,0:0:0:0:
402,192,278031,1,0,0:0:0:0:
475,192,278031,1,0,0:0:0:0:
475,192,278149,1,0,0:0:0:0:
402,192,278149,1,0,0:0:0:0:
329,192,278149,1,0,0:0:0:0:
182,192,278149,1,0,0:0:0:0:
36,192,278267,1,0,0:0:0:0:
109,192,278267,1,0,0:0:0:0:
256,192,278267,1,0,0:0:0:0:
329,192,278267,1,0,0:0:0:0:
182,192,278384,1,0,0:0:0:0:
36,192,278502,1,0,0:0:0:0:
475,192,278502,1,0,0:0:0:0:
402,192,278502,1,0,0:0:0:0:
329,192,278502,1,0,0:0:0:0:
109,192,278620,1,0,0:0:0:0:
182,192,278620,1,0,0:0:0:0:
256,192,278620,1,0,0:0:0:0:
182,192,278737,1,0,0:0:0:0:
256,192,278737,1,0,0:0:0:0:
329,192,278737,1,0,0:0:0:0:
256,192,278855,1,0,0:0:0:0:
329,192,278855,1,0,0:0:0:0:
402,192,278855,1,0,0:0:0:0:
36,192,278855,1,0,0:0:0:0:
36,192,278972,1,0,0:0:0:0:
109,192,279090,1,0,0:0:0:0:
402,192,279090,1,0,0:0:0:0:
256,192,279090,1,0,0:0:0:0:
475,192,279208,1,0,0:0:0:0:
402,192,279208,1,0,0:0:0:0:
329,192,279208,1,0,0:0:0:0:
182,192,279325,1,0,0:0:0:0:
109,192,279325,1,0,0:0:0:0:
36,192,279325,1,0,0:0:0:0:
475,192,279325,1,0,0:0:0:0:
36,192,279443,1,0,0:0:0:0:
182,192,279561,1,0,0:0:0:0:
402,192,279561,1,0,0:0:0:0:
475,192,279561,1,0,0:0:0:0:
109,192,279561,1,0,0:0:0:0:
475,192,279678,1,0,0:0:0:0:
36,192,279678,1,0,0:0:0:0:
256,192,279678,1,0,0:0:0:0:
109,192,279796,1,0,0:0:0:0:
36,192,279796,1,0,0:0:0:0:
329,192,279796,1,0,0:0:0:0:
402,192,279796,1,0,0:0:0:0:
182,192,279914,1,0,0:0:0:0:
402,192,279914,1,0,0:0:0:0:
475,192,279914,1,0,0:0:0:0:
182,192,280031,1,0,0:0:0:0:
36,192,280031,1,0,0:0:0:0:
256,192,280031,1,0,0:0:0:0:
329,192,280031,1,0,0:0:0:0:
402,192,280090,1,0,0:0:0:0:
256,192,280149,1,0,0:0:0:0:
36,192,280149,1,0,0:0:0:0:
109,192,280149,1,0,0:0:0:0:
475,192,280149,128,0,280207:0:0:0:0:
475,192,280266,128,0,280384:0:0:0:0:
109,192,280266,1,0,0:0:0:0:
329,192,280266,1,0,0:0:0:0:
182,192,280384,1,0,0:0:0:0:
402,192,280384,128,0,280501:0:0:0:0:
109,192,280501,128,0,280560:0:0:0:0:
256,192,280501,1,0,0:0:0:0:
182,192,280501,1,0,0:0:0:0:
329,192,280501,1,0,0:0:0:0:
109,192,280619,128,0,280737:0:0:0:0:
475,192,280619,1,0,0:0:0:0:
256,192,280737,1,0,0:0:0:0:
402,192,280737,1,0,0:0:0:0:
36,192,280737,128,0,280854:0:0:0:0:
402,192,280854,128,0,280913:0:0:0:0:
182,192,280854,1,0,0:0:0:0:
402,192,280972,128,0,281090:0:0:0:0:
256,192,280972,1,0,0:0:0:0:
182,192,280972,1,0,0:0:0:0:
329,192,280972,1,0,0:0:0:0:
109,192,281090,1,0,0:0:0:0:
475,192,281090,128,0,281207:0:0:0:0:
36,192,281207,128,0,281266:0:0:0:0:
329,192,281207,1,0,0:0:0:0:
256,192,281207,1,0,0:0:0:0:
109,192,281207,1,0,0:0:0:0:
402,192,281325,1,0,0:0:0:0:
475,192,281325,1,0,0:0:0:0:
256,192,281325,1,0,0:0:0:0:
36,192,281325,128,0,281443:0:0:0:0:
329,192,281443,1,0,0:0:0:0:
109,192,281443,128,0,281560:0:0:0:0:
475,192,281560,128,0,281619:0:0:0:0:
329,192,281560,1,0,0:0:0:0:
402,192,281560,1,0,0:0:0:0:
182,192,281560,1,0,0:0:0:0:
36,192,281678,128,0,281737:0:0:0:0:
182,192,281678,1,0,0:0:0:0:
402,192,281678,1,0,0:0:0:0:
329,192,281678,1,0,0:0:0:0:
256,192,281796,128,0,281854:0:0:0:0:
475,192,281796,1,0,0:0:0:0:
109,192,281796,1,0,0:0:0:0:
36,192,281913,1,0,0:0:0:0:
475,192,281913,128,0,282031:0:0:0:0:
329,192,281913,128,0,282031:0:0:0:0:
402,192,281913,128,0,282031:0:0:0:0:
256,192,282031,1,0,0:0:0:0:
182,192,282031,1,0,0:0:0:0:
109,192,282031,1,0,0:0:0:0:
36,192,282031,1,0,0:0:0:0:
475,192,282149,1,0,0:0:0:0:
402,192,282149,1,0,0:0:0:0:
329,192,282149,1,0,0:0:0:0:
256,192,282266,1,0,0:0:0:0:
402,192,282266,1,0,0:0:0:0:
329,192,282266,1,0,0:0:0:0:
36,192,282384,1,0,0:0:0:0:
329,192,282384,1,0,0:0:0:0:
256,192,282384,1,0,0:0:0:0:
182,192,282384,1,0,0:0:0:0:
109,192,282501,1,0,0:0:0:0:
402,192,282619,1,0,0:0:0:0:
329,192,282619,1,0,0:0:0:0:
256,192,282619,1,0,0:0:0:0:
182,192,282737,1,0,0:0:0:0:
256,192,282737,1,0,0:0:0:0:
109,192,282737,1,0,0:0:0:0:
402,192,282854,1,0,0:0:0:0:
475,192,282854,1,0,0:0:0:0:
36,192,282854,1,0,0:0:0:0:
329,192,282854,1,0,0:0:0:0:
36,192,282972,1,0,0:0:0:0:
329,192,282972,1,0,0:0:0:0:
402,192,282972,1,0,0:0:0:0:
475,192,282972,1,0,0:0:0:0:
109,192,283090,1,0,0:0:0:0:
256,192,283149,1,0,0:0:0:0:
475,192,283207,1,0,0:0:0:0:
329,192,283207,1,0,0:0:0:0:
182,192,283266,1,0,0:0:0:0:
256,192,283325,1,0,0:0:0:0:
402,192,283325,1,0,0:0:0:0:
109,192,283384,1,0,0:0:0:0:
36,192,283384,1,0,0:0:0:0:
182,192,283443,1,0,0:0:0:0:
329,192,283443,1,0,0:0:0:0:
402,192,283501,1,0,0:0:0:0:
475,192,283501,1,0,0:0:0:0:
36,192,283560,1,0,0:0:0:0:
256,192,283560,1,0,0:0:0:0:
109,192,283560,1,0,0:0:0:0:
329,192,283599,1,0,0:0:0:0:
182,192,283619,1,0,0:0:0:0:
402,192,283639,1,0,0:0:0:0:
256,192,283678,1,0,0:0:0:0:
36,192,283678,1,0,0:0:0:0:
475,192,283678,1,0,0:0:0:0:
109,192,283678,1,0,0:0:0:0:
402,192,283725,1,0,0:0:0:0:
329,192,283772,1,0,0:0:0:0:
182,192,283795,1,0,0:0:0:0:
475,192,283819,1,0,0:0:0:0:
402,192,283866,1,0,0:0:0:0:
329,192,283913,1,0,0:0:0:0:
182,192,283913,128,0,284148:0:0:0:0:
256,192,283913,128,0,284148:0:0:0:0:
109,192,283913,128,0,284442:0:0:0:0:
402,192,284030,1,0,0:0:0:0:
475,192,284030,1,0,0:0:0:0:
475,192,284148,1,0,0:0:0:0:
329,192,284148,1,0,0:0:0:0:
36,192,284266,128,0,284736:0:0:0:0:
182,192,284266,128,0,284442:0:0:0:0:
402,192,284266,1,0,0:0:0:0:
329,192,284383,1,0,0:0:0:0:
475,192,284383,1,0,0:0:0:0:
109,192,284501,128,0,284736:0:0:0:0:
475,192,284501,1,0,0:0:0:0:
402,192,284501,1,0,0:0:0:0:
256,192,284501,1,0,0:0:0:0:
182,192,284579,128,0,284736:0:0:0:0:
329,192,284619,1,0,0:0:0:0:
256,192,284736,1,0,0:0:0:0:
402,192,284736,128,0,284913:0:0:0:0:
475,192,284795,128,0,284854:0:0:0:0:
329,192,284854,128,0,284972:0:0:0:0:
109,192,284854,1,0,0:0:0:0:
36,192,284854,1,0,0:0:0:0:
256,192,284913,128,0,285030:0:0:0:0:
182,192,284972,128,0,285089:0:0:0:0:
109,192,285030,128,0,285148:0:0:0:0:
36,192,285089,128,0,285207:0:0:0:0:
475,192,285089,1,0,0:0:0:0:
402,192,285089,1,0,0:0:0:0:
329,192,285207,128,0,285462:0:0:0:0:
475,192,285207,1,0,0:0:0:0:
402,192,285207,1,0,0:0:0:0:
256,192,285325,128,0,285462:0:0:0:0:
36,192,285325,1,0,0:0:0:0:
109,192,285325,1,0,0:0:0:0:
182,192,285364,128,0,285756:0:0:0:0:
109,192,285442,1,0,0:0:0:0:
475,192,285501,128,0,285913:0:0:0:0:
402,192,285560,1,0,0:0:0:0:
329,192,285560,1,0,0:0:0:0:
36,192,285638,128,0,286070:0:0:0:0:
109,192,285678,1,0,0:0:0:0:
256,192,285678,1,0,0:0:0:0:
402,192,285795,128,0,286227:0:0:0:0:
329,192,285795,1,0,0:0:0:0:
182,192,285913,1,0,0:0:0:0:
256,192,285913,1,0,0:0:0:0:
109,192,285952,128,0,286344:0:0:0:0:
182,192,286030,1,0,0:0:0:0:
475,192,286109,128,0,286227:0:0:0:0:
329,192,286148,1,0,0:0:0:0:
256,192,286148,1,0,0:0:0:0:
256,192,286266,128,0,286501:0:0:0:0:
36,192,286266,128,0,286344:0:0:0:0:
182,192,286266,1,0,0:0:0:0:
182,192,286383,128,0,286619:0:0:0:0:
329,192,286383,128,0,286619:0:0:0:0:
402,192,286383,1,0,0:0:0:0:
475,192,286383,1,0,0:0:0:0:
109,192,286501,1,0,0:0:0:0:
402,192,286619,1,0,0:0:0:0:
475,192,286619,1,0,0:0:0:0:
109,192,286678,1,0,0:0:0:0:
256,192,286678,1,0,0:0:0:0:
36,192,286736,1,0,0:0:0:0:
475,192,286736,1,0,0:0:0:0:
329,192,286736,1,0,0:0:0:0:
256,192,286854,1,0,0:0:0:0:
36,192,286854,1,0,0:0:0:0:
402,192,286854,1,0,0:0:0:0:
36,192,286972,1,0,0:0:0:0:
475,192,286972,1,0,0:0:0:0:
329,192,286972,1,0,0:0:0:0:
36,192,287089,1,0,0:0:0:0:
256,192,287089,1,0,0:0:0:0:
402,192,287089,1,0,0:0:0:0:
109,192,287128,1,0,0:0:0:0:
182,192,287168,1,0,0:0:0:0:
402,192,287207,1,0,0:0:0:0:
329,192,287207,128,0,287344:0:0:0:0:
475,192,287207,1,0,0:0:0:0:
475,192,287301,128,0,287442:0:0:0:0:
182,192,287324,1,0,0:0:0:0:
36,192,287395,128,0,287489:0:0:0:0:
329,192,287442,128,0,287677:0:0:0:0:
402,192,287442,128,0,288030:0:0:0:0:
109,192,287442,1,0,0:0:0:0:
256,192,287489,128,0,287583:0:0:0:0:
182,192,287536,128,0,287630:0:0:0:0:
475,192,287559,1,0,0:0:0:0:
109,192,287583,128,0,287748:0:0:0:0:
36,192,287630,128,0,287701:0:0:0:0:
182,192,287677,128,0,287795:0:0:0:0:
256,192,287736,128,0,287854:0:0:0:0:
475,192,287795,128,0,287971:0:0:0:0:
36,192,287795,1,0,0:0:0:0:
329,192,287795,128,0,287912:0:0:0:0:
109,192,287854,128,0,287927:0:0:0:0:
182,192,287898,128,0,287971:0:0:0:0:
256,192,287942,128,0,288030:0:0:0:0:
329,192,287986,128,0,288089:0:0:0:0:
182,192,288030,128,0,288265:0:0:0:0:
475,192,288030,128,0,288265:0:0:0:0:
36,192,288030,1,0,0:0:0:0:
109,192,288030,1,0,0:0:0:0:
256,192,288089,128,0,288265:0:0:0:0:
402,192,288089,128,0,288265:0:0:0:0:
109,192,288148,1,0,0:0:0:0:
36,192,288265,1,0,0:0:0:0:
329,192,288265,1,0,0:0:0:0:
109,192,288305,1,0,0:0:0:0:
402,192,288344,1,0,0:0:0:0:
182,192,288344,1,0,0:0:0:0:
256,192,288383,1,0,0:0:0:0:
36,192,288383,128,0,288618:0:0:0:0:
475,192,288383,1,0,0:0:0:0:
329,192,288422,1,0,0:0:0:0:
402,192,288461,1,0,0:0:0:0:
475,192,288501,128,0,288618:0:0:0:0:
109,192,288501,1,0,0:0:0:0:
182,192,288618,128,0,288712:0:0:0:0:
329,192,288618,1,0,0:0:0:0:
402,192,288618,1,0,0:0:0:0:
256,192,288618,1,0,0:0:0:0:
109,192,288712,128,0,288807:0:0:0:0:
329,192,288736,1,0,0:0:0:0:
475,192,288736,1,0,0:0:0:0:
36,192,288807,128,0,288901:0:0:0:0:
256,192,288854,1,0,0:0:0:0:
475,192,288854,1,0,0:0:0:0:
109,192,288901,128,0,289207:0:0:0:0:
329,192,288971,1,0,0:0:0:0:
182,192,288995,128,0,289442:0:0:0:0:
402,192,289089,1,0,0:0:0:0:
475,192,289089,1,0,0:0:0:0:
256,192,289089,128,0,289207:0:0:0:0:
402,192,289207,1,0,0:0:0:0:
329,192,289207,128,0,289559:0:0:0:0:
36,192,289207,1,0,0:0:0:0:
256,192,289324,128,0,289912:0:0:0:0:
475,192,289324,1,0,0:0:0:0:
402,192,289442,128,0,289795:0:0:0:0:
36,192,289442,1,0,0:0:0:0:
109,192,289442,1,0,0:0:0:0:
475,192,289559,1,0,0:0:0:0:
329,192,289677,128,0,289854:0:0:0:0:
109,192,289677,1,0,0:0:0:0:
36,192,289677,1,0,0:0:0:0:
475,192,289795,128,0,290383:0:0:0:0:
182,192,289795,1,0,0:0:0:0:
402,192,289854,128,0,290265:0:0:0:0:
329,192,289912,128,0,290148:0:0:0:0:
182,192,289912,1,0,0:0:0:0:
36,192,289912,1,0,0:0:0:0:
109,192,290030,1,0,0:0:0:0:
182,192,290148,128,0,290265:0:0:0:0:
36,192,290148,1,0,0:0:0:0:
256,192,290148,1,0,0:0:0:0:
256,192,290265,128,0,290383:0:0:0:0:
109,192,290265,1,0,0:0:0:0:
36,192,290265,1,0,0:0:0:0:
329,192,290383,128,0,290501:0:0:0:0:
182,192,290383,1,0,0:0:0:0:
109,192,290383,1,0,0:0:0:0:
402,192,290501,128,0,290618:0:0:0:0:
475,192,290501,1,0,0:0:0:0:
256,192,290501,1,0,0:0:0:0:
329,192,290618,1,0,0:0:0:0:
109,192,290618,1,0,0:0:0:0:
182,192,290657,1,0,0:0:0:0:
402,192,290677,1,0,0:0:0:0:
256,192,290697,1,0,0:0:0:0:
329,192,290736,1,0,0:0:0:0:
36,192,290736,1,0,0:0:0:0:
475,192,290736,1,0,0:0:0:0:
182,192,290783,1,0,0:0:0:0:
109,192,290830,1,0,0:0:0:0:
329,192,290853,128,0,291206:0:0:0:0:
402,192,290853,1,0,0:0:0:0:
36,192,290877,1,0,0:0:0:0:
182,192,290924,1,0,0:0:0:0:
109,192,290971,1,0,0:0:0:0:
475,192,290971,128,0,291088:0:0:0:0:
402,192,291088,128,0,291324:0:0:0:0:
256,192,291088,1,0,0:0:0:0:
182,192,291088,1,0,0:0:0:0:
475,192,291206,128,0,291324:0:0:0:0:
109,192,291206,1,0,0:0:0:0:
329,192,291324,1,0,0:0:0:0:
36,192,291324,128,0,291559:0:0:0:0:
256,192,291324,1,0,0:0:0:0:
109,192,291383,128,0,291559:0:0:0:0:
402,192,291441,1,0,0:0:0:0:
329,192,291559,1,0,0:0:0:0:
475,192,291559,1,0,0:0:0:0:
182,192,291559,128,0,291677:0:0:0:0:
402,192,291677,128,0,291794:0:0:0:0:
475,192,291677,128,0,291794:0:0:0:0:
256,192,291677,128,0,291794:0:0:0:0:
36,192,291677,1,0,0:0:0:0:
109,192,291794,1,0,0:0:0:0:
36,192,291794,1,0,0:0:0:0:
182,192,291853,128,0,291971:0:0:0:0:
329,192,291853,128,0,291971:0:0:0:0:
402,192,291853,128,0,291971:0:0:0:0:
475,192,291912,1,0,0:0:0:0:
329,192,292030,128,0,292088:0:0:0:0:
256,192,292030,128,0,292088:0:0:0:0:
109,192,292030,128,0,292088:0:0:0:0:
36,192,292030,1,0,0:0:0:0:
182,192,292147,128,0,292206:0:0:0:0:
256,192,292147,128,0,292206:0:0:0:0:
475,192,292147,1,0,0:0:0:0:
402,192,292147,128,0,292206:0:0:0:0:
109,192,292265,128,0,292324:0:0:0:0:
182,192,292265,128,0,292324:0:0:0:0:
475,192,292265,1,0,0:0:0:0:
329,192,292265,128,0,292324:0:0:0:0:
36,192,292383,128,0,292441:0:0:0:0:
109,192,292383,128,0,292441:0:0:0:0:
402,192,292383,128,0,292618:0:0:0:0:
182,192,292383,1,0,0:0:0:0:
329,192,292441,128,0,292677:0:0:0:0:
256,192,292500,128,0,292677:0:0:0:0:
475,192,292500,1,0,0:0:0:0:
182,192,292559,128,0,292677:0:0:0:0:
109,192,292618,128,0,292677:0:0:0:0:
36,192,292618,1,0,0:0:0:0:
402,192,292677,128,0,292736:0:0:0:0:
475,192,292736,128,0,292971:0:0:0:0:
256,192,292736,1,0,0:0:0:0:
109,192,292736,1,0,0:0:0:0:
329,192,292853,1,0,0:0:0:0:
182,192,292912,1,0,0:0:0:0:
109,192,292971,128,0,293030:0:0:0:0:
329,192,292971,1,0,0:0:0:0:
402,192,292971,1,0,0:0:0:0:
36,192,293030,128,0,293206:0:0:0:0:
256,192,293030,1,0,0:0:0:0:
182,192,293088,1,0,0:0:0:0:
329,192,293147,1,0,0:0:0:0:
402,192,293206,1,0,0:0:0:0:
475,192,293206,1,0,0:0:0:0:
256,192,293265,1,0,0:0:0:0:
182,192,293324,128,0,293441:0:0:0:0:
109,192,293324,1,0,0:0:0:0:
329,192,293383,1,0,0:0:0:0:
256,192,293441,128,0,293559:0:0:0:0:
36,192,293441,1,0,0:0:0:0:
402,192,293441,1,0,0:0:0:0:
109,192,293500,1,0,0:0:0:0:
475,192,293559,1,0,0:0:0:0:
182,192,293559,1,0,0:0:0:0:
402,192,293618,1,0,0:0:0:0:
329,192,293677,1,0,0:0:0:0:
182,192,293677,1,0,0:0:0:0:
256,192,293677,128,0,293912:0:0:0:0:
109,192,293736,1,0,0:0:0:0:
36,192,293794,128,0,294030:0:0:0:0:
475,192,293794,1,0,0:0:0:0:
402,192,293794,1,0,0:0:0:0:
329,192,293912,128,0,294147:0:0:0:0:
182,192,293912,1,0,0:0:0:0:
402,192,293912,1,0,0:0:0:0:
109,192,294030,128,0,294265:0:0:0:0:
256,192,294030,1,0,0:0:0:0:
475,192,294030,1,0,0:0:0:0:
182,192,294147,1,0,0:0:0:0:
256,192,294147,1,0,0:0:0:0:
402,192,294147,128,0,294343:0:0:0:0:
36,192,294265,1,0,0:0:0:0:
182,192,294265,128,0,294343:0:0:0:0:
329,192,294265,1,0,0:0:0:0:
475,192,294343,128,0,294500:0:0:0:0:
109,192,294382,1,0,0:0:0:0:
256,192,294382,1,0,0:0:0:0:
402,192,294421,128,0,294578:0:0:0:0:
329,192,294500,128,0,294657:0:0:0:0:
182,192,294500,1,0,0:0:0:0:
256,192,294578,128,0,294735:0:0:0:0:
36,192,294617,1,0,0:0:0:0:
109,192,294617,1,0,0:0:0:0:
182,192,294657,128,0,294735:0:0:0:0:
329,192,294735,128,0,294853:0:0:0:0:
475,192,294735,1,0,0:0:0:0:
402,192,294853,128,0,294912:0:0:0:0:
109,192,294853,1,0,0:0:0:0:
36,192,294853,1,0,0:0:0:0:
182,192,294912,128,0,294970:0:0:0:0:
256,192,294970,128,0,295029:0:0:0:0:
475,192,294970,1,0,0:0:0:0:
329,192,295029,128,0,295088:0:0:0:0:
402,192,295088,128,0,295147:0:0:0:0:
36,192,295088,128,0,295676:0:0:0:0:
109,192,295088,128,0,295441:0:0:0:0:
256,192,295088,1,0,0:0:0:0:
182,192,295088,1,0,0:0:0:0:
475,192,295147,128,0,295206:0:0:0:0:
402,192,295206,128,0,295382:0:0:0:0:
329,192,295206,1,0,0:0:0:0:
256,192,295323,1,0,0:0:0:0:
182,192,295323,1,0,0:0:0:0:
329,192,295382,128,0,295500:0:0:0:0:
475,192,295441,1,0,0:0:0:0:
182,192,295441,1,0,0:0:0:0:
256,192,295500,128,0,295617:0:0:0:0:
402,192,295559,1,0,0:0:0:0:
329,192,295617,128,0,295706:0:0:0:0:
109,192,295676,1,0,0:0:0:0:
182,192,295676,1,0,0:0:0:0:
402,192,295706,128,0,295794:0:0:0:0:
256,192,295794,128,0,295882:0:0:0:0:
182,192,295794,1,0,0:0:0:0:
109,192,295794,1,0,0:0:0:0:
36,192,295882,128,0,295970:0:0:0:0:
329,192,295912,1,0,0:0:0:0:
475,192,295912,1,0,0:0:0:0:
109,192,295970,128,0,296088:0:0:0:0:
402,192,296029,128,0,296617:0:0:0:0:
475,192,296029,128,0,297088:0:0:0:0:
182,192,296088,128,0,296382:0:0:0:0:
329,192,296147,1,0,0:0:0:0:
36,192,296147,1,0,0:0:0:0:
256,192,296265,1,0,0:0:0:0:
109,192,296265,1,0,0:0:0:0:
36,192,296382,128,0,297088:0:0:0:0:
329,192,296382,1,0,0:0:0:0:
182,192,296500,1,0,0:0:0:0:
256,192,296500,1,0,0:0:0:0:
256,192,296617,1,0,0:0:0:0:
329,192,296617,1,0,0:0:0:0:
109,192,296735,1,0,0:0:0:0:
182,192,296735,1,0,0:0:0:0:
329,192,296853,1,0,0:0:0:0:
402,192,296853,1,0,0:0:0:0:
182,192,296970,1,0,0:0:0:0:
256,192,296970,1,0,0:0:0:0:
182,192,297088,1,0,0:0:0:0:
109,192,297088,1,0,0:0:0:0:
329,192,297088,1,0,0:0:0:0:
402,192,297088,1,0,0:0:0:0:
256,192,297206,128,0,297323:0:0:0:0:
256,192,297382,128,0,297617:0:0:0:0:
475,192,297559,128,0,297676:0:0:0:0:
256,192,297676,128,0,297794:0:0:0:0:
475,192,297794,128,0,297910:0:0:0:0:
329,192,297794,128,0,297910:0:0:0:0:
182,192,297794,128,0,297910:0:0:0:0:
36,192,297794,1,0,0:0:0:0:
402,192,297910,128,0,297968:0:0:0:0:
109,192,297910,1,0,0:0:0:0:
256,192,298026,128,0,298084:0:0:0:0:
36,192,298026,1,0,0:0:0:0:
182,192,298142,128,0,298375:0:0:0:0:
329,192,298142,128,0,298491:0:0:0:0:
475,192,298142,128,0,298491:0:0:0:0:
402,192,298142,1,0,0:0:0:0:
109,192,298259,1,0,0:0:0:0:
36,192,298375,128,0,298607:0:0:0:0:
256,192,298375,1,0,0:0:0:0:
109,192,298491,128,0,298607:0:0:0:0:
402,192,298491,1,0,0:0:0:0:
182,192,298549,128,0,298607:0:0:0:0:
402,192,298607,128,0,298953:0:0:0:0:
475,192,298607,128,0,298953:0:0:0:0:
256,192,298607,128,0,298953:0:0:0:0:
109,192,298724,1,0,0:0:0:0:
36,192,298724,1,0,0:0:0:0:
182,192,298838,1,0,0:0:0:0:
329,192,298953,128,0,299068:0:0:0:0:
36,192,298953,1,0,0:0:0:0:
182,192,299011,128,0,299068:0:0:0:0:
109,192,299068,128,0,299413:0:0:0:0:
256,192,299068,128,0,299413:0:0:0:0:
36,192,299068,128,0,299298:0:0:0:0:
475,192,299068,1,0,0:0:0:0:
402,192,299183,1,0,0:0:0:0:
329,192,299183,1,0,0:0:0:0:
475,192,299298,1,0,0:0:0:0:
182,192,299413,128,0,299643:0:0:0:0:
329,192,299413,128,0,299643:0:0:0:0:
36,192,299413,128,0,299643:0:0:0:0:
402,192,299413,1,0,0:0:0:0:
475,192,299528,1,0,0:0:0:0:
256,192,299643,128,0,300097:0:0:0:0:
402,192,299643,128,0,300324:0:0:0:0:
109,192,299643,1,0,0:0:0:0:
475,192,299718,128,0,300552:0:0:0:0:
182,192,299756,1,0,0:0:0:0:
36,192,299870,1,0,0:0:0:0:
182,192,299983,1,0,0:0:0:0:
109,192,300040,128,0,300097:0:0:0:0:
329,192,300097,128,0,300154:0:0:0:0:
36,192,300097,1,0,0:0:0:0:
182,192,300154,128,0,300211:0:0:0:0:
109,192,300211,128,0,300268:0:0:0:0:
256,192,300211,1,0,0:0:0:0:
36,192,300268,128,0,300324:0:0:0:0:
329,192,300324,128,0,300381:0:0:0:0:
182,192,300324,1,0,0:0:0:0:
256,192,300381,128,0,300438:0:0:0:0:
36,192,300438,128,0,300495:0:0:0:0:
402,192,300438,1,0,0:0:0:0:
109,192,300495,128,0,300552:0:0:0:0:
182,192,300552,128,0,300851:0:0:0:0:
329,192,300552,1,0,0:0:0:0:
256,192,300626,128,0,300776:0:0:0:0:
475,192,300664,1,0,0:0:0:0:
109,192,300701,128,0,300926:0:0:0:0:
36,192,300776,128,0,301001:0:0:0:0:
402,192,300776,1,0,0:0:0:0:
329,192,300776,1,0,0:0:0:0:
256,192,300889,1,0,0:0:0:0:
475,192,300889,128,0,301226:0:0:0:0:
402,192,301001,128,0,301226:0:0:0:0:
182,192,301001,1,0,0:0:0:0:
109,192,301001,1,0,0:0:0:0:
256,192,301113,1,0,0:0:0:0:
109,192,301169,1,0,0:0:0:0:
182,192,301226,128,0,301337:0:0:0:0:
329,192,301226,128,0,301337:0:0:0:0:
36,192,301226,128,0,301337:0:0:0:0:
402,192,301337,1,0,0:0:0:0:
109,192,301337,128,0,301392:0:0:0:0:
256,192,301448,128,0,301503:0:0:0:0:
475,192,301448,1,0,0:0:0:0:
329,192,301559,128,0,301781:0:0:0:0:
182,192,301559,128,0,301892:0:0:0:0:
109,192,301559,1,0,0:0:0:0:
36,192,301559,128,0,301892:0:0:0:0:
402,192,301670,1,0,0:0:0:0:
256,192,301781,1,0,0:0:0:0:
475,192,301781,128,0,302003:0:0:0:0:
402,192,301892,128,0,302003:0:0:0:0:
109,192,301892,1,0,0:0:0:0:
329,192,301948,128,0,302003:0:0:0:0:
256,192,302003,128,0,302333:0:0:0:0:
109,192,302003,128,0,302333:0:0:0:0:
36,192,302003,128,0,302333:0:0:0:0:
402,192,302114,1,0,0:0:0:0:
475,192,302114,1,0,0:0:0:0:
329,192,302223,1,0,0:0:0:0:
182,192,302333,128,0,302443:0:0:0:0:
475,192,302333,1,0,0:0:0:0:
329,192,302388,128,0,302443:0:0:0:0:
256,192,302443,128,0,302773:0:0:0:0:
402,192,302443,128,0,302773:0:0:0:0:
475,192,302443,128,0,302663:0:0:0:0:
36,192,302443,1,0,0:0:0:0:
182,192,302553,1,0,0:0:0:0:
109,192,302553,128,0,302608:0:0:0:0:
36,192,302663,128,0,302718:0:0:0:0:
182,192,302773,128,0,302993:0:0:0:0:
329,192,302773,128,0,302993:0:0:0:0:
475,192,302773,128,0,302993:0:0:0:0:
109,192,302773,128,0,302828:0:0:0:0:
256,192,302883,128,0,302993:0:0:0:0:
36,192,302993,128,0,303862:0:0:0:0:
109,192,302993,128,0,303645:0:0:0:0:
402,192,302993,1,0,0:0:0:0:
329,192,303101,1,0,0:0:0:0:
182,192,303101,1,0,0:0:0:0:
475,192,303210,1,0,0:0:0:0:
256,192,303210,1,0,0:0:0:0:
402,192,303319,128,0,303373:0:0:0:0:
475,192,303373,128,0,303427:0:0:0:0:
329,192,303427,128,0,303482:0:0:0:0:
182,192,303427,1,0,0:0:0:0:
402,192,303482,128,0,303536:0:0:0:0:
256,192,303536,128,0,303590:0:0:0:0:
329,192,303590,128,0,303645:0:0:0:0:
182,192,303645,128,0,303699:0:0:0:0:
402,192,303645,1,0,0:0:0:0:
256,192,303699,128,0,303753:0:0:0:0:
475,192,303753,128,0,303808:0:0:0:0:
402,192,303808,128,0,303862:0:0:0:0:
329,192,303862,1,0,0:0:0:0:
182,192,303897,1,0,0:0:0:0:
109,192,303933,1,0,0:0:0:0:
402,192,303969,1,0,0:0:0:0:
256,192,304005,1,0,0:0:0:0:
182,192,304041,1,0,0:0:0:0:
475,192,304077,1,0,0:0:0:0:
36,192,304077,1,0,0:0:0:0:
329,192,304077,128,0,304507:0:0:0:0:
182,192,304184,128,0,304507:0:0:0:0:
256,192,304184,1,0,0:0:0:0:
36,192,304292,1,0,0:0:0:0:
475,192,304292,1,0,0:0:0:0:
109,192,304399,1,0,0:0:0:0:
256,192,304453,1,0,0:0:0:0:
36,192,304507,1,0,0:0:0:0:
475,192,304507,128,0,304613:0:0:0:0:
402,192,304507,128,0,304613:0:0:0:0:
109,192,304507,128,0,304613:0:0:0:0:
329,192,304613,128,0,304666:0:0:0:0:
182,192,304613,1,0,0:0:0:0:
256,192,304719,128,0,304772:0:0:0:0:
36,192,304719,1,0,0:0:0:0:
329,192,304826,128,0,305038:0:0:0:0:
182,192,304826,1,0,0:0:0:0:
402,192,304826,128,0,305145:0:0:0:0:
475,192,304826,128,0,305145:0:0:0:0:
109,192,304932,1,0,0:0:0:0:
256,192,305038,1,0,0:0:0:0:
36,192,305038,128,0,305251:0:0:0:0:
329,192,305145,1,0,0:0:0:0:
109,192,305145,128,0,305251:0:0:0:0:
182,192,305198,128,0,305251:0:0:0:0:
256,192,305251,128,0,305568:0:0:0:0:
329,192,305251,128,0,305568:0:0:0:0:
475,192,305251,128,0,305568:0:0:0:0:
402,192,305251,1,0,0:0:0:0:
36,192,305358,1,0,0:0:0:0:
109,192,305463,1,0,0:0:0:0:
182,192,305463,1,0,0:0:0:0:
402,192,305568,128,0,305673:0:0:0:0:
36,192,305568,1,0,0:0:0:0:
329,192,305621,128,0,305673:0:0:0:0:
256,192,305673,128,0,305989:0:0:0:0:
182,192,305673,128,0,305989:0:0:0:0:
36,192,305673,128,0,305884:0:0:0:0:
109,192,305673,1,0,0:0:0:0:
329,192,305779,1,0,0:0:0:0:
402,192,305779,1,0,0:0:0:0:
329,192,305884,1,0,0:0:0:0:
402,192,305884,1,0,0:0:0:0:
475,192,305989,1,0,0:0:0:0:
36,192,305989,128,0,306200:0:0:0:0:
109,192,305989,128,0,306200:0:0:0:0:
402,192,305989,128,0,306200:0:0:0:0:
256,192,306094,1,0,0:0:0:0:
256,192,306200,128,0,306616:0:0:0:0:
329,192,306200,128,0,306825:0:0:0:0:
182,192,306200,1,0,0:0:0:0:
475,192,306269,128,0,307033:0:0:0:0:
109,192,306304,1,0,0:0:0:0:
182,192,306408,1,0,0:0:0:0:
109,192,306512,1,0,0:0:0:0:
36,192,306512,1,0,0:0:0:0:
182,192,306564,128,0,306616:0:0:0:0:
36,192,306616,128,0,306668:0:0:0:0:
402,192,306616,1,0,0:0:0:0:
109,192,306668,128,0,306720:0:0:0:0:
182,192,306720,128,0,306772:0:0:0:0:
256,192,306772,128,0,306825:0:0:0:0:
402,192,306825,128,0,306877:0:0:0:0:
36,192,306825,1,0,0:0:0:0:
182,192,306877,128,0,306929:0:0:0:0:
329,192,306929,128,0,306981:0:0:0:0:
109,192,306929,1,0,0:0:0:0:
36,192,306981,128,0,307033:0:0:0:0:
182,192,307033,128,0,307307:0:0:0:0:
256,192,307101,128,0,307239:0:0:0:0:
475,192,307136,1,0,0:0:0:0:
402,192,307136,1,0,0:0:0:0:
109,192,307170,128,0,307376:0:0:0:0:
36,192,307239,128,0,307445:0:0:0:0:
329,192,307239,1,0,0:0:0:0:
256,192,307342,1,0,0:0:0:0:
475,192,307342,128,0,307651:0:0:0:0:
329,192,307342,1,0,0:0:0:0:
402,192,307445,128,0,307651:0:0:0:0:
182,192,307445,1,0,0:0:0:0:
36,192,307548,1,0,0:0:0:0:
329,192,307548,1,0,0:0:0:0:
182,192,307600,1,0,0:0:0:0:
109,192,307651,128,0,307753:0:0:0:0:
256,192,307651,128,0,307753:0:0:0:0:
36,192,307651,128,0,307753:0:0:0:0:
329,192,307651,1,0,0:0:0:0:
182,192,307753,128,0,307804:0:0:0:0:
402,192,307753,1,0,0:0:0:0:
256,192,307855,128,0,307906:0:0:0:0:
475,192,307855,1,0,0:0:0:0:
329,192,307957,1,0,0:0:0:0:
109,192,307957,128,0,308263:0:0:0:0:
36,192,307957,128,0,308263:0:0:0:0:
182,192,307957,128,0,308161:0:0:0:0:
475,192,307957,1,0,0:0:0:0:
402,192,308059,1,0,0:0:0:0:
256,192,308161,1,0,0:0:0:0:
475,192,308161,128,0,308365:0:0:0:0:
402,192,308263,128,0,308365:0:0:0:0:
182,192,308263,1,0,0:0:0:0:
329,192,308314,128,0,308365:0:0:0:0:
256,192,308365,128,0,308669:0:0:0:0:
182,192,308365,128,0,308669:0:0:0:0:
36,192,308365,128,0,308669:0:0:0:0:
109,192,308365,1,0,0:0:0:0:
475,192,308467,1,0,0:0:0:0:
402,192,308568,1,0,0:0:0:0:
329,192,308568,1,0,0:0:0:0:
109,192,308669,128,0,308770:0:0:0:0:
475,192,308669,1,0,0:0:0:0:
182,192,308719,128,0,308770:0:0:0:0:
256,192,308770,128,0,309073:0:0:0:0:
402,192,308770,128,0,309073:0:0:0:0:
475,192,308770,128,0,308972:0:0:0:0:
36,192,308770,1,0,0:0:0:0:
182,192,308871,1,0,0:0:0:0:
109,192,308871,128,0,308921:0:0:0:0:
109,192,308972,128,0,309022:0:0:0:0:
182,192,308972,1,0,0:0:0:0:
329,192,309073,128,0,309275:0:0:0:0:
36,192,309073,128,0,309123:0:0:0:0:
182,192,309073,128,0,309275:0:0:0:0:
475,192,309073,128,0,309275:0:0:0:0:
256,192,309174,128,0,309275:0:0:0:0:
36,192,309275,128,0,310075:0:0:0:0:
109,192,309275,128,0,309875:0:0:0:0:
402,192,309275,1,0,0:0:0:0:
329,192,309375,1,0,0:0:0:0:
182,192,309375,1,0,0:0:0:0:
475,192,309475,1,0,0:0:0:0:
402,192,309475,1,0,0:0:0:0:
256,192,309575,128,0,309625:0:0:0:0:
402,192,309575,1,0,0:0:0:0:
182,192,309625,128,0,309675:0:0:0:0:
475,192,309675,1,0,0:0:0:0:
329,192,309675,128,0,309725:0:0:0:0:
256,192,309725,128,0,309775:0:0:0:0:
402,192,309775,128,0,309825:0:0:0:0:
329,192,309825,128,0,309875:0:0:0:0:
475,192,309875,128,0,309925:0:0:0:0:
182,192,309875,1,0,0:0:0:0:
402,192,309925,128,0,309975:0:0:0:0:
256,192,309975,128,0,310025:0:0:0:0:
109,192,309975,1,0,0:0:0:0:
329,192,310025,128,0,310075:0:0:0:0:
475,192,310075,1,0,0:0:0:0:
402,192,310108,1,0,0:0:0:0:
182,192,310141,1,0,0:0:0:0:
36,192,310174,1,0,0:0:0:0:
109,192,310207,1,0,0:0:0:0:
329,192,310240,1,0,0:0:0:0:
182,192,310273,128,0,310669:0:0:0:0:
475,192,310273,1,0,0:0:0:0:
402,192,310273,1,0,0:0:0:0:
329,192,310372,128,0,310669:0:0:0:0:
109,192,310372,1,0,0:0:0:0:
36,192,310372,1,0,0:0:0:0:
475,192,310471,1,0,0:0:0:0:
402,192,310471,1,0,0:0:0:0:
36,192,310570,1,0,0:0:0:0:
109,192,310570,1,0,0:0:0:0:
256,192,310619,1,0,0:0:0:0:
475,192,310669,128,0,310859:0:0:0:0:
109,192,310669,128,0,310764:0:0:0:0:
36,192,310669,128,0,310859:0:0:0:0:
402,192,310669,128,0,310764:0:0:0:0:
182,192,310859,128,0,310954:0:0:0:0:
329,192,310954,128,0,311097:0:0:0:0:
36,192,311145,1,0,0:0:0:0:
475,192,311145,1,0,0:0:0:0:
109,192,311145,128,0,311335:0:0:0:0:
402,192,311145,128,0,311335:0:0:0:0:
256,192,311192,128,0,311430:0:0:0:0:
182,192,311430,128,0,311621:0:0:0:0:
329,192,311430,128,0,311621:0:0:0:0:
36,192,311526,128,0,311621:0:0:0:0:
475,192,311526,128,0,311621:0:0:0:0:
109,192,311716,128,0,312002:0:0:0:0:
256,192,311716,128,0,311907:0:0:0:0:
402,192,311716,128,0,312002:0:0:0:0:
182,192,312097,5,0,0:0:0:0:
329,192,312097,1,0,0:0:0:0:
109,192,312192,1,0,0:0:0:0:
402,192,312192,1,0,0:0:0:0:
36,192,312288,128,0,313240:0:0:0:0:
475,192,312288,128,0,313240:0:0:0:0:
256,192,312335,128,0,314002:0:0:0:0:
475,192,314002,1,0,0:0:0:0:
182,192,314065,1,0,0:0:0:0:
402,192,314129,1,0,0:0:0:0:
109,192,314192,1,0,0:0:0:0:
329,192,314256,1,0,0:0:0:0:
36,192,314319,1,0,0:0:0:0:
256,192,314383,1,0,0:0:0:0:
475,192,314446,1,0,0:0:0:0:
182,192,314510,1,0,0:0:0:0:
329,192,314573,1,0,0:0:0:0:
109,192,314637,5,0,0:0:0:0:
256,192,314700,1,0,0:0:0:0:
402,192,314764,1,0,0:0:0:0:
182,192,314827,1,0,0:0:0:0:
329,192,314891,1,0,0:0:0:0:
182,192,314954,1,0,0:0:0:0:
329,192,315018,1,0,0:0:0:0:
36,192,315066,5,0,0:0:0:0:
109,192,315066,1,0,0:0:0:0:
182,192,315066,1,0,0:0:0:0:
402,192,315162,1,0,0:0:0:0:
36,192,315258,1,0,0:0:0:0:
182,192,315307,1,0,0:0:0:0:
329,192,315355,1,0,0:0:0:0:
475,192,315403,1,0,0:0:0:0:
36,192,315451,1,0,0:0:0:0:
109,192,315490,1,0,0:0:0:0:
256,192,315529,1,0,0:0:0:0:
402,192,315567,1,0,0:0:0:0:
475,192,315606,1,0,0:0:0:0:
36,192,315644,1,0,0:0:0:0:
109,192,315676,1,0,0:0:0:0:
182,192,315709,1,0,0:0:0:0:
329,192,315741,1,0,0:0:0:0:
402,192,315773,1,0,0:0:0:0:
475,192,315805,1,0,0:0:0:0:
36,192,315837,1,0,0:0:0:0:
109,192,315865,1,0,0:0:0:0:
182,192,315892,1,0,0:0:0:0:
256,192,315920,1,0,0:0:0:0:
329,192,315947,1,0,0:0:0:0:
402,192,315975,1,0,0:0:0:0:
475,192,316003,1,0,0:0:0:0:
36,192,316030,1,0,0:0:0:0:
182,192,316030,1,0,0:0:0:0:
109,192,316030,1,0,0:0:0:0:
329,192,316127,1,0,0:0:0:0:
36,192,316223,1,0,0:0:0:0:
109,192,316271,1,0,0:0:0:0:
402,192,316320,1,0,0:0:0:0:
475,192,316368,1,0,0:0:0:0:
36,192,316416,1,0,0:0:0:0:
182,192,316455,1,0,0:0:0:0:
256,192,316493,1,0,0:0:0:0:
329,192,316532,1,0,0:0:0:0:
475,192,316570,1,0,0:0:0:0:
36,192,316609,1,0,0:0:0:0:
109,192,316641,1,0,0:0:0:0:
182,192,316673,1,0,0:0:0:0:
329,192,316705,1,0,0:0:0:0:
402,192,316738,1,0,0:0:0:0:
475,192,316770,1,0,0:0:0:0:
36,192,316802,1,0,0:0:0:0:
109,192,316829,1,0,0:0:0:0:
182,192,316857,1,0,0:0:0:0:
256,192,316885,1,0,0:0:0:0:
329,192,316912,1,0,0:0:0:0:
402,192,316940,1,0,0:0:0:0:
475,192,316967,1,0,0:0:0:0:
36,192,316995,1,0,0:0:0:0:
109,192,316995,1,0,0:0:0:0:
182,192,316995,1,0,0:0:0:0:
329,192,317091,1,0,0:0:0:0:
36,192,317188,1,0,0:0:0:0:
109,192,317226,1,0,0:0:0:0:
256,192,317265,1,0,0:0:0:0:
402,192,317303,1,0,0:0:0:0:
475,192,317342,1,0,0:0:0:0:
36,192,317381,1,0,0:0:0:0:
109,192,317413,1,0,0:0:0:0:
182,192,317445,1,0,0:0:0:0:
329,192,317477,1,0,0:0:0:0:
402,192,317509,1,0,0:0:0:0:
475,192,317541,1,0,0:0:0:0:
36,192,317574,1,0,0:0:0:0:
109,192,317601,1,0,0:0:0:0:
182,192,317629,1,0,0:0:0:0:
256,192,317656,1,0,0:0:0:0:
329,192,317684,1,0,0:0:0:0:
402,192,317711,1,0,0:0:0:0:
475,192,317739,1,0,0:0:0:0:
36,192,317766,1,0,0:0:0:0:
109,192,317791,1,0,0:0:0:0:
182,192,317815,1,0,0:0:0:0:
256,192,317839,1,0,0:0:0:0:
329,192,317863,1,0,0:0:0:0:
402,192,317863,1,0,0:0:0:0:
475,192,317863,1,0,0:0:0:0:
36,192,317959,1,0,0:0:0:0:
109,192,317959,1,0,0:0:0:0:
475,192,317959,1,0,0:0:0:0:
329,192,317959,1,0,0:0:0:0:
402,192,317959,1,0,0:0:0:0:
36,192,318056,1,0,0:0:0:0:
182,192,318056,1,0,0:0:0:0:
109,192,318056,1,0,0:0:0:0:
256,192,318152,1,0,0:0:0:0:
329,192,318152,1,0,0:0:0:0:
402,192,318152,1,0,0:0:0:0:
475,192,318152,1,0,0:0:0:0:
182,192,318152,1,0,0:0:0:0:
475,192,318249,1,0,0:0:0:0:
402,192,318249,1,0,0:0:0:0:
329,192,318345,1,0,0:0:0:0:
256,192,318345,1,0,0:0:0:0:
182,192,318345,1,0,0:0:0:0:
36,192,318345,1,0,0:0:0:0:
109,192,318345,1,0,0:0:0:0:
329,192,318442,1,0,0:0:0:0:
256,192,318442,1,0,0:0:0:0:
402,192,318538,1,0,0:0:0:0:
475,192,318538,1,0,0:0:0:0:
109,192,318538,1,0,0:0:0:0:
36,192,318538,1,0,0:0:0:0:
182,192,318538,1,0,0:0:0:0:
182,192,318635,1,0,0:0:0:0:
109,192,318635,1,0,0:0:0:0:
36,192,318731,1,0,0:0:0:0:
256,192,318731,1,0,0:0:0:0:
329,192,318731,1,0,0:0:0:0:
402,192,318731,1,0,0:0:0:0:
475,192,318731,1,0,0:0:0:0:
36,192,318828,1,0,0:0:0:0:
256,192,318828,1,0,0:0:0:0:
475,192,318924,5,0,0:0:0:0:
329,192,318924,1,0,0:0:0:0:
402,192,318924,1,0,0:0:0:0:
109,192,319020,1,0,0:0:0:0:
475,192,319117,1,0,0:0:0:0:
329,192,319165,1,0,0:0:0:0:
182,192,319213,1,0,0:0:0:0:
36,192,319262,1,0,0:0:0:0:
475,192,319310,1,0,0:0:0:0:
402,192,319348,1,0,0:0:0:0:
256,192,319387,1,0,0:0:0:0:
109,192,319426,1,0,0:0:0:0:
36,192,319464,1,0,0:0:0:0:
475,192,319503,1,0,0:0:0:0:
402,192,319535,1,0,0:0:0:0:
329,192,319567,1,0,0:0:0:0:
182,192,319599,1,0,0:0:0:0:
109,192,319631,1,0,0:0:0:0:
36,192,319664,1,0,0:0:0:0:
475,192,319696,1,0,0:0:0:0:
402,192,319723,1,0,0:0:0:0:
329,192,319751,1,0,0:0:0:0:
256,192,319778,1,0,0:0:0:0:
182,192,319806,1,0,0:0:0:0:
109,192,319834,1,0,0:0:0:0:
36,192,319861,1,0,0:0:0:0:
402,192,319889,1,0,0:0:0:0:
329,192,319889,1,0,0:0:0:0:
475,192,319889,1,0,0:0:0:0:
182,192,319985,1,0,0:0:0:0:
475,192,320082,1,0,0:0:0:0:
402,192,320130,1,0,0:0:0:0:
109,192,320178,1,0,0:0:0:0:
36,192,320226,1,0,0:0:0:0:
475,192,320275,1,0,0:0:0:0:
329,192,320313,1,0,0:0:0:0:
256,192,320352,1,0,0:0:0:0:
182,192,320390,1,0,0:0:0:0:
36,192,320429,1,0,0:0:0:0:
475,192,320467,1,0,0:0:0:0:
402,192,320500,1,0,0:0:0:0:
329,192,320532,1,0,0:0:0:0:
182,192,320564,1,0,0:0:0:0:
109,192,320596,1,0,0:0:0:0:
36,192,320628,1,0,0:0:0:0:
475,192,320660,1,0,0:0:0:0:
402,192,320688,1,0,0:0:0:0:
329,192,320715,1,0,0:0:0:0:
256,192,320743,1,0,0:0:0:0:
182,192,320771,1,0,0:0:0:0:
109,192,320798,1,0,0:0:0:0:
36,192,320826,1,0,0:0:0:0:
329,192,320853,1,0,0:0:0:0:
402,192,320853,1,0,0:0:0:0:
475,192,320853,1,0,0:0:0:0:
182,192,320950,1,0,0:0:0:0:
475,192,321046,1,0,0:0:0:0:
402,192,321085,1,0,0:0:0:0:
256,192,321123,1,0,0:0:0:0:
109,192,321162,1,0,0:0:0:0:
36,192,321201,1,0,0:0:0:0:
475,192,321239,1,0,0:0:0:0:
402,192,321271,1,0,0:0:0:0:
329,192,321303,1,0,0:0:0:0:
182,192,321336,1,0,0:0:0:0:
109,192,321368,1,0,0:0:0:0:
36,192,321400,1,0,0:0:0:0:
475,192,321432,1,0,0:0:0:0:
402,192,321460,1,0,0:0:0:0:
329,192,321487,1,0,0:0:0:0:
256,192,321515,1,0,0:0:0:0:
182,192,321542,1,0,0:0:0:0:
109,192,321570,1,0,0:0:0:0:
36,192,321597,1,0,0:0:0:0:
475,192,321625,1,0,0:0:0:0:
402,192,321649,1,0,0:0:0:0:
329,192,321673,1,0,0:0:0:0:
256,192,321697,1,0,0:0:0:0:
36,192,321721,1,0,0:0:0:0:
109,192,321721,1,0,0:0:0:0:
182,192,321721,1,0,0:0:0:0:
36,192,321818,1,0,0:0:0:0:
475,192,321818,1,0,0:0:0:0:
402,192,321818,1,0,0:0:0:0:
256,192,321818,1,0,0:0:0:0:
329,192,321818,1,0,0:0:0:0:
256,192,321914,1,0,0:0:0:0:
329,192,321914,1,0,0:0:0:0:
402,192,321914,1,0,0:0:0:0:
475,192,321914,1,0,0:0:0:0:
109,192,322011,1,0,0:0:0:0:
36,192,322011,1,0,0:0:0:0:
256,192,322011,1,0,0:0:0:0:
182,192,322011,1,0,0:0:0:0:
329,192,322011,1,0,0:0:0:0:
36,192,322107,1,0,0:0:0:0:
109,192,322107,1,0,0:0:0:0:
475,192,322204,1,0,0:0:0:0:
402,192,322204,1,0,0:0:0:0:
329,192,322204,1,0,0:0:0:0:
182,192,322204,1,0,0:0:0:0:
256,192,322204,1,0,0:0:0:0:
182,192,322300,1,0,0:0:0:0:
329,192,322300,1,0,0:0:0:0:
109,192,322397,1,0,0:0:0:0:
36,192,322397,1,0,0:0:0:0:
475,192,322397,128,0,322783:0:0:0:0:
256,192,322397,128,0,322525:0:0:0:0:
402,192,322461,128,0,322783:0:0:0:0:
329,192,322525,128,0,322654:0:0:0:0:
256,192,322590,128,0,322783:0:0:0:0:
36,192,322590,1,0,0:0:0:0:
182,192,322654,128,0,322718:0:0:0:0:
329,192,322718,128,0,322783:0:0:0:0:
36,192,322783,5,0,0:0:0:0:
109,192,322783,1,0,0:0:0:0:
182,192,322783,1,0,0:0:0:0:
256,192,322879,1,0,0:0:0:0:
36,192,322975,1,0,0:0:0:0:
329,192,323024,1,0,0:0:0:0:
182,192,323072,1,0,0:0:0:0:
475,192,323120,1,0,0:0:0:0:
36,192,323168,1,0,0:0:0:0:
109,192,323207,1,0,0:0:0:0:
402,192,323246,1,0,0:0:0:0:
475,192,323284,1,0,0:0:0:0:
256,192,323323,1,0,0:0:0:0:
36,192,323361,1,0,0:0:0:0:
182,192,323393,1,0,0:0:0:0:
329,192,323426,1,0,0:0:0:0:
402,192,323458,1,0,0:0:0:0:
475,192,323490,1,0,0:0:0:0:
256,192,323522,1,0,0:0:0:0:
36,192,323554,1,0,0:0:0:0:
109,192,323582,1,0,0:0:0:0:
182,192,323609,1,0,0:0:0:0:
329,192,323637,1,0,0:0:0:0:
402,192,323664,1,0,0:0:0:0:
475,192,323692,1,0,0:0:0:0:
256,192,323720,1,0,0:0:0:0:
36,192,323747,1,0,0:0:0:0:
182,192,323747,1,0,0:0:0:0:
109,192,323747,1,0,0:0:0:0:
329,192,323844,1,0,0:0:0:0:
36,192,323940,1,0,0:0:0:0:
402,192,323988,1,0,0:0:0:0:
109,192,324037,1,0,0:0:0:0:
475,192,324085,1,0,0:0:0:0:
36,192,324133,1,0,0:0:0:0:
182,192,324172,1,0,0:0:0:0:
329,192,324210,1,0,0:0:0:0:
475,192,324249,1,0,0:0:0:0:
256,192,324287,1,0,0:0:0:0:
36,192,324326,1,0,0:0:0:0:
109,192,324358,1,0,0:0:0:0:
182,192,324390,1,0,0:0:0:0:
329,192,324422,1,0,0:0:0:0:
402,192,324455,1,0,0:0:0:0:
256,192,324487,1,0,0:0:0:0:
36,192,324519,1,0,0:0:0:0:
109,192,324546,1,0,0:0:0:0:
182,192,324574,1,0,0:0:0:0:
329,192,324602,1,0,0:0:0:0:
402,192,324629,1,0,0:0:0:0:
475,192,324657,1,0,0:0:0:0:
256,192,324684,1,0,0:0:0:0:
36,192,324712,1,0,0:0:0:0:
109,192,324712,1,0,0:0:0:0:
182,192,324712,1,0,0:0:0:0:
329,192,324808,1,0,0:0:0:0:
36,192,324905,1,0,0:0:0:0:
109,192,324943,1,0,0:0:0:0:
256,192,324982,1,0,0:0:0:0:
475,192,325020,1,0,0:0:0:0:
329,192,325059,1,0,0:0:0:0:
36,192,325098,1,0,0:0:0:0:
182,192,325130,1,0,0:0:0:0:
256,192,325162,1,0,0:0:0:0:
475,192,325194,1,0,0:0:0:0:
402,192,325226,1,0,0:0:0:0:
329,192,325258,1,0,0:0:0:0:
36,192,325291,1,0,0:0:0:0:
109,192,325318,1,0,0:0:0:0:
182,192,325346,1,0,0:0:0:0:
256,192,325373,1,0,0:0:0:0:
475,192,325401,1,0,0:0:0:0:
402,192,325428,1,0,0:0:0:0:
329,192,325456,1,0,0:0:0:0:
36,192,325484,1,0,0:0:0:0:
109,192,325508,1,0,0:0:0:0:
182,192,325532,1,0,0:0:0:0:
256,192,325556,1,0,0:0:0:0:
329,192,325580,1,0,0:0:0:0:
402,192,325580,1,0,0:0:0:0:
475,192,325580,1,0,0:0:0:0:
36,192,325676,1,0,0:0:0:0:
109,192,325676,1,0,0:0:0:0:
475,192,325676,1,0,0:0:0:0:
182,192,325676,1,0,0:0:0:0:
402,192,325676,1,0,0:0:0:0:
182,192,325773,1,0,0:0:0:0:
256,192,325869,1,0,0:0:0:0:
329,192,325869,1,0,0:0:0:0:
402,192,325869,1,0,0:0:0:0:
475,192,325869,1,0,0:0:0:0:
36,192,325869,1,0,0:0:0:0:
109,192,325869,1,0,0:0:0:0:
329,192,325966,1,0,0:0:0:0:
182,192,326062,1,0,0:0:0:0:
36,192,326062,1,0,0:0:0:0:
109,192,326062,1,0,0:0:0:0:
256,192,326062,1,0,0:0:0:0:
475,192,326062,1,0,0:0:0:0:
402,192,326062,1,0,0:0:0:0:
256,192,326159,1,0,0:0:0:0:
402,192,326255,1,0,0:0:0:0:
475,192,326255,1,0,0:0:0:0:
109,192,326255,1,0,0:0:0:0:
36,192,326255,1,0,0:0:0:0:
182,192,326255,1,0,0:0:0:0:
329,192,326255,1,0,0:0:0:0:
36,192,326352,1,0,0:0:0:0:
402,192,326352,1,0,0:0:0:0:
475,192,326352,1,0,0:0:0:0:
256,192,326352,1,0,0:0:0:0:
182,192,326352,1,0,0:0:0:0:
36,192,326448,1,0,0:0:0:0:
329,192,326448,1,0,0:0:0:0:
475,192,326448,1,0,0:0:0:0:
109,192,326448,1,0,0:0:0:0:
256,192,326496,1,0,0:0:0:0:
182,192,326545,1,0,0:0:0:0:
475,192,326641,5,0,0:0:0:0:
329,192,326641,1,0,0:0:0:0:
402,192,326641,1,0,0:0:0:0:
256,192,326738,1,0,0:0:0:0:
475,192,326834,1,0,0:0:0:0:
182,192,326882,1,0,0:0:0:0:
329,192,326930,1,0,0:0:0:0:
36,192,326979,1,0,0:0:0:0:
475,192,327027,1,0,0:0:0:0:
402,192,327066,1,0,0:0:0:0:
109,192,327104,1,0,0:0:0:0:
36,192,327143,1,0,0:0:0:0:
256,192,327181,1,0,0:0:0:0:
475,192,327220,1,0,0:0:0:0:
329,192,327252,1,0,0:0:0:0:
182,192,327284,1,0,0:0:0:0:
109,192,327316,1,0,0:0:0:0:
36,192,327348,1,0,0:0:0:0:
256,192,327381,1,0,0:0:0:0:
475,192,327413,1,0,0:0:0:0:
402,192,327440,1,0,0:0:0:0:
329,192,327468,1,0,0:0:0:0:
182,192,327495,1,0,0:0:0:0:
109,192,327523,1,0,0:0:0:0:
36,192,327551,1,0,0:0:0:0:
256,192,327578,1,0,0:0:0:0:
475,192,327606,1,0,0:0:0:0:
329,192,327606,1,0,0:0:0:0:
402,192,327606,1,0,0:0:0:0:
182,192,327702,1,0,0:0:0:0:
475,192,327799,1,0,0:0:0:0:
109,192,327847,1,0,0:0:0:0:
402,192,327895,1,0,0:0:0:0:
36,192,327943,1,0,0:0:0:0:
475,192,327992,1,0,0:0:0:0:
329,192,328030,1,0,0:0:0:0:
182,192,328069,1,0,0:0:0:0:
36,192,328107,1,0,0:0:0:0:
256,192,328146,1,0,0:0:0:0:
475,192,328184,1,0,0:0:0:0:
402,192,328217,1,0,0:0:0:0:
329,192,328249,1,0,0:0:0:0:
182,192,328281,1,0,0:0:0:0:
109,192,328313,1,0,0:0:0:0:
256,192,328345,1,0,0:0:0:0:
475,192,328377,1,0,0:0:0:0:
402,192,328405,1,0,0:0:0:0:
329,192,328433,1,0,0:0:0:0:
182,192,328460,1,0,0:0:0:0:
109,192,328488,1,0,0:0:0:0:
36,192,328515,1,0,0:0:0:0:
256,192,328543,1,0,0:0:0:0:
475,192,328570,1,0,0:0:0:0:
402,192,328570,1,0,0:0:0:0:
329,192,328570,1,0,0:0:0:0:
182,192,328667,1,0,0:0:0:0:
475,192,328763,1,0,0:0:0:0:
402,192,328802,1,0,0:0:0:0:
256,192,328840,1,0,0:0:0:0:
36,192,328879,1,0,0:0:0:0:
182,192,328918,1,0,0:0:0:0:
475,192,328956,1,0,0:0:0:0:
329,192,328988,1,0,0:0:0:0:
256,192,329020,1,0,0:0:0:0:
36,192,329053,1,0,0:0:0:0:
109,192,329085,1,0,0:0:0:0:
182,192,329117,1,0,0:0:0:0:
475,192,329149,1,0,0:0:0:0:
402,192,329177,1,0,0:0:0:0:
329,192,329204,1,0,0:0:0:0:
256,192,329232,1,0,0:0:0:0:
36,192,329259,1,0,0:0:0:0:
109,192,329287,1,0,0:0:0:0:
182,192,329314,1,0,0:0:0:0:
475,192,329342,1,0,0:0:0:0:
402,192,329366,1,0,0:0:0:0:
329,192,329390,1,0,0:0:0:0:
256,192,329414,1,0,0:0:0:0:
182,192,329438,1,0,0:0:0:0:
109,192,329438,1,0,0:0:0:0:
36,192,329438,1,0,0:0:0:0:
475,192,329535,1,0,0:0:0:0:
402,192,329535,1,0,0:0:0:0:
36,192,329535,1,0,0:0:0:0:
329,192,329535,1,0,0:0:0:0:
109,192,329535,1,0,0:0:0:0:
329,192,329631,1,0,0:0:0:0:
256,192,329631,1,0,0:0:0:0:
182,192,329680,1,0,0:0:0:0:
109,192,329680,1,0,0:0:0:0:
36,192,329728,1,0,0:0:0:0:
475,192,329728,1,0,0:0:0:0:
402,192,329776,1,0,0:0:0:0:
329,192,329776,1,0,0:0:0:0:
182,192,329824,1,0,0:0:0:0:
256,192,329824,1,0,0:0:0:0:
329,192,329921,1,0,0:0:0:0:
475,192,329921,1,0,0:0:0:0:
402,192,329921,1,0,0:0:0:0:
36,192,329921,1,0,0:0:0:0:
109,192,329921,1,0,0:0:0:0:
329,192,330017,1,0,0:0:0:0:
256,192,330017,1,0,0:0:0:0:
182,192,330017,1,0,0:0:0:0:
36,192,330114,1,0,0:0:0:0:
475,192,330114,1,0,0:0:0:0:
402,192,330114,1,0,0:0:0:0:
109,192,330138,1,0,0:0:0:0:
182,192,330162,1,0,0:0:0:0:
256,192,330186,1,0,0:0:0:0:
329,192,330210,1,0,0:0:0:0:
402,192,330234,1,0,0:0:0:0:
475,192,330258,1,0,0:0:0:0:
36,192,330283,1,0,0:0:0:0:
109,192,330307,1,0,0:0:0:0:
182,192,330331,1,0,0:0:0:0:
256,192,330355,1,0,0:0:0:0:
329,192,330379,1,0,0:0:0:0:
402,192,330403,1,0,0:0:0:0:
475,192,330403,1,0,0:0:0:0:
36,192,330500,5,0,0:0:0:0:
182,192,330500,1,0,0:0:0:0:
109,192,330500,1,0,0:0:0:0:
256,192,330596,1,0,0:0:0:0:
475,192,330693,1,0,0:0:0:0:
182,192,330693,1,0,0:0:0:0:
402,192,330693,1,0,0:0:0:0:
36,192,330770,1,0,0:0:0:0:
329,192,330770,1,0,0:0:0:0:
109,192,330770,1,0,0:0:0:0:
475,192,330847,1,0,0:0:0:0:
182,192,330847,1,0,0:0:0:0:
402,192,330847,1,0,0:0:0:0:
36,192,330924,1,0,0:0:0:0:
329,192,330924,1,0,0:0:0:0:
109,192,330924,1,0,0:0:0:0:
402,192,331001,1,0,0:0:0:0:
182,192,331001,1,0,0:0:0:0:
475,192,331001,1,0,0:0:0:0:
475,192,331078,1,0,0:0:0:0:
402,192,331078,1,0,0:0:0:0:
182,192,331078,1,0,0:0:0:0:
36,192,331156,1,0,0:0:0:0:
109,192,331156,1,0,0:0:0:0:
329,192,331156,1,0,0:0:0:0:
36,192,331233,1,0,0:0:0:0:
109,192,331233,1,0,0:0:0:0:
329,192,331233,1,0,0:0:0:0:
475,192,331310,1,0,0:0:0:0:
402,192,331310,1,0,0:0:0:0:
182,192,331310,1,0,0:0:0:0:
475,192,331387,1,0,0:0:0:0:
182,192,331387,1,0,0:0:0:0:
402,192,331387,1,0,0:0:0:0:
36,192,331464,1,0,0:0:0:0:
109,192,331464,1,0,0:0:0:0:
256,192,331464,1,0,0:0:0:0:
329,192,331561,1,0,0:0:0:0:
36,192,331657,1,0,0:0:0:0:
402,192,331705,1,0,0:0:0:0:
182,192,331754,1,0,0:0:0:0:
329,192,331802,1,0,0:0:0:0:
36,192,331850,1,0,0:0:0:0:
109,192,331889,1,0,0:0:0:0:
256,192,331927,1,0,0:0:0:0:
475,192,331966,1,0,0:0:0:0:
329,192,332004,1,0,0:0:0:0:
36,192,332043,1,0,0:0:0:0:
182,192,332075,1,0,0:0:0:0:
402,192,332107,1,0,0:0:0:0:
475,192,332139,1,0,0:0:0:0:
329,192,332172,1,0,0:0:0:0:
256,192,332204,1,0,0:0:0:0:
36,192,332236,1,0,0:0:0:0:
109,192,332263,1,0,0:0:0:0:
182,192,332291,1,0,0:0:0:0:
329,192,332319,1,0,0:0:0:0:
475,192,332346,1,0,0:0:0:0:
402,192,332374,1,0,0:0:0:0:
256,192,332401,1,0,0:0:0:0:
36,192,332429,1,0,0:0:0:0:
109,192,332429,1,0,0:0:0:0:
182,192,332429,1,0,0:0:0:0:
329,192,332525,1,0,0:0:0:0:
36,192,332622,1,0,0:0:0:0:
109,192,332660,1,0,0:0:0:0:
256,192,332699,1,0,0:0:0:0:
475,192,332738,1,0,0:0:0:0:
329,192,332776,1,0,0:0:0:0:
36,192,332815,1,0,0:0:0:0:
182,192,332847,1,0,0:0:0:0:
256,192,332879,1,0,0:0:0:0:
402,192,332911,1,0,0:0:0:0:
475,192,332943,1,0,0:0:0:0:
329,192,332975,1,0,0:0:0:0:
36,192,333008,1,0,0:0:0:0:
256,192,333035,1,0,0:0:0:0:
109,192,333063,1,0,0:0:0:0:
182,192,333090,1,0,0:0:0:0:
402,192,333118,1,0,0:0:0:0:
475,192,333145,1,0,0:0:0:0:
329,192,333173,1,0,0:0:0:0:
36,192,333201,1,0,0:0:0:0:
182,192,333225,1,0,0:0:0:0:
256,192,333249,1,0,0:0:0:0:
109,192,333273,1,0,0:0:0:0:
329,192,333297,1,0,0:0:0:0:
402,192,333297,1,0,0:0:0:0:
475,192,333297,1,0,0:0:0:0:
329,192,333490,1,0,0:0:0:0:
36,192,333490,1,0,0:0:0:0:
109,192,333490,1,0,0:0:0:0:
256,192,333490,1,0,0:0:0:0:
182,192,333490,1,0,0:0:0:0:
329,192,333586,1,0,0:0:0:0:
256,192,333586,1,0,0:0:0:0:
182,192,333586,1,0,0:0:0:0:
36,192,333586,1,0,0:0:0:0:
109,192,333586,1,0,0:0:0:0:
402,192,333611,1,0,0:0:0:0:
475,192,333635,1,0,0:0:0:0:
109,192,333779,1,0,0:0:0:0:
36,192,333779,1,0,0:0:0:0:
256,192,333779,1,0,0:0:0:0:
329,192,333779,1,0,0:0:0:0:
475,192,333779,1,0,0:0:0:0:
256,192,333876,1,0,0:0:0:0:
475,192,333876,1,0,0:0:0:0:
329,192,333972,1,0,0:0:0:0:
182,192,333972,1,0,0:0:0:0:
402,192,333972,1,0,0:0:0:0:
109,192,333972,1,0,0:0:0:0:
36,192,333972,1,0,0:0:0:0:
329,192,334069,1,0,0:0:0:0:
182,192,334069,1,0,0:0:0:0:
36,192,334165,1,0,0:0:0:0:
256,192,334165,1,0,0:0:0:0:
109,192,334165,1,0,0:0:0:0:
402,192,334165,1,0,0:0:0:0:
475,192,334165,1,0,0:0:0:0:
36,192,334262,1,0,0:0:0:0:
256,192,334262,1,0,0:0:0:0:
475,192,334358,1,0,0:0:0:0:
402,192,334358,1,0,0:0:0:0:
329,192,334358,1,0,0:0:0:0:
475,192,334551,1,0,0:0:0:0:
329,192,334599,1,0,0:0:0:0:
36,192,334647,1,0,0:0:0:0:
182,192,334696,1,0,0:0:0:0:
475,192,334744,1,0,0:0:0:0:
402,192,334783,1,0,0:0:0:0:
109,192,334821,1,0,0:0:0:0:
256,192,334860,1,0,0:0:0:0:
36,192,334898,1,0,0:0:0:0:
475,192,334937,1,0,0:0:0:0:
329,192,334969,1,0,0:0:0:0:
182,192,335001,1,0,0:0:0:0:
256,192,335033,1,0,0:0:0:0:
109,192,335066,1,0,0:0:0:0:
36,192,335098,1,0,0:0:0:0:
475,192,335130,1,0,0:0:0:0:
402,192,335157,1,0,0:0:0:0:
256,192,335185,1,0,0:0:0:0:
329,192,335212,1,0,0:0:0:0:
109,192,335240,1,0,0:0:0:0:
182,192,335268,1,0,0:0:0:0:
36,192,335295,1,0,0:0:0:0:
329,192,335323,1,0,0:0:0:0:
402,192,335323,1,0,0:0:0:0:
475,192,335323,1,0,0:0:0:0:
256,192,335419,1,0,0:0:0:0:
475,192,335516,1,0,0:0:0:0:
109,192,335564,1,0,0:0:0:0:
329,192,335612,1,0,0:0:0:0:
182,192,335660,1,0,0:0:0:0:
475,192,335709,1,0,0:0:0:0:
402,192,335747,1,0,0:0:0:0:
256,192,335786,1,0,0:0:0:0:
36,192,335824,1,0,0:0:0:0:
182,192,335863,1,0,0:0:0:0:
475,192,335902,1,0,0:0:0:0:
329,192,335934,1,0,0:0:0:0:
109,192,335966,1,0,0:0:0:0:
36,192,335998,1,0,0:0:0:0:
182,192,336030,1,0,0:0:0:0:
256,192,336062,1,0,0:0:0:0:
475,192,336094,1,0,0:0:0:0:
402,192,336122,1,0,0:0:0:0:
329,192,336150,1,0,0:0:0:0:
182,192,336177,1,0,0:0:0:0:
36,192,336205,1,0,0:0:0:0:
109,192,336232,1,0,0:0:0:0:
256,192,336260,1,0,0:0:0:0:
329,192,336287,1,0,0:0:0:0:
402,192,336287,1,0,0:0:0:0:
475,192,336287,1,0,0:0:0:0:
182,192,336384,1,0,0:0:0:0:
475,192,336480,1,0,0:0:0:0:
402,192,336519,1,0,0:0:0:0:
256,192,336557,1,0,0:0:0:0:
36,192,336596,1,0,0:0:0:0:
182,192,336635,1,0,0:0:0:0:
475,192,336673,1,0,0:0:0:0:
329,192,336705,1,0,0:0:0:0:
256,192,336738,1,0,0:0:0:0:
109,192,336770,1,0,0:0:0:0:
36,192,336802,1,0,0:0:0:0:
182,192,336834,1,0,0:0:0:0:
475,192,336866,1,0,0:0:0:0:
256,192,336894,1,0,0:0:0:0:
402,192,336921,1,0,0:0:0:0:
329,192,336949,1,0,0:0:0:0:
109,192,336976,1,0,0:0:0:0:
36,192,337004,1,0,0:0:0:0:
182,192,337032,1,0,0:0:0:0:
475,192,337059,1,0,0:0:0:0:
329,192,337083,1,0,0:0:0:0:
256,192,337107,1,0,0:0:0:0:
402,192,337131,1,0,0:0:0:0:
36,192,337156,1,0,0:0:0:0:
109,192,337156,1,0,0:0:0:0:
182,192,337156,1,0,0:0:0:0:
36,192,337252,1,0,0:0:0:0:
475,192,337252,1,0,0:0:0:0:
402,192,337252,1,0,0:0:0:0:
256,192,337252,1,0,0:0:0:0:
329,192,337252,1,0,0:0:0:0:
256,192,337348,1,0,0:0:0:0:
329,192,337348,1,0,0:0:0:0:
402,192,337348,1,0,0:0:0:0:
475,192,337348,1,0,0:0:0:0:
109,192,337445,1,0,0:0:0:0:
36,192,337445,1,0,0:0:0:0:
475,192,337445,1,0,0:0:0:0:
182,192,337445,1,0,0:0:0:0:
402,192,337445,1,0,0:0:0:0:
36,192,337541,1,0,0:0:0:0:
109,192,337541,1,0,0:0:0:0:
475,192,337638,1,0,0:0:0:0:
402,192,337638,1,0,0:0:0:0:
329,192,337638,1,0,0:0:0:0:
182,192,337638,1,0,0:0:0:0:
256,192,337638,1,0,0:0:0:0:
182,192,337734,1,0,0:0:0:0:
329,192,337734,1,0,0:0:0:0:
109,192,337831,1,0,0:0:0:0:
36,192,337831,1,0,0:0:0:0:
475,192,337831,128,0,338024:0:0:0:0:
256,192,337831,128,0,338120:0:0:0:0:
402,192,337895,128,0,338120:0:0:0:0:
329,192,337959,128,0,338120:0:0:0:0:
182,192,338024,128,0,338120:0:0:0:0:
36,192,338024,1,0,0:0:0:0:
475,192,338120,1,0,0:0:0:0:
36,192,338217,1,0,0:0:0:0:
182,192,338217,1,0,0:0:0:0:
109,192,338217,1,0,0:0:0:0:
36,192,338410,1,0,0:0:0:0:
475,192,338458,1,0,0:0:0:0:
182,192,338506,1,0,0:0:0:0:
329,192,338554,1,0,0:0:0:0:
36,192,338602,1,0,0:0:0:0:
475,192,338641,1,0,0:0:0:0:
109,192,338680,1,0,0:0:0:0:
402,192,338718,1,0,0:0:0:0:
256,192,338757,1,0,0:0:0:0:
36,192,338795,1,0,0:0:0:0:
475,192,338828,1,0,0:0:0:0:
182,192,338860,1,0,0:0:0:0:
329,192,338892,1,0,0:0:0:0:
109,192,338924,1,0,0:0:0:0:
402,192,338956,1,0,0:0:0:0:
36,192,338988,1,0,0:0:0:0:
182,192,339016,1,0,0:0:0:0:
329,192,339043,1,0,0:0:0:0:
109,192,339071,1,0,0:0:0:0:
256,192,339099,1,0,0:0:0:0:
402,192,339126,1,0,0:0:0:0:
475,192,339154,1,0,0:0:0:0:
36,192,339181,1,0,0:0:0:0:
182,192,339181,1,0,0:0:0:0:
109,192,339181,1,0,0:0:0:0:
329,192,339278,1,0,0:0:0:0:
36,192,339374,1,0,0:0:0:0:
402,192,339422,1,0,0:0:0:0:
109,192,339471,1,0,0:0:0:0:
475,192,339519,1,0,0:0:0:0:
36,192,339567,1,0,0:0:0:0:
329,192,339606,1,0,0:0:0:0:
182,192,339644,1,0,0:0:0:0:
475,192,339683,1,0,0:0:0:0:
256,192,339721,1,0,0:0:0:0:
36,192,339760,1,0,0:0:0:0:
402,192,339792,1,0,0:0:0:0:
109,192,339824,1,0,0:0:0:0:
475,192,339856,1,0,0:0:0:0:
182,192,339889,1,0,0:0:0:0:
329,192,339921,1,0,0:0:0:0:
36,192,339953,1,0,0:0:0:0:
256,192,339981,1,0,0:0:0:0:
109,192,340008,1,0,0:0:0:0:
182,192,340036,1,0,0:0:0:0:
402,192,340063,1,0,0:0:0:0:
329,192,340091,1,0,0:0:0:0:
475,192,340118,1,0,0:0:0:0:
36,192,340146,1,0,0:0:0:0:
109,192,340146,1,0,0:0:0:0:
182,192,340146,1,0,0:0:0:0:
329,192,340242,1,0,0:0:0:0:
36,192,340339,1,0,0:0:0:0:
475,192,340377,1,0,0:0:0:0:
109,192,340416,1,0,0:0:0:0:
402,192,340455,1,0,0:0:0:0:
256,192,340493,1,0,0:0:0:0:
36,192,340532,1,0,0:0:0:0:
475,192,340564,1,0,0:0:0:0:
182,192,340596,1,0,0:0:0:0:
329,192,340628,1,0,0:0:0:0:
109,192,340660,1,0,0:0:0:0:
402,192,340693,1,0,0:0:0:0:
36,192,340725,1,0,0:0:0:0:
475,192,340752,1,0,0:0:0:0:
256,192,340780,1,0,0:0:0:0:
109,192,340807,1,0,0:0:0:0:
402,192,340835,1,0,0:0:0:0:
182,192,340862,1,0,0:0:0:0:
329,192,340890,1,0,0:0:0:0:
36,192,340918,1,0,0:0:0:0:
256,192,340942,1,0,0:0:0:0:
109,192,340966,1,0,0:0:0:0:
182,192,340990,1,0,0:0:0:0:
329,192,341014,1,0,0:0:0:0:
402,192,341014,1,0,0:0:0:0:
475,192,341014,1,0,0:0:0:0:
36,192,341111,1,0,0:0:0:0:
109,192,341111,1,0,0:0:0:0:
475,192,341111,1,0,0:0:0:0:
256,192,341111,1,0,0:0:0:0:
402,192,341111,1,0,0:0:0:0:
36,192,341207,1,0,0:0:0:0:
109,192,341207,1,0,0:0:0:0:
256,192,341303,1,0,0:0:0:0:
329,192,341303,1,0,0:0:0:0:
402,192,341303,1,0,0:0:0:0:
475,192,341303,1,0,0:0:0:0:
182,192,341303,1,0,0:0:0:0:
475,192,341400,1,0,0:0:0:0:
402,192,341400,1,0,0:0:0:0:
329,192,341496,1,0,0:0:0:0:
256,192,341496,1,0,0:0:0:0:
182,192,341496,1,0,0:0:0:0:
36,192,341496,1,0,0:0:0:0:
109,192,341496,1,0,0:0:0:0:
329,192,341593,1,0,0:0:0:0:
182,192,341593,1,0,0:0:0:0:
402,192,341689,1,0,0:0:0:0:
475,192,341689,1,0,0:0:0:0:
109,192,341689,1,0,0:0:0:0:
36,192,341689,1,0,0:0:0:0:
256,192,341689,1,0,0:0:0:0:
329,192,341738,1,0,0:0:0:0:
182,192,341786,1,0,0:0:0:0:
256,192,341834,1,0,0:0:0:0:
109,192,341914,1,0,0:0:0:0:
402,192,341914,1,0,0:0:0:0:
475,192,341914,1,0,0:0:0:0:
36,192,341914,1,0,0:0:0:0:
329,192,341914,1,0,0:0:0:0:
182,192,341963,1,0,0:0:0:0:
256,192,342011,1,0,0:0:0:0:
475,192,342075,1,0,0:0:0:0:
329,192,342075,1,0,0:0:0:0:
402,192,342075,1,0,0:0:0:0:
475,192,342268,1,0,0:0:0:0:
36,192,342316,1,0,0:0:0:0:
329,192,342365,1,0,0:0:0:0:
182,192,342413,1,0,0:0:0:0:
475,192,342461,1,0,0:0:0:0:
36,192,342500,1,0,0:0:0:0:
402,192,342538,1,0,0:0:0:0:
109,192,342577,1,0,0:0:0:0:
256,192,342615,1,0,0:0:0:0:
475,192,342654,1,0,0:0:0:0:
36,192,342686,1,0,0:0:0:0:
329,192,342718,1,0,0:0:0:0:
182,192,342750,1,0,0:0:0:0:
402,192,342783,1,0,0:0:0:0:
109,192,342815,1,0,0:0:0:0:
475,192,342847,1,0,0:0:0:0:
329,192,342874,1,0,0:0:0:0:
182,192,342902,1,0,0:0:0:0:
402,192,342930,1,0,0:0:0:0:
256,192,342957,1,0,0:0:0:0:
109,192,342985,1,0,0:0:0:0:
36,192,343012,1,0,0:0:0:0:
475,192,343040,1,0,0:0:0:0:
329,192,343040,1,0,0:0:0:0:
402,192,343040,1,0,0:0:0:0:
182,192,343136,1,0,0:0:0:0:
475,192,343233,1,0,0:0:0:0:
109,192,343281,1,0,0:0:0:0:
402,192,343329,1,0,0:0:0:0:
36,192,343377,1,0,0:0:0:0:
475,192,343426,1,0,0:0:0:0:
182,192,343464,1,0,0:0:0:0:
329,192,343503,1,0,0:0:0:0:
36,192,343541,1,0,0:0:0:0:
256,192,343580,1,0,0:0:0:0:
475,192,343619,1,0,0:0:0:0:
109,192,343651,1,0,0:0:0:0:
402,192,343683,1,0,0:0:0:0:
36,192,343715,1,0,0:0:0:0:
329,192,343747,1,0,0:0:0:0:
182,192,343779,1,0,0:0:0:0:
475,192,343811,1,0,0:0:0:0:
256,192,343839,1,0,0:0:0:0:
402,192,343867,1,0,0:0:0:0:
329,192,343894,1,0,0:0:0:0:
109,192,343922,1,0,0:0:0:0:
182,192,343949,1,0,0:0:0:0:
36,192,343977,1,0,0:0:0:0:
475,192,344004,1,0,0:0:0:0:
402,192,344004,1,0,0:0:0:0:
329,192,344004,1,0,0:0:0:0:
182,192,344101,1,0,0:0:0:0:
475,192,344197,1,0,0:0:0:0:
36,192,344236,1,0,0:0:0:0:
402,192,344275,1,0,0:0:0:0:
109,192,344313,1,0,0:0:0:0:
256,192,344352,1,0,0:0:0:0:
475,192,344390,1,0,0:0:0:0:
36,192,344422,1,0,0:0:0:0:
329,192,344455,1,0,0:0:0:0:
182,192,344487,1,0,0:0:0:0:
402,192,344519,1,0,0:0:0:0:
109,192,344551,1,0,0:0:0:0:
475,192,344583,1,0,0:0:0:0:
36,192,344611,1,0,0:0:0:0:
256,192,344638,1,0,0:0:0:0:
402,192,344666,1,0,0:0:0:0:
109,192,344693,1,0,0:0:0:0:
329,192,344721,1,0,0:0:0:0:
182,192,344749,1,0,0:0:0:0:
475,192,344776,1,0,0:0:0:0:
256,192,344800,1,0,0:0:0:0:
402,192,344824,1,0,0:0:0:0:
329,192,344848,1,0,0:0:0:0:
182,192,344873,1,0,0:0:0:0:
109,192,344873,1,0,0:0:0:0:
36,192,344873,1,0,0:0:0:0:
475,192,344969,1,0,0:0:0:0:
256,192,344969,1,0,0:0:0:0:
36,192,344969,1,0,0:0:0:0:
109,192,344969,1,0,0:0:0:0:
402,192,345017,1,0,0:0:0:0:
329,192,345066,1,0,0:0:0:0:
182,192,345114,1,0,0:0:0:0:
256,192,345162,1,0,0:0:0:0:
475,192,345162,1,0,0:0:0:0:
36,192,345162,1,0,0:0:0:0:
329,192,345210,1,0,0:0:0:0:
109,192,345210,1,0,0:0:0:0:
402,192,345258,1,0,0:0:0:0:
182,192,345258,1,0,0:0:0:0:
475,192,345307,1,0,0:0:0:0:
256,192,345307,1,0,0:0:0:0:
182,192,345355,1,0,0:0:0:0:
109,192,345355,1,0,0:0:0:0:
36,192,345355,1,0,0:0:0:0:
329,192,345355,1,0,0:0:0:0:
329,192,345451,1,0,0:0:0:0:
475,192,345548,1,0,0:0:0:0:
109,192,345548,1,0,0:0:0:0:
36,192,345548,1,0,0:0:0:0:
402,192,345572,1,0,0:0:0:0:
329,192,345596,1,0,0:0:0:0:
256,192,345620,1,0,0:0:0:0:
182,192,345644,1,0,0:0:0:0:
109,192,345668,1,0,0:0:0:0:
36,192,345693,1,0,0:0:0:0:
475,192,345717,1,0,0:0:0:0:
402,192,345741,1,0,0:0:0:0:
329,192,345765,1,0,0:0:0:0:
256,192,345789,1,0,0:0:0:0:
182,192,345813,1,0,0:0:0:0:
36,192,345837,1,0,0:0:0:0:
109,192,345837,1,0,0:0:0:0:
475,192,345934,128,0,346062:0:0:0:0:
402,192,345934,128,0,346850:0:0:0:0:
329,192,345934,128,0,346062:0:0:0:0:
36,192,345982,1,0,0:0:0:0:
109,192,346030,1,0,0:0:0:0:
182,192,346078,1,0,0:0:0:0:
475,192,346127,128,0,346255:0:0:0:0:
36,192,346175,1,0,0:0:0:0:
109,192,346223,1,0,0:0:0:0:
256,192,346271,1,0,0:0:0:0:
475,192,346320,128,0,346448:0:0:0:0:
36,192,346368,1,0,0:0:0:0:
182,192,346416,1,0,0:0:0:0:
329,192,346464,1,0,0:0:0:0:
475,192,346512,128,0,346641:0:0:0:0:
109,192,346561,1,0,0:0:0:0:
256,192,346609,1,0,0:0:0:0:
329,192,346657,1,0,0:0:0:0:
475,192,346705,128,0,346850:0:0:0:0:
182,192,346754,1,0,0:0:0:0:
256,192,346802,1,0,0:0:0:0:
329,192,346850,1,0,0:0:0:0:
36,192,346898,1,0,0:0:0:0:
109,192,346930,1,0,0:0:0:0:
182,192,346963,1,0,0:0:0:0:
475,192,346995,1,0,0:0:0:0:
402,192,347027,1,0,0:0:0:0:
329,192,347059,1,0,0:0:0:0:
256,192,347091,1,0,0:0:0:0:
109,192,347123,1,0,0:0:0:0:
36,192,347156,1,0,0:0:0:0:
402,192,347188,1,0,0:0:0:0:
475,192,347220,1,0,0:0:0:0:
182,192,347220,1,0,0:0:0:0:
256,192,347252,1,0,0:0:0:0:
329,192,347284,1,0,0:0:0:0:
36,192,347316,1,0,0:0:0:0:
182,192,347348,1,0,0:0:0:0:
475,192,347381,1,0,0:0:0:0:
329,192,347413,1,0,0:0:0:0:
109,192,347445,1,0,0:0:0:0:
36,192,347477,1,0,0:0:0:0:
402,192,347509,1,0,0:0:0:0:
475,192,347541,1,0,0:0:0:0:
109,192,347574,1,0,0:0:0:0:
256,192,347606,1,0,0:0:0:0:
402,192,347638,1,0,0:0:0:0:
36,192,347670,1,0,0:0:0:0:
182,192,347702,1,0,0:0:0:0:
329,192,347734,1,0,0:0:0:0:
475,192,347766,1,0,0:0:0:0:
402,192,347799,1,0,0:0:0:0:
256,192,347831,1,0,0:0:0:0:
36,192,347863,128,0,347992:0:0:0:0:
182,192,347863,128,0,347992:0:0:0:0:
109,192,347863,128,0,348779:0:0:0:0:
475,192,347911,1,0,0:0:0:0:
402,192,347959,1,0,0:0:0:0:
329,192,348008,1,0,0:0:0:0:
36,192,348056,128,0,348184:0:0:0:0:
475,192,348104,1,0,0:0:0:0:
402,192,348152,1,0,0:0:0:0:
256,192,348201,1,0,0:0:0:0:
36,192,348249,128,0,348377:0:0:0:0:
475,192,348297,1,0,0:0:0:0:
329,192,348345,1,0,0:0:0:0:
182,192,348393,1,0,0:0:0:0:
36,192,348442,128,0,348570:0:0:0:0:
402,192,348490,1,0,0:0:0:0:
256,192,348538,1,0,0:0:0:0:
182,192,348586,1,0,0:0:0:0:
36,192,348635,128,0,348779:0:0:0:0:
329,192,348683,1,0,0:0:0:0:
256,192,348731,1,0,0:0:0:0:
182,192,348779,1,0,0:0:0:0:
475,192,348828,1,0,0:0:0:0:
402,192,348858,1,0,0:0:0:0:
329,192,348888,1,0,0:0:0:0:
36,192,348918,1,0,0:0:0:0:
109,192,348948,1,0,0:0:0:0:
182,192,348978,1,0,0:0:0:0:
256,192,349008,1,0,0:0:0:0:
402,192,349039,1,0,0:0:0:0:
475,192,349069,1,0,0:0:0:0:
109,192,349099,1,0,0:0:0:0:
36,192,349129,1,0,0:0:0:0:
329,192,349159,1,0,0:0:0:0:
256,192,349189,1,0,0:0:0:0:
182,192,349219,1,0,0:0:0:0:
475,192,349250,1,0,0:0:0:0:
402,192,349280,1,0,0:0:0:0:
36,192,349310,1,0,0:0:0:0:
109,192,349340,1,0,0:0:0:0:
329,192,349370,1,0,0:0:0:0:
475,192,349400,1,0,0:0:0:0:
182,192,349430,1,0,0:0:0:0:
36,192,349461,1,0,0:0:0:0:
402,192,349491,1,0,0:0:0:0:
329,192,349521,1,0,0:0:0:0:
109,192,349551,1,0,0:0:0:0:
256,192,349581,1,0,0:0:0:0:
475,192,349611,1,0,0:0:0:0:
402,192,349641,1,0,0:0:0:0:
329,192,349672,1,0,0:0:0:0:
182,192,349702,1,0,0:0:0:0:
109,192,349732,1,0,0:0:0:0:
36,192,349762,1,0,0:0:0:0:
475,192,349792,128,0,349921:0:0:0:0:
402,192,349792,128,0,350693:0:0:0:0:
329,192,349792,128,0,350693:0:0:0:0:
256,192,349856,1,0,0:0:0:0:
109,192,349921,1,0,0:0:0:0:
475,192,349985,128,0,350114:0:0:0:0:
182,192,350049,1,0,0:0:0:0:
36,192,350114,1,0,0:0:0:0:
475,192,350178,128,0,350307:0:0:0:0:
256,192,350242,1,0,0:0:0:0:
109,192,350307,1,0,0:0:0:0:
475,192,350371,128,0,350500:0:0:0:0:
182,192,350435,1,0,0:0:0:0:
36,192,350500,1,0,0:0:0:0:
475,192,350564,128,0,350693:0:0:0:0:
256,192,350628,1,0,0:0:0:0:
182,192,350693,1,0,0:0:0:0:
36,192,350757,1,0,0:0:0:0:
109,192,350784,1,0,0:0:0:0:
256,192,350812,1,0,0:0:0:0:
402,192,350840,1,0,0:0:0:0:
475,192,350867,1,0,0:0:0:0:
329,192,350895,1,0,0:0:0:0:
182,192,350922,1,0,0:0:0:0:
36,192,350950,1,0,0:0:0:0:
402,192,350977,1,0,0:0:0:0:
256,192,351005,1,0,0:0:0:0:
109,192,351032,1,0,0:0:0:0:
475,192,351060,1,0,0:0:0:0:
329,192,351088,1,0,0:0:0:0:
182,192,351115,1,0,0:0:0:0:
36,192,351143,1,0,0:0:0:0:
256,192,351170,1,0,0:0:0:0:
109,192,351198,1,0,0:0:0:0:
329,192,351225,1,0,0:0:0:0:
182,192,351253,1,0,0:0:0:0:
402,192,351280,1,0,0:0:0:0:
36,192,351308,1,0,0:0:0:0:
475,192,351336,1,0,0:0:0:0:
256,192,351363,1,0,0:0:0:0:
109,192,351391,1,0,0:0:0:0:
329,192,351418,1,0,0:0:0:0:
402,192,351446,1,0,0:0:0:0:
182,192,351473,1,0,0:0:0:0:
109,192,351501,1,0,0:0:0:0:
36,192,351529,1,0,0:0:0:0:
329,192,351556,1,0,0:0:0:0:
256,192,351584,1,0,0:0:0:0:
182,192,351611,1,0,0:0:0:0:
475,192,351639,1,0,0:0:0:0:
402,192,351666,1,0,0:0:0:0:
329,192,351694,1,0,0:0:0:0:
36,192,351721,128,0,351866:0:0:0:0:
182,192,351721,128,0,352718:0:0:0:0:
109,192,351721,128,0,352750:0:0:0:0:
256,192,351721,128,0,352686:0:0:0:0:
36,192,351914,128,0,352059:0:0:0:0:
36,192,352107,128,0,352252:0:0:0:0:
36,192,352300,128,0,352445:0:0:0:0:
36,192,352493,128,0,352783:0:0:0:0:
475,192,352686,128,0,352927:0:0:0:0:
402,192,352718,128,0,352895:0:0:0:0:
329,192,352750,128,0,352863:0:0:0:0:
256,192,352783,128,0,353168:0:0:0:0:
182,192,352815,128,0,353024:0:0:0:0:
109,192,352847,128,0,352992:0:0:0:0:
36,192,352879,128,0,352959:0:0:0:0:
329,192,352911,128,0,353120:0:0:0:0:
402,192,352943,128,0,353072:0:0:0:0:
475,192,352975,128,0,353313:0:0:0:0:
36,192,353008,128,0,353602:0:0:0:0:
109,192,353040,128,0,353265:0:0:0:0:
182,192,353072,128,0,353217:0:0:0:0:
402,192,353120,128,0,353361:0:0:0:0:
329,192,353168,128,0,353410:0:0:0:0:
256,192,353217,128,0,353458:0:0:0:0:
182,192,353265,128,0,353506:0:0:0:0:
109,192,353313,128,0,353554:0:0:0:0:
475,192,353361,128,0,355821:0:0:0:0:
402,192,353410,128,0,355773:0:0:0:0:
329,192,353458,128,0,355725:0:0:0:0:
256,192,353506,128,0,355676:0:0:0:0:
182,192,353554,128,0,355628:0:0:0:0:
109,192,353602,128,0,355580:0:0:0:0:
36,192,353651,128,0,355532:0:0:0:0:
36,192,355580,128,0,356014:0:0:0:0:
109,192,355628,128,0,355821:0:0:0:0:
182,192,355676,128,0,355869:0:0:0:0:
256,192,355725,128,0,355918:0:0:0:0:
329,192,355773,128,0,355966:0:0:0:0:
402,192,355821,128,0,356014:0:0:0:0:
475,192,355869,128,0,356303:0:0:0:0:
109,192,355918,128,0,356062:0:0:0:0:
182,192,355966,128,0,356111:0:0:0:0:
256,192,356014,128,0,356159:0:0:0:0:
329,192,356062,128,0,356207:0:0:0:0:
402,192,356111,128,0,356255:0:0:0:0:
36,192,356159,128,0,356275:0:0:0:0:
109,192,356197,128,0,356313:0:0:0:0:
182,192,356236,128,0,356352:0:0:0:0:
256,192,356275,128,0,356390:0:0:0:0:
329,192,356313,128,0,356429:0:0:0:0:
36,192,356352,128,0,356467:0:0:0:0:
109,192,356390,128,0,356506:0:0:0:0:
182,192,356429,128,0,356545:0:0:0:0:
256,192,356467,128,0,356583:0:0:0:0:
402,192,356506,128,0,356622:0:0:0:0:
36,192,356545,128,0,356660:0:0:0:0:
109,192,356583,128,0,356699:0:0:0:0:
182,192,356622,128,0,356738:0:0:0:0:
329,192,356660,128,0,356776:0:0:0:0:
475,192,356699,128,0,356815:0:0:0:0:
36,192,356738,128,0,356834:0:0:0:0:
109,192,356770,128,0,356866:0:0:0:0:
256,192,356802,128,0,356898:0:0:0:0:
402,192,356834,128,0,356930:0:0:0:0:
475,192,356866,128,0,356963:0:0:0:0:
36,192,356898,128,0,356995:0:0:0:0:
182,192,356930,128,0,357027:0:0:0:0:
329,192,356963,128,0,357059:0:0:0:0:
402,192,356995,128,0,357091:0:0:0:0:
475,192,357027,128,0,357123:0:0:0:0:
109,192,357059,128,0,357156:0:0:0:0:
256,192,357091,128,0,357188:0:0:0:0:
329,192,357123,128,0,357206:0:0:0:0:
402,192,357151,128,0,357234:0:0:0:0:
475,192,357178,128,0,357261:0:0:0:0:
36,192,357206,128,0,357289:0:0:0:0:
182,192,357234,128,0,357316:0:0:0:0:
256,192,357261,128,0,357344:0:0:0:0:
329,192,357289,128,0,357371:0:0:0:0:
402,192,357316,128,0,357399:0:0:0:0:
36,192,357344,128,0,357427:0:0:0:0:
109,192,357371,128,0,357454:0:0:0:0:
182,192,357399,128,0,357482:0:0:0:0:
475,192,357427,128,0,357509:0:0:0:0:
402,192,357454,128,0,357537:0:0:0:0:
329,192,357482,128,0,357564:0:0:0:0:
36,192,357509,128,0,357582:0:0:0:0:
109,192,357533,128,0,357606:0:0:0:0:
182,192,357557,128,0,357630:0:0:0:0:
475,192,357582,128,0,357654:0:0:0:0:
402,192,357606,128,0,357678:0:0:0:0:
329,192,357630,128,0,357702:0:0:0:0:
36,192,357654,128,0,357726:0:0:0:0:
109,192,357678,128,0,357750:0:0:0:0:
182,192,357702,128,0,357775:0:0:0:0:
256,192,357726,128,0,357799:0:0:0:0:
475,192,357750,128,0,357823:0:0:0:0:
402,192,357775,128,0,357847:0:0:0:0:
329,192,357799,128,0,357871:0:0:0:0:
36,192,357823,128,0,357895:0:0:0:0:
109,192,357847,128,0,357919:0:0:0:0:
182,192,357871,128,0,357943:0:0:0:0:
475,192,357895,128,0,357967:0:0:0:0:
402,192,357919,128,0,357992:0:0:0:0:
329,192,357943,128,0,358016:0:0:0:0:
256,192,357967,128,0,358040:0:0:0:0:
36,192,357992,128,0,358064:0:0:0:0:
109,192,358016,128,0,358088:0:0:0:0:
182,192,358040,128,0,358112:0:0:0:0:
329,192,358064,128,0,358281:0:0:0:0:
402,192,358088,128,0,358249:0:0:0:0:
475,192,358120,128,0,358217:0:0:0:0:
256,192,358152,128,0,358313:0:0:0:0:
182,192,358184,128,0,358345:0:0:0:0:
109,192,358217,128,0,358377:0:0:0:0:
36,192,358249,128,0,358410:0:0:0:0:
475,192,358281,128,0,358426:0:0:0:0:
402,192,358313,128,0,358442:0:0:0:0:
329,192,358345,128,0,358458:0:0:0:0:
256,192,358377,128,0,358474:0:0:0:0:
182,192,358410,128,0,358488:0:0:0:0:
109,192,358442,128,0,358502:0:0:0:0:
36,192,358474,128,0,358516:0:0:0:0:
475,192,358474,1,0,0:0:0:0:
475,192,358558,1,0,0:0:0:0:
36,192,358643,1,0,0:0:0:0:
182,192,358685,1,0,0:0:0:0:
329,192,358727,1,0,0:0:0:0:
109,192,358812,1,0,0:0:0:0:
256,192,358854,1,0,0:0:0:0:
475,192,358896,1,0,0:0:0:0:
329,192,358938,1,0,0:0:0:0:
182,192,358981,1,0,0:0:0:0:
36,192,359023,1,0,0:0:0:0:
256,192,359065,1,0,0:0:0:0:
109,192,359107,1,0,0:0:0:0:
329,192,359150,1,0,0:0:0:0:
182,192,359192,1,0,0:0:0:0:
402,192,359234,1,0,0:0:0:0:
256,192,359276,1,0,0:0:0:0:
475,192,359319,1,0,0:0:0:0:
182,192,359361,1,0,0:0:0:0:
402,192,359403,1,0,0:0:0:0:
109,192,359445,1,0,0:0:0:0:
329,192,359488,1,0,0:0:0:0:
36,192,359530,1,0,0:0:0:0:
256,192,359572,1,0,0:0:0:0:
475,192,359614,1,0,0:0:0:0:
182,192,359657,1,0,0:0:0:0:
402,192,359699,1,0,0:0:0:0:
109,192,359741,1,0,0:0:0:0:
329,192,359797,1,0,0:0:0:0:
36,192,359854,1,0,0:0:0:0:
182,192,359924,1,0,0:0:0:0:
329,192,359995,1,0,0:0:0:0:
475,192,360107,1,0,0:0:0:0:
256,192,360220,1,0,0:0:0:0:
402,192,360347,1,0,0:0:0:0:
182,192,360431,1,0,0:0:0:0:
329,192,360572,1,0,0:0:0:0:
109,192,360685,1,0,0:0:0:0:
256,192,360840,1,0,0:0:0:0:
256,192,360896,1,0,0:0:0:0:
182,192,361037,1,0,0:0:0:0:
329,192,361135,1,0,0:0:0:0:
182,192,361220,1,0,0:0:0:0:
36,192,361685,1,0,0:0:0:0:
36,192,361769,1,0,0:0:0:0:
475,192,361812,1,0,0:0:0:0:
182,192,361938,1,0,0:0:0:0:
402,192,361981,1,0,0:0:0:0:
109,192,362051,1,0,0:0:0:0:
329,192,362107,1,0,0:0:0:0:
36,192,362868,1,0,0:0:0:0:
182,192,362995,1,0,0:0:0:0:
329,192,363051,1,0,0:0:0:0:
475,192,363093,1,0,0:0:0:0:
402,192,363150,1,0,0:0:0:0:
256,192,363192,1,0,0:0:0:0:
109,192,363347,1,0,0:0:0:0:
475,192,363628,1,0,0:0:0:0:
329,192,363713,1,0,0:0:0:0:
182,192,363769,1,0,0:0:0:0:
36,192,363826,1,0,0:0:0:0:
256,192,363882,1,0,0:0:0:0:
109,192,363938,1,0,0:0:0:0:
329,192,364009,1,0,0:0:0:0:
182,192,364051,1,0,0:0:0:0:
402,192,364093,1,0,0:0:0:0:
109,192,364431,1,0,0:0:0:0:
329,192,364474,1,0,0:0:0:0:
36,192,364530,1,0,0:0:0:0:
475,192,364572,1,0,0:0:0:0:
182,192,364643,1,0,0:0:0:0:
402,192,364727,1,0,0:0:0:0:
109,192,364783,1,0,0:0:0:0:
329,192,364854,1,0,0:0:0:0:
256,192,364952,1,0,0:0:0:0:
