osu file format v14

[General]
AudioFilename: audio.mp3
AudioLeadIn: 0
PreviewTime: 4780
Countdown: 0
SampleSet: None
StackLeniency: 0.7
Mode: 3
LetterboxInBreaks: 0
SkinPreference:osu!typing
SpecialStyle: 0
WidescreenStoryboard: 1

[Editor]
Bookmarks: 4780,5830,6580,7630,8380,9430,10180,11080,11980,13030,13780,14830,15580,16630,17680,18280,19180,19930,20980,21730,22780,23530,24280,24880,25480,26680,27130,27880,28930,29680,30730,31480,32530,35980,37780,41080,44680,45730,46930,48280,50080,50680,51430,52480,53230,54280,55030,56080,56680,58030,58930,59680,60430,61480,62230,63280,64030,65230,66730,68080,68680,69730,70330,71980,74230,76030,77380,78880,80380,80980,82330,83230,85030,85930,86680,88480,89080,89980,90880,91780,92530,95680,97030,98080,98830,99730,101080,102130,103180,103780,104680,105730,106480,107680,108730,110530,112180,113230,113980,114880,116305,117130,117880,118630,119905,120880,122080,123280
DistanceSpacing: 1
BeatDivisor: 4
GridSize: 4
TimelineZoom: 1

[Metadata]
Title:memoryfactory.lzh
TitleUnicode:memoryfactory.lzh
Artist:Frums
ArtistUnicode:Frums
Creator:Nivrad00
Version:Telltale
Source:
Tags:arcaea
BeatmapID:1299183
BeatmapSetID:615959

[Difficulty]
HPDrainRate:6
CircleSize:18
OverallDifficulty:6
ApproachRate:5
SliderMultiplier:1.4
SliderTickRate:1

[Events]
//Background and Video events
0,0,"memoryfactory.png",0,0
//Break Periods
//Storyboard Layer 0 (Background)
//Storyboard Layer 1 (Fail)
//Storyboard Layer 2 (Pass)
//Storyboard Layer 3 (Foreground)
Sprite,Foreground,Centre,"Plain-Black-Wallpaper.jpg",320,240 S,0,1780,,0.876129 F,0,1780,3077,0,0.4996129 M,0,1780,4631,318.3484,240,320,242.43 F,0,3077,124480,0.4996129 M,0,4631,51430,320,242.43,318.3484,239.1742 F,0,124480,,0.4996129 F,0,124480,,0.4996129 F,0,124480,125661,0.4996129,0.01203958 F,0,125661,125680,0.01203958,0
Sprite,Foreground,Centre,"bar.png",320,240 F,0,1780,3077,0,0.8 M,0,3077,,320,163.2001 V,0,3077,,4.592258,0.2815485 F,0,3077,124480,0.8 F,0,124480,,0.8 F,0,124480,125680,0.8,0
Sprite,Foreground,Centre,"track.png",320,240 F,0,1780,3077,0,1 S,0,2428,,0.6118707 M,0,2428,4801,320,253.2129,320.8258,253.2129 F,0,3077,124480,1 F,0,124480,,1 F,0,124480,125680,1,0.07692308
Sprite,Foreground,Centre,"letters2\h.png",320,240 F,0,2980,3130,0,1 M,0,2980,4780,608.2065,253.2129,26.83871,253.2129 F,0,3130,4780,1 S,0,4780,,0.3145808 F,0,4780,4817,1,0
Sprite,Foreground,Centre,"letters2\i.png",320,240 F,0,3280,3430,0,1 M,0,3280,5080,608.2065,253.2129,26.83871,253.2129 F,0,3430,5080,1 S,0,5080,,0.3145808 F,0,5080,5117,1,0
Sprite,Foreground,Centre,"letters2\d.png",320,240 F,0,3430,3580,0,1 M,0,3430,5230,608.2065,253.2129,26.83871,253.2129 F,0,3580,5230,1 S,0,5230,,0.3145808 F,0,5230,5267,1,0
Sprite,Foreground,Centre,"letters2\e.png",320,240 F,0,3730,3880,0,1 M,0,3730,5530,608.2065,253.2129,26.83871,253.2129 F,0,3880,5530,1 S,0,5530,,0.3145808 F,0,5530,5567,1,0
Sprite,Foreground,Centre,"letters2\o.png",320,240 F,0,4030,4180,0,1 M,0,4030,5830,608.2065,253.2129,26.83871,253.2129 F,0,4180,5830,1 S,0,5830,,0.3145808 F,0,5830,5867,1,0
Sprite,Foreground,Centre,"letters2\o.png",320,240 F,0,4180,4330,0,1 M,0,4180,5980,608.2065,253.2129,26.83871,253.2129 F,0,4330,5980,1 S,0,5980,,0.3145808 F,0,5980,6017,1,0
Sprite,Foreground,Centre,"letters2\p.png",320,240 F,0,4330,4480,0,1 M,0,4330,6130,608.2065,253.2129,26.83871,253.2129 F,0,4480,6130,1 S,0,6130,,0.3145808 F,0,6130,6167,1,0
Sprite,Foreground,Centre,"letters2\s.png",320,240 F,0,4480,4630,0,1 M,0,4480,6280,608.2065,253.2129,26.83871,253.2129 F,0,4630,6280,1 S,0,6280,,0.3145808 F,0,6280,6317,1,0
Sprite,Foreground,Centre,"letters2\p.png",320,240 F,0,4780,4930,0,1 M,0,4780,6580,608.2065,253.2129,26.83871,253.2129 F,0,4930,6580,1 S,0,6580,,0.3145808 F,0,6580,6617,1,0
Sprite,Foreground,Centre,"letters2\o.png",320,240 F,0,5080,5230,0,1 M,0,5080,6880,608.2065,253.2129,26.83871,253.2129 F,0,5230,6880,1 S,0,6880,,0.3145808 F,0,6880,6917,1,0
Sprite,Foreground,Centre,"letters2\r.png",320,240 F,0,5230,5380,0,1 M,0,5230,7030,608.2065,253.2129,26.83871,253.2129 F,0,5380,7030,1 S,0,7030,,0.3145808 F,0,7030,7067,1,0
Sprite,Foreground,Centre,"letters2\e.png",320,240 F,0,5530,5680,0,1 M,0,5530,7330,608.2065,253.2129,26.83871,253.2129 F,0,5680,7330,1 S,0,7330,,0.3145808 F,0,7330,7367,1,0
Sprite,Foreground,Centre,"letters2\w.png",320,240 F,0,5830,5980,0,1 M,0,5830,7630,608.2065,253.2129,26.83871,253.2129 F,0,5980,7630,1 S,0,7630,,0.3145808 F,0,7630,7667,1,0
Sprite,Foreground,Centre,"letters2\a.png",320,240 F,0,5980,6130,0,1 M,0,5980,7780,608.2065,253.2129,26.83871,253.2129 F,0,6130,7780,1 S,0,7780,,0.3145808 F,0,7780,7817,1,0
Sprite,Foreground,Centre,"letters2\s.png",320,240 F,0,6130,6280,0,1 M,0,6130,7930,608.2065,253.2129,26.83871,253.2129 F,0,6280,7930,1 S,0,7930,,0.3145808 F,0,7930,7967,1,0
Sprite,Foreground,Centre,"letters2\h.png",320,240 F,0,6280,6430,0,1 M,0,6280,8080,608.2065,253.2129,26.83871,253.2129 F,0,6430,8080,1 S,0,8080,,0.3145808 F,0,8080,8117,1,0
Sprite,Foreground,Centre,"letters2\p.png",320,240 F,0,6580,6730,0,1 M,0,6580,8380,608.2065,253.2129,26.83871,253.2129 F,0,6730,8380,1 S,0,8380,,0.3145808 F,0,8380,8417,1,0
Sprite,Foreground,Centre,"letters2\a.png",320,240 F,0,6880,7030,0,1 M,0,6880,8680,608.2065,253.2129,26.83871,253.2129 F,0,7030,8680,1 S,0,8680,,0.3145808 F,0,8680,8717,1,0
Sprite,Foreground,Centre,"letters2\i.png",320,240 F,0,7030,7180,0,1 M,0,7030,8830,608.2065,253.2129,26.83871,253.2129 F,0,7180,8830,1 S,0,8830,,0.3145808 F,0,8830,8867,1,0
Sprite,Foreground,Centre,"letters2\d.png",320,240 F,0,7330,7480,0,1 M,0,7330,9130,608.2065,253.2129,26.83871,253.2129 F,0,7480,9130,1 S,0,9130,,0.3145808 F,0,9130,9167,1,0
Sprite,Foreground,Centre,"letters2\s.png",320,240 F,0,7630,7780,0,1 M,0,7630,9430,608.2065,253.2129,26.83871,253.2129 F,0,7780,9430,1 S,0,9430,,0.3145808 F,0,9430,9467,1,0
Sprite,Foreground,Centre,"letters2\p.png",320,240 F,0,7780,7930,0,1 M,0,7780,9580,608.2065,253.2129,26.83871,253.2129 F,0,7930,9580,1 S,0,9580,,0.3145808 F,0,9580,9617,1,0
Sprite,Foreground,Centre,"letters2\u.png",320,240 F,0,7930,8080,0,1 M,0,7930,9730,608.2065,253.2129,26.83871,253.2129 F,0,8080,9730,1 S,0,9730,,0.3145808 F,0,9730,9767,1,0
Sprite,Foreground,Centre,"letters2\r.png",320,240 F,0,8080,8230,0,1 M,0,8080,9880,608.2065,253.2129,26.83871,253.2129 F,0,8230,9880,1 S,0,9880,,0.3145808 F,0,9880,9917,1,0
Sprite,Foreground,Centre,"letters2\l.png",320,240 F,0,8380,8530,0,1 M,0,8380,10180,608.2065,253.2129,26.83871,253.2129 F,0,8530,10180,1 S,0,10180,,0.3145808 F,0,10180,10217,1,0
Sprite,Foreground,Centre,"letters2\e.png",320,240 F,0,8680,8830,0,1 M,0,8680,10480,608.2065,253.2129,26.83871,253.2129 F,0,8830,10480,1 S,0,10480,,0.3145808 F,0,10480,10517,1,0
Sprite,Foreground,Centre,"letters2\a.png",320,240 F,0,8830,8980,0,1 M,0,8830,10630,608.2065,253.2129,26.83871,253.2129 F,0,8980,10630,1 S,0,10630,,0.3145808 F,0,10630,10667,1,0
Sprite,Foreground,Centre,"letters2\d.png",320,240 F,0,8980,9130,0,1 M,0,8980,10780,608.2065,253.2129,26.83871,253.2129 F,0,9130,10780,1 S,0,10780,,0.3145808 F,0,10780,10817,1,0
Sprite,Foreground,Centre,"letters2\j.png",320,240 F,0,9280,9430,0,1 M,0,9280,11080,608.2065,253.2129,26.83871,253.2129 F,0,9430,11080,1 S,0,11080,,0.3145808 F,0,11080,11117,1,0
Sprite,Foreground,Centre,"letters2\u.png",320,240 F,0,9430,9580,0,1 M,0,9430,11230,608.2065,253.2129,26.83871,253.2129 F,0,9580,11230,1 S,0,11230,,0.3145808 F,0,11230,11267,1,0
Sprite,Foreground,Centre,"letters2\r.png",320,240 F,0,9580,9730,0,1 M,0,9580,11380,608.2065,253.2129,26.83871,253.2129 F,0,9730,11380,1 S,0,11380,,0.3145808 F,0,11380,11417,1,0
Sprite,Foreground,Centre,"letters2\o.png",320,240 F,0,9730,9880,0,1 M,0,9730,11530,608.2065,253.2129,26.83871,253.2129 F,0,9880,11530,1 S,0,11530,,0.3145808 F,0,11530,11567,1,0
Sprite,Foreground,Centre,"letters2\r.png",320,240 F,0,9880,10030,0,1 M,0,9880,11680,608.2065,253.2129,26.83871,253.2129 F,0,10030,11680,1 S,0,11680,,0.3145808 F,0,11680,11717,1,0
Sprite,Foreground,Centre,"letters2\l.png",320,240 F,0,10180,10330,0,1 M,0,10180,11980,608.2065,253.2129,26.83871,253.2129 F,0,10330,11980,1 S,0,11980,,0.3145808 F,0,11980,12017,1,0
Sprite,Foreground,Centre,"letters2\i.png",320,240 F,0,10480,10630,0,1 M,0,10480,12280,608.2065,253.2129,26.83871,253.2129 F,0,10630,12280,1 S,0,12280,,0.3145808 F,0,12280,12317,1,0
Sprite,Foreground,Centre,"letters2\f.png",320,240 F,0,10630,10780,0,1 M,0,10630,12430,608.2065,253.2129,26.83871,253.2129 F,0,10780,12430,1 S,0,12430,,0.3145808 F,0,12430,12467,1,0
Sprite,Foreground,Centre,"letters2\e.png",320,240 F,0,10930,11080,0,1 M,0,10930,12730,608.2065,253.2129,26.83871,253.2129 F,0,11080,12730,1 S,0,12730,,0.3145808 F,0,12730,12767,1,0
Sprite,Foreground,Centre,"letters2\w.png",320,240 F,0,11230,11380,0,1 M,0,11230,13030,608.2065,253.2129,26.83871,253.2129 F,0,11380,13030,1 S,0,13030,,0.3145808 F,0,13030,13067,1,0
Sprite,Foreground,Centre,"letters2\o.png",320,240 F,0,11380,11530,0,1 M,0,11380,13180,608.2065,253.2129,26.83871,253.2129 F,0,11530,13180,1 S,0,13180,,0.3145808 F,0,13180,13217,1,0
Sprite,Foreground,Centre,"letters2\o.png",320,240 F,0,11530,11680,0,1 M,0,11530,13330,608.2065,253.2129,26.83871,253.2129 F,0,11680,13330,1 S,0,13330,,0.3145808 F,0,13330,13367,1,0
Sprite,Foreground,Centre,"letters2\l.png",320,240 F,0,11680,11830,0,1 M,0,11680,13480,608.2065,253.2129,26.83871,253.2129 F,0,11830,13480,1 S,0,13480,,0.3145808 F,0,13480,13517,1,0
Sprite,Foreground,Centre,"letters2\s.png",320,240 F,0,11980,12130,0,1 M,0,11980,13780,608.2065,253.2129,26.83871,253.2129 F,0,12130,13780,1 S,0,13780,,0.3145808 F,0,13780,13817,1,0
Sprite,Foreground,Centre,"letters2\p.png",320,240 F,0,12280,12430,0,1 M,0,12280,14080,608.2065,253.2129,26.83871,253.2129 F,0,12430,14080,1 S,0,14080,,0.3145808 F,0,14080,14117,1,0
Sprite,Foreground,Centre,"letters2\e.png",320,240 F,0,12430,12580,0,1 M,0,12430,14230,608.2065,253.2129,26.83871,253.2129 F,0,12580,14230,1 S,0,14230,,0.3145808 F,0,14230,14267,1,0
Sprite,Foreground,Centre,"letters2\w.png",320,240 F,0,12730,12880,0,1 M,0,12730,14530,608.2065,253.2129,26.83871,253.2129 F,0,12880,14530,1 S,0,14530,,0.3145808 F,0,14530,14567,1,0
Sprite,Foreground,Centre,"letters2\p.png",320,240 F,0,13030,13180,0,1 M,0,13030,14830,608.2065,253.2129,26.83871,253.2129 F,0,13180,14830,1 S,0,14830,,0.3145808 F,0,14830,14867,1,0
Sprite,Foreground,Centre,"letters2\l.png",320,240 F,0,13180,13330,0,1 M,0,13180,14980,608.2065,253.2129,26.83871,253.2129 F,0,13330,14980,1 S,0,14980,,0.3145808 F,0,14980,15017,1,0
Sprite,Foreground,Centre,"letters2\o.png",320,240 F,0,13330,13480,0,1 M,0,13330,15130,608.2065,253.2129,26.83871,253.2129 F,0,13480,15130,1 S,0,15130,,0.3145808 F,0,15130,15167,1,0
Sprite,Foreground,Centre,"letters2\y.png",320,240 F,0,13480,13630,0,1 M,0,13480,15280,608.2065,253.2129,26.83871,253.2129 F,0,13630,15280,1 S,0,15280,,0.3145808 F,0,15280,15317,1,0
Sprite,Foreground,Centre,"letters2\t.png",320,240 F,0,13780,13930,0,1 M,0,13780,15580,608.2065,253.2129,26.83871,253.2129 F,0,13930,15580,1 S,0,15580,,0.3145808 F,0,15580,15617,1,0
Sprite,Foreground,Centre,"letters2\a.png",320,240 F,0,14080,14230,0,1 M,0,14080,15880,608.2065,253.2129,26.83871,253.2129 F,0,14230,15880,1 S,0,15880,,0.3145808 F,0,15880,15917,1,0
Sprite,Foreground,Centre,"letters2\l.png",320,240 F,0,14230,14380,0,1 M,0,14230,16030,608.2065,253.2129,26.83871,253.2129 F,0,14380,16030,1 S,0,16030,,0.3145808 F,0,16030,16067,1,0
Sprite,Foreground,Centre,"letters2\l.png",320,240 F,0,14530,14680,0,1 M,0,14530,16330,608.2065,253.2129,26.83871,253.2129 F,0,14680,16330,1 S,0,16330,,0.3145808 F,0,16330,16367,1,0
Sprite,Foreground,Centre,"letters2\h.png",320,240 F,0,14830,14980,0,1 M,0,14830,16630,608.2065,253.2129,26.83871,253.2129 F,0,14980,16630,1 S,0,16630,,0.3145808 F,0,16630,16667,1,0
Sprite,Foreground,Centre,"letters2\e.png",320,240 F,0,14980,15130,0,1 M,0,14980,16780,608.2065,253.2129,26.83871,253.2129 F,0,15130,16780,1 S,0,16780,,0.3145808 F,0,16780,16817,1,0
Sprite,Foreground,Centre,"letters2\a.png",320,240 F,0,15130,15280,0,1 M,0,15130,16930,608.2065,253.2129,26.83871,253.2129 F,0,15280,16930,1 S,0,16930,,0.3145808 F,0,16930,16967,1,0
Sprite,Foreground,Centre,"letters2\r.png",320,240 F,0,15280,15430,0,1 M,0,15280,17080,608.2065,253.2129,26.83871,253.2129 F,0,15430,17080,1 S,0,17080,,0.3145808 F,0,17080,17117,1,0
Sprite,Foreground,Centre,"letters2\t.png",320,240 F,0,15430,15580,0,1 M,0,15430,17230,608.2065,253.2129,26.83871,253.2129 F,0,15580,17230,1 S,0,17230,,0.3145808 F,0,17230,17267,1,0
Sprite,Foreground,Centre,"letters2\s.png",320,240 F,0,15580,15730,0,1 M,0,15580,17380,608.2065,253.2129,26.83871,253.2129 F,0,15730,17380,1 S,0,17380,,0.3145808 F,0,17380,17417,1,0
Sprite,Foreground,Centre,"letters2\f.png",320,240 F,0,15880,16030,0,1 M,0,15880,17680,608.2065,253.2129,26.83871,253.2129 F,0,16030,17680,1 S,0,17680,,0.3145808 F,0,17680,17717,1,0
Sprite,Foreground,Centre,"letters2\e.png",320,240 F,0,16030,16180,0,1 M,0,16030,17830,608.2065,253.2129,26.83871,253.2129 F,0,16180,17830,1 S,0,17830,,0.3145808 F,0,17830,17867,1,0
Sprite,Foreground,Centre,"letters2\d.png",320,240 F,0,16180,16330,0,1 M,0,16180,17980,608.2065,253.2129,26.83871,253.2129 F,0,16330,17980,1 S,0,17980,,0.3145808 F,0,17980,18017,1,0
Sprite,Foreground,Centre,"letters2\e.png",320,240 F,0,16480,16630,0,1 M,0,16480,18280,608.2065,253.2129,26.83871,253.2129 F,0,16630,18280,1 S,0,18280,,0.3145808 F,0,18280,18317,1,0
Sprite,Foreground,Centre,"letters2\l.png",320,240 F,0,16630,16780,0,1 M,0,16630,18430,608.2065,253.2129,26.83871,253.2129 F,0,16780,18430,1 S,0,18430,,0.3145808 F,0,18430,18467,1,0
Sprite,Foreground,Centre,"letters2\i.png",320,240 F,0,16780,16930,0,1 M,0,16780,18580,608.2065,253.2129,26.83871,253.2129 F,0,16930,18580,1 S,0,18580,,0.3145808 F,0,18580,18617,1,0
Sprite,Foreground,Centre,"letters2\t.png",320,240 F,0,16930,17080,0,1 M,0,16930,18730,608.2065,253.2129,26.83871,253.2129 F,0,17080,18730,1 S,0,18730,,0.3145808 F,0,18730,18767,1,0
Sprite,Foreground,Centre,"letters2\e.png",320,240 F,0,17080,17230,0,1 M,0,17080,18880,608.2065,253.2129,26.83871,253.2129 F,0,17230,18880,1 S,0,18880,,0.3145808 F,0,18880,18917,1,0
Sprite,Foreground,Centre,"letters2\g.png",320,240 F,0,17380,17530,0,1 M,0,17380,19180,608.2065,253.2129,26.83871,253.2129 F,0,17530,19180,1 S,0,19180,,0.3145808 F,0,19180,19217,1,0
Sprite,Foreground,Centre,"letters2\r.png",320,240 F,0,17530,17680,0,1 M,0,17530,19330,608.2065,253.2129,26.83871,253.2129 F,0,17680,19330,1 S,0,19330,,0.3145808 F,0,19330,19367,1,0
Sprite,Foreground,Centre,"letters2\i.png",320,240 F,0,17680,17830,0,1 M,0,17680,19480,608.2065,253.2129,26.83871,253.2129 F,0,17830,19480,1 S,0,19480,,0.3145808 F,0,19480,19517,1,0
Sprite,Foreground,Centre,"letters2\d.png",320,240 F,0,17830,17980,0,1 M,0,17830,19630,608.2065,253.2129,26.83871,253.2129 F,0,17980,19630,1 S,0,19630,,0.3145808 F,0,19630,19667,1,0
Sprite,Foreground,Centre,"letters2\r.png",320,240 F,0,18130,18280,0,1 M,0,18130,19930,608.2065,253.2129,26.83871,253.2129 F,0,18280,19930,1 S,0,19930,,0.3145808 F,0,19930,19967,1,0
Sprite,Foreground,Centre,"letters2\o.png",320,240 F,0,18430,18580,0,1 M,0,18430,20230,608.2065,253.2129,26.83871,253.2129 F,0,18580,20230,1 S,0,20230,,0.3145808 F,0,20230,20267,1,0
Sprite,Foreground,Centre,"letters2\a.png",320,240 F,0,18580,18730,0,1 M,0,18580,20380,608.2065,253.2129,26.83871,253.2129 F,0,18730,20380,1 S,0,20380,,0.3145808 F,0,20380,20417,1,0
Sprite,Foreground,Centre,"letters2\d.png",320,240 F,0,18880,19030,0,1 M,0,18880,20680,608.2065,253.2129,26.83871,253.2129 F,0,19030,20680,1 S,0,20680,,0.3145808 F,0,20680,20717,1,0
Sprite,Foreground,Centre,"letters2\g.png",320,240 F,0,19180,19330,0,1 M,0,19180,20980,608.2065,253.2129,26.83871,253.2129 F,0,19330,20980,1 S,0,20980,,0.3145808 F,0,20980,21017,1,0
Sprite,Foreground,Centre,"letters2\u.png",320,240 F,0,19330,19480,0,1 M,0,19330,21130,608.2065,253.2129,26.83871,253.2129 F,0,19480,21130,1 S,0,21130,,0.3145808 F,0,21130,21167,1,0
Sprite,Foreground,Centre,"letters2\f.png",320,240 F,0,19480,19630,0,1 M,0,19480,21280,608.2065,253.2129,26.83871,253.2129 F,0,19630,21280,1 S,0,21280,,0.3145808 F,0,21280,21317,1,0
Sprite,Foreground,Centre,"letters2\f.png",320,240 F,0,19630,19780,0,1 M,0,19630,21430,608.2065,253.2129,26.83871,253.2129 F,0,19780,21430,1 S,0,21430,,0.3145808 F,0,21430,21467,1,0
Sprite,Foreground,Centre,"letters2\p.png",320,240 F,0,19930,20080,0,1 M,0,19930,21730,608.2065,253.2129,26.83871,253.2129 F,0,20080,21730,1 S,0,21730,,0.3145808 F,0,21730,21767,1,0
Sprite,Foreground,Centre,"letters2\u.png",320,240 F,0,20230,20380,0,1 M,0,20230,22030,608.2065,253.2129,26.83871,253.2129 F,0,20380,22030,1 S,0,22030,,0.3145808 F,0,22030,22067,1,0
Sprite,Foreground,Centre,"letters2\l.png",320,240 F,0,20380,20530,0,1 M,0,20380,22180,608.2065,253.2129,26.83871,253.2129 F,0,20530,22180,1 S,0,22180,,0.3145808 F,0,22180,22217,1,0
Sprite,Foreground,Centre,"letters2\p.png",320,240 F,0,20680,20830,0,1 M,0,20680,22480,608.2065,253.2129,26.83871,253.2129 F,0,20830,22480,1 S,0,22480,,0.3145808 F,0,22480,22517,1,0
Sprite,Foreground,Centre,"letters2\j.png",320,240 F,0,20980,21130,0,1 M,0,20980,22780,608.2065,253.2129,26.83871,253.2129 F,0,21130,22780,1 S,0,22780,,0.3145808 F,0,22780,22817,1,0
Sprite,Foreground,Centre,"letters2\u.png",320,240 F,0,21130,21280,0,1 M,0,21130,22930,608.2065,253.2129,26.83871,253.2129 F,0,21280,22930,1 S,0,22930,,0.3145808 F,0,22930,22967,1,0
Sprite,Foreground,Centre,"letters2\l.png",320,240 F,0,21280,21430,0,1 M,0,21280,23080,608.2065,253.2129,26.83871,253.2129 F,0,21430,23080,1 S,0,23080,,0.3145808 F,0,23080,23117,1,0
Sprite,Foreground,Centre,"letters2\y.png",320,240 F,0,21430,21580,0,1 M,0,21430,23230,608.2065,253.2129,26.83871,253.2129 F,0,21580,23230,1 S,0,23230,,0.3145808 F,0,23230,23267,1,0
Sprite,Foreground,Centre,"letters2\u.png",320,240 F,0,21730,21880,0,1 M,0,21730,23530,608.2065,253.2129,26.83871,253.2129 F,0,21880,23530,1 S,0,23530,,0.3145808 F,0,23530,23567,1,0
Sprite,Foreground,Centre,"letters2\g.png",320,240 F,0,22030,22180,0,1 M,0,22030,23830,608.2065,253.2129,26.83871,253.2129 F,0,22180,23830,1 S,0,23830,,0.3145808 F,0,23830,23867,1,0
Sprite,Foreground,Centre,"letters2\h.png",320,240 F,0,22180,22330,0,1 M,0,22180,23980,608.2065,253.2129,26.83871,253.2129 F,0,22330,23980,1 S,0,23980,,0.3145808 F,0,23980,24017,1,0
Sprite,Foreground,Centre,"letters2\h.png",320,240 F,0,22480,22630,0,1 M,0,22480,24280,608.2065,253.2129,26.83871,253.2129 F,0,22630,24280,1 S,0,24280,,0.3145808 F,0,24280,24317,1,0
Sprite,Foreground,Centre,"letters2\u.png",320,240 F,0,22630,22780,0,1 M,0,22630,24430,608.2065,253.2129,26.83871,253.2129 F,0,22780,24430,1 S,0,24430,,0.3145808 F,0,24430,24467,1,0
Sprite,Foreground,Centre,"letters2\h.png",320,240 F,0,22780,22930,0,1 M,0,22780,24580,608.2065,253.2129,26.83871,253.2129 F,0,22930,24580,1 S,0,24580,,0.3145808 F,0,24580,24617,1,0
Sprite,Foreground,Centre,"letters2\f.png",320,240 F,0,23080,23230,0,1 M,0,23080,24880,608.2065,253.2129,26.83871,253.2129 F,0,23230,24880,1 S,0,24880,,0.3145808 F,0,24880,24917,1,0
Sprite,Foreground,Centre,"letters2\a.png",320,240 F,0,23230,23380,0,1 M,0,23230,25030,608.2065,253.2129,26.83871,253.2129 F,0,23380,25030,1 S,0,25030,,0.3145808 F,0,25030,25067,1,0
Sprite,Foreground,Centre,"letters2\t.png",320,240 F,0,23380,23530,0,1 M,0,23380,25180,608.2065,253.2129,26.83871,253.2129 F,0,23530,25180,1 S,0,25180,,0.3145808 F,0,25180,25217,1,0
Sprite,Foreground,Centre,"letters2\d.png",320,240 F,0,23680,23830,0,1 M,0,23680,25480,608.2065,253.2129,26.83871,253.2129 F,0,23830,25480,1 S,0,25480,,0.3145808 F,0,25480,25517,1,0
Sprite,Foreground,Centre,"letters2\e.png",320,240 F,0,23830,23980,0,1 M,0,23830,25630,608.2065,253.2129,26.83871,253.2129 F,0,23980,25630,1 S,0,25630,,0.3145808 F,0,25630,25667,1,0
Sprite,Foreground,Centre,"letters2\p.png",320,240 F,0,23980,24130,0,1 M,0,23980,25780,608.2065,253.2129,26.83871,253.2129 F,0,24130,25780,1 S,0,25780,,0.3145808 F,0,25780,25817,1,0
Sprite,Foreground,Centre,"letters2\l.png",320,240 F,0,24130,24280,0,1 M,0,24130,25930,608.2065,253.2129,26.83871,253.2129 F,0,24280,25930,1 S,0,25930,,0.3145808 F,0,25930,25967,1,0
Sprite,Foreground,Centre,"letters2\o.png",320,240 F,0,24280,24430,0,1 M,0,24280,26080,608.2065,253.2129,26.83871,253.2129 F,0,24430,26080,1 S,0,26080,,0.3145808 F,0,26080,26117,1,0
Sprite,Foreground,Centre,"letters2\r.png",320,240 F,0,24430,24580,0,1 M,0,24430,26230,608.2065,253.2129,26.83871,253.2129 F,0,24580,26230,1 S,0,26230,,0.3145808 F,0,26230,26267,1,0
Sprite,Foreground,Centre,"letters2\e.png",320,240 F,0,24580,24730,0,1 M,0,24580,26380,608.2065,253.2129,26.83871,253.2129 F,0,24730,26380,1 S,0,26380,,0.3145808 F,0,26380,26417,1,0
Sprite,Foreground,Centre,"letters2\o.png",320,240 F,0,24880,25030,0,1 M,0,24880,26680,608.2065,253.2129,26.83871,253.2129 F,0,25030,26680,1 S,0,26680,,0.3145808 F,0,26680,26717,1,0
Sprite,Foreground,Centre,"letters2\k.png",320,240 F,0,25030,25180,0,1 M,0,25030,26830,608.2065,253.2129,26.83871,253.2129 F,0,25180,26830,1 S,0,26830,,0.3145808 F,0,26830,26867,1,0
Sprite,Foreground,Centre,"letters2\g.png",320,240 F,0,25330,25480,0,1 M,0,25330,27130,608.2065,253.2129,26.83871,253.2129 F,0,25480,27130,1 S,0,27130,,0.3145808 F,0,27130,27167,1,0
Sprite,Foreground,Centre,"letters2\r.png",320,240 F,0,25480,25630,0,1 M,0,25480,27280,608.2065,253.2129,26.83871,253.2129 F,0,25630,27280,1 S,0,27280,,0.3145808 F,0,27280,27317,1,0
Sprite,Foreground,Centre,"letters2\e.png",320,240 F,0,25630,25780,0,1 M,0,25630,27430,608.2065,253.2129,26.83871,253.2129 F,0,25780,27430,1 S,0,27430,,0.3145808 F,0,27430,27467,1,0
Sprite,Foreground,Centre,"letters2\w.png",320,240 F,0,25780,25930,0,1 M,0,25780,27580,608.2065,253.2129,26.83871,253.2129 F,0,25930,27580,1 S,0,27580,,0.3145808 F,0,27580,27617,1,0
Sprite,Foreground,Centre,"letters2\w.png",320,240 F,0,26080,26230,0,1 M,0,26080,27880,608.2065,253.2129,26.83871,253.2129 F,0,26230,27880,1 S,0,27880,,0.3145808 F,0,27880,27917,1,0
Sprite,Foreground,Centre,"letters2\h.png",320,240 F,0,26380,26530,0,1 M,0,26380,28180,608.2065,253.2129,26.83871,253.2129 F,0,26530,28180,1 S,0,28180,,0.3145808 F,0,28180,28217,1,0
Sprite,Foreground,Centre,"letters2\e.png",320,240 F,0,26680,26830,0,1 M,0,26680,28480,608.2065,253.2129,26.83871,253.2129 F,0,26830,28480,1 S,0,28480,,0.3145808 F,0,28480,28517,1,0
Sprite,Foreground,Centre,"letters2\t.png",320,240 F,0,26830,26980,0,1 M,0,26830,28630,608.2065,253.2129,26.83871,253.2129 F,0,26980,28630,1 S,0,28630,,0.3145808 F,0,28630,28667,1,0
Sprite,Foreground,Centre,"letters2\l.png",320,240 F,0,27130,27280,0,1 M,0,27130,28930,608.2065,253.2129,26.83871,253.2129 F,0,27280,28930,1 S,0,28930,,0.3145808 F,0,28930,28967,1,0
Sprite,Foreground,Centre,"letters2\o.png",320,240 F,0,27280,27430,0,1 M,0,27280,29080,608.2065,253.2129,26.83871,253.2129 F,0,27430,29080,1 S,0,29080,,0.3145808 F,0,29080,29117,1,0
Sprite,Foreground,Centre,"letters2\a.png",320,240 F,0,27430,27580,0,1 M,0,27430,29230,608.2065,253.2129,26.83871,253.2129 F,0,27580,29230,1 S,0,29230,,0.3145808 F,0,29230,29267,1,0
Sprite,Foreground,Centre,"letters2\d.png",320,240 F,0,27580,27730,0,1 M,0,27580,29380,608.2065,253.2129,26.83871,253.2129 F,0,27730,29380,1 S,0,29380,,0.3145808 F,0,29380,29417,1,0
Sprite,Foreground,Centre,"letters2\s.png",320,240 F,0,27880,28030,0,1 M,0,27880,29680,608.2065,253.2129,26.83871,253.2129 F,0,28030,29680,1 S,0,29680,,0.3145808 F,0,29680,29717,1,0
Sprite,Foreground,Centre,"letters2\p.png",320,240 F,0,28180,28330,0,1 M,0,28180,29980,608.2065,253.2129,26.83871,253.2129 F,0,28330,29980,1 S,0,29980,,0.3145808 F,0,29980,30017,1,0
Sprite,Foreground,Centre,"letters2\a.png",320,240 F,0,28480,28630,0,1 M,0,28480,30280,608.2065,253.2129,26.83871,253.2129 F,0,28630,30280,1 S,0,30280,,0.3145808 F,0,30280,30317,1,0
Sprite,Foreground,Centre,"letters2\r.png",320,240 F,0,28630,28780,0,1 M,0,28630,30430,608.2065,253.2129,26.83871,253.2129 F,0,28780,30430,1 S,0,30430,,0.3145808 F,0,30430,30467,1,0
Sprite,Foreground,Centre,"letters2\s.png",320,240 F,0,28930,29080,0,1 M,0,28930,30730,608.2065,253.2129,26.83871,253.2129 F,0,29080,30730,1 S,0,30730,,0.3145808 F,0,30730,30767,1,0
Sprite,Foreground,Centre,"letters2\o.png",320,240 F,0,29080,29230,0,1 M,0,29080,30880,608.2065,253.2129,26.83871,253.2129 F,0,29230,30880,1 S,0,30880,,0.3145808 F,0,30880,30917,1,0
Sprite,Foreground,Centre,"letters2\l.png",320,240 F,0,29230,29380,0,1 M,0,29230,31030,608.2065,253.2129,26.83871,253.2129 F,0,29380,31030,1 S,0,31030,,0.3145808 F,0,31030,31067,1,0
Sprite,Foreground,Centre,"letters2\e.png",320,240 F,0,29380,29530,0,1 M,0,29380,31180,608.2065,253.2129,26.83871,253.2129 F,0,29530,31180,1 S,0,31180,,0.3145808 F,0,31180,31217,1,0
Sprite,Foreground,Centre,"letters2\r.png",320,240 F,0,29680,29830,0,1 M,0,29680,31480,608.2065,253.2129,26.83871,253.2129 F,0,29830,31480,1 S,0,31480,,0.3145808 F,0,31480,31517,1,0
Sprite,Foreground,Centre,"letters2\o.png",320,240 F,0,29980,30130,0,1 M,0,29980,31780,608.2065,253.2129,26.83871,253.2129 F,0,30130,31780,1 S,0,31780,,0.3145808 F,0,31780,31817,1,0
Sprite,Foreground,Centre,"letters2\a.png",320,240 F,0,30280,30430,0,1 M,0,30280,32080,608.2065,253.2129,26.83871,253.2129 F,0,30430,32080,1 S,0,32080,,0.3145808 F,0,32080,32117,1,0
Sprite,Foreground,Centre,"letters2\d.png",320,240 F,0,30430,30580,0,1 M,0,30430,32230,608.2065,253.2129,26.83871,253.2129 F,0,30580,32230,1 S,0,32230,,0.3145808 F,0,32230,32267,1,0
Sprite,Foreground,Centre,"letters2\r.png",320,240 F,0,30730,30880,0,1 M,0,30730,32530,608.2065,253.2129,26.83871,253.2129 F,0,30880,32530,1 S,0,32530,,0.3145808 F,0,32530,32567,1,0
Sprite,Foreground,Centre,"letters2\u.png",320,240 F,0,30880,31030,0,1 M,0,30880,32680,608.2065,253.2129,26.83871,253.2129 F,0,31030,32680,1 S,0,32680,,0.3145808 F,0,32680,32717,1,0
Sprite,Foreground,Centre,"letters2\s.png",320,240 F,0,31030,31180,0,1 M,0,31030,32830,608.2065,253.2129,26.83871,253.2129 F,0,31180,32830,1 S,0,32830,,0.3145808 F,0,32830,32867,1,0
Sprite,Foreground,Centre,"letters2\t.png",320,240 F,0,31180,31330,0,1 M,0,31180,32980,608.2065,253.2129,26.83871,253.2129 F,0,31330,32980,1 S,0,32980,,0.3145808 F,0,32980,33017,1,0
Sprite,Foreground,Centre,"letters2\y.png",320,240 F,0,31480,31630,0,1 M,0,31480,33280,608.2065,253.2129,26.83871,253.2129 F,0,31630,33280,1 S,0,33280,,0.3145808 F,0,33280,33317,1,0
Sprite,Foreground,Centre,"letters2\e.png",320,240 F,0,34180,34330,0,1 M,0,34180,35980,608.2065,253.2129,26.83871,253.2129 F,0,34330,35980,1 S,0,35980,,0.3145808 F,0,35980,36017,1,0
Sprite,Foreground,Centre,"letters2\h.png",320,240 F,0,34330,34480,0,1 M,0,34330,36130,608.2065,253.2129,26.83871,253.2129 F,0,34480,36130,1 S,0,36130,,0.3145808 F,0,36130,36167,1,0
Sprite,Foreground,Centre,"letters2\t.png",320,240 F,0,35980,36130,0,1 M,0,35980,37780,608.2065,253.2129,26.83871,253.2129 F,0,36130,37780,1 S,0,37780,,0.3145808 F,0,37780,37817,1,0
Sprite,Foreground,Centre,"letters2\r.png",320,240 F,0,36130,36280,0,1 M,0,36130,37930,608.2065,253.2129,26.83871,253.2129 F,0,36280,37930,1 S,0,37930,,0.3145808 F,0,37930,37967,1,0
Sprite,Foreground,Centre,"letters2\e.png",320,240 F,0,36430,36580,0,1 M,0,36430,38230,608.2065,253.2129,26.83871,253.2129 F,0,36580,38230,1 S,0,38230,,0.3145808 F,0,38230,38267,1,0
Sprite,Foreground,Centre,"letters2\s.png",320,240 F,0,36880,37030,0,1 M,0,36880,38680,608.2065,253.2129,26.83871,253.2129 F,0,37030,38680,1 S,0,38680,,0.3145808 F,0,38680,38717,1,0
Sprite,Foreground,Centre,"letters2\t.png",320,240 F,0,37180,37330,0,1 M,0,37180,38980,608.2065,253.2129,26.83871,253.2129 F,0,37330,38980,1 S,0,38980,,0.3145808 F,0,38980,39017,1,0
Sprite,Foreground,Centre,"letters2\l.png",320,240 F,0,37480,37630,0,1 M,0,37480,39280,608.2065,253.2129,26.83871,253.2129 F,0,37630,39280,1 S,0,39280,,0.3145808 F,0,39280,39317,1,0
Sprite,Foreground,Centre,"letters2\e.png",320,240 F,0,37780,37930,0,1 M,0,37780,39580,608.2065,253.2129,26.83871,253.2129 F,0,37930,39580,1 S,0,39580,,0.3145808 F,0,39580,39617,1,0
Sprite,Foreground,Centre,"letters2\a.png",320,240 F,0,39280,39430,0,1 M,0,39280,41080,608.2065,253.2129,26.83871,253.2129 F,0,39430,41080,1 S,0,41080,,0.3145808 F,0,41080,41117,1,0
Sprite,Foreground,Centre,"letters2\p.png",320,240 F,0,39430,39580,0,1 M,0,39430,41230,608.2065,253.2129,26.83871,253.2129 F,0,39580,41230,1 S,0,41230,,0.3145808 F,0,41230,41267,1,0
Sprite,Foreground,Centre,"letters2\p.png",320,240 F,0,39580,39730,0,1 M,0,39580,41380,608.2065,253.2129,26.83871,253.2129 F,0,39730,41380,1 S,0,41380,,0.3145808 F,0,41380,41417,1,0
Sprite,Foreground,Centre,"letters2\e.png",320,240 F,0,40030,40180,0,1 M,0,40030,41830,608.2065,253.2129,26.83871,253.2129 F,0,40180,41830,1 S,0,41830,,0.3145808 F,0,41830,41867,1,0
Sprite,Foreground,Centre,"letters2\a.png",320,240 F,0,40480,40630,0,1 M,0,40480,42280,608.2065,253.2129,26.83871,253.2129 F,0,40630,42280,1 S,0,42280,,0.3145808 F,0,42280,42317,1,0
Sprite,Foreground,Centre,"letters2\l.png",320,240 F,0,41380,41530,0,1 M,0,41380,43180,608.2065,253.2129,26.83871,253.2129 F,0,41530,43180,1 S,0,43180,,0.3145808 F,0,43180,43217,1,0
Sprite,Foreground,Centre,"letters2\s.png",320,240 F,0,42880,43030,0,1 M,0,42880,44680,608.2065,253.2129,26.83871,253.2129 F,0,43030,44680,1 S,0,44680,,0.3145808 F,0,44680,44717,1,0
Sprite,Foreground,Centre,"letters2\h.png",320,240 F,0,43030,43180,0,1 M,0,43030,44830,608.2065,253.2129,26.83871,253.2129 F,0,43180,44830,1 S,0,44830,,0.3145808 F,0,44830,44867,1,0
Sprite,Foreground,Centre,"letters2\o.png",320,240 F,0,43330,43480,0,1 M,0,43330,45130,608.2065,253.2129,26.83871,253.2129 F,0,43480,45130,1 S,0,45130,,0.3145808 F,0,45130,45167,1,0
Sprite,Foreground,Centre,"letters2\a.png",320,240 F,0,43480,43630,0,1 M,0,43480,45280,608.2065,253.2129,26.83871,253.2129 F,0,43630,45280,1 S,0,45280,,0.3145808 F,0,45280,45317,1,0
Sprite,Foreground,Centre,"letters2\l.png",320,240 F,0,43630,43780,0,1 M,0,43630,45430,608.2065,253.2129,26.83871,253.2129 F,0,43780,45430,1 S,0,45430,,0.3145808 F,0,45430,45467,1,0
Sprite,Foreground,Centre,"letters2\t.png",320,240 F,0,43930,44080,0,1 M,0,43930,45730,608.2065,253.2129,26.83871,253.2129 F,0,44080,45730,1 S,0,45730,,0.3145808 F,0,45730,45767,1,0
Sprite,Foreground,Centre,"letters2\e.png",320,240 F,0,44230,44380,0,1 M,0,44230,46030,608.2065,253.2129,26.83871,253.2129 F,0,44380,46030,1 S,0,46030,,0.3145808 F,0,46030,46067,1,0
Sprite,Foreground,Centre,"letters2\l.png",320,240 F,0,44530,44680,0,1 M,0,44530,46330,608.2065,253.2129,26.83871,253.2129 F,0,44680,46330,1 S,0,46330,,0.3145808 F,0,46330,46367,1,0
Sprite,Foreground,Centre,"letters2\l.png",320,240 F,0,44830,44980,0,1 M,0,44830,46630,608.2065,253.2129,26.83871,253.2129 F,0,44980,46630,1 S,0,46630,,0.3145808 F,0,46630,46667,1,0
Sprite,Foreground,Centre,"letters2\p.png",320,240 F,0,45130,45280,0,1 M,0,45130,46930,608.2065,253.2129,26.83871,253.2129 F,0,45280,46930,1 S,0,46930,,0.3145808 F,0,46930,46967,1,0
Sprite,Foreground,Centre,"letters2\e.png",320,240 F,0,45280,45430,0,1 M,0,45280,47080,608.2065,253.2129,26.83871,253.2129 F,0,45430,47080,1 S,0,47080,,0.3145808 F,0,47080,47117,1,0
Sprite,Foreground,Centre,"letters2\r.png",320,240 F,0,45430,45580,0,1 M,0,45430,47230,608.2065,253.2129,26.83871,253.2129 F,0,45580,47230,1 S,0,47230,,0.3145808 F,0,47230,47267,1,0
Sprite,Foreground,Centre,"letters2\p.png",320,240 F,0,46480,46630,0,1 M,0,46480,48280,608.2065,253.2129,26.83871,253.2129 F,0,46630,48280,1 S,0,48280,,0.3145808 F,0,48280,48317,1,0
Sprite,Foreground,Centre,"letters2\o.png",320,240 F,0,46630,46780,0,1 M,0,46630,48430,608.2065,253.2129,26.83871,253.2129 F,0,46780,48430,1 S,0,48430,,0.3145808 F,0,48430,48467,1,0
Sprite,Foreground,Centre,"letters2\s.png",320,240 F,0,46780,46930,0,1 M,0,46780,48580,608.2065,253.2129,26.83871,253.2129 F,0,46930,48580,1 S,0,48580,,0.3145808 F,0,48580,48617,1,0
Sprite,Foreground,Centre,"letters2\t.png",320,240 F,0,47230,47380,0,1 M,0,47230,49030,608.2065,253.2129,26.83871,253.2129 F,0,47380,49030,1 S,0,49030,,0.3145808 F,0,49030,49067,1,0
Sprite,Foreground,Centre,"letters2\h.png",320,240 F,0,48280,48430,0,1 M,0,48280,50080,608.2065,253.2129,26.83871,253.2129 F,0,48430,50080,1 S,0,50080,,0.3145808 F,0,50080,50117,1,0
Sprite,Foreground,Centre,"letters2\u.png",320,240 F,0,48430,48580,0,1 M,0,48430,50230,608.2065,253.2129,26.83871,253.2129 F,0,48580,50230,1 S,0,50230,,0.3145808 F,0,50230,50267,1,0
Sprite,Foreground,Centre,"letters2\h.png",320,240 F,0,48580,48730,0,1 M,0,48580,50380,608.2065,253.2129,26.83871,253.2129 F,0,48730,50380,1 S,0,50380,,0.3145808 F,0,50380,50417,1,0
Sprite,Foreground,Centre,"letters2\f.png",320,240 F,0,48880,49030,0,1 M,0,48880,50680,608.2065,253.2129,26.83871,253.2129 F,0,49030,50680,1 S,0,50680,,0.3145808 F,0,50680,50717,1,0
Sprite,Foreground,Centre,"letters2\l.png",320,240 F,0,49030,49180,0,1 M,0,49030,50830,608.2065,253.2129,26.83871,253.2129 F,0,49180,50830,1 S,0,50830,,0.3145808 F,0,50830,50867,1,0
Sprite,Foreground,Centre,"letters2\a.png",320,240 F,0,49180,49330,0,1 M,0,49180,50980,608.2065,253.2129,26.83871,253.2129 F,0,49330,50980,1 S,0,50980,,0.3145808 F,0,50980,51017,1,0
Sprite,Foreground,Centre,"letters2\p.png",320,240 F,0,49330,49480,0,1 M,0,49330,51130,608.2065,253.2129,26.83871,253.2129 F,0,49480,51130,1 S,0,51130,,0.3145808 F,0,51130,51167,1,0
Sprite,Foreground,Centre,"letters2\u.png",320,240 F,0,49630,49780,0,1 M,0,49630,51430,608.2065,253.2129,26.83871,253.2129 F,0,49780,51430,1 S,0,51430,,0.3145808 F,0,51430,51467,1,0
Sprite,Foreground,Centre,"letters2\s.png",320,240 F,0,49930,50080,0,1 M,0,49930,51730,608.2065,253.2129,26.83871,253.2129 F,0,50080,51730,1 S,0,51730,,0.3145808 F,0,51730,51767,1,0
Sprite,Foreground,Centre,"letters2\a.png",320,240 F,0,50080,50230,0,1 M,0,50080,51880,608.2065,253.2129,26.83871,253.2129 F,0,50230,51880,1 S,0,51880,,0.3145808 F,0,51880,51917,1,0
Sprite,Foreground,Centre,"letters2\g.png",320,240 F,0,50230,50380,0,1 M,0,50230,52030,608.2065,253.2129,26.83871,253.2129 F,0,50380,52030,1 S,0,52030,,0.3145808 F,0,52030,52067,1,0
Sprite,Foreground,Centre,"letters2\e.png",320,240 F,0,50380,50530,0,1 M,0,50380,52180,608.2065,253.2129,26.83871,253.2129 F,0,50530,52180,1 S,0,52180,,0.3145808 F,0,52180,52217,1,0
Sprite,Foreground,Centre,"letters2\r.png",320,240 F,0,50680,50830,0,1 M,0,50680,52480,608.2065,253.2129,26.83871,253.2129 F,0,50830,52480,1 S,0,52480,,0.3145808 F,0,52480,52517,1,0
Sprite,Foreground,Centre,"letters2\a.png",320,240 F,0,50830,50980,0,1 M,0,50830,52630,608.2065,253.2129,26.83871,253.2129 F,0,50980,52630,1 S,0,52630,,0.3145808 F,0,52630,52667,1,0
Sprite,Foreground,Centre,"letters2\k.png",320,240 F,0,50980,51130,0,1 M,0,50980,52780,608.2065,253.2129,26.83871,253.2129 F,0,51130,52780,1 S,0,52780,,0.3145808 F,0,52780,52817,1,0
Sprite,Foreground,Centre,"letters2\e.png",320,240 F,0,51130,51280,0,1 M,0,51130,52930,608.2065,253.2129,26.83871,253.2129 F,0,51280,52930,1 S,0,52930,,0.3145808 F,0,52930,52967,1,0
Sprite,Foreground,Centre,"letters2\d.png",320,240 F,0,51430,51580,0,1 M,0,51430,53230,608.2065,253.2129,26.83871,253.2129 F,0,51580,53230,1 S,0,53230,,0.3145808 F,0,53230,53267,1,0
Sprite,Foreground,Centre,"letters2\r.png",320,240 F,0,51730,51880,0,1 M,0,51730,53530,608.2065,253.2129,26.83871,253.2129 F,0,51880,53530,1 S,0,53530,,0.3145808 F,0,53530,53567,1,0
Sprite,Foreground,Centre,"letters2\a.png",320,240 F,0,51880,52030,0,1 M,0,51880,53680,608.2065,253.2129,26.83871,253.2129 F,0,52030,53680,1 S,0,53680,,0.3145808 F,0,53680,53717,1,0
Sprite,Foreground,Centre,"letters2\f.png",320,240 F,0,52030,52180,0,1 M,0,52030,53830,608.2065,253.2129,26.83871,253.2129 F,0,52180,53830,1 S,0,53830,,0.3145808 F,0,53830,53867,1,0
Sprite,Foreground,Centre,"letters2\t.png",320,240 F,0,52180,52330,0,1 M,0,52180,53980,608.2065,253.2129,26.83871,253.2129 F,0,52330,53980,1 S,0,53980,,0.3145808 F,0,53980,54017,1,0
Sprite,Foreground,Centre,"letters2\t.png",320,240 F,0,52480,52630,0,1 M,0,52480,54280,608.2065,253.2129,26.83871,253.2129 F,0,52630,54280,1 S,0,54280,,0.3145808 F,0,54280,54317,1,0
Sprite,Foreground,Centre,"letters2\o.png",320,240 F,0,52630,52780,0,1 M,0,52630,54430,608.2065,253.2129,26.83871,253.2129 F,0,52780,54430,1 S,0,54430,,0.3145808 F,0,54430,54467,1,0
Sprite,Foreground,Centre,"letters2\r.png",320,240 F,0,52780,52930,0,1 M,0,52780,54580,608.2065,253.2129,26.83871,253.2129 F,0,52930,54580,1 S,0,54580,,0.3145808 F,0,54580,54617,1,0
Sprite,Foreground,Centre,"letters2\t.png",320,240 F,0,52930,53080,0,1 M,0,52930,54730,608.2065,253.2129,26.83871,253.2129 F,0,53080,54730,1 S,0,54730,,0.3145808 F,0,54730,54767,1,0
Sprite,Foreground,Centre,"letters2\p.png",320,240 F,0,53230,53380,0,1 M,0,53230,55030,608.2065,253.2129,26.83871,253.2129 F,0,53380,55030,1 S,0,55030,,0.3145808 F,0,55030,55067,1,0
Sprite,Foreground,Centre,"letters2\u.png",320,240 F,0,53530,53680,0,1 M,0,53530,55330,608.2065,253.2129,26.83871,253.2129 F,0,53680,55330,1 S,0,55330,,0.3145808 F,0,55330,55367,1,0
Sprite,Foreground,Centre,"letters2\t.png",320,240 F,0,53680,53830,0,1 M,0,53680,55480,608.2065,253.2129,26.83871,253.2129 F,0,53830,55480,1 S,0,55480,,0.3145808 F,0,55480,55517,1,0
Sprite,Foreground,Centre,"letters2\t.png",320,240 F,0,53830,53980,0,1 M,0,53830,55630,608.2065,253.2129,26.83871,253.2129 F,0,53980,55630,1 S,0,55630,,0.3145808 F,0,55630,55667,1,0
Sprite,Foreground,Centre,"letters2\y.png",320,240 F,0,53980,54130,0,1 M,0,53980,55780,608.2065,253.2129,26.83871,253.2129 F,0,54130,55780,1 S,0,55780,,0.3145808 F,0,55780,55817,1,0
Sprite,Foreground,Centre,"letters2\l.png",320,240 F,0,54280,54430,0,1 M,0,54280,56080,608.2065,253.2129,26.83871,253.2129 F,0,54430,56080,1 S,0,56080,,0.3145808 F,0,56080,56117,1,0
Sprite,Foreground,Centre,"letters2\i.png",320,240 F,0,54430,54580,0,1 M,0,54430,56230,608.2065,253.2129,26.83871,253.2129 F,0,54580,56230,1 S,0,56230,,0.3145808 F,0,56230,56267,1,0
Sprite,Foreground,Centre,"letters2\p.png",320,240 F,0,54580,54730,0,1 M,0,54580,56380,608.2065,253.2129,26.83871,253.2129 F,0,54730,56380,1 S,0,56380,,0.3145808 F,0,56380,56417,1,0
Sprite,Foreground,Centre,"letters2\s.png",320,240 F,0,54880,55030,0,1 M,0,54880,56680,608.2065,253.2129,26.83871,253.2129 F,0,55030,56680,1 S,0,56680,,0.3145808 F,0,56680,56717,1,0
Sprite,Foreground,Centre,"letters2\e.png",320,240 F,0,55030,55180,0,1 M,0,55030,56830,608.2065,253.2129,26.83871,253.2129 F,0,55180,56830,1 S,0,56830,,0.3145808 F,0,56830,56867,1,0
Sprite,Foreground,Centre,"letters2\a.png",320,240 F,0,55180,55330,0,1 M,0,55180,56980,608.2065,253.2129,26.83871,253.2129 F,0,55330,56980,1 S,0,56980,,0.3145808 F,0,56980,57017,1,0
Sprite,Foreground,Centre,"letters2\l.png",320,240 F,0,55330,55480,0,1 M,0,55330,57130,608.2065,253.2129,26.83871,253.2129 F,0,55480,57130,1 S,0,57130,,0.3145808 F,0,57130,57167,1,0
Sprite,Foreground,Centre,"letters2\e.png",320,240 F,0,55480,55630,0,1 M,0,55480,57280,608.2065,253.2129,26.83871,253.2129 F,0,55630,57280,1 S,0,57280,,0.3145808 F,0,57280,57317,1,0
Sprite,Foreground,Centre,"letters2\d.png",320,240 F,0,55780,55930,0,1 M,0,55780,57580,608.2065,253.2129,26.83871,253.2129 F,0,55930,57580,1 S,0,57580,,0.3145808 F,0,57580,57617,1,0
Sprite,Foreground,Centre,"letters2\d.png",320,240 F,0,56230,56380,0,1 M,0,56230,58030,608.2065,253.2129,26.83871,253.2129 F,0,56380,58030,1 S,0,58030,,0.3145808 F,0,58030,58067,1,0
Sprite,Foreground,Centre,"letters2\e.png",320,240 F,0,56380,56530,0,1 M,0,56380,58180,608.2065,253.2129,26.83871,253.2129 F,0,56530,58180,1 S,0,58180,,0.3145808 F,0,58180,58217,1,0
Sprite,Foreground,Centre,"letters2\f.png",320,240 F,0,56530,56680,0,1 M,0,56530,58330,608.2065,253.2129,26.83871,253.2129 F,0,56680,58330,1 S,0,58330,,0.3145808 F,0,58330,58367,1,0
Sprite,Foreground,Centre,"letters2\e.png",320,240 F,0,56680,56830,0,1 M,0,56680,58480,608.2065,253.2129,26.83871,253.2129 F,0,56830,58480,1 S,0,58480,,0.3145808 F,0,58480,58517,1,0
Sprite,Foreground,Centre,"letters2\r.png",320,240 F,0,56830,56980,0,1 M,0,56830,58630,608.2065,253.2129,26.83871,253.2129 F,0,56980,58630,1 S,0,58630,,0.3145808 F,0,58630,58667,1,0
Sprite,Foreground,Centre,"letters2\s.png",320,240 F,0,57130,57280,0,1 M,0,57130,58930,608.2065,253.2129,26.83871,253.2129 F,0,57280,58930,1 S,0,58930,,0.3145808 F,0,58930,58967,1,0
Sprite,Foreground,Centre,"letters2\o.png",320,240 F,0,57280,57430,0,1 M,0,57280,59080,608.2065,253.2129,26.83871,253.2129 F,0,57430,59080,1 S,0,59080,,0.3145808 F,0,59080,59117,1,0
Sprite,Foreground,Centre,"letters2\u.png",320,240 F,0,57430,57580,0,1 M,0,57430,59230,608.2065,253.2129,26.83871,253.2129 F,0,57580,59230,1 S,0,59230,,0.3145808 F,0,59230,59267,1,0
Sprite,Foreground,Centre,"letters2\l.png",320,240 F,0,57580,57730,0,1 M,0,57580,59380,608.2065,253.2129,26.83871,253.2129 F,0,57730,59380,1 S,0,59380,,0.3145808 F,0,59380,59417,1,0
Sprite,Foreground,Centre,"letters2\w.png",320,240 F,0,57880,58030,0,1 M,0,57880,59680,608.2065,253.2129,26.83871,253.2129 F,0,58030,59680,1 S,0,59680,,0.3145808 F,0,59680,59717,1,0
Sprite,Foreground,Centre,"letters2\o.png",320,240 F,0,58030,58180,0,1 M,0,58030,59830,608.2065,253.2129,26.83871,253.2129 F,0,58180,59830,1 S,0,59830,,0.3145808 F,0,59830,59867,1,0
Sprite,Foreground,Centre,"letters2\r.png",320,240 F,0,58180,58330,0,1 M,0,58180,59980,608.2065,253.2129,26.83871,253.2129 F,0,58330,59980,1 S,0,59980,,0.3145808 F,0,59980,60017,1,0
Sprite,Foreground,Centre,"letters2\e.png",320,240 F,0,58330,58480,0,1 M,0,58330,60130,608.2065,253.2129,26.83871,253.2129 F,0,58480,60130,1 S,0,60130,,0.3145808 F,0,60130,60167,1,0
Sprite,Foreground,Centre,"letters2\f.png",320,240 F,0,58630,58780,0,1 M,0,58630,60430,608.2065,253.2129,26.83871,253.2129 F,0,58780,60430,1 S,0,60430,,0.3145808 F,0,60430,60467,1,0
Sprite,Foreground,Centre,"letters2\e.png",320,240 F,0,58930,59080,0,1 M,0,58930,60730,608.2065,253.2129,26.83871,253.2129 F,0,59080,60730,1 S,0,60730,,0.3145808 F,0,60730,60767,1,0
Sprite,Foreground,Centre,"letters2\t.png",320,240 F,0,59080,59230,0,1 M,0,59080,60880,608.2065,253.2129,26.83871,253.2129 F,0,59230,60880,1 S,0,60880,,0.3145808 F,0,60880,60917,1,0
Sprite,Foreground,Centre,"letters2\a.png",320,240 F,0,59230,59380,0,1 M,0,59230,61030,608.2065,253.2129,26.83871,253.2129 F,0,59380,61030,1 S,0,61030,,0.3145808 F,0,61030,61067,1,0
Sprite,Foreground,Centre,"letters2\l.png",320,240 F,0,59380,59530,0,1 M,0,59380,61180,608.2065,253.2129,26.83871,253.2129 F,0,59530,61180,1 S,0,61180,,0.3145808 F,0,61180,61217,1,0
Sprite,Foreground,Centre,"letters2\j.png",320,240 F,0,59680,59830,0,1 M,0,59680,61480,608.2065,253.2129,26.83871,253.2129 F,0,59830,61480,1 S,0,61480,,0.3145808 F,0,61480,61517,1,0
Sprite,Foreground,Centre,"letters2\a.png",320,240 F,0,59830,59980,0,1 M,0,59830,61630,608.2065,253.2129,26.83871,253.2129 F,0,59980,61630,1 S,0,61630,,0.3145808 F,0,61630,61667,1,0
Sprite,Foreground,Centre,"letters2\i.png",320,240 F,0,59980,60130,0,1 M,0,59980,61780,608.2065,253.2129,26.83871,253.2129 F,0,60130,61780,1 S,0,61780,,0.3145808 F,0,61780,61817,1,0
Sprite,Foreground,Centre,"letters2\l.png",320,240 F,0,60130,60280,0,1 M,0,60130,61930,608.2065,253.2129,26.83871,253.2129 F,0,60280,61930,1 S,0,61930,,0.3145808 F,0,61930,61967,1,0
Sprite,Foreground,Centre,"letters2\l.png",320,240 F,0,60430,60580,0,1 M,0,60430,62230,608.2065,253.2129,26.83871,253.2129 F,0,60580,62230,1 S,0,62230,,0.3145808 F,0,62230,62267,1,0
Sprite,Foreground,Centre,"letters2\a.png",320,240 F,0,60730,60880,0,1 M,0,60730,62530,608.2065,253.2129,26.83871,253.2129 F,0,60880,62530,1 S,0,62530,,0.3145808 F,0,62530,62567,1,0
Sprite,Foreground,Centre,"letters2\r.png",320,240 F,0,60880,61030,0,1 M,0,60880,62680,608.2065,253.2129,26.83871,253.2129 F,0,61030,62680,1 S,0,62680,,0.3145808 F,0,62680,62717,1,0
Sprite,Foreground,Centre,"letters2\g.png",320,240 F,0,61030,61180,0,1 M,0,61030,62830,608.2065,253.2129,26.83871,253.2129 F,0,61180,62830,1 S,0,62830,,0.3145808 F,0,62830,62867,1,0
Sprite,Foreground,Centre,"letters2\e.png",320,240 F,0,61180,61330,0,1 M,0,61180,62980,608.2065,253.2129,26.83871,253.2129 F,0,61330,62980,1 S,0,62980,,0.3145808 F,0,62980,63017,1,0
Sprite,Foreground,Centre,"letters2\t.png",320,240 F,0,61480,61630,0,1 M,0,61480,63280,608.2065,253.2129,26.83871,253.2129 F,0,61630,63280,1 S,0,63280,,0.3145808 F,0,63280,63317,1,0
Sprite,Foreground,Centre,"letters2\w.png",320,240 F,0,61630,61780,0,1 M,0,61630,63430,608.2065,253.2129,26.83871,253.2129 F,0,61780,63430,1 S,0,63430,,0.3145808 F,0,63430,63467,1,0
Sprite,Foreground,Centre,"letters2\i.png",320,240 F,0,61780,61930,0,1 M,0,61780,63580,608.2065,253.2129,26.83871,253.2129 F,0,61930,63580,1 S,0,63580,,0.3145808 F,0,63580,63617,1,0
Sprite,Foreground,Centre,"letters2\g.png",320,240 F,0,61930,62080,0,1 M,0,61930,63730,608.2065,253.2129,26.83871,253.2129 F,0,62080,63730,1 S,0,63730,,0.3145808 F,0,63730,63767,1,0
Sprite,Foreground,Centre,"letters2\f.png",320,240 F,0,62230,62380,0,1 M,0,62230,64030,608.2065,253.2129,26.83871,253.2129 F,0,62380,64030,1 S,0,64030,,0.3145808 F,0,64030,64067,1,0
Sprite,Foreground,Centre,"letters2\l.png",320,240 F,0,62530,62680,0,1 M,0,62530,64330,608.2065,253.2129,26.83871,253.2129 F,0,62680,64330,1 S,0,64330,,0.3145808 F,0,64330,64367,1,0
Sprite,Foreground,Centre,"letters2\a.png",320,240 F,0,62680,62830,0,1 M,0,62680,64480,608.2065,253.2129,26.83871,253.2129 F,0,62830,64480,1 S,0,64480,,0.3145808 F,0,64480,64517,1,0
Sprite,Foreground,Centre,"letters2\s.png",320,240 F,0,62830,62980,0,1 M,0,62830,64630,608.2065,253.2129,26.83871,253.2129 F,0,62980,64630,1 S,0,64630,,0.3145808 F,0,64630,64667,1,0
Sprite,Foreground,Centre,"letters2\h.png",320,240 F,0,62980,63130,0,1 M,0,62980,64780,608.2065,253.2129,26.83871,253.2129 F,0,63130,64780,1 S,0,64780,,0.3145808 F,0,64780,64817,1,0
Sprite,Foreground,Centre,"letters2\y.png",320,240 F,0,63130,63280,0,1 M,0,63130,64930,608.2065,253.2129,26.83871,253.2129 F,0,63280,64930,1 S,0,64930,,0.3145808 F,0,64930,64967,1,0
Sprite,Foreground,Centre,"letters2\g.png",320,240 F,0,63430,63580,0,1 M,0,63430,65230,608.2065,253.2129,26.83871,253.2129 F,0,63580,65230,1 S,0,65230,,0.3145808 F,0,65230,65267,1,0
Sprite,Foreground,Centre,"letters2\u.png",320,240 F,0,63580,63730,0,1 M,0,63580,65380,608.2065,253.2129,26.83871,253.2129 F,0,63730,65380,1 S,0,65380,,0.3145808 F,0,65380,65417,1,0
Sprite,Foreground,Centre,"letters2\a.png",320,240 F,0,63730,63880,0,1 M,0,63730,65530,608.2065,253.2129,26.83871,253.2129 F,0,63880,65530,1 S,0,65530,,0.3145808 F,0,65530,65567,1,0
Sprite,Foreground,Centre,"letters2\r.png",320,240 F,0,63880,64030,0,1 M,0,63880,65680,608.2065,253.2129,26.83871,253.2129 F,0,64030,65680,1 S,0,65680,,0.3145808 F,0,65680,65717,1,0
Sprite,Foreground,Centre,"letters2\d.png",320,240 F,0,64030,64180,0,1 M,0,64030,65830,608.2065,253.2129,26.83871,253.2129 F,0,64180,65830,1 S,0,65830,,0.3145808 F,0,65830,65867,1,0
Sprite,Foreground,Centre,"letters2\e.png",320,240 F,0,64180,64330,0,1 M,0,64180,65980,608.2065,253.2129,26.83871,253.2129 F,0,64330,65980,1 S,0,65980,,0.3145808 F,0,65980,66017,1,0
Sprite,Foreground,Centre,"letters2\d.png",320,240 F,0,64330,64480,0,1 M,0,64330,66130,608.2065,253.2129,26.83871,253.2129 F,0,64480,66130,1 S,0,66130,,0.3145808 F,0,66130,66167,1,0
Sprite,Foreground,Centre,"letters2\l.png",320,240 F,0,64480,64630,0,1 M,0,64480,66280,608.2065,253.2129,26.83871,253.2129 F,0,64630,66280,1 S,0,66280,,0.3145808 F,0,66280,66317,1,0
Sprite,Foreground,Centre,"letters2\y.png",320,240 F,0,64630,64780,0,1 M,0,64630,66430,608.2065,253.2129,26.83871,253.2129 F,0,64780,66430,1 S,0,66430,,0.3145808 F,0,66430,66467,1,0
Sprite,Foreground,Centre,"letters2\d.png",320,240 F,0,64930,65080,0,1 M,0,64930,66730,608.2065,253.2129,26.83871,253.2129 F,0,65080,66730,1 S,0,66730,,0.3145808 F,0,66730,66767,1,0
Sprite,Foreground,Centre,"letters2\r.png",320,240 F,0,65080,65230,0,1 M,0,65080,66880,608.2065,253.2129,26.83871,253.2129 F,0,65230,66880,1 S,0,66880,,0.3145808 F,0,66880,66917,1,0
Sprite,Foreground,Centre,"letters2\a.png",320,240 F,0,65230,65380,0,1 M,0,65230,67030,608.2065,253.2129,26.83871,253.2129 F,0,65380,67030,1 S,0,67030,,0.3145808 F,0,67030,67067,1,0
Sprite,Foreground,Centre,"letters2\f.png",320,240 F,0,65530,65680,0,1 M,0,65530,67330,608.2065,253.2129,26.83871,253.2129 F,0,65680,67330,1 S,0,67330,,0.3145808 F,0,67330,67367,1,0
Sprite,Foreground,Centre,"letters2\t.png",320,240 F,0,65830,65980,0,1 M,0,65830,67630,608.2065,253.2129,26.83871,253.2129 F,0,65980,67630,1 S,0,67630,,0.3145808 F,0,67630,67667,1,0
Sprite,Foreground,Centre,"letters2\g.png",320,240 F,0,66280,66430,0,1 M,0,66280,68080,608.2065,253.2129,26.83871,253.2129 F,0,66430,68080,1 S,0,68080,,0.3145808 F,0,68080,68117,1,0
Sprite,Foreground,Centre,"letters2\a.png",320,240 F,0,66430,66580,0,1 M,0,66430,68230,608.2065,253.2129,26.83871,253.2129 F,0,66580,68230,1 S,0,68230,,0.3145808 F,0,68230,68267,1,0
Sprite,Foreground,Centre,"letters2\p.png",320,240 F,0,66580,66730,0,1 M,0,66580,68380,608.2065,253.2129,26.83871,253.2129 F,0,66730,68380,1 S,0,68380,,0.3145808 F,0,68380,68417,1,0
Sprite,Foreground,Centre,"letters2\d.png",320,240 F,0,66880,67030,0,1 M,0,66880,68680,608.2065,253.2129,26.83871,253.2129 F,0,67030,68680,1 S,0,68680,,0.3145808 F,0,68680,68717,1,0
Sprite,Foreground,Centre,"letters2\e.png",320,240 F,0,67030,67180,0,1 M,0,67030,68830,608.2065,253.2129,26.83871,253.2129 F,0,67180,68830,1 S,0,68830,,0.3145808 F,0,68830,68867,1,0
Sprite,Foreground,Centre,"letters2\a.png",320,240 F,0,67330,67480,0,1 M,0,67330,69130,608.2065,253.2129,26.83871,253.2129 F,0,67480,69130,1 S,0,69130,,0.3145808 F,0,69130,69167,1,0
Sprite,Foreground,Centre,"letters2\l.png",320,240 F,0,67630,67780,0,1 M,0,67630,69430,608.2065,253.2129,26.83871,253.2129 F,0,67780,69430,1 S,0,69430,,0.3145808 F,0,69430,69467,1,0
Sprite,Foreground,Centre,"letters2\l.png",320,240 F,0,67930,68080,0,1 M,0,67930,69730,608.2065,253.2129,26.83871,253.2129 F,0,68080,69730,1 S,0,69730,,0.3145808 F,0,69730,69767,1,0
Sprite,Foreground,Centre,"letters2\o.png",320,240 F,0,68080,68230,0,1 M,0,68080,69880,608.2065,253.2129,26.83871,253.2129 F,0,68230,69880,1 S,0,69880,,0.3145808 F,0,69880,69917,1,0
Sprite,Foreground,Centre,"letters2\t.png",320,240 F,0,68230,68380,0,1 M,0,68230,70030,608.2065,253.2129,26.83871,253.2129 F,0,68380,70030,1 S,0,70030,,0.3145808 F,0,70030,70067,1,0
Sprite,Foreground,Centre,"letters2\f.png",320,240 F,0,68530,68680,0,1 M,0,68530,70330,608.2065,253.2129,26.83871,253.2129 F,0,68680,70330,1 S,0,70330,,0.3145808 F,0,70330,70367,1,0
Sprite,Foreground,Centre,"letters2\a.png",320,240 F,0,68680,68830,0,1 M,0,68680,70480,608.2065,253.2129,26.83871,253.2129 F,0,68830,70480,1 S,0,70480,,0.3145808 F,0,70480,70517,1,0
Sprite,Foreground,Centre,"letters2\i.png",320,240 F,0,68830,68980,0,1 M,0,68830,70630,608.2065,253.2129,26.83871,253.2129 F,0,68980,70630,1 S,0,70630,,0.3145808 F,0,70630,70667,1,0
Sprite,Foreground,Centre,"letters2\t.png",320,240 F,0,68980,69130,0,1 M,0,68980,70780,608.2065,253.2129,26.83871,253.2129 F,0,69130,70780,1 S,0,70780,,0.3145808 F,0,70780,70817,1,0
Sprite,Foreground,Centre,"letters2\h.png",320,240 F,0,69130,69280,0,1 M,0,69130,70930,608.2065,253.2129,26.83871,253.2129 F,0,69280,70930,1 S,0,70930,,0.3145808 F,0,70930,70967,1,0
Sprite,Foreground,Centre,"letters2\f.png",320,240 F,0,69280,69430,0,1 M,0,69280,71080,608.2065,253.2129,26.83871,253.2129 F,0,69430,71080,1 S,0,71080,,0.3145808 F,0,71080,71117,1,0
Sprite,Foreground,Centre,"letters2\u.png",320,240 F,0,69430,69580,0,1 M,0,69430,71230,608.2065,253.2129,26.83871,253.2129 F,0,69580,71230,1 S,0,71230,,0.3145808 F,0,71230,71267,1,0
Sprite,Foreground,Centre,"letters2\l.png",320,240 F,0,69580,69730,0,1 M,0,69580,71380,608.2065,253.2129,26.83871,253.2129 F,0,69730,71380,1 S,0,71380,,0.3145808 F,0,71380,71417,1,0
Sprite,Foreground,Centre,"letters2\l.png",320,240 F,0,69730,69880,0,1 M,0,69730,71530,608.2065,253.2129,26.83871,253.2129 F,0,69880,71530,1 S,0,71530,,0.3145808 F,0,71530,71567,1,0
Sprite,Foreground,Centre,"letters2\y.png",320,240 F,0,69880,70030,0,1 M,0,69880,71680,608.2065,253.2129,26.83871,253.2129 F,0,70030,71680,1 S,0,71680,,0.3145808 F,0,71680,71717,1,0
Sprite,Foreground,Centre,"letters2\r.png",320,240 F,0,70180,70330,0,1 M,0,70180,71980,608.2065,253.2129,26.83871,253.2129 F,0,70330,71980,1 S,0,71980,,0.3145808 F,0,71980,72017,1,0
Sprite,Foreground,Centre,"letters2\e.png",320,240 F,0,70630,70780,0,1 M,0,70630,72430,608.2065,253.2129,26.83871,253.2129 F,0,70780,72430,1 S,0,72430,,0.3145808 F,0,72430,72467,1,0
Sprite,Foreground,Centre,"letters2\s.png",320,240 F,0,71080,71230,0,1 M,0,71080,72880,608.2065,253.2129,26.83871,253.2129 F,0,71230,72880,1 S,0,72880,,0.3145808 F,0,72880,72917,1,0
Sprite,Foreground,Centre,"letters2\o.png",320,240 F,0,71380,71530,0,1 M,0,71380,73180,608.2065,253.2129,26.83871,253.2129 F,0,71530,73180,1 S,0,73180,,0.3145808 F,0,73180,73217,1,0
Sprite,Foreground,Centre,"letters2\l.png",320,240 F,0,71605,71755,0,1 M,0,71605,73405,608.2065,253.2129,26.83871,253.2129 F,0,71755,73405,1 S,0,73405,,0.3145808 F,0,73405,73442,1,0
Sprite,Foreground,Centre,"letters2\u.png",320,240 F,0,71830,71980,0,1 M,0,71830,73630,608.2065,253.2129,26.83871,253.2129 F,0,71980,73630,1 S,0,73630,,0.3145808 F,0,73630,73667,1,0
Sprite,Foreground,Centre,"letters2\t.png",320,240 F,0,71980,72130,0,1 M,0,71980,73780,608.2065,253.2129,26.83871,253.2129 F,0,72130,73780,1 S,0,73780,,0.3145808 F,0,73780,73817,1,0
Sprite,Foreground,Centre,"letters2\e.png",320,240 F,0,72130,72280,0,1 M,0,72130,73930,608.2065,253.2129,26.83871,253.2129 F,0,72280,73930,1 S,0,73930,,0.3145808 F,0,73930,73967,1,0
Sprite,Foreground,Centre,"letters2\e.png",320,240 F,0,72430,72580,0,1 M,0,72430,74230,608.2065,253.2129,26.83871,253.2129 F,0,72580,74230,1 S,0,74230,,0.3145808 F,0,74230,74267,1,0
Sprite,Foreground,Centre,"letters2\a.png",320,240 F,0,72730,72880,0,1 M,0,72730,74530,608.2065,253.2129,26.83871,253.2129 F,0,72880,74530,1 S,0,74530,,0.3145808 F,0,74530,74567,1,0
Sprite,Foreground,Centre,"letters2\s.png",320,240 F,0,72880,73030,0,1 M,0,72880,74680,608.2065,253.2129,26.83871,253.2129 F,0,73030,74680,1 S,0,74680,,0.3145808 F,0,74680,74717,1,0
Sprite,Foreground,Centre,"letters2\i.png",320,240 F,0,73180,73330,0,1 M,0,73180,74980,608.2065,253.2129,26.83871,253.2129 F,0,73330,74980,1 S,0,74980,,0.3145808 F,0,74980,75017,1,0
Sprite,Foreground,Centre,"letters2\l.png",320,240 F,0,73480,73630,0,1 M,0,73480,75280,608.2065,253.2129,26.83871,253.2129 F,0,73630,75280,1 S,0,75280,,0.3145808 F,0,75280,75317,1,0
Sprite,Foreground,Centre,"letters2\y.png",320,240 F,0,73780,73930,0,1 M,0,73780,75580,608.2065,253.2129,26.83871,253.2129 F,0,73930,75580,1 S,0,75580,,0.3145808 F,0,75580,75617,1,0
Sprite,Foreground,Centre,"letters2\r.png",320,240 F,0,74230,74380,0,1 M,0,74230,76030,608.2065,253.2129,26.83871,253.2129 F,0,74380,76030,1 S,0,76030,,0.3145808 F,0,76030,76067,1,0
Sprite,Foreground,Centre,"letters2\u.png",320,240 F,0,74680,74830,0,1 M,0,74680,76480,608.2065,253.2129,26.83871,253.2129 F,0,74830,76480,1 S,0,76480,,0.3145808 F,0,76480,76517,1,0
Sprite,Foreground,Centre,"letters2\s.png",320,240 F,0,74980,75130,0,1 M,0,74980,76780,608.2065,253.2129,26.83871,253.2129 F,0,75130,76780,1 S,0,76780,,0.3145808 F,0,76780,76817,1,0
Sprite,Foreground,Centre,"letters2\h.png",320,240 F,0,75280,75430,0,1 M,0,75280,77080,608.2065,253.2129,26.83871,253.2129 F,0,75430,77080,1 S,0,77080,,0.3145808 F,0,77080,77117,1,0
Sprite,Foreground,Centre,"letters2\w.png",320,240 F,0,75580,75730,0,1 M,0,75580,77380,608.2065,253.2129,26.83871,253.2129 F,0,75730,77380,1 S,0,77380,,0.3145808 F,0,77380,77417,1,0
Sprite,Foreground,Centre,"letters2\e.png",320,240 F,0,75730,75880,0,1 M,0,75730,77530,608.2065,253.2129,26.83871,253.2129 F,0,75880,77530,1 S,0,77530,,0.3145808 F,0,77530,77567,1,0
Sprite,Foreground,Centre,"letters2\a.png",320,240 F,0,75880,76030,0,1 M,0,75880,77680,608.2065,253.2129,26.83871,253.2129 F,0,76030,77680,1 S,0,77680,,0.3145808 F,0,77680,77717,1,0
Sprite,Foreground,Centre,"letters2\t.png",320,240 F,0,76180,76330,0,1 M,0,76180,77980,608.2065,253.2129,26.83871,253.2129 F,0,76330,77980,1 S,0,77980,,0.3145808 F,0,77980,78017,1,0
Sprite,Foreground,Centre,"letters2\h.png",320,240 F,0,76330,76480,0,1 M,0,76330,78130,608.2065,253.2129,26.83871,253.2129 F,0,76480,78130,1 S,0,78130,,0.3145808 F,0,78130,78167,1,0
Sprite,Foreground,Centre,"letters2\e.png",320,240 F,0,76630,76780,0,1 M,0,76630,78430,608.2065,253.2129,26.83871,253.2129 F,0,76780,78430,1 S,0,78430,,0.3145808 F,0,78430,78467,1,0
Sprite,Foreground,Centre,"letters2\r.png",320,240 F,0,76780,76930,0,1 M,0,76780,78580,608.2065,253.2129,26.83871,253.2129 F,0,76930,78580,1 S,0,78580,,0.3145808 F,0,78580,78617,1,0
Sprite,Foreground,Centre,"letters2\r.png",320,240 F,0,77080,77230,0,1 M,0,77080,78880,608.2065,253.2129,26.83871,253.2129 F,0,77230,78880,1 S,0,78880,,0.3145808 F,0,78880,78917,1,0
Sprite,Foreground,Centre,"letters2\a.png",320,240 F,0,77230,77380,0,1 M,0,77230,79030,608.2065,253.2129,26.83871,253.2129 F,0,77380,79030,1 S,0,79030,,0.3145808 F,0,79030,79067,1,0
Sprite,Foreground,Centre,"letters2\d.png",320,240 F,0,77380,77530,0,1 M,0,77380,79180,608.2065,253.2129,26.83871,253.2129 F,0,77530,79180,1 S,0,79180,,0.3145808 F,0,79180,79217,1,0
Sprite,Foreground,Centre,"letters2\i.png",320,240 F,0,77530,77680,0,1 M,0,77530,79330,608.2065,253.2129,26.83871,253.2129 F,0,77680,79330,1 S,0,79330,,0.3145808 F,0,79330,79367,1,0
Sprite,Foreground,Centre,"letters2\o.png",320,240 F,0,77680,77830,0,1 M,0,77680,79480,608.2065,253.2129,26.83871,253.2129 F,0,77830,79480,1 S,0,79480,,0.3145808 F,0,79480,79517,1,0
Sprite,Foreground,Centre,"letters2\l.png",320,240 F,0,77830,77980,0,1 M,0,77830,79630,608.2065,253.2129,26.83871,253.2129 F,0,77980,79630,1 S,0,79630,,0.3145808 F,0,79630,79667,1,0
Sprite,Foreground,Centre,"letters2\o.png",320,240 F,0,77980,78130,0,1 M,0,77980,79780,608.2065,253.2129,26.83871,253.2129 F,0,78130,79780,1 S,0,79780,,0.3145808 F,0,79780,79817,1,0
Sprite,Foreground,Centre,"letters2\g.png",320,240 F,0,78130,78280,0,1 M,0,78130,79930,608.2065,253.2129,26.83871,253.2129 F,0,78280,79930,1 S,0,79930,,0.3145808 F,0,79930,79967,1,0
Sprite,Foreground,Centre,"letters2\y.png",320,240 F,0,78280,78430,0,1 M,0,78280,80080,608.2065,253.2129,26.83871,253.2129 F,0,78430,80080,1 S,0,80080,,0.3145808 F,0,80080,80117,1,0
Sprite,Foreground,Centre,"letters2\j.png",320,240 F,0,78580,78730,0,1 M,0,78580,80380,608.2065,253.2129,26.83871,253.2129 F,0,78730,80380,1 S,0,80380,,0.3145808 F,0,80380,80417,1,0
Sprite,Foreground,Centre,"letters2\e.png",320,240 F,0,78730,78880,0,1 M,0,78730,80530,608.2065,253.2129,26.83871,253.2129 F,0,78880,80530,1 S,0,80530,,0.3145808 F,0,80530,80567,1,0
Sprite,Foreground,Centre,"letters2\t.png",320,240 F,0,78880,79030,0,1 M,0,78880,80680,608.2065,253.2129,26.83871,253.2129 F,0,79030,80680,1 S,0,80680,,0.3145808 F,0,80680,80717,1,0
Sprite,Foreground,Centre,"letters2\r.png",320,240 F,0,79180,79330,0,1 M,0,79180,80980,608.2065,253.2129,26.83871,253.2129 F,0,79330,80980,1 S,0,80980,,0.3145808 F,0,80980,81017,1,0
Sprite,Foreground,Centre,"letters2\e.png",320,240 F,0,79330,79480,0,1 M,0,79330,81130,608.2065,253.2129,26.83871,253.2129 F,0,79480,81130,1 S,0,81130,,0.3145808 F,0,81130,81167,1,0
Sprite,Foreground,Centre,"letters2\p.png",320,240 F,0,79480,79630,0,1 M,0,79480,81280,608.2065,253.2129,26.83871,253.2129 F,0,79630,81280,1 S,0,81280,,0.3145808 F,0,81280,81317,1,0
Sprite,Foreground,Centre,"letters2\e.png",320,240 F,0,79630,79780,0,1 M,0,79630,81430,608.2065,253.2129,26.83871,253.2129 F,0,79780,81430,1 S,0,81430,,0.3145808 F,0,81430,81467,1,0
Sprite,Foreground,Centre,"letters2\a.png",320,240 F,0,79780,79930,0,1 M,0,79780,81580,608.2065,253.2129,26.83871,253.2129 F,0,79930,81580,1 S,0,81580,,0.3145808 F,0,81580,81617,1,0
Sprite,Foreground,Centre,"letters2\t.png",320,240 F,0,79930,80080,0,1 M,0,79930,81730,608.2065,253.2129,26.83871,253.2129 F,0,80080,81730,1 S,0,81730,,0.3145808 F,0,81730,81767,1,0
Sprite,Foreground,Centre,"letters2\e.png",320,240 F,0,80080,80230,0,1 M,0,80080,81880,608.2065,253.2129,26.83871,253.2129 F,0,80230,81880,1 S,0,81880,,0.3145808 F,0,81880,81917,1,0
Sprite,Foreground,Centre,"letters2\d.png",320,240 F,0,80230,80380,0,1 M,0,80230,82030,608.2065,253.2129,26.83871,253.2129 F,0,80380,82030,1 S,0,82030,,0.3145808 F,0,82030,82067,1,0
Sprite,Foreground,Centre,"letters2\r.png",320,240 F,0,80530,80680,0,1 M,0,80530,82330,608.2065,253.2129,26.83871,253.2129 F,0,80680,82330,1 S,0,82330,,0.3145808 F,0,82330,82367,1,0
Sprite,Foreground,Centre,"letters2\i.png",320,240 F,0,80680,80830,0,1 M,0,80680,82480,608.2065,253.2129,26.83871,253.2129 F,0,80830,82480,1 S,0,82480,,0.3145808 F,0,82480,82517,1,0
Sprite,Foreground,Centre,"letters2\g.png",320,240 F,0,80830,80980,0,1 M,0,80830,82630,608.2065,253.2129,26.83871,253.2129 F,0,80980,82630,1 S,0,82630,,0.3145808 F,0,82630,82667,1,0
Sprite,Foreground,Centre,"letters2\h.png",320,240 F,0,81430,81580,0,1 M,0,81430,83230,608.2065,253.2129,26.83871,253.2129 F,0,81580,83230,1 S,0,83230,,0.3145808 F,0,83230,83267,1,0
Sprite,Foreground,Centre,"letters2\a.png",320,240 F,0,81580,81730,0,1 M,0,81580,83380,608.2065,253.2129,26.83871,253.2129 F,0,81730,83380,1 S,0,83380,,0.3145808 F,0,83380,83417,1,0
Sprite,Foreground,Centre,"letters2\i.png",320,240 F,0,81730,81880,0,1 M,0,81730,83530,608.2065,253.2129,26.83871,253.2129 F,0,81880,83530,1 S,0,83530,,0.3145808 F,0,83530,83567,1,0
Sprite,Foreground,Centre,"letters2\r.png",320,240 F,0,81880,82030,0,1 M,0,81880,83680,608.2065,253.2129,26.83871,253.2129 F,0,82030,83680,1 S,0,83680,,0.3145808 F,0,83680,83717,1,0
Sprite,Foreground,Centre,"letters2\s.png",320,240 F,0,82030,82180,0,1 M,0,82030,83830,608.2065,253.2129,26.83871,253.2129 F,0,82180,83830,1 S,0,83830,,0.3145808 F,0,83830,83867,1,0
Sprite,Foreground,Centre,"letters2\t.png",320,240 F,0,82180,82330,0,1 M,0,82180,83980,608.2065,253.2129,26.83871,253.2129 F,0,82330,83980,1 S,0,83980,,0.3145808 F,0,83980,84017,1,0
Sprite,Foreground,Centre,"letters2\y.png",320,240 F,0,82330,82480,0,1 M,0,82330,84130,608.2065,253.2129,26.83871,253.2129 F,0,82480,84130,1 S,0,84130,,0.3145808 F,0,84130,84167,1,0
Sprite,Foreground,Centre,"letters2\l.png",320,240 F,0,82480,82630,0,1 M,0,82480,84280,608.2065,253.2129,26.83871,253.2129 F,0,82630,84280,1 S,0,84280,,0.3145808 F,0,84280,84317,1,0
Sprite,Foreground,Centre,"letters2\i.png",320,240 F,0,82630,82780,0,1 M,0,82630,84430,608.2065,253.2129,26.83871,253.2129 F,0,82780,84430,1 S,0,84430,,0.3145808 F,0,84430,84467,1,0
Sprite,Foreground,Centre,"letters2\s.png",320,240 F,0,82780,82930,0,1 M,0,82780,84580,608.2065,253.2129,26.83871,253.2129 F,0,82930,84580,1 S,0,84580,,0.3145808 F,0,84580,84617,1,0
Sprite,Foreground,Centre,"letters2\t.png",320,240 F,0,82930,83080,0,1 M,0,82930,84730,608.2065,253.2129,26.83871,253.2129 F,0,83080,84730,1 S,0,84730,,0.3145808 F,0,84730,84767,1,0
Sprite,Foreground,Centre,"letters2\f.png",320,240 F,0,83230,83380,0,1 M,0,83230,85030,608.2065,253.2129,26.83871,253.2129 F,0,83380,85030,1 S,0,85030,,0.3145808 F,0,85030,85067,1,0
Sprite,Foreground,Centre,"letters2\j.png",320,240 F,0,83380,83530,0,1 M,0,83380,85180,608.2065,253.2129,26.83871,253.2129 F,0,83530,85180,1 S,0,85180,,0.3145808 F,0,85180,85217,1,0
Sprite,Foreground,Centre,"letters2\o.png",320,240 F,0,83530,83680,0,1 M,0,83530,85330,608.2065,253.2129,26.83871,253.2129 F,0,83680,85330,1 S,0,85330,,0.3145808 F,0,85330,85367,1,0
Sprite,Foreground,Centre,"letters2\r.png",320,240 F,0,83680,83830,0,1 M,0,83680,85480,608.2065,253.2129,26.83871,253.2129 F,0,83830,85480,1 S,0,85480,,0.3145808 F,0,85480,85517,1,0
Sprite,Foreground,Centre,"letters2\d.png",320,240 F,0,83830,83980,0,1 M,0,83830,85630,608.2065,253.2129,26.83871,253.2129 F,0,83980,85630,1 S,0,85630,,0.3145808 F,0,85630,85667,1,0
Sprite,Foreground,Centre,"letters2\h.png",320,240 F,0,84130,84280,0,1 M,0,84130,85930,608.2065,253.2129,26.83871,253.2129 F,0,84280,85930,1 S,0,85930,,0.3145808 F,0,85930,85967,1,0
Sprite,Foreground,Centre,"letters2\o.png",320,240 F,0,84280,84430,0,1 M,0,84280,86080,608.2065,253.2129,26.83871,253.2129 F,0,84430,86080,1 S,0,86080,,0.3145808 F,0,86080,86117,1,0
Sprite,Foreground,Centre,"letters2\o.png",320,240 F,0,84430,84580,0,1 M,0,84430,86230,608.2065,253.2129,26.83871,253.2129 F,0,84580,86230,1 S,0,86230,,0.3145808 F,0,86230,86267,1,0
Sprite,Foreground,Centre,"letters2\d.png",320,240 F,0,84580,84730,0,1 M,0,84580,86380,608.2065,253.2129,26.83871,253.2129 F,0,84730,86380,1 S,0,86380,,0.3145808 F,0,86380,86417,1,0
Sprite,Foreground,Centre,"letters2\t.png",320,240 F,0,84880,85030,0,1 M,0,84880,86680,608.2065,253.2129,26.83871,253.2129 F,0,85030,86680,1 S,0,86680,,0.3145808 F,0,86680,86717,1,0
Sprite,Foreground,Centre,"letters2\o.png",320,240 F,0,85480,85630,0,1 M,0,85480,87280,608.2065,253.2129,26.83871,253.2129 F,0,85630,87280,1 S,0,87280,,0.3145808 F,0,87280,87317,1,0
Sprite,Foreground,Centre,"letters2\t.png",320,240 F,0,85780,85930,0,1 M,0,85780,87580,608.2065,253.2129,26.83871,253.2129 F,0,85930,87580,1 S,0,87580,,0.3145808 F,0,87580,87617,1,0
Sprite,Foreground,Centre,"letters2\a.png",320,240 F,0,86080,86230,0,1 M,0,86080,87880,608.2065,253.2129,26.83871,253.2129 F,0,86230,87880,1 S,0,87880,,0.3145808 F,0,87880,87917,1,0
Sprite,Foreground,Centre,"letters2\l.png",320,240 F,0,86380,86530,0,1 M,0,86380,88180,608.2065,253.2129,26.83871,253.2129 F,0,86530,88180,1 S,0,88180,,0.3145808 F,0,88180,88217,1,0
Sprite,Foreground,Centre,"letters2\i.png",320,240 F,0,86680,86830,0,1 M,0,86680,88480,608.2065,253.2129,26.83871,253.2129 F,0,86830,88480,1 S,0,88480,,0.3145808 F,0,88480,88517,1,0
Sprite,Foreground,Centre,"letters2\r.png",320,240 F,0,86830,86980,0,1 M,0,86830,88630,608.2065,253.2129,26.83871,253.2129 F,0,86980,88630,1 S,0,88630,,0.3145808 F,0,88630,88667,1,0
Sprite,Foreground,Centre,"letters2\a.png",320,240 F,0,86980,87130,0,1 M,0,86980,88780,608.2065,253.2129,26.83871,253.2129 F,0,87130,88780,1 S,0,88780,,0.3145808 F,0,88780,88817,1,0
Sprite,Foreground,Centre,"letters2\s.png",320,240 F,0,87280,87430,0,1 M,0,87280,89080,608.2065,253.2129,26.83871,253.2129 F,0,87430,89080,1 S,0,89080,,0.3145808 F,0,89080,89117,1,0
Sprite,Foreground,Centre,"letters2\p.png",320,240 F,0,87430,87580,0,1 M,0,87430,89230,608.2065,253.2129,26.83871,253.2129 F,0,87580,89230,1 S,0,89230,,0.3145808 F,0,89230,89267,1,0
Sprite,Foreground,Centre,"letters2\e.png",320,240 F,0,87580,87730,0,1 M,0,87580,89380,608.2065,253.2129,26.83871,253.2129 F,0,87730,89380,1 S,0,89380,,0.3145808 F,0,89380,89417,1,0
Sprite,Foreground,Centre,"letters2\a.png",320,240 F,0,87730,87880,0,1 M,0,87730,89530,608.2065,253.2129,26.83871,253.2129 F,0,87880,89530,1 S,0,89530,,0.3145808 F,0,89530,89567,1,0
Sprite,Foreground,Centre,"letters2\r.png",320,240 F,0,87880,88030,0,1 M,0,87880,89680,608.2065,253.2129,26.83871,253.2129 F,0,88030,89680,1 S,0,89680,,0.3145808 F,0,89680,89717,1,0
Sprite,Foreground,Centre,"letters2\t.png",320,240 F,0,88180,88330,0,1 M,0,88180,89980,608.2065,253.2129,26.83871,253.2129 F,0,88330,89980,1 S,0,89980,,0.3145808 F,0,89980,90017,1,0
Sprite,Foreground,Centre,"letters2\a.png",320,240 F,0,88480,88630,0,1 M,0,88480,90280,608.2065,253.2129,26.83871,253.2129 F,0,88630,90280,1 S,0,90280,,0.3145808 F,0,90280,90317,1,0
Sprite,Foreground,Centre,"letters2\l.png",320,240 F,0,88630,88780,0,1 M,0,88630,90430,608.2065,253.2129,26.83871,253.2129 F,0,88780,90430,1 S,0,90430,,0.3145808 F,0,90430,90467,1,0
Sprite,Foreground,Centre,"letters2\k.png",320,240 F,0,88780,88930,0,1 M,0,88780,90580,608.2065,253.2129,26.83871,253.2129 F,0,88930,90580,1 S,0,90580,,0.3145808 F,0,90580,90617,1,0
Sprite,Foreground,Centre,"letters2\g.png",320,240 F,0,89080,89230,0,1 M,0,89080,90880,608.2065,253.2129,26.83871,253.2129 F,0,89230,90880,1 S,0,90880,,0.3145808 F,0,90880,90917,1,0
Sprite,Foreground,Centre,"letters2\r.png",320,240 F,0,89230,89380,0,1 M,0,89230,91030,608.2065,253.2129,26.83871,253.2129 F,0,89380,91030,1 S,0,91030,,0.3145808 F,0,91030,91067,1,0
Sprite,Foreground,Centre,"letters2\o.png",320,240 F,0,89380,89530,0,1 M,0,89380,91180,608.2065,253.2129,26.83871,253.2129 F,0,89530,91180,1 S,0,91180,,0.3145808 F,0,91180,91217,1,0
Sprite,Foreground,Centre,"letters2\p.png",320,240 F,0,89530,89680,0,1 M,0,89530,91330,608.2065,253.2129,26.83871,253.2129 F,0,89680,91330,1 S,0,91330,,0.3145808 F,0,91330,91367,1,0
Sprite,Foreground,Centre,"letters2\e.png",320,240 F,0,89680,89830,0,1 M,0,89680,91480,608.2065,253.2129,26.83871,253.2129 F,0,89830,91480,1 S,0,91480,,0.3145808 F,0,91480,91517,1,0
Sprite,Foreground,Centre,"letters2\t.png",320,240 F,0,89980,90130,0,1 M,0,89980,91780,608.2065,253.2129,26.83871,253.2129 F,0,90130,91780,1 S,0,91780,,0.3145808 F,0,91780,91817,1,0
Sprite,Foreground,Centre,"letters2\a.png",320,240 F,0,90280,90430,0,1 M,0,90280,92080,608.2065,253.2129,26.83871,253.2129 F,0,90430,92080,1 S,0,92080,,0.3145808 F,0,92080,92117,1,0
Sprite,Foreground,Centre,"letters2\d.png",320,240 F,0,90430,90580,0,1 M,0,90430,92230,608.2065,253.2129,26.83871,253.2129 F,0,90580,92230,1 S,0,92230,,0.3145808 F,0,92230,92267,1,0
Sprite,Foreground,Centre,"letters2\l.png",320,240 F,0,90730,90880,0,1 M,0,90730,92530,608.2065,253.2129,26.83871,253.2129 F,0,90880,92530,1 S,0,92530,,0.3145808 F,0,92530,92567,1,0
Sprite,Foreground,Centre,"letters2\a.png",320,240 F,0,90880,91030,0,1 M,0,90880,92680,608.2065,253.2129,26.83871,253.2129 F,0,91030,92680,1 S,0,92680,,0.3145808 F,0,92680,92717,1,0
Sprite,Foreground,Centre,"letters2\r.png",320,240 F,0,91030,91180,0,1 M,0,91030,92830,608.2065,253.2129,26.83871,253.2129 F,0,91180,92830,1 S,0,92830,,0.3145808 F,0,92830,92867,1,0
Sprite,Foreground,Centre,"letters2\g.png",320,240 F,0,91180,91330,0,1 M,0,91180,92980,608.2065,253.2129,26.83871,253.2129 F,0,91330,92980,1 S,0,92980,,0.3145808 F,0,92980,93017,1,0
Sprite,Foreground,Centre,"letters2\e.png",320,240 F,0,91480,91630,0,1 M,0,91480,93280,608.2065,253.2129,26.83871,253.2129 F,0,91630,93280,1 S,0,93280,,0.3145808 F,0,93280,93317,1,0
Sprite,Foreground,Centre,"letters2\s.png",320,240 F,0,93880,94030,0,1 M,0,93880,95680,608.2065,253.2129,26.83871,253.2129 F,0,94030,95680,1 S,0,95680,,0.3145808 F,0,95680,95717,1,0
Sprite,Foreground,Centre,"letters2\h.png",320,240 F,0,94330,94480,0,1 M,0,94330,96130,608.2065,253.2129,26.83871,253.2129 F,0,94480,96130,1 S,0,96130,,0.3145808 F,0,96130,96167,1,0
Sprite,Foreground,Centre,"letters2\e.png",320,240 F,0,94480,94630,0,1 M,0,94480,96280,608.2065,253.2129,26.83871,253.2129 F,0,94630,96280,1 S,0,96280,,0.3145808 F,0,96280,96317,1,0
Sprite,Foreground,Centre,"letters2\a.png",320,240 F,0,94630,94780,0,1 M,0,94630,96430,608.2065,253.2129,26.83871,253.2129 F,0,94780,96430,1 S,0,96430,,0.3145808 F,0,96430,96467,1,0
Sprite,Foreground,Centre,"letters2\t.png",320,240 F,0,94780,94930,0,1 M,0,94780,96580,608.2065,253.2129,26.83871,253.2129 F,0,94930,96580,1 S,0,96580,,0.3145808 F,0,96580,96617,1,0
Sprite,Foreground,Centre,"letters2\h.png",320,240 F,0,94930,95080,0,1 M,0,94930,96730,608.2065,253.2129,26.83871,253.2129 F,0,95080,96730,1 S,0,96730,,0.3145808 F,0,96730,96767,1,0
Sprite,Foreground,Centre,"letters2\f.png",320,240 F,0,95230,95380,0,1 M,0,95230,97030,608.2065,253.2129,26.83871,253.2129 F,0,95380,97030,1 S,0,97030,,0.3145808 F,0,97030,97067,1,0
Sprite,Foreground,Centre,"letters2\r.png",320,240 F,0,95380,95530,0,1 M,0,95380,97180,608.2065,253.2129,26.83871,253.2129 F,0,95530,97180,1 S,0,97180,,0.3145808 F,0,97180,97217,1,0
Sprite,Foreground,Centre,"letters2\e.png",320,240 F,0,95680,95830,0,1 M,0,95680,97480,608.2065,253.2129,26.83871,253.2129 F,0,95830,97480,1 S,0,97480,,0.3145808 F,0,97480,97517,1,0
Sprite,Foreground,Centre,"letters2\e.png",320,240 F,0,95980,96130,0,1 M,0,95980,97780,608.2065,253.2129,26.83871,253.2129 F,0,96130,97780,1 S,0,97780,,0.3145808 F,0,97780,97817,1,0
Sprite,Foreground,Centre,"letters2\d.png",320,240 F,0,96280,96430,0,1 M,0,96280,98080,608.2065,253.2129,26.83871,253.2129 F,0,96430,98080,1 S,0,98080,,0.3145808 F,0,98080,98117,1,0
Sprite,Foreground,Centre,"letters2\i.png",320,240 F,0,96430,96580,0,1 M,0,96430,98230,608.2065,253.2129,26.83871,253.2129 F,0,96580,98230,1 S,0,98230,,0.3145808 F,0,98230,98267,1,0
Sprite,Foreground,Centre,"letters2\r.png",320,240 F,0,96580,96730,0,1 M,0,96580,98380,608.2065,253.2129,26.83871,253.2129 F,0,96730,98380,1 S,0,98380,,0.3145808 F,0,98380,98417,1,0
Sprite,Foreground,Centre,"letters2\e.png",320,240 F,0,96730,96880,0,1 M,0,96730,98530,608.2065,253.2129,26.83871,253.2129 F,0,96880,98530,1 S,0,98530,,0.3145808 F,0,98530,98567,1,0
Sprite,Foreground,Centre,"letters2\a.png",320,240 F,0,97030,97180,0,1 M,0,97030,98830,608.2065,253.2129,26.83871,253.2129 F,0,97180,98830,1 S,0,98830,,0.3145808 F,0,98830,98867,1,0
Sprite,Foreground,Centre,"letters2\s.png",320,240 F,0,97180,97330,0,1 M,0,97180,98980,608.2065,253.2129,26.83871,253.2129 F,0,97330,98980,1 S,0,98980,,0.3145808 F,0,98980,99017,1,0
Sprite,Foreground,Centre,"letters2\a.png",320,240 F,0,97330,97480,0,1 M,0,97330,99130,608.2065,253.2129,26.83871,253.2129 F,0,97480,99130,1 S,0,99130,,0.3145808 F,0,99130,99167,1,0
Sprite,Foreground,Centre,"letters2\p.png",320,240 F,0,97480,97630,0,1 M,0,97480,99280,608.2065,253.2129,26.83871,253.2129 F,0,97630,99280,1 S,0,99280,,0.3145808 F,0,99280,99317,1,0
Sprite,Foreground,Centre,"letters2\o.png",320,240 F,0,97930,98080,0,1 M,0,97930,99730,608.2065,253.2129,26.83871,253.2129 F,0,98080,99730,1 S,0,99730,,0.3145808 F,0,99730,99767,1,0
Sprite,Foreground,Centre,"letters2\f.png",320,240 F,0,98080,98230,0,1 M,0,98080,99880,608.2065,253.2129,26.83871,253.2129 F,0,98230,99880,1 S,0,99880,,0.3145808 F,0,99880,99917,1,0
Sprite,Foreground,Centre,"letters2\f.png",320,240 F,0,98230,98380,0,1 M,0,98230,100030,608.2065,253.2129,26.83871,253.2129 F,0,98380,100030,1 S,0,100030,,0.3145808 F,0,100030,100067,1,0
Sprite,Foreground,Centre,"letters2\s.png",320,240 F,0,98380,98530,0,1 M,0,98380,100180,608.2065,253.2129,26.83871,253.2129 F,0,98530,100180,1 S,0,100180,,0.3145808 F,0,100180,100217,1,0
Sprite,Foreground,Centre,"letters2\t.png",320,240 F,0,98530,98680,0,1 M,0,98530,100330,608.2065,253.2129,26.83871,253.2129 F,0,98680,100330,1 S,0,100330,,0.3145808 F,0,100330,100367,1,0
Sprite,Foreground,Centre,"letters2\a.png",320,240 F,0,98680,98830,0,1 M,0,98680,100480,608.2065,253.2129,26.83871,253.2129 F,0,98830,100480,1 S,0,100480,,0.3145808 F,0,100480,100517,1,0
Sprite,Foreground,Centre,"letters2\g.png",320,240 F,0,98830,98980,0,1 M,0,98830,100630,608.2065,253.2129,26.83871,253.2129 F,0,98980,100630,1 S,0,100630,,0.3145808 F,0,100630,100667,1,0
Sprite,Foreground,Centre,"letters2\e.png",320,240 F,0,98980,99130,0,1 M,0,98980,100780,608.2065,253.2129,26.83871,253.2129 F,0,99130,100780,1 S,0,100780,,0.3145808 F,0,100780,100817,1,0
Sprite,Foreground,Centre,"letters2\d.png",320,240 F,0,99280,99430,0,1 M,0,99280,101080,608.2065,253.2129,26.83871,253.2129 F,0,99430,101080,1 S,0,101080,,0.3145808 F,0,101080,101117,1,0
Sprite,Foreground,Centre,"letters2\w.png",320,240 F,0,99580,99730,0,1 M,0,99580,101380,608.2065,253.2129,26.83871,253.2129 F,0,99730,101380,1 S,0,101380,,0.3145808 F,0,101380,101417,1,0
Sprite,Foreground,Centre,"letters2\e.png",320,240 F,0,99730,99880,0,1 M,0,99730,101530,608.2065,253.2129,26.83871,253.2129 F,0,99880,101530,1 S,0,101530,,0.3145808 F,0,101530,101567,1,0
Sprite,Foreground,Centre,"letters2\l.png",320,240 F,0,99880,100030,0,1 M,0,99880,101680,608.2065,253.2129,26.83871,253.2129 F,0,100030,101680,1 S,0,101680,,0.3145808 F,0,101680,101717,1,0
Sprite,Foreground,Centre,"letters2\l.png",320,240 F,0,100030,100180,0,1 M,0,100030,101830,608.2065,253.2129,26.83871,253.2129 F,0,100180,101830,1 S,0,101830,,0.3145808 F,0,101830,101867,1,0
Sprite,Foreground,Centre,"letters2\s.png",320,240 F,0,100330,100480,0,1 M,0,100330,102130,608.2065,253.2129,26.83871,253.2129 F,0,100480,102130,1 S,0,102130,,0.3145808 F,0,102130,102167,1,0
Sprite,Foreground,Centre,"letters2\h.png",320,240 F,0,100480,100630,0,1 M,0,100480,102280,608.2065,253.2129,26.83871,253.2129 F,0,100630,102280,1 S,0,102280,,0.3145808 F,0,102280,102317,1,0
Sprite,Foreground,Centre,"letters2\a.png",320,240 F,0,100780,100930,0,1 M,0,100780,102580,608.2065,253.2129,26.83871,253.2129 F,0,100930,102580,1 S,0,102580,,0.3145808 F,0,102580,102617,1,0
Sprite,Foreground,Centre,"letters2\l.png",320,240 F,0,100930,101080,0,1 M,0,100930,102730,608.2065,253.2129,26.83871,253.2129 F,0,101080,102730,1 S,0,102730,,0.3145808 F,0,102730,102767,1,0
Sprite,Foreground,Centre,"letters2\l.png",320,240 F,0,101080,101230,0,1 M,0,101080,102880,608.2065,253.2129,26.83871,253.2129 F,0,101230,102880,1 S,0,102880,,0.3145808 F,0,102880,102917,1,0
Sprite,Foreground,Centre,"letters2\l.png",320,240 F,0,101380,101530,0,1 M,0,101380,103180,608.2065,253.2129,26.83871,253.2129 F,0,101530,103180,1 S,0,103180,,0.3145808 F,0,103180,103217,1,0
Sprite,Foreground,Centre,"letters2\i.png",320,240 F,0,101530,101680,0,1 M,0,101530,103330,608.2065,253.2129,26.83871,253.2129 F,0,101680,103330,1 S,0,103330,,0.3145808 F,0,103330,103367,1,0
Sprite,Foreground,Centre,"letters2\p.png",320,240 F,0,101680,101830,0,1 M,0,101680,103480,608.2065,253.2129,26.83871,253.2129 F,0,101830,103480,1 S,0,103480,,0.3145808 F,0,103480,103517,1,0
Sprite,Foreground,Centre,"letters2\p.png",320,240 F,0,101980,102130,0,1 M,0,101980,103780,608.2065,253.2129,26.83871,253.2129 F,0,102130,103780,1 S,0,103780,,0.3145808 F,0,103780,103817,1,0
Sprite,Foreground,Centre,"letters2\e.png",320,240 F,0,102130,102280,0,1 M,0,102130,103930,608.2065,253.2129,26.83871,253.2129 F,0,102280,103930,1 S,0,103930,,0.3145808 F,0,103930,103967,1,0
Sprite,Foreground,Centre,"letters2\d.png",320,240 F,0,102280,102430,0,1 M,0,102280,104080,608.2065,253.2129,26.83871,253.2129 F,0,102430,104080,1 S,0,104080,,0.3145808 F,0,104080,104117,1,0
Sprite,Foreground,Centre,"letters2\a.png",320,240 F,0,102430,102580,0,1 M,0,102430,104230,608.2065,253.2129,26.83871,253.2129 F,0,102580,104230,1 S,0,104230,,0.3145808 F,0,104230,104267,1,0
Sprite,Foreground,Centre,"letters2\l.png",320,240 F,0,102580,102730,0,1 M,0,102580,104380,608.2065,253.2129,26.83871,253.2129 F,0,102730,104380,1 S,0,104380,,0.3145808 F,0,104380,104417,1,0
Sprite,Foreground,Centre,"letters2\s.png",320,240 F,0,102880,103030,0,1 M,0,102880,104680,608.2065,253.2129,26.83871,253.2129 F,0,103030,104680,1 S,0,104680,,0.3145808 F,0,104680,104717,1,0
Sprite,Foreground,Centre,"letters2\l.png",320,240 F,0,103180,103330,0,1 M,0,103180,104980,608.2065,253.2129,26.83871,253.2129 F,0,103330,104980,1 S,0,104980,,0.3145808 F,0,104980,105017,1,0
Sprite,Foreground,Centre,"letters2\y.png",320,240 F,0,103330,103480,0,1 M,0,103330,105130,608.2065,253.2129,26.83871,253.2129 F,0,103480,105130,1 S,0,105130,,0.3145808 F,0,105130,105167,1,0
Sprite,Foreground,Centre,"letters2\l.png",320,240 F,0,103480,103630,0,1 M,0,103480,105280,608.2065,253.2129,26.83871,253.2129 F,0,103630,105280,1 S,0,105280,,0.3145808 F,0,105280,105317,1,0
Sprite,Foreground,Centre,"letters2\y.png",320,240 F,0,103630,103780,0,1 M,0,103630,105430,608.2065,253.2129,26.83871,253.2129 F,0,103780,105430,1 S,0,105430,,0.3145808 F,0,105430,105467,1,0
Sprite,Foreground,Centre,"letters2\g.png",320,240 F,0,103930,104080,0,1 M,0,103930,105730,608.2065,253.2129,26.83871,253.2129 F,0,104080,105730,1 S,0,105730,,0.3145808 F,0,105730,105767,1,0
Sprite,Foreground,Centre,"letters2\u.png",320,240 F,0,104080,104230,0,1 M,0,104080,105880,608.2065,253.2129,26.83871,253.2129 F,0,104230,105880,1 S,0,105880,,0.3145808 F,0,105880,105917,1,0
Sprite,Foreground,Centre,"letters2\l.png",320,240 F,0,104230,104380,0,1 M,0,104230,106030,608.2065,253.2129,26.83871,253.2129 F,0,104380,106030,1 S,0,106030,,0.3145808 F,0,106030,106067,1,0
Sprite,Foreground,Centre,"letters2\p.png",320,240 F,0,104380,104530,0,1 M,0,104380,106180,608.2065,253.2129,26.83871,253.2129 F,0,104530,106180,1 S,0,106180,,0.3145808 F,0,106180,106217,1,0
Sprite,Foreground,Centre,"letters2\w.png",320,240 F,0,104680,104830,0,1 M,0,104680,106480,608.2065,253.2129,26.83871,253.2129 F,0,104830,106480,1 S,0,106480,,0.3145808 F,0,106480,106517,1,0
Sprite,Foreground,Centre,"letters2\e.png",320,240 F,0,104980,105130,0,1 M,0,104980,106780,608.2065,253.2129,26.83871,253.2129 F,0,105130,106780,1 S,0,106780,,0.3145808 F,0,106780,106817,1,0
Sprite,Foreground,Centre,"letters2\i.png",320,240 F,0,105130,105280,0,1 M,0,105130,106930,608.2065,253.2129,26.83871,253.2129 F,0,105280,106930,1 S,0,106930,,0.3145808 F,0,106930,106967,1,0
Sprite,Foreground,Centre,"letters2\r.png",320,240 F,0,105280,105430,0,1 M,0,105280,107080,608.2065,253.2129,26.83871,253.2129 F,0,105430,107080,1 S,0,107080,,0.3145808 F,0,107080,107117,1,0
Sprite,Foreground,Centre,"letters2\d.png",320,240 F,0,105430,105580,0,1 M,0,105430,107230,608.2065,253.2129,26.83871,253.2129 F,0,105580,107230,1 S,0,107230,,0.3145808 F,0,107230,107267,1,0
Sprite,Foreground,Centre,"letters2\o.png",320,240 F,0,105580,105730,0,1 M,0,105580,107380,608.2065,253.2129,26.83871,253.2129 F,0,105730,107380,1 S,0,107380,,0.3145808 F,0,107380,107417,1,0
Sprite,Foreground,Centre,"letters2\p.png",320,240 F,0,105880,106030,0,1 M,0,105880,107680,608.2065,253.2129,26.83871,253.2129 F,0,106030,107680,1 S,0,107680,,0.3145808 F,0,107680,107717,1,0
Sprite,Foreground,Centre,"letters2\r.png",320,240 F,0,106030,106180,0,1 M,0,106030,107830,608.2065,253.2129,26.83871,253.2129 F,0,106180,107830,1 S,0,107830,,0.3145808 F,0,107830,107867,1,0
Sprite,Foreground,Centre,"letters2\a.png",320,240 F,0,106180,106330,0,1 M,0,106180,107980,608.2065,253.2129,26.83871,253.2129 F,0,106330,107980,1 S,0,107980,,0.3145808 F,0,107980,108017,1,0
Sprite,Foreground,Centre,"letters2\i.png",320,240 F,0,106330,106480,0,1 M,0,106330,108130,608.2065,253.2129,26.83871,253.2129 F,0,106480,108130,1 S,0,108130,,0.3145808 F,0,108130,108167,1,0
Sprite,Foreground,Centre,"letters2\s.png",320,240 F,0,106480,106630,0,1 M,0,106480,108280,608.2065,253.2129,26.83871,253.2129 F,0,106630,108280,1 S,0,108280,,0.3145808 F,0,108280,108317,1,0
Sprite,Foreground,Centre,"letters2\e.png",320,240 F,0,106630,106780,0,1 M,0,106630,108430,608.2065,253.2129,26.83871,253.2129 F,0,106780,108430,1 S,0,108430,,0.3145808 F,0,108430,108467,1,0
Sprite,Foreground,Centre,"letters2\d.png",320,240 F,0,106930,107080,0,1 M,0,106930,108730,608.2065,253.2129,26.83871,253.2129 F,0,107080,108730,1 S,0,108730,,0.3145808 F,0,108730,108767,1,0
Sprite,Foreground,Centre,"letters2\i.png",320,240 F,0,107080,107230,0,1 M,0,107080,108880,608.2065,253.2129,26.83871,253.2129 F,0,107230,108880,1 S,0,108880,,0.3145808 F,0,108880,108917,1,0
Sprite,Foreground,Centre,"letters2\s.png",320,240 F,0,107230,107380,0,1 M,0,107230,109030,608.2065,253.2129,26.83871,253.2129 F,0,107380,109030,1 S,0,109030,,0.3145808 F,0,109030,109067,1,0
Sprite,Foreground,Centre,"letters2\h.png",320,240 F,0,107380,107530,0,1 M,0,107380,109180,608.2065,253.2129,26.83871,253.2129 F,0,107530,109180,1 S,0,109180,,0.3145808 F,0,109180,109217,1,0
Sprite,Foreground,Centre,"letters2\t.png",320,240 F,0,107530,107680,0,1 M,0,107530,109330,608.2065,253.2129,26.83871,253.2129 F,0,107680,109330,1 S,0,109330,,0.3145808 F,0,109330,109367,1,0
Sprite,Foreground,Centre,"letters2\o.png",320,240 F,0,107680,107830,0,1 M,0,107680,109480,608.2065,253.2129,26.83871,253.2129 F,0,107830,109480,1 S,0,109480,,0.3145808 F,0,109480,109517,1,0
Sprite,Foreground,Centre,"letters2\w.png",320,240 F,0,107830,107980,0,1 M,0,107830,109630,608.2065,253.2129,26.83871,253.2129 F,0,107980,109630,1 S,0,109630,,0.3145808 F,0,109630,109667,1,0
Sprite,Foreground,Centre,"letters2\e.png",320,240 F,0,107980,108130,0,1 M,0,107980,109780,608.2065,253.2129,26.83871,253.2129 F,0,108130,109780,1 S,0,109780,,0.3145808 F,0,109780,109817,1,0
Sprite,Foreground,Centre,"letters2\l.png",320,240 F,0,108280,108430,0,1 M,0,108280,110080,608.2065,253.2129,26.83871,253.2129 F,0,108430,110080,1 S,0,110080,,0.3145808 F,0,110080,110117,1,0
Sprite,Foreground,Centre,"letters2\p.png",320,240 F,0,108730,108880,0,1 M,0,108730,110530,608.2065,253.2129,26.83871,253.2129 F,0,108880,110530,1 S,0,110530,,0.3145808 F,0,110530,110567,1,0
Sprite,Foreground,Centre,"letters2\o.png",320,240 F,0,108880,109030,0,1 M,0,108880,110680,608.2065,253.2129,26.83871,253.2129 F,0,109030,110680,1 S,0,110680,,0.3145808 F,0,110680,110717,1,0
Sprite,Foreground,Centre,"letters2\w.png",320,240 F,0,109030,109180,0,1 M,0,109030,110830,608.2065,253.2129,26.83871,253.2129 F,0,109180,110830,1 S,0,110830,,0.3145808 F,0,110830,110867,1,0
Sprite,Foreground,Centre,"letters2\e.png",320,240 F,0,109180,109330,0,1 M,0,109180,110980,608.2065,253.2129,26.83871,253.2129 F,0,109330,110980,1 S,0,110980,,0.3145808 F,0,110980,111017,1,0
Sprite,Foreground,Centre,"letters2\r.png",320,240 F,0,109330,109480,0,1 M,0,109330,111130,608.2065,253.2129,26.83871,253.2129 F,0,109480,111130,1 S,0,111130,,0.3145808 F,0,111130,111167,1,0
Sprite,Foreground,Centre,"letters2\h.png",320,240 F,0,109480,109630,0,1 M,0,109480,111280,608.2065,253.2129,26.83871,253.2129 F,0,109630,111280,1 S,0,111280,,0.3145808 F,0,111280,111317,1,0
Sprite,Foreground,Centre,"letters2\o.png",320,240 F,0,109630,109780,0,1 M,0,109630,111430,608.2065,253.2129,26.83871,253.2129 F,0,109780,111430,1 S,0,111430,,0.3145808 F,0,111430,111467,1,0
Sprite,Foreground,Centre,"letters2\u.png",320,240 F,0,109780,109930,0,1 M,0,109780,111580,608.2065,253.2129,26.83871,253.2129 F,0,109930,111580,1 S,0,111580,,0.3145808 F,0,111580,111617,1,0
Sprite,Foreground,Centre,"letters2\s.png",320,240 F,0,109930,110080,0,1 M,0,109930,111730,608.2065,253.2129,26.83871,253.2129 F,0,110080,111730,1 S,0,111730,,0.3145808 F,0,111730,111767,1,0
Sprite,Foreground,Centre,"letters2\e.png",320,240 F,0,110080,110230,0,1 M,0,110080,111880,608.2065,253.2129,26.83871,253.2129 F,0,110230,111880,1 S,0,111880,,0.3145808 F,0,111880,111917,1,0
Sprite,Foreground,Centre,"letters2\a.png",320,240 F,0,110380,110530,0,1 M,0,110380,112180,608.2065,253.2129,26.83871,253.2129 F,0,110530,112180,1 S,0,112180,,0.3145808 F,0,112180,112217,1,0
Sprite,Foreground,Centre,"letters2\p.png",320,240 F,0,110780,110930,0,1 M,0,110780,112580,608.2065,253.2129,26.83871,253.2129 F,0,110930,112580,1 S,0,112580,,0.3145808 F,0,112580,112617,1,0
Sprite,Foreground,Centre,"letters2\t.png",320,240 F,0,110980,111130,0,1 M,0,110980,112780,608.2065,253.2129,26.83871,253.2129 F,0,111130,112780,1 S,0,112780,,0.3145808 F,0,112780,112817,1,0
Sprite,Foreground,Centre,"letters2\p.png",320,240 F,0,111430,111580,0,1 M,0,111430,113230,608.2065,253.2129,26.83871,253.2129 F,0,111580,113230,1 S,0,113230,,0.3145808 F,0,113230,113267,1,0
Sprite,Foreground,Centre,"letters2\a.png",320,240 F,0,111580,111730,0,1 M,0,111580,113380,608.2065,253.2129,26.83871,253.2129 F,0,111730,113380,1 S,0,113380,,0.3145808 F,0,113380,113417,1,0
Sprite,Foreground,Centre,"letters2\i.png",320,240 F,0,111730,111880,0,1 M,0,111730,113530,608.2065,253.2129,26.83871,253.2129 F,0,111880,113530,1 S,0,113530,,0.3145808 F,0,113530,113567,1,0
Sprite,Foreground,Centre,"letters2\l.png",320,240 F,0,111880,112030,0,1 M,0,111880,113680,608.2065,253.2129,26.83871,253.2129 F,0,112030,113680,1 S,0,113680,,0.3145808 F,0,113680,113717,1,0
Sprite,Foreground,Centre,"letters2\s.png",320,240 F,0,112180,112330,0,1 M,0,112180,113980,608.2065,253.2129,26.83871,253.2129 F,0,112330,113980,1 S,0,113980,,0.3145808 F,0,113980,114017,1,0
Sprite,Foreground,Centre,"letters2\p.png",320,240 F,0,112330,112480,0,1 M,0,112330,114130,608.2065,253.2129,26.83871,253.2129 F,0,112480,114130,1 S,0,114130,,0.3145808 F,0,114130,114167,1,0
Sprite,Foreground,Centre,"letters2\o.png",320,240 F,0,112480,112630,0,1 M,0,112480,114280,608.2065,253.2129,26.83871,253.2129 F,0,112630,114280,1 S,0,114280,,0.3145808 F,0,114280,114317,1,0
Sprite,Foreground,Centre,"letters2\r.png",320,240 F,0,112630,112780,0,1 M,0,112630,114430,608.2065,253.2129,26.83871,253.2129 F,0,112780,114430,1 S,0,114430,,0.3145808 F,0,114430,114467,1,0
Sprite,Foreground,Centre,"letters2\t.png",320,240 F,0,112780,112930,0,1 M,0,112780,114580,608.2065,253.2129,26.83871,253.2129 F,0,112930,114580,1 S,0,114580,,0.3145808 F,0,114580,114617,1,0
Sprite,Foreground,Centre,"letters2\f.png",320,240 F,0,113080,113230,0,1 M,0,113080,114880,608.2065,253.2129,26.83871,253.2129 F,0,113230,114880,1 S,0,114880,,0.3145808 F,0,114880,114917,1,0
Sprite,Foreground,Centre,"letters2\o.png",320,240 F,0,113305,113455,0,1 M,0,113305,115105,608.2065,253.2129,26.83871,253.2129 F,0,113455,115105,1 S,0,115105,,0.3145808 F,0,115105,115142,1,0
Sprite,Foreground,Centre,"letters2\r.png",320,240 F,0,113530,113680,0,1 M,0,113530,115330,608.2065,253.2129,26.83871,253.2129 F,0,113680,115330,1 S,0,115330,,0.3145808 F,0,115330,115367,1,0
Sprite,Foreground,Centre,"letters2\k.png",320,240 F,0,113680,113830,0,1 M,0,113680,115480,608.2065,253.2129,26.83871,253.2129 F,0,113830,115480,1 S,0,115480,,0.3145808 F,0,115480,115517,1,0
Sprite,Foreground,Centre,"letters2\l.png",320,240 F,0,113830,113980,0,1 M,0,113830,115630,608.2065,253.2129,26.83871,253.2129 F,0,113980,115630,1 S,0,115630,,0.3145808 F,0,115630,115667,1,0
Sprite,Foreground,Centre,"letters2\i.png",320,240 F,0,113980,114130,0,1 M,0,113980,115780,608.2065,253.2129,26.83871,253.2129 F,0,114130,115780,1 S,0,115780,,0.3145808 F,0,115780,115817,1,0
Sprite,Foreground,Centre,"letters2\f.png",320,240 F,0,114130,114280,0,1 M,0,114130,115930,608.2065,253.2129,26.83871,253.2129 F,0,114280,115930,1 S,0,115930,,0.3145808 F,0,115930,115967,1,0
Sprite,Foreground,Centre,"letters2\t.png",320,240 F,0,114280,114430,0,1 M,0,114280,116080,608.2065,253.2129,26.83871,253.2129 F,0,114430,116080,1 S,0,116080,,0.3145808 F,0,116080,116117,1,0
Sprite,Foreground,Centre,"letters2\l.png",320,240 F,0,114505,114655,0,1 M,0,114505,116305,608.2065,253.2129,26.83871,253.2129 F,0,114655,116305,1 S,0,116305,,0.3145808 F,0,116305,116342,1,0
Sprite,Foreground,Centre,"letters2\i.png",320,240 F,0,114730,114880,0,1 M,0,114730,116530,608.2065,253.2129,26.83871,253.2129 F,0,114880,116530,1 S,0,116530,,0.3145808 F,0,116530,116567,1,0
Sprite,Foreground,Centre,"letters2\l.png",320,240 F,0,114880,115030,0,1 M,0,114880,116680,608.2065,253.2129,26.83871,253.2129 F,0,115030,116680,1 S,0,116680,,0.3145808 F,0,116680,116717,1,0
Sprite,Foreground,Centre,"letters2\y.png",320,240 F,0,115030,115180,0,1 M,0,115030,116830,608.2065,253.2129,26.83871,253.2129 F,0,115180,116830,1 S,0,116830,,0.3145808 F,0,116830,116867,1,0
Sprite,Foreground,Centre,"letters2\k.png",320,240 F,0,115330,115480,0,1 M,0,115330,117130,608.2065,253.2129,26.83871,253.2129 F,0,115480,117130,1 S,0,117130,,0.3145808 F,0,117130,117167,1,0
Sprite,Foreground,Centre,"letters2\i.png",320,240 F,0,115480,115630,0,1 M,0,115480,117280,608.2065,253.2129,26.83871,253.2129 F,0,115630,117280,1 S,0,117280,,0.3145808 F,0,117280,117317,1,0
Sprite,Foreground,Centre,"letters2\l.png",320,240 F,0,115630,115780,0,1 M,0,115630,117430,608.2065,253.2129,26.83871,253.2129 F,0,115780,117430,1 S,0,117430,,0.3145808 F,0,117430,117467,1,0
Sprite,Foreground,Centre,"letters2\l.png",320,240 F,0,115780,115930,0,1 M,0,115780,117580,608.2065,253.2129,26.83871,253.2129 F,0,115930,117580,1 S,0,117580,,0.3145808 F,0,117580,117617,1,0
Sprite,Foreground,Centre,"letters2\l.png",320,240 F,0,116080,116230,0,1 M,0,116080,117880,608.2065,253.2129,26.83871,253.2129 F,0,116230,117880,1 S,0,117880,,0.3145808 F,0,117880,117917,1,0
Sprite,Foreground,Centre,"letters2\o.png",320,240 F,0,116305,116455,0,1 M,0,116305,118105,608.2065,253.2129,26.83871,253.2129 F,0,116455,118105,1 S,0,118105,,0.3145808 F,0,118105,118142,1,0
Sprite,Foreground,Centre,"letters2\p.png",320,240 F,0,116530,116680,0,1 M,0,116530,118330,608.2065,253.2129,26.83871,253.2129 F,0,116680,118330,1 S,0,118330,,0.3145808 F,0,118330,118367,1,0
Sprite,Foreground,Centre,"letters2\s.png",320,240 F,0,116830,116980,0,1 M,0,116830,118630,608.2065,253.2129,26.83871,253.2129 F,0,116980,118630,1 S,0,118630,,0.3145808 F,0,118630,118667,1,0
Sprite,Foreground,Centre,"letters2\t.png",320,240 F,0,116980,117130,0,1 M,0,116980,118780,608.2065,253.2129,26.83871,253.2129 F,0,117130,118780,1 S,0,118780,,0.3145808 F,0,118780,118817,1,0
Sprite,Foreground,Centre,"letters2\r.png",320,240 F,0,117130,117280,0,1 M,0,117130,118930,608.2065,253.2129,26.83871,253.2129 F,0,117280,118930,1 S,0,118930,,0.3145808 F,0,118930,118967,1,0
Sprite,Foreground,Centre,"letters2\e.png",320,240 F,0,117280,117430,0,1 M,0,117280,119080,608.2065,253.2129,26.83871,253.2129 F,0,117430,119080,1 S,0,119080,,0.3145808 F,0,119080,119117,1,0
Sprite,Foreground,Centre,"letters2\s.png",320,240 F,0,117430,117580,0,1 M,0,117430,119230,608.2065,253.2129,26.83871,253.2129 F,0,117580,119230,1 S,0,119230,,0.3145808 F,0,119230,119267,1,0
Sprite,Foreground,Centre,"letters2\s.png",320,240 F,0,117580,117730,0,1 M,0,117580,119380,608.2065,253.2129,26.83871,253.2129 F,0,117730,119380,1 S,0,119380,,0.3145808 F,0,119380,119417,1,0
Sprite,Foreground,Centre,"letters2\e.png",320,240 F,0,117730,117880,0,1 M,0,117730,119530,608.2065,253.2129,26.83871,253.2129 F,0,117880,119530,1 S,0,119530,,0.3145808 F,0,119530,119567,1,0
Sprite,Foreground,Centre,"letters2\d.png",320,240 F,0,117880,118030,0,1 M,0,117880,119680,608.2065,253.2129,26.83871,253.2129 F,0,118030,119680,1 S,0,119680,,0.3145808 F,0,119680,119717,1,0
Sprite,Foreground,Centre,"letters2\l.png",320,240 F,0,118105,118255,0,1 M,0,118105,119905,608.2065,253.2129,26.83871,253.2129 F,0,118255,119905,1 S,0,119905,,0.3145808 F,0,119905,119942,1,0
Sprite,Foreground,Centre,"letters2\u.png",320,240 F,0,118330,118480,0,1 M,0,118330,120130,608.2065,253.2129,26.83871,253.2129 F,0,118480,120130,1 S,0,120130,,0.3145808 F,0,120130,120167,1,0
Sprite,Foreground,Centre,"letters2\s.png",320,240 F,0,118630,118780,0,1 M,0,118630,120430,608.2065,253.2129,26.83871,253.2129 F,0,118780,120430,1 S,0,120430,,0.3145808 F,0,120430,120467,1,0
Sprite,Foreground,Centre,"letters2\t.png",320,240 F,0,118780,118930,0,1 M,0,118780,120580,608.2065,253.2129,26.83871,253.2129 F,0,118930,120580,1 S,0,120580,,0.3145808 F,0,120580,120617,1,0
Sprite,Foreground,Centre,"letters2\p.png",320,240 F,0,119080,119230,0,1 M,0,119080,120880,608.2065,253.2129,26.83871,253.2129 F,0,119230,120880,1 S,0,120880,,0.3145808 F,0,120880,120917,1,0
Sprite,Foreground,Centre,"letters2\o.png",320,240 F,0,119305,119455,0,1 M,0,119305,121105,608.2065,253.2129,26.83871,253.2129 F,0,119455,121105,1 S,0,121105,,0.3145808 F,0,121105,121142,1,0
Sprite,Foreground,Centre,"letters2\e.png",320,240 F,0,119530,119680,0,1 M,0,119530,121330,608.2065,253.2129,26.83871,253.2129 F,0,119680,121330,1 S,0,121330,,0.3145808 F,0,121330,121367,1,0
Sprite,Foreground,Centre,"letters2\t.png",320,240 F,0,119680,119830,0,1 M,0,119680,121480,608.2065,253.2129,26.83871,253.2129 F,0,119830,121480,1 S,0,121480,,0.3145808 F,0,121480,121517,1,0
Sprite,Foreground,Centre,"letters2\r.png",320,240 F,0,119905,120055,0,1 M,0,119905,121705,608.2065,253.2129,26.83871,253.2129 F,0,120055,121705,1 S,0,121705,,0.3145808 F,0,121705,121742,1,0
Sprite,Foreground,Centre,"letters2\y.png",320,240 F,0,120130,120280,0,1 M,0,120130,121930,608.2065,253.2129,26.83871,253.2129 F,0,120280,121930,1 S,0,121930,,0.3145808 F,0,121930,121967,1,0
Sprite,Foreground,Centre,"letters2\h.png",320,240 F,0,120280,120430,0,1 M,0,120280,122080,608.2065,253.2129,26.83871,253.2129 F,0,120430,122080,1 S,0,122080,,0.3145808 F,0,122080,122117,1,0
Sprite,Foreground,Centre,"letters2\a.png",320,240 F,0,120505,120655,0,1 M,0,120505,122305,608.2065,253.2129,26.83871,253.2129 F,0,120655,122305,1 S,0,122305,,0.3145808 F,0,122305,122342,1,0
Sprite,Foreground,Centre,"letters2\t.png",320,240 F,0,120730,120880,0,1 M,0,120730,122530,608.2065,253.2129,26.83871,253.2129 F,0,120880,122530,1 S,0,122530,,0.3145808 F,0,122530,122567,1,0
Sprite,Foreground,Centre,"letters2\r.png",320,240 F,0,120880,121030,0,1 M,0,120880,122680,608.2065,253.2129,26.83871,253.2129 F,0,121030,122680,1 S,0,122680,,0.3145808 F,0,122680,122717,1,0
Sprite,Foreground,Centre,"letters2\e.png",320,240 F,0,121105,121255,0,1 M,0,121105,122905,608.2065,253.2129,26.83871,253.2129 F,0,121255,122905,1 S,0,122905,,0.3145808 F,0,122905,122942,1,0
Sprite,Foreground,Centre,"letters2\d.png",320,240 F,0,121330,121480,0,1 M,0,121330,123130,608.2065,253.2129,26.83871,253.2129 F,0,121480,123130,1 S,0,123130,,0.3145808 F,0,123130,123167,1,0
Sprite,Foreground,Centre,"letters2\t.png",320,240 F,0,121480,121630,0,1 M,0,121480,123280,608.2065,253.2129,26.83871,253.2129 F,0,121630,123280,1 S,0,123280,,0.3145808 F,0,123280,123317,1,0
Sprite,Foreground,Centre,"letters2\e.png",320,240 F,0,121630,121780,0,1 M,0,121630,123430,608.2065,253.2129,26.83871,253.2129 F,0,121780,123430,1 S,0,123430,,0.3145808 F,0,123430,123467,1,0
Sprite,Foreground,Centre,"letters2\l.png",320,240 F,0,121780,121930,0,1 M,0,121780,123580,608.2065,253.2129,26.83871,253.2129 F,0,121930,123580,1 S,0,123580,,0.3145808 F,0,123580,123617,1,0
Sprite,Foreground,Centre,"letters2\l.png",320,240 F,0,121930,122080,0,1 M,0,121930,123730,608.2065,253.2129,26.83871,253.2129 F,0,122080,123730,1 S,0,123730,,0.3145808 F,0,123730,123767,1,0
Sprite,Foreground,Centre,"letters2\t.png",320,240 F,0,122080,122230,0,1 M,0,122080,123880,608.2065,253.2129,26.83871,253.2129 F,0,122230,123880,1 S,0,123880,,0.3145808 F,0,123880,123917,1,0
Sprite,Foreground,Centre,"letters2\a.png",320,240 F,0,122230,122380,0,1 M,0,122230,124030,608.2065,253.2129,26.83871,253.2129 F,0,122380,124030,1 S,0,124030,,0.3145808 F,0,124030,124067,1,0
Sprite,Foreground,Centre,"letters2\l.png",320,240 F,0,122380,122530,0,1 M,0,122380,124180,608.2065,253.2129,26.83871,253.2129 F,0,122530,124180,1 S,0,124180,,0.3145808 F,0,124180,124217,1,0
Sprite,Foreground,Centre,"letters2\e.png",320,240 F,0,122530,122680,0,1 M,0,122530,124330,608.2065,253.2129,26.83871,253.2129 F,0,122680,124330,1 S,0,124330,,0.3145808 F,0,124330,124367,1,0
//Storyboard Sound Samples

[TimingPoints]
4780,600,3,1,1,100,1,0
33580,600,4,1,1,100,1,0
35980,600,3,1,1,100,1,0
93580,600,4,1,1,100,1,0
95680,600,3,1,1,100,1,0

[HitObjects]
412,192,4780,5,0,0:3:0:0:
184,192,5080,1,0,0:3:0:0:
327,192,5230,1,0,0:3:0:0:
42,192,5530,1,0,0:3:0:0:
213,192,5830,1,0,0:3:0:0:
213,192,5980,1,0,0:3:0:0:
241,192,6130,1,0,0:3:0:0:
298,192,6280,1,0,0:3:0:0:
241,192,6580,1,0,0:3:0:0:
213,192,6880,1,0,0:3:0:0:
71,192,7030,1,0,0:3:0:0:
42,192,7330,1,0,0:3:0:0:
14,192,7630,1,0,0:3:0:0:
270,192,7780,1,0,0:3:0:0:
298,192,7930,1,0,0:3:0:0:
412,192,8080,1,0,0:3:0:0:
241,192,8380,1,0,0:3:0:0:
270,192,8680,1,0,0:3:0:0:
184,192,8830,1,0,0:3:0:0:
327,192,9130,1,0,0:3:0:0:
298,192,9430,1,0,0:3:0:0:
241,192,9580,1,0,0:3:0:0:
156,192,9730,1,0,0:3:0:0:
71,192,9880,1,0,0:3:0:0:
497,192,10180,1,0,0:3:0:0:
42,192,10480,1,0,0:3:0:0:
270,192,10630,1,0,0:3:0:0:
327,192,10780,1,0,0:3:0:0:
440,192,11080,1,0,0:3:0:0:
156,192,11230,1,0,0:3:0:0:
71,192,11380,1,0,0:3:0:0:
213,192,11530,1,0,0:3:0:0:
71,192,11680,1,0,0:3:0:0:
497,192,11980,1,0,0:3:0:0:
184,192,12280,1,0,0:3:0:0:
355,192,12430,1,0,0:3:0:0:
42,192,12730,1,0,0:3:0:0:
14,192,13030,1,0,0:3:0:0:
213,192,13180,1,0,0:3:0:0:
213,192,13330,1,0,0:3:0:0:
497,192,13480,1,0,0:3:0:0:
298,192,13780,1,0,0:3:0:0:
241,192,14080,1,0,0:3:0:0:
42,192,14230,1,0,0:3:0:0:
14,192,14530,1,0,0:3:0:0:
241,192,14830,1,0,0:3:0:0:
497,192,14980,1,0,0:3:0:0:
213,192,15130,1,0,0:3:0:0:
128,192,15280,1,0,0:3:0:0:
99,192,15580,1,0,0:3:0:0:
270,192,15880,1,0,0:3:0:0:
497,192,16030,1,0,0:3:0:0:
497,192,16330,1,0,0:3:0:0:
412,192,16630,1,0,0:3:0:0:
42,192,16780,1,0,0:3:0:0:
270,192,16930,1,0,0:3:0:0:
71,192,17080,1,0,0:3:0:0:
99,192,17230,1,0,0:3:0:0:
298,192,17380,1,0,0:3:0:0:
355,192,17680,1,0,0:3:0:0:
42,192,17830,1,0,0:3:0:0:
327,192,17980,1,0,0:3:0:0:
42,192,18280,1,0,0:3:0:0:
497,192,18430,1,0,0:3:0:0:
184,192,18580,1,0,0:3:0:0:
99,192,18730,1,0,0:3:0:0:
42,192,18880,1,0,0:3:0:0:
384,192,19180,1,0,0:3:0:0:
71,192,19330,1,0,0:3:0:0:
184,192,19480,1,0,0:3:0:0:
327,192,19630,1,0,0:3:0:0:
71,192,19930,1,0,0:3:0:0:
213,192,20230,1,0,0:3:0:0:
270,192,20380,1,0,0:3:0:0:
327,192,20680,1,0,0:3:0:0:
384,192,20980,1,0,0:3:0:0:
156,192,21130,1,0,0:3:0:0:
355,192,21280,1,0,0:3:0:0:
355,192,21430,1,0,0:3:0:0:
241,192,21730,1,0,0:3:0:0:
156,192,22030,1,0,0:3:0:0:
497,192,22180,1,0,0:3:0:0:
241,192,22480,1,0,0:3:0:0:
440,192,22780,1,0,0:3:0:0:
156,192,22930,1,0,0:3:0:0:
497,192,23080,1,0,0:3:0:0:
128,192,23230,1,0,0:3:0:0:
156,192,23530,1,0,0:3:0:0:
384,192,23830,1,0,0:3:0:0:
412,192,23980,1,0,0:3:0:0:
412,192,24280,1,0,0:3:0:0:
156,192,24430,1,0,0:3:0:0:
412,192,24580,1,0,0:3:0:0:
355,192,24880,1,0,0:3:0:0:
270,192,25030,1,0,0:3:0:0:
99,192,25180,1,0,0:3:0:0:
327,192,25480,1,0,0:3:0:0:
42,192,25630,1,0,0:3:0:0:
241,192,25780,1,0,0:3:0:0:
497,192,25930,1,0,0:3:0:0:
213,192,26080,1,0,0:3:0:0:
71,192,26230,1,0,0:3:0:0:
42,192,26380,1,0,0:3:0:0:
213,192,26680,1,0,0:3:0:0:
469,192,26830,1,0,0:3:0:0:
384,192,27130,1,0,0:3:0:0:
71,192,27280,1,0,0:3:0:0:
42,192,27430,1,0,0:3:0:0:
14,192,27580,1,0,0:3:0:0:
14,192,27880,1,0,0:3:0:0:
412,192,28180,1,0,0:3:0:0:
42,192,28480,1,0,0:3:0:0:
99,192,28630,1,0,0:3:0:0:
497,192,28930,1,0,0:3:0:0:
213,192,29080,1,0,0:3:0:0:
270,192,29230,1,0,0:3:0:0:
327,192,29380,1,0,0:3:0:0:
298,192,29680,1,0,0:3:0:0:
241,192,29980,1,0,0:3:0:0:
270,192,30280,1,0,0:3:0:0:
71,192,30430,1,0,0:3:0:0:
298,192,30730,1,0,0:3:0:0:
213,192,30880,1,0,0:3:0:0:
497,192,31030,1,0,0:3:0:0:
42,192,31180,1,0,0:3:0:0:
71,192,31480,1,0,0:3:0:0:
213,192,31780,1,0,0:3:0:0:
270,192,32080,1,0,0:3:0:0:
327,192,32230,1,0,0:3:0:0:
71,192,32530,1,0,0:3:0:0:
156,192,32680,1,0,0:3:0:0:
298,192,32830,1,0,0:3:0:0:
99,192,32980,1,0,0:3:0:0:
128,192,33280,1,0,0:3:0:0:
42,192,35980,1,0,0:3:0:0:
412,192,36130,1,0,0:3:0:0:
99,192,37780,1,0,0:3:0:0:
71,192,37930,1,0,0:3:0:0:
42,192,38230,1,0,0:3:0:0:
298,192,38680,1,0,0:3:0:0:
99,192,38980,1,0,0:3:0:0:
497,192,39280,1,0,0:3:0:0:
42,192,39580,1,0,0:3:0:0:
270,192,41080,1,0,0:3:0:0:
241,192,41230,1,0,0:3:0:0:
241,192,41380,1,0,0:3:0:0:
42,192,41830,1,0,0:3:0:0:
270,192,42280,1,0,0:3:0:0:
497,192,43180,1,0,0:3:0:0:
298,192,44680,1,0,0:3:0:0:
412,192,44830,1,0,0:3:0:0:
213,192,45130,1,0,0:3:0:0:
270,192,45280,1,0,0:3:0:0:
497,192,45430,1,0,0:3:0:0:
99,192,45730,1,0,0:3:0:0:
42,192,46030,1,0,0:3:0:0:
497,192,46330,1,0,0:3:0:0:
497,192,46630,1,0,0:3:0:0:
241,192,46930,1,0,0:3:0:0:
42,192,47080,1,0,0:3:0:0:
71,192,47230,1,0,0:3:0:0:
241,192,48280,1,0,0:3:0:0:
213,192,48430,1,0,0:3:0:0:
298,192,48580,1,0,0:3:0:0:
99,192,49030,1,0,0:3:0:0:
412,192,50080,1,0,0:3:0:0:
156,192,50230,1,0,0:3:0:0:
412,192,50380,5,0,0:3:0:0:
355,192,50680,1,0,0:3:0:0:
497,192,50830,1,0,0:3:0:0:
270,192,50980,1,0,0:3:0:0:
241,192,51130,1,0,0:3:0:0:
156,192,51430,1,0,0:3:0:0:
298,192,51730,1,0,0:3:0:0:
270,192,51880,1,0,0:3:0:0:
384,192,52030,1,0,0:3:0:0:
42,192,52180,1,0,0:3:0:0:
71,192,52480,1,0,0:3:0:0:
270,192,52630,1,0,0:3:0:0:
469,192,52780,1,0,0:3:0:0:
42,192,52930,1,0,0:3:0:0:
327,192,53230,1,0,0:3:0:0:
71,192,53530,1,0,0:3:0:0:
270,192,53680,1,0,0:3:0:0:
355,192,53830,1,0,0:3:0:0:
99,192,53980,1,0,0:3:0:0:
99,192,54280,1,0,0:3:0:0:
213,192,54430,1,0,0:3:0:0:
71,192,54580,1,0,0:3:0:0:
99,192,54730,1,0,0:3:0:0:
241,192,55030,1,0,0:3:0:0:
156,192,55330,1,0,0:3:0:0:
99,192,55480,1,0,0:3:0:0:
99,192,55630,1,0,0:3:0:0:
128,192,55780,1,0,0:3:0:0:
497,192,56080,1,0,0:3:0:0:
184,192,56230,1,0,0:3:0:0:
241,192,56380,1,0,0:3:0:0:
298,192,56680,1,0,0:3:0:0:
42,192,56830,1,0,0:3:0:0:
270,192,56980,1,0,0:3:0:0:
497,192,57130,1,0,0:3:0:0:
42,192,57280,1,0,0:3:0:0:
327,192,57580,1,0,0:3:0:0:
327,192,58030,1,0,0:3:0:0:
42,192,58180,1,0,0:3:0:0:
355,192,58330,1,0,0:3:0:0:
42,192,58480,1,0,0:3:0:0:
71,192,58630,1,0,0:3:0:0:
298,192,58930,1,0,0:3:0:0:
213,192,59080,1,0,0:3:0:0:
156,192,59230,1,0,0:3:0:0:
497,192,59380,1,0,0:3:0:0:
14,192,59680,1,0,0:3:0:0:
213,192,59830,1,0,0:3:0:0:
71,192,59980,1,0,0:3:0:0:
42,192,60130,1,0,0:3:0:0:
355,192,60430,1,0,0:3:0:0:
42,192,60730,1,0,0:3:0:0:
99,192,60880,1,0,0:3:0:0:
270,192,61030,1,0,0:3:0:0:
497,192,61180,1,0,0:3:0:0:
440,192,61480,1,0,0:3:0:0:
270,192,61630,1,0,0:3:0:0:
184,192,61780,1,0,0:3:0:0:
497,192,61930,1,0,0:3:0:0:
497,192,62230,1,0,0:3:0:0:
270,192,62530,1,0,0:3:0:0:
71,192,62680,1,0,0:3:0:0:
384,192,62830,1,0,0:3:0:0:
42,192,62980,1,0,0:3:0:0:
99,192,63280,1,0,0:3:0:0:
14,192,63430,1,0,0:3:0:0:
184,192,63580,1,0,0:3:0:0:
384,192,63730,1,0,0:3:0:0:
355,192,64030,1,0,0:3:0:0:
497,192,64330,1,0,0:3:0:0:
270,192,64480,1,0,0:3:0:0:
298,192,64630,1,0,0:3:0:0:
412,192,64780,5,0,0:3:0:0:
128,192,64930,1,0,0:3:0:0:
384,192,65230,1,0,0:3:0:0:
156,192,65380,1,0,0:3:0:0:
270,192,65530,1,0,0:3:0:0:
71,192,65680,1,0,0:3:0:0:
327,192,65830,1,0,0:3:0:0:
42,192,65980,1,0,0:3:0:0:
327,192,66130,1,0,0:3:0:0:
497,192,66280,1,0,0:3:0:0:
128,192,66430,1,0,0:3:0:0:
327,192,66730,1,0,0:3:0:0:
71,192,66880,1,0,0:3:0:0:
270,192,67030,1,0,0:3:0:0:
355,192,67330,1,0,0:3:0:0:
99,192,67630,1,0,0:3:0:0:
384,192,68080,1,0,0:3:0:0:
270,192,68230,1,0,0:3:0:0:
241,192,68380,1,0,0:3:0:0:
327,192,68680,1,0,0:3:0:0:
42,192,68830,1,0,0:3:0:0:
270,192,69130,1,0,0:3:0:0:
497,192,69430,1,0,0:3:0:0:
497,192,69730,1,0,0:3:0:0:
213,192,69880,1,0,0:3:0:0:
99,192,70030,1,0,0:3:0:0:
355,192,70330,1,0,0:3:0:0:
270,192,70480,1,0,0:3:0:0:
184,192,70630,1,0,0:3:0:0:
99,192,70780,1,0,0:3:0:0:
412,192,70930,1,0,0:3:0:0:
355,192,71080,1,0,0:3:0:0:
156,192,71230,1,0,0:3:0:0:
497,192,71380,1,0,0:3:0:0:
497,192,71530,1,0,0:3:0:0:
128,192,71680,1,0,0:3:0:0:
71,192,71980,1,0,0:3:0:0:
42,192,72430,1,0,0:3:0:0:
298,192,72880,1,0,0:3:0:0:
213,192,73180,1,0,0:3:0:0:
497,192,73405,1,0,0:3:0:0:
156,192,73630,1,0,0:3:0:0:
99,192,73780,1,0,0:3:0:0:
42,192,73930,1,0,0:3:0:0:
42,192,74230,1,0,0:3:0:0:
270,192,74530,1,0,0:3:0:0:
298,192,74680,1,0,0:3:0:0:
184,192,74980,1,0,0:3:0:0:
497,192,75280,1,0,0:3:0:0:
128,192,75580,1,0,0:3:0:0:
71,192,76030,1,0,0:3:0:0:
156,192,76480,1,0,0:3:0:0:
298,192,76780,1,0,0:3:0:0:
412,192,77080,1,0,0:3:0:0:
14,192,77380,1,0,0:3:0:0:
42,192,77530,1,0,0:3:0:0:
270,192,77680,1,0,0:3:0:0:
99,192,77980,1,0,0:3:0:0:
412,192,78130,1,0,0:3:0:0:
42,192,78430,1,0,0:3:0:0:
71,192,78580,1,0,0:3:0:0:
71,192,78880,1,0,0:3:0:0:
270,192,79030,1,0,0:3:0:0:
327,192,79180,1,0,0:3:0:0:
184,192,79330,1,0,0:3:0:0:
213,192,79480,1,0,0:3:0:0:
497,192,79630,1,0,0:3:0:0:
213,192,79780,1,0,0:3:0:0:
384,192,79930,1,0,0:3:0:0:
128,192,80080,1,0,0:3:0:0:
440,192,80380,1,0,0:3:0:0:
42,192,80530,1,0,0:3:0:0:
99,192,80680,1,0,0:3:0:0:
71,192,80980,1,0,0:3:0:0:
42,192,81130,1,0,0:3:0:0:
241,192,81280,1,0,0:3:0:0:
42,192,81430,1,0,0:3:0:0:
270,192,81580,1,0,0:3:0:0:
99,192,81730,1,0,0:3:0:0:
42,192,81880,1,0,0:3:0:0:
327,192,82030,1,0,0:3:0:0:
71,192,82330,1,0,0:3:0:0:
184,192,82480,1,0,0:3:0:0:
384,192,82630,1,0,0:3:0:0:
412,192,83230,1,0,0:3:0:0:
270,192,83380,1,0,0:3:0:0:
184,192,83530,1,0,0:3:0:0:
71,192,83680,1,0,0:3:0:0:
298,192,83830,1,0,0:3:0:0:
99,192,83980,1,0,0:3:0:0:
128,192,84130,1,0,0:3:0:0:
497,192,84280,1,0,0:3:0:0:
184,192,84430,1,0,0:3:0:0:
298,192,84580,1,0,0:3:0:0:
99,192,84730,1,0,0:3:0:0:
355,192,85030,1,0,0:3:0:0:
440,192,85180,1,0,0:3:0:0:
213,192,85330,1,0,0:3:0:0:
71,192,85480,1,0,0:3:0:0:
327,192,85630,1,0,0:3:0:0:
412,192,85930,1,0,0:3:0:0:
213,192,86080,1,0,0:3:0:0:
213,192,86230,1,0,0:3:0:0:
327,192,86380,1,0,0:3:0:0:
99,192,86680,1,0,0:3:0:0:
213,192,87280,1,0,0:3:0:0:
99,192,87580,1,0,0:3:0:0:
270,192,87880,1,0,0:3:0:0:
497,192,88180,1,0,0:3:0:0:
184,192,88480,1,0,0:3:0:0:
71,192,88630,1,0,0:3:0:0:
270,192,88780,1,0,0:3:0:0:
298,192,89080,1,0,0:3:0:0:
241,192,89230,1,0,0:3:0:0:
42,192,89380,1,0,0:3:0:0:
270,192,89530,1,0,0:3:0:0:
71,192,89680,1,0,0:3:0:0:
99,192,89980,1,0,0:3:0:0:
270,192,90280,1,0,0:3:0:0:
497,192,90430,1,0,0:3:0:0:
469,192,90580,1,0,0:3:0:0:
384,192,90880,1,0,0:3:0:0:
71,192,91030,1,0,0:3:0:0:
213,192,91180,1,0,0:3:0:0:
241,192,91330,1,0,0:3:0:0:
42,192,91480,1,0,0:3:0:0:
99,192,91780,1,0,0:3:0:0:
270,192,92080,1,0,0:3:0:0:
327,192,92230,1,0,0:3:0:0:
497,192,92530,1,0,0:3:0:0:
270,192,92680,1,0,0:3:0:0:
71,192,92830,1,0,0:3:0:0:
384,192,92980,1,0,0:3:0:0:
42,192,93280,1,0,0:3:0:0:
298,192,95680,1,0,0:3:0:0:
412,192,96130,1,0,0:3:0:0:
42,192,96280,1,0,0:3:0:0:
270,192,96430,1,0,0:3:0:0:
99,192,96580,1,0,0:3:0:0:
412,192,96730,1,0,0:3:0:0:
355,192,97030,1,0,0:3:0:0:
71,192,97180,1,0,0:3:0:0:
42,192,97480,1,0,0:3:0:0:
42,192,97780,1,0,0:3:0:0:
327,192,98080,1,0,0:3:0:0:
184,192,98230,1,0,0:3:0:0:
71,192,98380,1,0,0:3:0:0:
42,192,98530,1,0,0:3:0:0:
270,192,98830,1,0,0:3:0:0:
298,192,98980,1,0,0:3:0:0:
270,192,99130,1,0,0:3:0:0:
241,192,99280,1,0,0:3:0:0:
213,192,99730,1,0,0:3:0:0:
355,192,99880,1,0,0:3:0:0:
355,192,100030,1,0,0:3:0:0:
298,192,100180,1,0,0:3:0:0:
99,192,100330,1,0,0:3:0:0:
270,192,100480,1,0,0:3:0:0:
384,192,100630,1,0,0:3:0:0:
42,192,100780,1,0,0:3:0:0:
327,192,101080,1,0,0:3:0:0:
14,192,101380,1,0,0:3:0:0:
42,192,101530,1,0,0:3:0:0:
497,192,101680,1,0,0:3:0:0:
497,192,101830,1,0,0:3:0:0:
298,192,102130,1,0,0:3:0:0:
412,192,102280,1,0,0:3:0:0:
270,192,102580,1,0,0:3:0:0:
497,192,102730,1,0,0:3:0:0:
497,192,102880,1,0,0:3:0:0:
497,192,103180,1,0,0:3:0:0:
184,192,103330,1,0,0:3:0:0:
241,192,103480,1,0,0:3:0:0:
241,192,103780,1,0,0:3:0:0:
42,192,103930,1,0,0:3:0:0:
327,192,104080,1,0,0:3:0:0:
270,192,104230,1,0,0:3:0:0:
497,192,104380,1,0,0:3:0:0:
298,192,104680,1,0,0:3:0:0:
497,192,104980,1,0,0:3:0:0:
128,192,105130,1,0,0:3:0:0:
497,192,105280,1,0,0:3:0:0:
128,192,105430,1,0,0:3:0:0:
384,192,105730,1,0,0:3:0:0:
156,192,105880,1,0,0:3:0:0:
497,192,106030,1,0,0:3:0:0:
241,192,106180,1,0,0:3:0:0:
14,192,106480,1,0,0:3:0:0:
42,192,106780,1,0,0:3:0:0:
184,192,106930,1,0,0:3:0:0:
71,192,107080,1,0,0:3:0:0:
327,192,107230,1,0,0:3:0:0:
213,192,107380,1,0,0:3:0:0:
241,192,107680,1,0,0:3:0:0:
71,192,107830,1,0,0:3:0:0:
270,192,107980,1,0,0:3:0:0:
184,192,108130,1,0,0:3:0:0:
298,192,108280,1,0,0:3:0:0:
42,192,108430,1,0,0:3:0:0:
327,192,108730,1,0,0:3:0:0:
184,192,108880,1,0,0:3:0:0:
298,192,109030,1,0,0:3:0:0:
412,192,109180,1,0,0:3:0:0:
99,192,109330,1,0,0:3:0:0:
213,192,109480,1,0,0:3:0:0:
14,192,109630,1,0,0:3:0:0:
42,192,109780,1,0,0:3:0:0:
497,192,110080,1,0,0:3:0:0:
241,192,110530,1,0,0:3:0:0:
213,192,110680,1,0,0:3:0:0:
14,192,110830,1,0,0:3:0:0:
42,192,110980,1,0,0:3:0:0:
71,192,111130,1,0,0:3:0:0:
412,192,111280,1,0,0:3:0:0:
213,192,111430,1,0,0:3:0:0:
156,192,111580,1,0,0:3:0:0:
298,192,111730,1,0,0:3:0:0:
42,192,111880,1,0,0:3:0:0:
270,192,112180,1,0,0:3:0:0:
241,192,112580,1,0,0:3:0:0:
99,192,112780,1,0,0:3:0:0:
241,192,113230,1,0,0:3:0:0:
270,192,113380,1,0,0:3:0:0:
184,192,113530,1,0,0:3:0:0:
497,192,113680,1,0,0:3:0:0:
298,192,113980,1,0,0:3:0:0:
241,192,114130,1,0,0:3:0:0:
213,192,114280,1,0,0:3:0:0:
71,192,114430,1,0,0:3:0:0:
99,192,114580,1,0,0:3:0:0:
355,192,114880,1,0,0:3:0:0:
213,192,115105,1,0,0:3:0:0:
71,192,115330,1,0,0:3:0:0:
469,192,115480,1,0,0:3:0:0:
497,192,115630,1,0,0:3:0:0:
184,192,115780,1,0,0:3:0:0:
355,192,115930,1,0,0:3:0:0:
99,192,116080,1,0,0:3:0:0:
497,192,116305,1,0,0:3:0:0:
184,192,116530,1,0,0:3:0:0:
497,192,116680,1,0,0:3:0:0:
128,192,116830,1,0,0:3:0:0:
469,192,117130,1,0,0:3:0:0:
184,192,117280,1,0,0:3:0:0:
497,192,117430,1,0,0:3:0:0:
497,192,117580,1,0,0:3:0:0:
497,192,117880,1,0,0:3:0:0:
213,192,118105,1,0,0:3:0:0:
241,192,118330,1,0,0:3:0:0:
298,192,118630,1,0,0:3:0:0:
99,192,118780,1,0,0:3:0:0:
71,192,118930,1,0,0:3:0:0:
42,192,119080,1,0,0:3:0:0:
298,192,119230,1,0,0:3:0:0:
298,192,119380,1,0,0:3:0:0:
42,192,119530,1,0,0:3:0:0:
327,192,119680,1,0,0:3:0:0:
497,192,119905,1,0,0:3:0:0:
156,192,120130,1,0,0:3:0:0:
298,192,120430,1,0,0:3:0:0:
99,192,120580,1,0,0:3:0:0:
241,192,120880,1,0,0:3:0:0:
213,192,121105,1,0,0:3:0:0:
42,192,121330,1,0,0:3:0:0:
99,192,121480,1,0,0:3:0:0:
71,192,121705,1,0,0:3:0:0:
128,192,121930,1,0,0:3:0:0:
412,192,122080,1,0,0:3:0:0:
270,192,122305,1,0,0:3:0:0:
99,192,122530,1,0,0:3:0:0:
71,192,122680,1,0,0:3:0:0:
42,192,122905,1,0,0:3:0:0:
327,192,123130,1,0,0:3:0:0:
99,192,123280,1,0,0:3:0:0:
42,192,123430,1,0,0:3:0:0:
497,192,123580,1,0,0:3:0:0:
497,192,123730,1,0,0:3:0:0:
99,192,123880,1,0,0:3:0:0:
270,192,124030,1,0,0:3:0:0:
497,192,124180,1,0,0:3:0:0:
42,192,124330,1,0,0:3:0:0:
