osu file format v14

[General]
AudioFilename: audio.mp3
AudioLeadIn: 0
PreviewTime: 4780
Countdown: 0
SampleSet: None
StackLeniency: 0.7
Mode: 3
LetterboxInBreaks: 0
SkinPreference:osu!typing
SpecialStyle: 0
WidescreenStoryboard: 1

[Editor]
Bookmarks: 4780,7180,8980,10780,12580,14380,16180,17980,20680,22780,24280,26380,27880,29980,31480,32980,35980,41380,44680,48580,50380,52180,53980,55780,57580,59380,60880,62980,64780,66880,68380,70180,72430,73780,75580,77380,79180,80380,82180,83380,85180,86080,87880,89980,91480,92980,95680,97180,99880,101530,103480,105280,107080,109180,110680,112780,114880,116680,117880,120280,121480,122980
DistanceSpacing: 1
BeatDivisor: 2
GridSize: 4
TimelineZoom: 0.4

[Metadata]
Title:memoryfactory.lzh
TitleUnicode:memoryfactory.lzh
Artist:Frums
ArtistUnicode:Frums
Creator:Nivrad00
Version:Guise
Source:
Tags:arcaea
BeatmapID:1299182
BeatmapSetID:615959

[Difficulty]
HPDrainRate:5
CircleSize:18
OverallDifficulty:5
ApproachRate:5
SliderMultiplier:1.4
SliderTickRate:1

[Events]
//Background and Video events
0,0,"memoryfactory.png",0,0
//Break Periods
//Storyboard Layer 0 (Background)
//Storyboard Layer 1 (Fail)
//Storyboard Layer 2 (Pass)
//Storyboard Layer 3 (Foreground)
Sprite,Foreground,Centre,"Plain-Black-Wallpaper.jpg",320,240 F,0,-20,1180,0,0.4996129 F,0,1180,124480,0.4996129 M,0,1780,,318.3484,240 S,0,1780,,0.876129 F,0,124480,125661,0.4996129
Sprite,Foreground,Centre,"bar.png",320,240 F,0,-20,1180,0,0.8 F,0,1180,124480,0.8 M,0,3077,,320,163.2001 V,0,3077,,4.592258,0.2815485 F,0,124480,125680,0.8,0
Sprite,Foreground,Centre,"track.png",320,240 F,0,-20,1180,0,1 F,0,1180,124480,1 M,0,2428,,320,253.2129 S,0,2428,,0.6118707 F,0,3077,124480,1 F,0,124480,125680,1,0.07692308
Sprite,Foreground,Centre,"letters2\t.png",320,240 F,0,1180,1330,0,1 M,0,1180,4780,608.2065,253.2129,26.83871,253.2129 F,0,1330,4780,1 S,0,4780,,0.3145808 F,0,4780,4817,1,0
Sprite,Foreground,Centre,"letters2\e.png",320,240 F,0,1780,1930,0,1 M,0,1780,5380,608.2065,253.2129,26.83871,253.2129 F,0,1930,5380,1 S,0,5380,,0.3145808 F,0,5380,5417,1,0
Sprite,Foreground,Centre,"letters2\s.png",320,240 F,0,2380,2530,0,1 M,0,2380,5980,608.2065,253.2129,26.83871,253.2129 F,0,2530,5980,1 S,0,5980,,0.3145808 F,0,5980,6017,1,0
Sprite,Foreground,Centre,"letters2\t.png",320,240 F,0,2680,2830,0,1 M,0,2680,6280,608.2065,253.2129,26.83871,253.2129 F,0,2830,6280,1 S,0,6280,,0.3145808 F,0,6280,6317,1,0
Sprite,Foreground,Centre,"letters2\y.png",320,240 F,0,2980,3130,0,1 M,0,2980,6580,608.2065,253.2129,26.83871,253.2129 F,0,3130,6580,1 S,0,6580,,0.3145808 F,0,6580,6617,1,0
Sprite,Foreground,Centre,"letters2\l.png",320,240 F,0,3580,3730,0,1 M,0,3580,7180,608.2065,253.2129,26.83871,253.2129 F,0,3730,7180,1 S,0,7180,,0.3145808 F,0,7180,7217,1,0
Sprite,Foreground,Centre,"letters2\o.png",320,240 F,0,4180,4330,0,1 M,0,4180,7780,608.2065,253.2129,26.83871,253.2129 F,0,4330,7780,1 S,0,7780,,0.3145808 F,0,7780,7817,1,0
Sprite,Foreground,Centre,"letters2\s.png",320,240 F,0,4480,4630,0,1 M,0,4480,8080,608.2065,253.2129,26.83871,253.2129 F,0,4630,8080,1 S,0,8080,,0.3145808 F,0,8080,8117,1,0
Sprite,Foreground,Centre,"letters2\t.png",320,240 F,0,4780,4930,0,1 M,0,4780,8380,608.2065,253.2129,26.83871,253.2129 F,0,4930,8380,1 S,0,8380,,0.3145808 F,0,8380,8417,1,0
Sprite,Foreground,Centre,"letters2\t.png",320,240 F,0,5380,5530,0,1 M,0,5380,8980,608.2065,253.2129,26.83871,253.2129 F,0,5530,8980,1 S,0,8980,,0.3145808 F,0,8980,9017,1,0
Sprite,Foreground,Centre,"letters2\i.png",320,240 F,0,5980,6130,0,1 M,0,5980,9580,608.2065,253.2129,26.83871,253.2129 F,0,6130,9580,1 S,0,9580,,0.3145808 F,0,9580,9617,1,0
Sprite,Foreground,Centre,"letters2\l.png",320,240 F,0,6280,6430,0,1 M,0,6280,9880,608.2065,253.2129,26.83871,253.2129 F,0,6430,9880,1 S,0,9880,,0.3145808 F,0,9880,9917,1,0
Sprite,Foreground,Centre,"letters2\t.png",320,240 F,0,6580,6730,0,1 M,0,6580,10180,608.2065,253.2129,26.83871,253.2129 F,0,6730,10180,1 S,0,10180,,0.3145808 F,0,10180,10217,1,0
Sprite,Foreground,Centre,"letters2\e.png",320,240 F,0,7180,7330,0,1 M,0,7180,10780,608.2065,253.2129,26.83871,253.2129 F,0,7330,10780,1 S,0,10780,,0.3145808 F,0,10780,10817,1,0
Sprite,Foreground,Centre,"letters2\t.png",320,240 F,0,7480,7630,0,1 M,0,7480,11080,608.2065,253.2129,26.83871,253.2129 F,0,7630,11080,1 S,0,11080,,0.3145808 F,0,11080,11117,1,0
Sprite,Foreground,Centre,"letters2\h.png",320,240 F,0,7780,7930,0,1 M,0,7780,11380,608.2065,253.2129,26.83871,253.2129 F,0,7930,11380,1 S,0,11380,,0.3145808 F,0,11380,11417,1,0
Sprite,Foreground,Centre,"letters2\e.png",320,240 F,0,8080,8230,0,1 M,0,8080,11680,608.2065,253.2129,26.83871,253.2129 F,0,8230,11680,1 S,0,11680,,0.3145808 F,0,11680,11717,1,0
Sprite,Foreground,Centre,"letters2\r.png",320,240 F,0,8380,8530,0,1 M,0,8380,11980,608.2065,253.2129,26.83871,253.2129 F,0,8530,11980,1 S,0,11980,,0.3145808 F,0,11980,12017,1,0
Sprite,Foreground,Centre,"letters2\g.png",320,240 F,0,8980,9130,0,1 M,0,8980,12580,608.2065,253.2129,26.83871,253.2129 F,0,9130,12580,1 S,0,12580,,0.3145808 F,0,12580,12617,1,0
Sprite,Foreground,Centre,"letters2\e.png",320,240 F,0,9580,9730,0,1 M,0,9580,13180,608.2065,253.2129,26.83871,253.2129 F,0,9730,13180,1 S,0,13180,,0.3145808 F,0,13180,13217,1,0
Sprite,Foreground,Centre,"letters2\e.png",320,240 F,0,9880,10030,0,1 M,0,9880,13480,608.2065,253.2129,26.83871,253.2129 F,0,10030,13480,1 S,0,13480,,0.3145808 F,0,13480,13517,1,0
Sprite,Foreground,Centre,"letters2\k.png",320,240 F,0,10180,10330,0,1 M,0,10180,13780,608.2065,253.2129,26.83871,253.2129 F,0,10330,13780,1 S,0,13780,,0.3145808 F,0,13780,13817,1,0
Sprite,Foreground,Centre,"letters2\f.png",320,240 F,0,10780,10930,0,1 M,0,10780,14380,608.2065,253.2129,26.83871,253.2129 F,0,10930,14380,1 S,0,14380,,0.3145808 F,0,14380,14417,1,0
Sprite,Foreground,Centre,"letters2\a.png",320,240 F,0,11380,11530,0,1 M,0,11380,14980,608.2065,253.2129,26.83871,253.2129 F,0,11530,14980,1 S,0,14980,,0.3145808 F,0,14980,15017,1,0
Sprite,Foreground,Centre,"letters2\t.png",320,240 F,0,11680,11830,0,1 M,0,11680,15280,608.2065,253.2129,26.83871,253.2129 F,0,11830,15280,1 S,0,15280,,0.3145808 F,0,15280,15317,1,0
Sprite,Foreground,Centre,"letters2\e.png",320,240 F,0,11980,12130,0,1 M,0,11980,15580,608.2065,253.2129,26.83871,253.2129 F,0,12130,15580,1 S,0,15580,,0.3145808 F,0,15580,15617,1,0
Sprite,Foreground,Centre,"letters2\r.png",320,240 F,0,12580,12730,0,1 M,0,12580,16180,608.2065,253.2129,26.83871,253.2129 F,0,12730,16180,1 S,0,16180,,0.3145808 F,0,16180,16217,1,0
Sprite,Foreground,Centre,"letters2\a.png",320,240 F,0,13180,13330,0,1 M,0,13180,16780,608.2065,253.2129,26.83871,253.2129 F,0,13330,16780,1 S,0,16780,,0.3145808 F,0,16780,16817,1,0
Sprite,Foreground,Centre,"letters2\s.png",320,240 F,0,13480,13630,0,1 M,0,13480,17080,608.2065,253.2129,26.83871,253.2129 F,0,13630,17080,1 S,0,17080,,0.3145808 F,0,17080,17117,1,0
Sprite,Foreground,Centre,"letters2\h.png",320,240 F,0,13780,13930,0,1 M,0,13780,17380,608.2065,253.2129,26.83871,253.2129 F,0,13930,17380,1 S,0,17380,,0.3145808 F,0,17380,17417,1,0
Sprite,Foreground,Centre,"letters2\s.png",320,240 F,0,14380,14530,0,1 M,0,14380,17980,608.2065,253.2129,26.83871,253.2129 F,0,14530,17980,1 S,0,17980,,0.3145808 F,0,17980,18017,1,0
Sprite,Foreground,Centre,"letters2\a.png",320,240 F,0,14680,14830,0,1 M,0,14680,18280,608.2065,253.2129,26.83871,253.2129 F,0,14830,18280,1 S,0,18280,,0.3145808 F,0,18280,18317,1,0
Sprite,Foreground,Centre,"letters2\t.png",320,240 F,0,14980,15130,0,1 M,0,14980,18580,608.2065,253.2129,26.83871,253.2129 F,0,15130,18580,1 S,0,18580,,0.3145808 F,0,18580,18617,1,0
Sprite,Foreground,Centre,"letters2\u.png",320,240 F,0,15280,15430,0,1 M,0,15280,18880,608.2065,253.2129,26.83871,253.2129 F,0,15430,18880,1 S,0,18880,,0.3145808 F,0,18880,18917,1,0
Sprite,Foreground,Centre,"letters2\r.png",320,240 F,0,15580,15730,0,1 M,0,15580,19180,608.2065,253.2129,26.83871,253.2129 F,0,15730,19180,1 S,0,19180,,0.3145808 F,0,19180,19217,1,0
Sprite,Foreground,Centre,"letters2\d.png",320,240 F,0,15880,16030,0,1 M,0,15880,19480,608.2065,253.2129,26.83871,253.2129 F,0,16030,19480,1 S,0,19480,,0.3145808 F,0,19480,19517,1,0
Sprite,Foreground,Centre,"letters2\a.png",320,240 F,0,16180,16330,0,1 M,0,16180,19780,608.2065,253.2129,26.83871,253.2129 F,0,16330,19780,1 S,0,19780,,0.3145808 F,0,19780,19817,1,0
Sprite,Foreground,Centre,"letters2\y.png",320,240 F,0,16480,16630,0,1 M,0,16480,20080,608.2065,253.2129,26.83871,253.2129 F,0,16630,20080,1 S,0,20080,,0.3145808 F,0,20080,20117,1,0
Sprite,Foreground,Centre,"letters2\a.png",320,240 F,0,17080,17230,0,1 M,0,17080,20680,608.2065,253.2129,26.83871,253.2129 F,0,17230,20680,1 S,0,20680,,0.3145808 F,0,20680,20717,1,0
Sprite,Foreground,Centre,"letters2\d.png",320,240 F,0,17380,17530,0,1 M,0,17380,20980,608.2065,253.2129,26.83871,253.2129 F,0,17530,20980,1 S,0,20980,,0.3145808 F,0,20980,21017,1,0
Sprite,Foreground,Centre,"letters2\o.png",320,240 F,0,17980,18130,0,1 M,0,17980,21580,608.2065,253.2129,26.83871,253.2129 F,0,18130,21580,1 S,0,21580,,0.3145808 F,0,21580,21617,1,0
Sprite,Foreground,Centre,"letters2\p.png",320,240 F,0,18280,18430,0,1 M,0,18280,21880,608.2065,253.2129,26.83871,253.2129 F,0,18430,21880,1 S,0,21880,,0.3145808 F,0,21880,21917,1,0
Sprite,Foreground,Centre,"letters2\t.png",320,240 F,0,18580,18730,0,1 M,0,18580,22180,608.2065,253.2129,26.83871,253.2129 F,0,18730,22180,1 S,0,22180,,0.3145808 F,0,22180,22217,1,0
Sprite,Foreground,Centre,"letters2\f.png",320,240 F,0,19180,19330,0,1 M,0,19180,22780,608.2065,253.2129,26.83871,253.2129 F,0,19330,22780,1 S,0,22780,,0.3145808 F,0,22780,22817,1,0
Sprite,Foreground,Centre,"letters2\a.png",320,240 F,0,19480,19630,0,1 M,0,19480,23080,608.2065,253.2129,26.83871,253.2129 F,0,19630,23080,1 S,0,23080,,0.3145808 F,0,23080,23117,1,0
Sprite,Foreground,Centre,"letters2\r.png",320,240 F,0,19780,19930,0,1 M,0,19780,23380,608.2065,253.2129,26.83871,253.2129 F,0,19930,23380,1 S,0,23380,,0.3145808 F,0,23380,23417,1,0
Sprite,Foreground,Centre,"letters2\e.png",320,240 F,0,20080,20230,0,1 M,0,20080,23680,608.2065,253.2129,26.83871,253.2129 F,0,20230,23680,1 S,0,23680,,0.3145808 F,0,23680,23717,1,0
Sprite,Foreground,Centre,"letters2\s.png",320,240 F,0,20680,20830,0,1 M,0,20680,24280,608.2065,253.2129,26.83871,253.2129 F,0,20830,24280,1 S,0,24280,,0.3145808 F,0,24280,24317,1,0
Sprite,Foreground,Centre,"letters2\t.png",320,240 F,0,20980,21130,0,1 M,0,20980,24580,608.2065,253.2129,26.83871,253.2129 F,0,21130,24580,1 S,0,24580,,0.3145808 F,0,24580,24617,1,0
Sprite,Foreground,Centre,"letters2\a.png",320,240 F,0,21580,21730,0,1 M,0,21580,25180,608.2065,253.2129,26.83871,253.2129 F,0,21730,25180,1 S,0,25180,,0.3145808 F,0,25180,25217,1,0
Sprite,Foreground,Centre,"letters2\r.png",320,240 F,0,21880,22030,0,1 M,0,21880,25480,608.2065,253.2129,26.83871,253.2129 F,0,22030,25480,1 S,0,25480,,0.3145808 F,0,25480,25517,1,0
Sprite,Foreground,Centre,"letters2\k.png",320,240 F,0,22180,22330,0,1 M,0,22180,25780,608.2065,253.2129,26.83871,253.2129 F,0,22330,25780,1 S,0,25780,,0.3145808 F,0,25780,25817,1,0
Sprite,Foreground,Centre,"letters2\l.png",320,240 F,0,22780,22930,0,1 M,0,22780,26380,608.2065,253.2129,26.83871,253.2129 F,0,22930,26380,1 S,0,26380,,0.3145808 F,0,26380,26417,1,0
Sprite,Foreground,Centre,"letters2\a.png",320,240 F,0,23080,23230,0,1 M,0,23080,26680,608.2065,253.2129,26.83871,253.2129 F,0,23230,26680,1 S,0,26680,,0.3145808 F,0,26680,26717,1,0
Sprite,Foreground,Centre,"letters2\r.png",320,240 F,0,23380,23530,0,1 M,0,23380,26980,608.2065,253.2129,26.83871,253.2129 F,0,23530,26980,1 S,0,26980,,0.3145808 F,0,26980,27017,1,0
Sprite,Foreground,Centre,"letters2\k.png",320,240 F,0,23680,23830,0,1 M,0,23680,27280,608.2065,253.2129,26.83871,253.2129 F,0,23830,27280,1 S,0,27280,,0.3145808 F,0,27280,27317,1,0
Sprite,Foreground,Centre,"letters2\s.png",320,240 F,0,24280,24430,0,1 M,0,24280,27880,608.2065,253.2129,26.83871,253.2129 F,0,24430,27880,1 S,0,27880,,0.3145808 F,0,27880,27917,1,0
Sprite,Foreground,Centre,"letters2\h.png",320,240 F,0,24580,24730,0,1 M,0,24580,28180,608.2065,253.2129,26.83871,253.2129 F,0,24730,28180,1 S,0,28180,,0.3145808 F,0,28180,28217,1,0
Sprite,Foreground,Centre,"letters2\a.png",320,240 F,0,25180,25330,0,1 M,0,25180,28780,608.2065,253.2129,26.83871,253.2129 F,0,25330,28780,1 S,0,28780,,0.3145808 F,0,28780,28817,1,0
Sprite,Foreground,Centre,"letters2\l.png",320,240 F,0,25480,25630,0,1 M,0,25480,29080,608.2065,253.2129,26.83871,253.2129 F,0,25630,29080,1 S,0,29080,,0.3145808 F,0,29080,29117,1,0
Sprite,Foreground,Centre,"letters2\l.png",320,240 F,0,25780,25930,0,1 M,0,25780,29380,608.2065,253.2129,26.83871,253.2129 F,0,25930,29380,1 S,0,29380,,0.3145808 F,0,29380,29417,1,0
Sprite,Foreground,Centre,"letters2\t.png",320,240 F,0,26380,26530,0,1 M,0,26380,29980,608.2065,253.2129,26.83871,253.2129 F,0,26530,29980,1 S,0,29980,,0.3145808 F,0,29980,30017,1,0
Sprite,Foreground,Centre,"letters2\r.png",320,240 F,0,26680,26830,0,1 M,0,26680,30280,608.2065,253.2129,26.83871,253.2129 F,0,26830,30280,1 S,0,30280,,0.3145808 F,0,30280,30317,1,0
Sprite,Foreground,Centre,"letters2\e.png",320,240 F,0,26980,27130,0,1 M,0,26980,30580,608.2065,253.2129,26.83871,253.2129 F,0,27130,30580,1 S,0,30580,,0.3145808 F,0,30580,30617,1,0
Sprite,Foreground,Centre,"letters2\k.png",320,240 F,0,27280,27430,0,1 M,0,27280,30880,608.2065,253.2129,26.83871,253.2129 F,0,27430,30880,1 S,0,30880,,0.3145808 F,0,30880,30917,1,0
Sprite,Foreground,Centre,"letters2\f.png",320,240 F,0,27880,28030,0,1 M,0,27880,31480,608.2065,253.2129,26.83871,253.2129 F,0,28030,31480,1 S,0,31480,,0.3145808 F,0,31480,31517,1,0
Sprite,Foreground,Centre,"letters2\l.png",320,240 F,0,28180,28330,0,1 M,0,28180,31780,608.2065,253.2129,26.83871,253.2129 F,0,28330,31780,1 S,0,31780,,0.3145808 F,0,31780,31817,1,0
Sprite,Foreground,Centre,"letters2\i.png",320,240 F,0,28480,28630,0,1 M,0,28480,32080,608.2065,253.2129,26.83871,253.2129 F,0,28630,32080,1 S,0,32080,,0.3145808 F,0,32080,32117,1,0
Sprite,Foreground,Centre,"letters2\t.png",320,240 F,0,28780,28930,0,1 M,0,28780,32380,608.2065,253.2129,26.83871,253.2129 F,0,28930,32380,1 S,0,32380,,0.3145808 F,0,32380,32417,1,0
Sprite,Foreground,Centre,"letters2\s.png",320,240 F,0,29380,29530,0,1 M,0,29380,32980,608.2065,253.2129,26.83871,253.2129 F,0,29530,32980,1 S,0,32980,,0.3145808 F,0,32980,33017,1,0
Sprite,Foreground,Centre,"letters2\e.png",320,240 F,0,29680,29830,0,1 M,0,29680,33280,608.2065,253.2129,26.83871,253.2129 F,0,29830,33280,1 S,0,33280,,0.3145808 F,0,33280,33317,1,0
Sprite,Foreground,Centre,"letters2\j.png",320,240 F,0,32380,32530,0,1 M,0,32380,35980,608.2065,253.2129,26.83871,253.2129 F,0,32530,35980,1 S,0,35980,,0.3145808 F,0,35980,36017,1,0
Sprite,Foreground,Centre,"letters2\e.png",320,240 F,0,34180,34330,0,1 M,0,34180,37780,608.2065,253.2129,26.83871,253.2129 F,0,34330,37780,1 S,0,37780,,0.3145808 F,0,37780,37817,1,0
Sprite,Foreground,Centre,"letters2\s.png",320,240 F,0,34630,34780,0,1 M,0,34630,38230,608.2065,253.2129,26.83871,253.2129 F,0,34780,38230,1 S,0,38230,,0.3145808 F,0,38230,38267,1,0
Sprite,Foreground,Centre,"letters2\t.png",320,240 F,0,35080,35230,0,1 M,0,35080,38680,608.2065,253.2129,26.83871,253.2129 F,0,35230,38680,1 S,0,38680,,0.3145808 F,0,38680,38717,1,0
Sprite,Foreground,Centre,"letters2\e.png",320,240 F,0,35380,35530,0,1 M,0,35380,38980,608.2065,253.2129,26.83871,253.2129 F,0,35530,38980,1 S,0,38980,,0.3145808 F,0,38980,39017,1,0
Sprite,Foreground,Centre,"letters2\r.png",320,240 F,0,35980,36130,0,1 M,0,35980,39580,608.2065,253.2129,26.83871,253.2129 F,0,36130,39580,1 S,0,39580,,0.3145808 F,0,39580,39617,1,0
Sprite,Foreground,Centre,"letters2\f.png",320,240 F,0,37780,37930,0,1 M,0,37780,41380,608.2065,253.2129,26.83871,253.2129 F,0,37930,41380,1 S,0,41380,,0.3145808 F,0,41380,41417,1,0
Sprite,Foreground,Centre,"letters2\o.png",320,240 F,0,38230,38380,0,1 M,0,38230,41830,608.2065,253.2129,26.83871,253.2129 F,0,38380,41830,1 S,0,41830,,0.3145808 F,0,41830,41867,1,0
Sprite,Foreground,Centre,"letters2\l.png",320,240 F,0,38680,38830,0,1 M,0,38680,42280,608.2065,253.2129,26.83871,253.2129 F,0,38830,42280,1 S,0,42280,,0.3145808 F,0,42280,42317,1,0
Sprite,Foreground,Centre,"letters2\d.png",320,240 F,0,39580,39730,0,1 M,0,39580,43180,608.2065,253.2129,26.83871,253.2129 F,0,39730,43180,1 S,0,43180,,0.3145808 F,0,43180,43217,1,0
Sprite,Foreground,Centre,"letters2\d.png",320,240 F,0,41080,41230,0,1 M,0,41080,44680,608.2065,253.2129,26.83871,253.2129 F,0,41230,44680,1 S,0,44680,,0.3145808 F,0,44680,44717,1,0
Sprite,Foreground,Centre,"letters2\i.png",320,240 F,0,41530,41680,0,1 M,0,41530,45130,608.2065,253.2129,26.83871,253.2129 F,0,41680,45130,1 S,0,45130,,0.3145808 F,0,45130,45167,1,0
Sprite,Foreground,Centre,"letters2\t.png",320,240 F,0,41830,41980,0,1 M,0,41830,45430,608.2065,253.2129,26.83871,253.2129 F,0,41980,45430,1 S,0,45430,,0.3145808 F,0,45430,45467,1,0
Sprite,Foreground,Centre,"letters2\h.png",320,240 F,0,42130,42280,0,1 M,0,42130,45730,608.2065,253.2129,26.83871,253.2129 F,0,42280,45730,1 S,0,45730,,0.3145808 F,0,45730,45767,1,0
Sprite,Foreground,Centre,"letters2\e.png",320,240 F,0,42430,42580,0,1 M,0,42430,46030,608.2065,253.2129,26.83871,253.2129 F,0,42580,46030,1 S,0,46030,,0.3145808 F,0,46030,46067,1,0
Sprite,Foreground,Centre,"letters2\r.png",320,240 F,0,43030,43180,0,1 M,0,43030,46630,608.2065,253.2129,26.83871,253.2129 F,0,43180,46630,1 S,0,46630,,0.3145808 F,0,46630,46667,1,0
Sprite,Foreground,Centre,"letters2\k.png",320,240 F,0,44980,45130,0,1 M,0,44980,48580,608.2065,253.2129,26.83871,253.2129 F,0,45130,48580,1 S,0,48580,,0.3145808 F,0,48580,48617,1,0
Sprite,Foreground,Centre,"letters2\w.png",320,240 F,0,45430,45580,0,1 M,0,45430,49030,608.2065,253.2129,26.83871,253.2129 F,0,45580,49030,1 S,0,49030,,0.3145808 F,0,49030,49067,1,0
Sprite,Foreground,Centre,"letters2\h.png",320,240 F,0,46780,46930,0,1 M,0,46780,50380,608.2065,253.2129,26.83871,253.2129 F,0,46930,50380,1 S,0,50380,,0.3145808 F,0,50380,50417,1,0
Sprite,Foreground,Centre,"letters2\i.png",320,240 F,0,47080,47230,0,1 M,0,47080,50680,608.2065,253.2129,26.83871,253.2129 F,0,47230,50680,1 S,0,50680,,0.3145808 F,0,50680,50717,1,0
Sprite,Foreground,Centre,"letters2\k.png",320,240 F,0,47380,47530,0,1 M,0,47380,50980,608.2065,253.2129,26.83871,253.2129 F,0,47530,50980,1 S,0,50980,,0.3145808 F,0,50980,51017,1,0
Sprite,Foreground,Centre,"letters2\e.png",320,240 F,0,47980,48130,0,1 M,0,47980,51580,608.2065,253.2129,26.83871,253.2129 F,0,48130,51580,1 S,0,51580,,0.3145808 F,0,51580,51617,1,0
Sprite,Foreground,Centre,"letters2\p.png",320,240 F,0,48580,48730,0,1 M,0,48580,52180,608.2065,253.2129,26.83871,253.2129 F,0,48730,52180,1 S,0,52180,,0.3145808 F,0,52180,52217,1,0
Sprite,Foreground,Centre,"letters2\r.png",320,240 F,0,48880,49030,0,1 M,0,48880,52480,608.2065,253.2129,26.83871,253.2129 F,0,49030,52480,1 S,0,52480,,0.3145808 F,0,52480,52517,1,0
Sprite,Foreground,Centre,"letters2\e.png",320,240 F,0,49180,49330,0,1 M,0,49180,52780,608.2065,253.2129,26.83871,253.2129 F,0,49330,52780,1 S,0,52780,,0.3145808 F,0,52780,52817,1,0
Sprite,Foreground,Centre,"letters2\s.png",320,240 F,0,49480,49630,0,1 M,0,49480,53080,608.2065,253.2129,26.83871,253.2129 F,0,49630,53080,1 S,0,53080,,0.3145808 F,0,53080,53117,1,0
Sprite,Foreground,Centre,"letters2\s.png",320,240 F,0,49780,49930,0,1 M,0,49780,53380,608.2065,253.2129,26.83871,253.2129 F,0,49930,53380,1 S,0,53380,,0.3145808 F,0,53380,53417,1,0
Sprite,Foreground,Centre,"letters2\a.png",320,240 F,0,50380,50530,0,1 M,0,50380,53980,608.2065,253.2129,26.83871,253.2129 F,0,50530,53980,1 S,0,53980,,0.3145808 F,0,53980,54017,1,0
Sprite,Foreground,Centre,"letters2\u.png",320,240 F,0,50680,50830,0,1 M,0,50680,54280,608.2065,253.2129,26.83871,253.2129 F,0,50830,54280,1 S,0,54280,,0.3145808 F,0,54280,54317,1,0
Sprite,Foreground,Centre,"letters2\r.png",320,240 F,0,50980,51130,0,1 M,0,50980,54580,608.2065,253.2129,26.83871,253.2129 F,0,51130,54580,1 S,0,54580,,0.3145808 F,0,54580,54617,1,0
Sprite,Foreground,Centre,"letters2\a.png",320,240 F,0,51580,51730,0,1 M,0,51580,55180,608.2065,253.2129,26.83871,253.2129 F,0,51730,55180,1 S,0,55180,,0.3145808 F,0,55180,55217,1,0
Sprite,Foreground,Centre,"letters2\d.png",320,240 F,0,52180,52330,0,1 M,0,52180,55780,608.2065,253.2129,26.83871,253.2129 F,0,52330,55780,1 S,0,55780,,0.3145808 F,0,55780,55817,1,0
Sprite,Foreground,Centre,"letters2\r.png",320,240 F,0,52480,52630,0,1 M,0,52480,56080,608.2065,253.2129,26.83871,253.2129 F,0,52630,56080,1 S,0,56080,,0.3145808 F,0,56080,56117,1,0
Sprite,Foreground,Centre,"letters2\e.png",320,240 F,0,52780,52930,0,1 M,0,52780,56380,608.2065,253.2129,26.83871,253.2129 F,0,52930,56380,1 S,0,56380,,0.3145808 F,0,56380,56417,1,0
Sprite,Foreground,Centre,"letters2\s.png",320,240 F,0,53080,53230,0,1 M,0,53080,56680,608.2065,253.2129,26.83871,253.2129 F,0,53230,56680,1 S,0,56680,,0.3145808 F,0,56680,56717,1,0
Sprite,Foreground,Centre,"letters2\s.png",320,240 F,0,53380,53530,0,1 M,0,53380,56980,608.2065,253.2129,26.83871,253.2129 F,0,53530,56980,1 S,0,56980,,0.3145808 F,0,56980,57017,1,0
Sprite,Foreground,Centre,"letters2\s.png",320,240 F,0,53980,54130,0,1 M,0,53980,57580,608.2065,253.2129,26.83871,253.2129 F,0,54130,57580,1 S,0,57580,,0.3145808 F,0,57580,57617,1,0
Sprite,Foreground,Centre,"letters2\l.png",320,240 F,0,54580,54730,0,1 M,0,54580,58180,608.2065,253.2129,26.83871,253.2129 F,0,54730,58180,1 S,0,58180,,0.3145808 F,0,58180,58217,1,0
Sprite,Foreground,Centre,"letters2\u.png",320,240 F,0,54880,55030,0,1 M,0,54880,58480,608.2065,253.2129,26.83871,253.2129 F,0,55030,58480,1 S,0,58480,,0.3145808 F,0,58480,58517,1,0
Sprite,Foreground,Centre,"letters2\g.png",320,240 F,0,55180,55330,0,1 M,0,55180,58780,608.2065,253.2129,26.83871,253.2129 F,0,55330,58780,1 S,0,58780,,0.3145808 F,0,58780,58817,1,0
Sprite,Foreground,Centre,"letters2\g.png",320,240 F,0,55780,55930,0,1 M,0,55780,59380,608.2065,253.2129,26.83871,253.2129 F,0,55930,59380,1 S,0,59380,,0.3145808 F,0,59380,59417,1,0
Sprite,Foreground,Centre,"letters2\l.png",320,240 F,0,56080,56230,0,1 M,0,56080,59680,608.2065,253.2129,26.83871,253.2129 F,0,56230,59680,1 S,0,59680,,0.3145808 F,0,59680,59717,1,0
Sprite,Foreground,Centre,"letters2\e.png",320,240 F,0,56380,56530,0,1 M,0,56380,59980,608.2065,253.2129,26.83871,253.2129 F,0,56530,59980,1 S,0,59980,,0.3145808 F,0,59980,60017,1,0
Sprite,Foreground,Centre,"letters2\e.png",320,240 F,0,56680,56830,0,1 M,0,56680,60280,608.2065,253.2129,26.83871,253.2129 F,0,56830,60280,1 S,0,60280,,0.3145808 F,0,60280,60317,1,0
Sprite,Foreground,Centre,"letters2\r.png",320,240 F,0,57280,57430,0,1 M,0,57280,60880,608.2065,253.2129,26.83871,253.2129 F,0,57430,60880,1 S,0,60880,,0.3145808 F,0,60880,60917,1,0
Sprite,Foreground,Centre,"letters2\o.png",320,240 F,0,57580,57730,0,1 M,0,57580,61180,608.2065,253.2129,26.83871,253.2129 F,0,57730,61180,1 S,0,61180,,0.3145808 F,0,61180,61217,1,0
Sprite,Foreground,Centre,"letters2\u.png",320,240 F,0,57880,58030,0,1 M,0,57880,61480,608.2065,253.2129,26.83871,253.2129 F,0,58030,61480,1 S,0,61480,,0.3145808 F,0,61480,61517,1,0
Sprite,Foreground,Centre,"letters2\g.png",320,240 F,0,58180,58330,0,1 M,0,58180,61780,608.2065,253.2129,26.83871,253.2129 F,0,58330,61780,1 S,0,61780,,0.3145808 F,0,61780,61817,1,0
Sprite,Foreground,Centre,"letters2\h.png",320,240 F,0,58780,58930,0,1 M,0,58780,62380,608.2065,253.2129,26.83871,253.2129 F,0,58930,62380,1 S,0,62380,,0.3145808 F,0,62380,62417,1,0
Sprite,Foreground,Centre,"letters2\s.png",320,240 F,0,59380,59530,0,1 M,0,59380,62980,608.2065,253.2129,26.83871,253.2129 F,0,59530,62980,1 S,0,62980,,0.3145808 F,0,62980,63017,1,0
Sprite,Foreground,Centre,"letters2\u.png",320,240 F,0,59680,59830,0,1 M,0,59680,63280,608.2065,253.2129,26.83871,253.2129 F,0,59830,63280,1 S,0,63280,,0.3145808 F,0,63280,63317,1,0
Sprite,Foreground,Centre,"letters2\r.png",320,240 F,0,59980,60130,0,1 M,0,59980,63580,608.2065,253.2129,26.83871,253.2129 F,0,60130,63580,1 S,0,63580,,0.3145808 F,0,63580,63617,1,0
Sprite,Foreground,Centre,"letters2\g.png",320,240 F,0,60280,60430,0,1 M,0,60280,63880,608.2065,253.2129,26.83871,253.2129 F,0,60430,63880,1 S,0,63880,,0.3145808 F,0,63880,63917,1,0
Sprite,Foreground,Centre,"letters2\e.png",320,240 F,0,60580,60730,0,1 M,0,60580,64180,608.2065,253.2129,26.83871,253.2129 F,0,60730,64180,1 S,0,64180,,0.3145808 F,0,64180,64217,1,0
Sprite,Foreground,Centre,"letters2\r.png",320,240 F,0,61180,61330,0,1 M,0,61180,64780,608.2065,253.2129,26.83871,253.2129 F,0,61330,64780,1 S,0,64780,,0.3145808 F,0,64780,64817,1,0
Sprite,Foreground,Centre,"letters2\o.png",320,240 F,0,61780,61930,0,1 M,0,61780,65380,608.2065,253.2129,26.83871,253.2129 F,0,61930,65380,1 S,0,65380,,0.3145808 F,0,65380,65417,1,0
Sprite,Foreground,Centre,"letters2\w.png",320,240 F,0,62080,62230,0,1 M,0,62080,65680,608.2065,253.2129,26.83871,253.2129 F,0,62230,65680,1 S,0,65680,,0.3145808 F,0,65680,65717,1,0
Sprite,Foreground,Centre,"letters2\d.png",320,240 F,0,62380,62530,0,1 M,0,62380,65980,608.2065,253.2129,26.83871,253.2129 F,0,62530,65980,1 S,0,65980,,0.3145808 F,0,65980,66017,1,0
Sprite,Foreground,Centre,"letters2\y.png",320,240 F,0,62680,62830,0,1 M,0,62680,66280,608.2065,253.2129,26.83871,253.2129 F,0,62830,66280,1 S,0,66280,,0.3145808 F,0,66280,66317,1,0
Sprite,Foreground,Centre,"letters2\s.png",320,240 F,0,63280,63430,0,1 M,0,63280,66880,608.2065,253.2129,26.83871,253.2129 F,0,63430,66880,1 S,0,66880,,0.3145808 F,0,66880,66917,1,0
Sprite,Foreground,Centre,"letters2\u.png",320,240 F,0,63580,63730,0,1 M,0,63580,67180,608.2065,253.2129,26.83871,253.2129 F,0,63730,67180,1 S,0,67180,,0.3145808 F,0,67180,67217,1,0
Sprite,Foreground,Centre,"letters2\d.png",320,240 F,0,63880,64030,0,1 M,0,63880,67480,608.2065,253.2129,26.83871,253.2129 F,0,64030,67480,1 S,0,67480,,0.3145808 F,0,67480,67517,1,0
Sprite,Foreground,Centre,"letters2\s.png",320,240 F,0,64180,64330,0,1 M,0,64180,67780,608.2065,253.2129,26.83871,253.2129 F,0,64330,67780,1 S,0,67780,,0.3145808 F,0,67780,67817,1,0
Sprite,Foreground,Centre,"letters2\h.png",320,240 F,0,64780,64930,0,1 M,0,64780,68380,608.2065,253.2129,26.83871,253.2129 F,0,64930,68380,1 S,0,68380,,0.3145808 F,0,68380,68417,1,0
Sprite,Foreground,Centre,"letters2\e.png",320,240 F,0,65230,65380,0,1 M,0,65230,68830,608.2065,253.2129,26.83871,253.2129 F,0,65380,68830,1 S,0,68830,,0.3145808 F,0,68830,68867,1,0
Sprite,Foreground,Centre,"letters2\r.png",320,240 F,0,65530,65680,0,1 M,0,65530,69130,608.2065,253.2129,26.83871,253.2129 F,0,65680,69130,1 S,0,69130,,0.3145808 F,0,69130,69167,1,0
Sprite,Foreground,Centre,"letters2\s.png",320,240 F,0,65830,65980,0,1 M,0,65830,69430,608.2065,253.2129,26.83871,253.2129 F,0,65980,69430,1 S,0,69430,,0.3145808 F,0,69430,69467,1,0
Sprite,Foreground,Centre,"letters2\g.png",320,240 F,0,66580,66730,0,1 M,0,66580,70180,608.2065,253.2129,26.83871,253.2129 F,0,66730,70180,1 S,0,70180,,0.3145808 F,0,70180,70217,1,0
Sprite,Foreground,Centre,"letters2\r.png",320,240 F,0,66880,67030,0,1 M,0,66880,70480,608.2065,253.2129,26.83871,253.2129 F,0,67030,70480,1 S,0,70480,,0.3145808 F,0,70480,70517,1,0
Sprite,Foreground,Centre,"letters2\a.png",320,240 F,0,67180,67330,0,1 M,0,67180,70780,608.2065,253.2129,26.83871,253.2129 F,0,67330,70780,1 S,0,70780,,0.3145808 F,0,70780,70817,1,0
Sprite,Foreground,Centre,"letters2\d.png",320,240 F,0,67480,67630,0,1 M,0,67480,71080,608.2065,253.2129,26.83871,253.2129 F,0,67630,71080,1 S,0,71080,,0.3145808 F,0,71080,71117,1,0
Sprite,Foreground,Centre,"letters2\u.png",320,240 F,0,67780,67930,0,1 M,0,67780,71380,608.2065,253.2129,26.83871,253.2129 F,0,67930,71380,1 S,0,71380,,0.3145808 F,0,71380,71417,1,0
Sprite,Foreground,Centre,"letters2\a.png",320,240 F,0,68080,68230,0,1 M,0,68080,71680,608.2065,253.2129,26.83871,253.2129 F,0,68230,71680,1 S,0,71680,,0.3145808 F,0,71680,71717,1,0
Sprite,Foreground,Centre,"letters2\l.png",320,240 F,0,68380,68530,0,1 M,0,68380,71980,608.2065,253.2129,26.83871,253.2129 F,0,68530,71980,1 S,0,71980,,0.3145808 F,0,71980,72017,1,0
Sprite,Foreground,Centre,"letters2\p.png",320,240 F,0,68830,68980,0,1 M,0,68830,72430,608.2065,253.2129,26.83871,253.2129 F,0,68980,72430,1 S,0,72430,,0.3145808 F,0,72430,72467,1,0
Sprite,Foreground,Centre,"letters2\e.png",320,240 F,0,69280,69430,0,1 M,0,69280,72880,608.2065,253.2129,26.83871,253.2129 F,0,69430,72880,1 S,0,72880,,0.3145808 F,0,72880,72917,1,0
Sprite,Foreground,Centre,"letters2\w.png",320,240 F,0,69580,69730,0,1 M,0,69580,73180,608.2065,253.2129,26.83871,253.2129 F,0,69730,73180,1 S,0,73180,,0.3145808 F,0,73180,73217,1,0
Sprite,Foreground,Centre,"letters2\r.png",320,240 F,0,70180,70330,0,1 M,0,70180,73780,608.2065,253.2129,26.83871,253.2129 F,0,70330,73780,1 S,0,73780,,0.3145808 F,0,73780,73817,1,0
Sprite,Foreground,Centre,"letters2\a.png",320,240 F,0,70630,70780,0,1 M,0,70630,74230,608.2065,253.2129,26.83871,253.2129 F,0,70780,74230,1 S,0,74230,,0.3145808 F,0,74230,74267,1,0
Sprite,Foreground,Centre,"letters2\i.png",320,240 F,0,71080,71230,0,1 M,0,71080,74680,608.2065,253.2129,26.83871,253.2129 F,0,71230,74680,1 S,0,74680,,0.3145808 F,0,74680,74717,1,0
Sprite,Foreground,Centre,"letters2\d.png",320,240 F,0,71380,71530,0,1 M,0,71380,74980,608.2065,253.2129,26.83871,253.2129 F,0,71530,74980,1 S,0,74980,,0.3145808 F,0,74980,75017,1,0
Sprite,Foreground,Centre,"letters2\t.png",320,240 F,0,71980,72130,0,1 M,0,71980,75580,608.2065,253.2129,26.83871,253.2129 F,0,72130,75580,1 S,0,75580,,0.3145808 F,0,75580,75617,1,0
Sprite,Foreground,Centre,"letters2\o.png",320,240 F,0,72430,72580,0,1 M,0,72430,76030,608.2065,253.2129,26.83871,253.2129 F,0,72580,76030,1 S,0,76030,,0.3145808 F,0,76030,76067,1,0
Sprite,Foreground,Centre,"letters2\w.png",320,240 F,0,72880,73030,0,1 M,0,72880,76480,608.2065,253.2129,26.83871,253.2129 F,0,73030,76480,1 S,0,76480,,0.3145808 F,0,76480,76517,1,0
Sprite,Foreground,Centre,"letters2\e.png",320,240 F,0,73180,73330,0,1 M,0,73180,76780,608.2065,253.2129,26.83871,253.2129 F,0,73330,76780,1 S,0,76780,,0.3145808 F,0,76780,76817,1,0
Sprite,Foreground,Centre,"letters2\r.png",320,240 F,0,73480,73630,0,1 M,0,73480,77080,608.2065,253.2129,26.83871,253.2129 F,0,73630,77080,1 S,0,77080,,0.3145808 F,0,77080,77117,1,0
Sprite,Foreground,Centre,"letters2\o.png",320,240 F,0,73780,73930,0,1 M,0,73780,77380,608.2065,253.2129,26.83871,253.2129 F,0,73930,77380,1 S,0,77380,,0.3145808 F,0,77380,77417,1,0
Sprite,Foreground,Centre,"letters2\r.png",320,240 F,0,74380,74530,0,1 M,0,74380,77980,608.2065,253.2129,26.83871,253.2129 F,0,74530,77980,1 S,0,77980,,0.3145808 F,0,77980,78017,1,0
Sprite,Foreground,Centre,"letters2\e.png",320,240 F,0,74980,75130,0,1 M,0,74980,78580,608.2065,253.2129,26.83871,253.2129 F,0,75130,78580,1 S,0,78580,,0.3145808 F,0,78580,78617,1,0
Sprite,Foreground,Centre,"letters2\k.png",320,240 F,0,75580,75730,0,1 M,0,75580,79180,608.2065,253.2129,26.83871,253.2129 F,0,75730,79180,1 S,0,79180,,0.3145808 F,0,79180,79217,1,0
Sprite,Foreground,Centre,"letters2\i.png",320,240 F,0,75880,76030,0,1 M,0,75880,79480,608.2065,253.2129,26.83871,253.2129 F,0,76030,79480,1 S,0,79480,,0.3145808 F,0,79480,79517,1,0
Sprite,Foreground,Centre,"letters2\d.png",320,240 F,0,76180,76330,0,1 M,0,76180,79780,608.2065,253.2129,26.83871,253.2129 F,0,76330,79780,1 S,0,79780,,0.3145808 F,0,79780,79817,1,0
Sprite,Foreground,Centre,"letters2\l.png",320,240 F,0,76780,76930,0,1 M,0,76780,80380,608.2065,253.2129,26.83871,253.2129 F,0,76930,80380,1 S,0,80380,,0.3145808 F,0,80380,80417,1,0
Sprite,Foreground,Centre,"letters2\e.png",320,240 F,0,77080,77230,0,1 M,0,77080,80680,608.2065,253.2129,26.83871,253.2129 F,0,77230,80680,1 S,0,80680,,0.3145808 F,0,80680,80717,1,0
Sprite,Foreground,Centre,"letters2\a.png",320,240 F,0,77380,77530,0,1 M,0,77380,80980,608.2065,253.2129,26.83871,253.2129 F,0,77530,80980,1 S,0,80980,,0.3145808 F,0,80980,81017,1,0
Sprite,Foreground,Centre,"letters2\s.png",320,240 F,0,77680,77830,0,1 M,0,77680,81280,608.2065,253.2129,26.83871,253.2129 F,0,77830,81280,1 S,0,81280,,0.3145808 F,0,81280,81317,1,0
Sprite,Foreground,Centre,"letters2\t.png",320,240 F,0,77980,78130,0,1 M,0,77980,81580,608.2065,253.2129,26.83871,253.2129 F,0,78130,81580,1 S,0,81580,,0.3145808 F,0,81580,81617,1,0
Sprite,Foreground,Centre,"letters2\r.png",320,240 F,0,78580,78730,0,1 M,0,78580,82180,608.2065,253.2129,26.83871,253.2129 F,0,78730,82180,1 S,0,82180,,0.3145808 F,0,82180,82217,1,0
Sprite,Foreground,Centre,"letters2\a.png",320,240 F,0,78880,79030,0,1 M,0,78880,82480,608.2065,253.2129,26.83871,253.2129 F,0,79030,82480,1 S,0,82480,,0.3145808 F,0,82480,82517,1,0
Sprite,Foreground,Centre,"letters2\t.png",320,240 F,0,79180,79330,0,1 M,0,79180,82780,608.2065,253.2129,26.83871,253.2129 F,0,79330,82780,1 S,0,82780,,0.3145808 F,0,82780,82817,1,0
Sprite,Foreground,Centre,"letters2\u.png",320,240 F,0,79780,79930,0,1 M,0,79780,83380,608.2065,253.2129,26.83871,253.2129 F,0,79930,83380,1 S,0,83380,,0.3145808 F,0,83380,83417,1,0
Sprite,Foreground,Centre,"letters2\t.png",320,240 F,0,80080,80230,0,1 M,0,80080,83680,608.2065,253.2129,26.83871,253.2129 F,0,80230,83680,1 S,0,83680,,0.3145808 F,0,83680,83717,1,0
Sprite,Foreground,Centre,"letters2\t.png",320,240 F,0,80380,80530,0,1 M,0,80380,83980,608.2065,253.2129,26.83871,253.2129 F,0,80530,83980,1 S,0,83980,,0.3145808 F,0,83980,84017,1,0
Sprite,Foreground,Centre,"letters2\e.png",320,240 F,0,80680,80830,0,1 M,0,80680,84280,608.2065,253.2129,26.83871,253.2129 F,0,80830,84280,1 S,0,84280,,0.3145808 F,0,84280,84317,1,0
Sprite,Foreground,Centre,"letters2\r.png",320,240 F,0,80980,81130,0,1 M,0,80980,84580,608.2065,253.2129,26.83871,253.2129 F,0,81130,84580,1 S,0,84580,,0.3145808 F,0,84580,84617,1,0
Sprite,Foreground,Centre,"letters2\a.png",320,240 F,0,81580,81730,0,1 M,0,81580,85180,608.2065,253.2129,26.83871,253.2129 F,0,81730,85180,1 S,0,85180,,0.3145808 F,0,85180,85217,1,0
Sprite,Foreground,Centre,"letters2\t.png",320,240 F,0,81880,82030,0,1 M,0,81880,85480,608.2065,253.2129,26.83871,253.2129 F,0,82030,85480,1 S,0,85480,,0.3145808 F,0,85480,85517,1,0
Sprite,Foreground,Centre,"letters2\a.png",320,240 F,0,82480,82630,0,1 M,0,82480,86080,608.2065,253.2129,26.83871,253.2129 F,0,82630,86080,1 S,0,86080,,0.3145808 F,0,86080,86117,1,0
Sprite,Foreground,Centre,"letters2\w.png",320,240 F,0,82780,82930,0,1 M,0,82780,86380,608.2065,253.2129,26.83871,253.2129 F,0,82930,86380,1 S,0,86380,,0.3145808 F,0,86380,86417,1,0
Sprite,Foreground,Centre,"letters2\a.png",320,240 F,0,83080,83230,0,1 M,0,83080,86680,608.2065,253.2129,26.83871,253.2129 F,0,83230,86680,1 S,0,86680,,0.3145808 F,0,86680,86717,1,0
Sprite,Foreground,Centre,"letters2\i.png",320,240 F,0,83380,83530,0,1 M,0,83380,86980,608.2065,253.2129,26.83871,253.2129 F,0,83530,86980,1 S,0,86980,,0.3145808 F,0,86980,87017,1,0
Sprite,Foreground,Centre,"letters2\t.png",320,240 F,0,83680,83830,0,1 M,0,83680,87280,608.2065,253.2129,26.83871,253.2129 F,0,83830,87280,1 S,0,87280,,0.3145808 F,0,87280,87317,1,0
Sprite,Foreground,Centre,"letters2\t.png",320,240 F,0,84280,84430,0,1 M,0,84280,87880,608.2065,253.2129,26.83871,253.2129 F,0,84430,87880,1 S,0,87880,,0.3145808 F,0,87880,87917,1,0
Sprite,Foreground,Centre,"letters2\h.png",320,240 F,0,84580,84730,0,1 M,0,84580,88180,608.2065,253.2129,26.83871,253.2129 F,0,84730,88180,1 S,0,88180,,0.3145808 F,0,88180,88217,1,0
Sprite,Foreground,Centre,"letters2\e.png",320,240 F,0,85180,85330,0,1 M,0,85180,88780,608.2065,253.2129,26.83871,253.2129 F,0,85330,88780,1 S,0,88780,,0.3145808 F,0,88780,88817,1,0
Sprite,Foreground,Centre,"letters2\f.png",320,240 F,0,85480,85630,0,1 M,0,85480,89080,608.2065,253.2129,26.83871,253.2129 F,0,85630,89080,1 S,0,89080,,0.3145808 F,0,89080,89117,1,0
Sprite,Foreground,Centre,"letters2\t.png",320,240 F,0,85780,85930,0,1 M,0,85780,89380,608.2065,253.2129,26.83871,253.2129 F,0,85930,89380,1 S,0,89380,,0.3145808 F,0,89380,89417,1,0
Sprite,Foreground,Centre,"letters2\p.png",320,240 F,0,86380,86530,0,1 M,0,86380,89980,608.2065,253.2129,26.83871,253.2129 F,0,86530,89980,1 S,0,89980,,0.3145808 F,0,89980,90017,1,0
Sprite,Foreground,Centre,"letters2\l.png",320,240 F,0,86680,86830,0,1 M,0,86680,90280,608.2065,253.2129,26.83871,253.2129 F,0,86830,90280,1 S,0,90280,,0.3145808 F,0,90280,90317,1,0
Sprite,Foreground,Centre,"letters2\e.png",320,240 F,0,86980,87130,0,1 M,0,86980,90580,608.2065,253.2129,26.83871,253.2129 F,0,87130,90580,1 S,0,90580,,0.3145808 F,0,90580,90617,1,0
Sprite,Foreground,Centre,"letters2\d.png",320,240 F,0,87280,87430,0,1 M,0,87280,90880,608.2065,253.2129,26.83871,253.2129 F,0,87430,90880,1 S,0,90880,,0.3145808 F,0,90880,90917,1,0
Sprite,Foreground,Centre,"letters2\d.png",320,240 F,0,87880,88030,0,1 M,0,87880,91480,608.2065,253.2129,26.83871,253.2129 F,0,88030,91480,1 S,0,91480,,0.3145808 F,0,91480,91517,1,0
Sprite,Foreground,Centre,"letters2\o.png",320,240 F,0,88180,88330,0,1 M,0,88180,91780,608.2065,253.2129,26.83871,253.2129 F,0,88330,91780,1 S,0,91780,,0.3145808 F,0,91780,91817,1,0
Sprite,Foreground,Centre,"letters2\o.png",320,240 F,0,88480,88630,0,1 M,0,88480,92080,608.2065,253.2129,26.83871,253.2129 F,0,88630,92080,1 S,0,92080,,0.3145808 F,0,92080,92117,1,0
Sprite,Foreground,Centre,"letters2\r.png",320,240 F,0,88780,88930,0,1 M,0,88780,92380,608.2065,253.2129,26.83871,253.2129 F,0,88930,92380,1 S,0,92380,,0.3145808 F,0,92380,92417,1,0
Sprite,Foreground,Centre,"letters2\u.png",320,240 F,0,89380,89530,0,1 M,0,89380,92980,608.2065,253.2129,26.83871,253.2129 F,0,89530,92980,1 S,0,92980,,0.3145808 F,0,92980,93017,1,0
Sprite,Foreground,Centre,"letters2\h.png",320,240 F,0,89680,89830,0,1 M,0,89680,93280,608.2065,253.2129,26.83871,253.2129 F,0,89830,93280,1 S,0,93280,,0.3145808 F,0,93280,93317,1,0
Sprite,Foreground,Centre,"letters2\l.png",320,240 F,0,92080,92230,0,1 M,0,92080,95680,608.2065,253.2129,26.83871,253.2129 F,0,92230,95680,1 S,0,95680,,0.3145808 F,0,95680,95717,1,0
Sprite,Foreground,Centre,"letters2\s.png",320,240 F,0,92680,92830,0,1 M,0,92680,96280,608.2065,253.2129,26.83871,253.2129 F,0,92830,96280,1 S,0,96280,,0.3145808 F,0,96280,96317,1,0
Sprite,Foreground,Centre,"letters2\d.png",320,240 F,0,93130,93280,0,1 M,0,93130,96730,608.2065,253.2129,26.83871,253.2129 F,0,93280,96730,1 S,0,96730,,0.3145808 F,0,96730,96767,1,0
Sprite,Foreground,Centre,"letters2\l.png",320,240 F,0,93580,93730,0,1 M,0,93580,97180,608.2065,253.2129,26.83871,253.2129 F,0,93730,97180,1 S,0,97180,,0.3145808 F,0,97180,97217,1,0
Sprite,Foreground,Centre,"letters2\i.png",320,240 F,0,93880,94030,0,1 M,0,93880,97480,608.2065,253.2129,26.83871,253.2129 F,0,94030,97480,1 S,0,97480,,0.3145808 F,0,97480,97517,1,0
Sprite,Foreground,Centre,"letters2\f.png",320,240 F,0,94180,94330,0,1 M,0,94180,97780,608.2065,253.2129,26.83871,253.2129 F,0,94330,97780,1 S,0,97780,,0.3145808 F,0,97780,97817,1,0
Sprite,Foreground,Centre,"letters2\t.png",320,240 F,0,94480,94630,0,1 M,0,94480,98080,608.2065,253.2129,26.83871,253.2129 F,0,94630,98080,1 S,0,98080,,0.3145808 F,0,98080,98117,1,0
Sprite,Foreground,Centre,"letters2\o.png",320,240 F,0,94930,95080,0,1 M,0,94930,98530,608.2065,253.2129,26.83871,253.2129 F,0,95080,98530,1 S,0,98530,,0.3145808 F,0,98530,98567,1,0
Sprite,Foreground,Centre,"letters2\f.png",320,240 F,0,95380,95530,0,1 M,0,95380,98980,608.2065,253.2129,26.83871,253.2129 F,0,95530,98980,1 S,0,98980,,0.3145808 F,0,98980,99017,1,0
Sprite,Foreground,Centre,"letters2\f.png",320,240 F,0,95680,95830,0,1 M,0,95680,99280,608.2065,253.2129,26.83871,253.2129 F,0,95830,99280,1 S,0,99280,,0.3145808 F,0,99280,99317,1,0
Sprite,Foreground,Centre,"letters2\p.png",320,240 F,0,96280,96430,0,1 M,0,96280,99880,608.2065,253.2129,26.83871,253.2129 F,0,96430,99880,1 S,0,99880,,0.3145808 F,0,99880,99917,1,0
Sprite,Foreground,Centre,"letters2\o.png",320,240 F,0,96580,96730,0,1 M,0,96580,100180,608.2065,253.2129,26.83871,253.2129 F,0,96730,100180,1 S,0,100180,,0.3145808 F,0,100180,100217,1,0
Sprite,Foreground,Centre,"letters2\l.png",320,240 F,0,96880,97030,0,1 M,0,96880,100480,608.2065,253.2129,26.83871,253.2129 F,0,97030,100480,1 S,0,100480,,0.3145808 F,0,100480,100517,1,0
Sprite,Foreground,Centre,"letters2\i.png",320,240 F,0,97180,97330,0,1 M,0,97180,100780,608.2065,253.2129,26.83871,253.2129 F,0,97330,100780,1 S,0,100780,,0.3145808 F,0,100780,100817,1,0
Sprite,Foreground,Centre,"letters2\o.png",320,240 F,0,97480,97630,0,1 M,0,97480,101080,608.2065,253.2129,26.83871,253.2129 F,0,97630,101080,1 S,0,101080,,0.3145808 F,0,101080,101117,1,0
Sprite,Foreground,Centre,"letters2\g.png",320,240 F,0,98680,98830,0,1 M,0,98680,102280,608.2065,253.2129,26.83871,253.2129 F,0,98830,102280,1 S,0,102280,,0.3145808 F,0,102280,102317,1,0
Sprite,Foreground,Centre,"letters2\i.png",320,240 F,0,98980,99130,0,1 M,0,98980,102580,608.2065,253.2129,26.83871,253.2129 F,0,99130,102580,1 S,0,102580,,0.3145808 F,0,102580,102617,1,0
Sprite,Foreground,Centre,"letters2\t.png",320,240 F,0,99280,99430,0,1 M,0,99280,102880,608.2065,253.2129,26.83871,253.2129 F,0,99430,102880,1 S,0,102880,,0.3145808 F,0,102880,102917,1,0
Sprite,Foreground,Centre,"letters2\a.png",320,240 F,0,99880,100030,0,1 M,0,99880,103480,608.2065,253.2129,26.83871,253.2129 F,0,100030,103480,1 S,0,103480,,0.3145808 F,0,103480,103517,1,0
Sprite,Foreground,Centre,"letters2\l.png",320,240 F,0,100180,100330,0,1 M,0,100180,103780,608.2065,253.2129,26.83871,253.2129 F,0,100330,103780,1 S,0,103780,,0.3145808 F,0,103780,103817,1,0
Sprite,Foreground,Centre,"letters2\l.png",320,240 F,0,100480,100630,0,1 M,0,100480,104080,608.2065,253.2129,26.83871,253.2129 F,0,100630,104080,1 S,0,104080,,0.3145808 F,0,104080,104117,1,0
Sprite,Foreground,Centre,"letters2\e.png",320,240 F,0,100780,100930,0,1 M,0,100780,104380,608.2065,253.2129,26.83871,253.2129 F,0,100930,104380,1 S,0,104380,,0.3145808 F,0,104380,104417,1,0
Sprite,Foreground,Centre,"letters2\y.png",320,240 F,0,101080,101230,0,1 M,0,101080,104680,608.2065,253.2129,26.83871,253.2129 F,0,101230,104680,1 S,0,104680,,0.3145808 F,0,104680,104717,1,0
Sprite,Foreground,Centre,"letters2\s.png",320,240 F,0,101680,101830,0,1 M,0,101680,105280,608.2065,253.2129,26.83871,253.2129 F,0,101830,105280,1 S,0,105280,,0.3145808 F,0,105280,105317,1,0
Sprite,Foreground,Centre,"letters2\p.png",320,240 F,0,101980,102130,0,1 M,0,101980,105580,608.2065,253.2129,26.83871,253.2129 F,0,102130,105580,1 S,0,105580,,0.3145808 F,0,105580,105617,1,0
Sprite,Foreground,Centre,"letters2\i.png",320,240 F,0,102280,102430,0,1 M,0,102280,105880,608.2065,253.2129,26.83871,253.2129 F,0,102430,105880,1 S,0,105880,,0.3145808 F,0,105880,105917,1,0
Sprite,Foreground,Centre,"letters2\l.png",320,240 F,0,102580,102730,0,1 M,0,102580,106180,608.2065,253.2129,26.83871,253.2129 F,0,102730,106180,1 S,0,106180,,0.3145808 F,0,106180,106217,1,0
Sprite,Foreground,Centre,"letters2\l.png",320,240 F,0,102880,103030,0,1 M,0,102880,106480,608.2065,253.2129,26.83871,253.2129 F,0,103030,106480,1 S,0,106480,,0.3145808 F,0,106480,106517,1,0
Sprite,Foreground,Centre,"letters2\k.png",320,240 F,0,103480,103630,0,1 M,0,103480,107080,608.2065,253.2129,26.83871,253.2129 F,0,103630,107080,1 S,0,107080,,0.3145808 F,0,107080,107117,1,0
Sprite,Foreground,Centre,"letters2\o.png",320,240 F,0,103780,103930,0,1 M,0,103780,107380,608.2065,253.2129,26.83871,253.2129 F,0,103930,107380,1 S,0,107380,,0.3145808 F,0,107380,107417,1,0
Sprite,Foreground,Centre,"letters2\w.png",320,240 F,0,104080,104230,0,1 M,0,104080,107680,608.2065,253.2129,26.83871,253.2129 F,0,104230,107680,1 S,0,107680,,0.3145808 F,0,107680,107717,1,0
Sprite,Foreground,Centre,"letters2\t.png",320,240 F,0,104380,104530,0,1 M,0,104380,107980,608.2065,253.2129,26.83871,253.2129 F,0,104530,107980,1 S,0,107980,,0.3145808 F,0,107980,108017,1,0
Sprite,Foreground,Centre,"letters2\o.png",320,240 F,0,104680,104830,0,1 M,0,104680,108280,608.2065,253.2129,26.83871,253.2129 F,0,104830,108280,1 S,0,108280,,0.3145808 F,0,108280,108317,1,0
Sprite,Foreground,Centre,"letters2\w.png",320,240 F,0,104980,105130,0,1 M,0,104980,108580,608.2065,253.2129,26.83871,253.2129 F,0,105130,108580,1 S,0,108580,,0.3145808 F,0,108580,108617,1,0
Sprite,Foreground,Centre,"letters2\r.png",320,240 F,0,105580,105730,0,1 M,0,105580,109180,608.2065,253.2129,26.83871,253.2129 F,0,105730,109180,1 S,0,109180,,0.3145808 F,0,109180,109217,1,0
Sprite,Foreground,Centre,"letters2\e.png",320,240 F,0,105880,106030,0,1 M,0,105880,109480,608.2065,253.2129,26.83871,253.2129 F,0,106030,109480,1 S,0,109480,,0.3145808 F,0,109480,109517,1,0
Sprite,Foreground,Centre,"letters2\e.png",320,240 F,0,106180,106330,0,1 M,0,106180,109780,608.2065,253.2129,26.83871,253.2129 F,0,106330,109780,1 S,0,109780,,0.3145808 F,0,109780,109817,1,0
Sprite,Foreground,Centre,"letters2\d.png",320,240 F,0,106480,106630,0,1 M,0,106480,110080,608.2065,253.2129,26.83871,253.2129 F,0,106630,110080,1 S,0,110080,,0.3145808 F,0,110080,110117,1,0
Sprite,Foreground,Centre,"letters2\g.png",320,240 F,0,107080,107230,0,1 M,0,107080,110680,608.2065,253.2129,26.83871,253.2129 F,0,107230,110680,1 S,0,110680,,0.3145808 F,0,110680,110717,1,0
Sprite,Foreground,Centre,"letters2\a.png",320,240 F,0,107380,107530,0,1 M,0,107380,110980,608.2065,253.2129,26.83871,253.2129 F,0,107530,110980,1 S,0,110980,,0.3145808 F,0,110980,111017,1,0
Sprite,Foreground,Centre,"letters2\l.png",320,240 F,0,107680,107830,0,1 M,0,107680,111280,608.2065,253.2129,26.83871,253.2129 F,0,107830,111280,1 S,0,111280,,0.3145808 F,0,111280,111317,1,0
Sprite,Foreground,Centre,"letters2\l.png",320,240 F,0,107980,108130,0,1 M,0,107980,111580,608.2065,253.2129,26.83871,253.2129 F,0,108130,111580,1 S,0,111580,,0.3145808 F,0,111580,111617,1,0
Sprite,Foreground,Centre,"letters2\o.png",320,240 F,0,108280,108430,0,1 M,0,108280,111880,608.2065,253.2129,26.83871,253.2129 F,0,108430,111880,1 S,0,111880,,0.3145808 F,0,111880,111917,1,0
Sprite,Foreground,Centre,"letters2\p.png",320,240 F,0,108580,108730,0,1 M,0,108580,112180,608.2065,253.2129,26.83871,253.2129 F,0,108730,112180,1 S,0,112180,,0.3145808 F,0,112180,112217,1,0
Sprite,Foreground,Centre,"letters2\d.png",320,240 F,0,109180,109330,0,1 M,0,109180,112780,608.2065,253.2129,26.83871,253.2129 F,0,109330,112780,1 S,0,112780,,0.3145808 F,0,112780,112817,1,0
Sprite,Foreground,Centre,"letters2\e.png",320,240 F,0,109480,109630,0,1 M,0,109480,113080,608.2065,253.2129,26.83871,253.2129 F,0,109630,113080,1 S,0,113080,,0.3145808 F,0,113080,113117,1,0
Sprite,Foreground,Centre,"letters2\f.png",320,240 F,0,109780,109930,0,1 M,0,109780,113380,608.2065,253.2129,26.83871,253.2129 F,0,109930,113380,1 S,0,113380,,0.3145808 F,0,113380,113417,1,0
Sprite,Foreground,Centre,"letters2\e.png",320,240 F,0,110080,110230,0,1 M,0,110080,113680,608.2065,253.2129,26.83871,253.2129 F,0,110230,113680,1 S,0,113680,,0.3145808 F,0,113680,113717,1,0
Sprite,Foreground,Centre,"letters2\a.png",320,240 F,0,110380,110530,0,1 M,0,110380,113980,608.2065,253.2129,26.83871,253.2129 F,0,110530,113980,1 S,0,113980,,0.3145808 F,0,113980,114017,1,0
Sprite,Foreground,Centre,"letters2\t.png",320,240 F,0,110680,110830,0,1 M,0,110680,114280,608.2065,253.2129,26.83871,253.2129 F,0,110830,114280,1 S,0,114280,,0.3145808 F,0,114280,114317,1,0
Sprite,Foreground,Centre,"letters2\p.png",320,240 F,0,111280,111430,0,1 M,0,111280,114880,608.2065,253.2129,26.83871,253.2129 F,0,111430,114880,1 S,0,114880,,0.3145808 F,0,114880,114917,1,0
Sprite,Foreground,Centre,"letters2\a.png",320,240 F,0,111580,111730,0,1 M,0,111580,115180,608.2065,253.2129,26.83871,253.2129 F,0,111730,115180,1 S,0,115180,,0.3145808 F,0,115180,115217,1,0
Sprite,Foreground,Centre,"letters2\s.png",320,240 F,0,111880,112030,0,1 M,0,111880,115480,608.2065,253.2129,26.83871,253.2129 F,0,112030,115480,1 S,0,115480,,0.3145808 F,0,115480,115517,1,0
Sprite,Foreground,Centre,"letters2\s.png",320,240 F,0,112180,112330,0,1 M,0,112180,115780,608.2065,253.2129,26.83871,253.2129 F,0,112330,115780,1 S,0,115780,,0.3145808 F,0,115780,115817,1,0
Sprite,Foreground,Centre,"letters2\e.png",320,240 F,0,112480,112630,0,1 M,0,112480,116080,608.2065,253.2129,26.83871,253.2129 F,0,112630,116080,1 S,0,116080,,0.3145808 F,0,116080,116117,1,0
Sprite,Foreground,Centre,"letters2\h.png",320,240 F,0,113080,113230,0,1 M,0,113080,116680,608.2065,253.2129,26.83871,253.2129 F,0,113230,116680,1 S,0,116680,,0.3145808 F,0,116680,116717,1,0
Sprite,Foreground,Centre,"letters2\a.png",320,240 F,0,113380,113530,0,1 M,0,113380,116980,608.2065,253.2129,26.83871,253.2129 F,0,113530,116980,1 S,0,116980,,0.3145808 F,0,116980,117017,1,0
Sprite,Foreground,Centre,"letters2\y.png",320,240 F,0,113680,113830,0,1 M,0,113680,117280,608.2065,253.2129,26.83871,253.2129 F,0,113830,117280,1 S,0,117280,,0.3145808 F,0,117280,117317,1,0
Sprite,Foreground,Centre,"letters2\w.png",320,240 F,0,114280,114430,0,1 M,0,114280,117880,608.2065,253.2129,26.83871,253.2129 F,0,114430,117880,1 S,0,117880,,0.3145808 F,0,117880,117917,1,0
Sprite,Foreground,Centre,"letters2\i.png",320,240 F,0,114580,114730,0,1 M,0,114580,118180,608.2065,253.2129,26.83871,253.2129 F,0,114730,118180,1 S,0,118180,,0.3145808 F,0,118180,118217,1,0
Sprite,Foreground,Centre,"letters2\s.png",320,240 F,0,114880,115030,0,1 M,0,114880,118480,608.2065,253.2129,26.83871,253.2129 F,0,115030,118480,1 S,0,118480,,0.3145808 F,0,118480,118517,1,0
Sprite,Foreground,Centre,"letters2\t.png",320,240 F,0,115180,115330,0,1 M,0,115180,118780,608.2065,253.2129,26.83871,253.2129 F,0,115330,118780,1 S,0,118780,,0.3145808 F,0,118780,118817,1,0
Sprite,Foreground,Centre,"letters2\f.png",320,240 F,0,115480,115630,0,1 M,0,115480,119080,608.2065,253.2129,26.83871,253.2129 F,0,115630,119080,1 S,0,119080,,0.3145808 F,0,119080,119117,1,0
Sprite,Foreground,Centre,"letters2\u.png",320,240 F,0,115780,115930,0,1 M,0,115780,119380,608.2065,253.2129,26.83871,253.2129 F,0,115930,119380,1 S,0,119380,,0.3145808 F,0,119380,119417,1,0
Sprite,Foreground,Centre,"letters2\l.png",320,240 F,0,116080,116230,0,1 M,0,116080,119680,608.2065,253.2129,26.83871,253.2129 F,0,116230,119680,1 S,0,119680,,0.3145808 F,0,119680,119717,1,0
Sprite,Foreground,Centre,"letters2\t.png",320,240 F,0,116680,116830,0,1 M,0,116680,120280,608.2065,253.2129,26.83871,253.2129 F,0,116830,120280,1 S,0,120280,,0.3145808 F,0,120280,120317,1,0
Sprite,Foreground,Centre,"letters2\o.png",320,240 F,0,116980,117130,0,1 M,0,116980,120580,608.2065,253.2129,26.83871,253.2129 F,0,117130,120580,1 S,0,120580,,0.3145808 F,0,120580,120617,1,0
Sprite,Foreground,Centre,"letters2\w.png",320,240 F,0,117280,117430,0,1 M,0,117280,120880,608.2065,253.2129,26.83871,253.2129 F,0,117430,120880,1 S,0,120880,,0.3145808 F,0,120880,120917,1,0
Sprite,Foreground,Centre,"letters2\l.png",320,240 F,0,117880,118030,0,1 M,0,117880,121480,608.2065,253.2129,26.83871,253.2129 F,0,118030,121480,1 S,0,121480,,0.3145808 F,0,121480,121517,1,0
Sprite,Foreground,Centre,"letters2\o.png",320,240 F,0,118180,118330,0,1 M,0,118180,121780,608.2065,253.2129,26.83871,253.2129 F,0,118330,121780,1 S,0,121780,,0.3145808 F,0,121780,121817,1,0
Sprite,Foreground,Centre,"letters2\l.png",320,240 F,0,118480,118630,0,1 M,0,118480,122080,608.2065,253.2129,26.83871,253.2129 F,0,118630,122080,1 S,0,122080,,0.3145808 F,0,122080,122117,1,0
Sprite,Foreground,Centre,"letters2\l.png",320,240 F,0,118780,118930,0,1 M,0,118780,122380,608.2065,253.2129,26.83871,253.2129 F,0,118930,122380,1 S,0,122380,,0.3145808 F,0,122380,122417,1,0
Sprite,Foreground,Centre,"letters2\g.png",320,240 F,0,119380,119530,0,1 M,0,119380,122980,608.2065,253.2129,26.83871,253.2129 F,0,119530,122980,1 S,0,122980,,0.3145808 F,0,122980,123017,1,0
Sprite,Foreground,Centre,"letters2\u.png",320,240 F,0,119680,119830,0,1 M,0,119680,123280,608.2065,253.2129,26.83871,253.2129 F,0,119830,123280,1 S,0,123280,,0.3145808 F,0,123280,123317,1,0
Sprite,Foreground,Centre,"letters2\i.png",320,240 F,0,119980,120130,0,1 M,0,119980,123580,608.2065,253.2129,26.83871,253.2129 F,0,120130,123580,1 S,0,123580,,0.3145808 F,0,123580,123617,1,0
Sprite,Foreground,Centre,"letters2\s.png",320,240 F,0,120280,120430,0,1 M,0,120280,123880,608.2065,253.2129,26.83871,253.2129 F,0,120430,123880,1 S,0,123880,,0.3145808 F,0,123880,123917,1,0
Sprite,Foreground,Centre,"letters2\e.png",320,240 F,0,120580,120730,0,1 M,0,120580,124180,608.2065,253.2129,26.83871,253.2129 F,0,120730,124180,1 S,0,124180,,0.3145808 F,0,124180,124217,1,0
Sprite,Foreground,Centre,"letters2\e.png",320,240 F,0,98380,98530,0,1 M,0,98380,101980,608.2065,253.2129,26.83871,253.2129 F,0,98530,101980,1 S,0,101980,,0.3145808 F,0,101980,102017,1,0
Sprite,Foreground,Centre,"letters2\l.png",320,240 F,0,98080,98230,0,1 M,0,98080,101680,608.2065,253.2129,26.83871,253.2129 F,0,98230,101680,1 S,0,101680,,0.3145808 F,0,101680,101717,1,0
//Storyboard Sound Samples

[TimingPoints]
4780,600,3,1,1,100,1,0
33580,600,4,1,1,100,1,0
35980,600,3,1,1,100,1,0
93580,600,4,1,1,100,1,0
95680,600,3,1,1,100,1,0

[HitObjects]
99,192,4780,5,0,0:0:0:0:
42,192,5380,1,0,0:0:0:0:
298,192,5980,1,0,0:0:0:0:
99,192,6280,1,0,0:0:0:0:
128,192,6580,1,0,0:0:0:0:
497,192,7180,1,0,0:0:0:0:
213,192,7780,1,0,0:0:0:0:
298,192,8080,1,0,0:0:0:0:
99,192,8380,1,0,0:0:0:0:
99,192,8980,1,0,0:0:0:0:
184,192,9580,1,0,0:0:0:0:
497,192,9880,1,0,0:0:0:0:
99,192,10180,1,0,0:0:0:0:
42,192,10780,1,0,0:0:0:0:
99,192,11080,1,0,0:0:0:0:
412,192,11380,1,0,0:0:0:0:
42,192,11680,1,0,0:0:0:0:
71,192,11980,1,0,0:0:0:0:
384,192,12580,1,0,0:0:0:0:
42,192,13180,1,0,0:0:0:0:
42,192,13480,1,0,0:0:0:0:
469,192,13780,1,0,0:0:0:0:
355,192,14380,1,0,0:0:0:0:
270,192,14980,1,0,0:0:0:0:
99,192,15280,1,0,0:0:0:0:
42,192,15580,1,0,0:0:0:0:
71,192,16180,1,0,0:0:0:0:
270,192,16780,1,0,0:0:0:0:
298,192,17080,1,0,0:0:0:0:
412,192,17380,1,0,0:0:0:0:
298,192,17980,1,0,0:0:0:0:
270,192,18280,1,0,0:0:0:0:
99,192,18580,1,0,0:0:0:0:
156,192,18880,1,0,0:0:0:0:
71,192,19180,1,0,0:0:0:0:
327,192,19480,1,0,0:0:0:0:
270,192,19780,1,0,0:0:0:0:
128,192,20080,1,0,0:0:0:0:
270,192,20680,1,0,0:0:0:0:
327,192,20980,1,0,0:0:0:0:
213,192,21580,1,0,0:0:0:0:
241,192,21880,1,0,0:0:0:0:
99,192,22180,1,0,0:0:0:0:
355,192,22780,1,0,0:0:0:0:
270,192,23080,1,0,0:0:0:0:
71,192,23380,1,0,0:0:0:0:
42,192,23680,1,0,0:0:0:0:
298,192,24280,1,0,0:0:0:0:
99,192,24580,1,0,0:0:0:0:
270,192,25180,1,0,0:0:0:0:
71,192,25480,1,0,0:0:0:0:
469,192,25780,1,0,0:0:0:0:
497,192,26380,1,0,0:0:0:0:
270,192,26680,1,0,0:0:0:0:
71,192,26980,1,0,0:0:0:0:
469,192,27280,1,0,0:0:0:0:
298,192,27880,1,0,0:0:0:0:
412,192,28180,1,0,0:0:0:0:
270,192,28780,1,0,0:0:0:0:
497,192,29080,1,0,0:0:0:0:
497,192,29380,1,0,0:0:0:0:
99,192,29980,1,0,0:0:0:0:
71,192,30280,1,0,0:0:0:0:
42,192,30580,1,0,0:0:0:0:
469,192,30880,1,0,0:0:0:0:
355,192,31480,1,0,0:0:0:0:
497,192,31780,1,0,0:0:0:0:
184,192,32080,1,0,0:0:0:0:
99,192,32380,1,0,0:0:0:0:
298,192,32980,1,0,0:0:0:0:
42,192,33280,1,0,0:0:0:0:
440,192,35980,1,0,0:0:0:0:
42,192,37780,1,0,0:0:0:0:
298,192,38230,1,0,0:0:0:0:
99,192,38680,1,0,0:0:0:0:
42,192,38980,1,0,0:0:0:0:
71,192,39580,1,0,0:0:0:0:
355,192,41380,1,0,0:0:0:0:
213,192,41830,1,0,0:0:0:0:
497,192,42280,1,0,0:0:0:0:
327,192,43180,1,0,0:0:0:0:
327,192,44680,1,0,0:0:0:0:
184,192,45130,1,0,0:0:0:0:
99,192,45430,1,0,0:0:0:0:
412,192,45730,1,0,0:0:0:0:
42,192,46030,1,0,0:0:0:0:
71,192,46630,1,0,0:0:0:0:
469,192,48580,1,0,0:0:0:0:
14,192,49030,1,0,0:0:0:0:
412,192,50380,1,0,0:0:0:0:
184,192,50680,1,0,0:0:0:0:
469,192,50980,1,0,0:0:0:0:
42,192,51580,1,0,0:0:0:0:
241,192,52180,1,0,0:0:0:0:
71,192,52480,1,0,0:0:0:0:
42,192,52780,1,0,0:0:0:0:
298,192,53080,1,0,0:0:0:0:
298,192,53380,1,0,0:0:0:0:
270,192,53980,1,0,0:0:0:0:
156,192,54280,1,0,0:0:0:0:
71,192,54580,1,0,0:0:0:0:
270,192,55180,1,0,0:0:0:0:
327,192,55780,1,0,0:0:0:0:
71,192,56080,1,0,0:0:0:0:
42,192,56380,1,0,0:0:0:0:
298,192,56680,1,0,0:0:0:0:
298,192,56980,1,0,0:0:0:0:
298,192,57580,1,0,0:0:0:0:
497,192,58180,1,0,0:0:0:0:
156,192,58480,1,0,0:0:0:0:
384,192,58780,1,0,0:0:0:0:
384,192,59380,1,0,0:0:0:0:
497,192,59680,1,0,0:0:0:0:
42,192,59980,1,0,0:0:0:0:
42,192,60280,1,0,0:0:0:0:
71,192,60880,1,0,0:0:0:0:
213,192,61180,1,0,0:0:0:0:
156,192,61480,1,0,0:0:0:0:
384,192,61780,1,0,0:0:0:0:
412,192,62380,1,0,0:0:0:0:
298,192,62980,1,0,0:0:0:0:
156,192,63280,1,0,0:0:0:0:
71,192,63580,1,0,0:0:0:0:
384,192,63880,1,0,0:0:0:0:
42,192,64180,1,0,0:0:0:0:
71,192,64780,1,0,0:0:0:0:
213,192,65380,1,0,0:0:0:0:
14,192,65680,1,0,0:0:0:0:
327,192,65980,1,0,0:0:0:0:
128,192,66280,1,0,0:0:0:0:
298,192,66880,1,0,0:0:0:0:
156,192,67180,1,0,0:0:0:0:
327,192,67480,1,0,0:0:0:0:
298,192,67780,1,0,0:0:0:0:
412,192,68380,1,0,0:0:0:0:
42,192,68830,1,0,0:0:0:0:
71,192,69130,1,0,0:0:0:0:
298,192,69430,1,0,0:0:0:0:
384,192,70180,1,0,0:0:0:0:
71,192,70480,1,0,0:0:0:0:
270,192,70780,1,0,0:0:0:0:
327,192,71080,1,0,0:0:0:0:
156,192,71380,1,0,0:0:0:0:
270,192,71680,1,0,0:0:0:0:
497,192,71980,1,0,0:0:0:0:
241,192,72430,1,0,0:0:0:0:
42,192,72880,1,0,0:0:0:0:
14,192,73180,1,0,0:0:0:0:
71,192,73780,1,0,0:0:0:0:
270,192,74230,1,0,0:0:0:0:
184,192,74680,1,0,0:0:0:0:
327,192,74980,1,0,0:0:0:0:
99,192,75580,1,0,0:0:0:0:
213,192,76030,1,0,0:0:0:0:
14,192,76480,1,0,0:0:0:0:
42,192,76780,1,0,0:0:0:0:
71,192,77080,1,0,0:0:0:0:
213,192,77380,1,0,0:0:0:0:
71,192,77980,1,0,0:0:0:0:
42,192,78580,1,0,0:0:0:0:
469,192,79180,1,0,0:0:0:0:
184,192,79480,1,0,0:0:0:0:
327,192,79780,1,0,0:0:0:0:
497,192,80380,1,0,0:0:0:0:
42,192,80680,1,0,0:0:0:0:
270,192,80980,1,0,0:0:0:0:
298,192,81280,1,0,0:0:0:0:
99,192,81580,1,0,0:0:0:0:
71,192,82180,1,0,0:0:0:0:
270,192,82480,1,0,0:0:0:0:
99,192,82780,1,0,0:0:0:0:
156,192,83380,1,0,0:0:0:0:
99,192,83680,1,0,0:0:0:0:
99,192,83980,1,0,0:0:0:0:
42,192,84280,1,0,0:0:0:0:
71,192,84580,1,0,0:0:0:0:
270,192,85180,1,0,0:0:0:0:
99,192,85480,1,0,0:0:0:0:
270,192,86080,1,0,0:0:0:0:
14,192,86380,1,0,0:0:0:0:
270,192,86680,1,0,0:0:0:0:
184,192,86980,1,0,0:0:0:0:
99,192,87280,1,0,0:0:0:0:
99,192,87880,1,0,0:0:0:0:
412,192,88180,1,0,0:0:0:0:
42,192,88780,1,0,0:0:0:0:
355,192,89080,1,0,0:0:0:0:
99,192,89380,1,0,0:0:0:0:
241,192,89980,1,0,0:0:0:0:
497,192,90280,1,0,0:0:0:0:
42,192,90580,1,0,0:0:0:0:
327,192,90880,1,0,0:0:0:0:
327,192,91480,1,0,0:0:0:0:
213,192,91780,1,0,0:0:0:0:
213,192,92080,1,0,0:0:0:0:
71,192,92380,1,0,0:0:0:0:
156,192,92980,1,0,0:0:0:0:
412,192,93280,1,0,0:0:0:0:
497,192,95680,1,0,0:0:0:0:
298,192,96280,1,0,0:0:0:0:
327,192,96730,1,0,0:0:0:0:
497,192,97180,1,0,0:0:0:0:
184,192,97480,1,0,0:0:0:0:
355,192,97780,1,0,0:0:0:0:
99,192,98080,1,0,0:0:0:0:
213,192,98530,1,0,0:0:0:0:
355,192,98980,1,0,0:0:0:0:
355,192,99280,1,0,0:0:0:0:
241,192,99880,1,0,0:0:0:0:
213,192,100180,1,0,0:0:0:0:
497,192,100480,1,0,0:0:0:0:
184,192,100780,1,0,0:0:0:0:
213,192,101080,1,0,0:0:0:0:
497,192,101680,1,0,0:0:0:0:
42,192,101980,1,0,0:0:0:0:
384,192,102280,1,0,0:0:0:0:
184,192,102580,1,0,0:0:0:0:
99,192,102880,1,0,0:0:0:0:
270,192,103480,1,0,0:0:0:0:
497,192,103780,1,0,0:0:0:0:
497,192,104080,1,0,0:0:0:0:
42,192,104380,1,0,0:0:0:0:
128,192,104680,1,0,0:0:0:0:
298,192,105280,1,0,0:0:0:0:
241,192,105580,1,0,0:0:0:0:
184,192,105880,1,0,0:0:0:0:
497,192,106180,1,0,0:0:0:0:
497,192,106480,1,0,0:0:0:0:
469,192,107080,1,0,0:0:0:0:
213,192,107380,1,0,0:0:0:0:
14,192,107680,1,0,0:0:0:0:
99,192,107980,1,0,0:0:0:0:
213,192,108280,1,0,0:0:0:0:
14,192,108580,1,0,0:0:0:0:
71,192,109180,1,0,0:0:0:0:
42,192,109480,1,0,0:0:0:0:
42,192,109780,1,0,0:0:0:0:
327,192,110080,1,0,0:0:0:0:
384,192,110680,1,0,0:0:0:0:
270,192,110980,1,0,0:0:0:0:
497,192,111280,1,0,0:0:0:0:
497,192,111580,1,0,0:0:0:0:
213,192,111880,1,0,0:0:0:0:
241,192,112180,1,0,0:0:0:0:
327,192,112780,1,0,0:0:0:0:
42,192,113080,1,0,0:0:0:0:
355,192,113380,1,0,0:0:0:0:
42,192,113680,1,0,0:0:0:0:
270,192,113980,1,0,0:0:0:0:
99,192,114280,1,0,0:0:0:0:
241,192,114880,1,0,0:0:0:0:
270,192,115180,1,0,0:0:0:0:
298,192,115480,1,0,0:0:0:0:
298,192,115780,1,0,0:0:0:0:
42,192,116080,1,0,0:0:0:0:
412,192,116680,1,0,0:0:0:0:
270,192,116980,1,0,0:0:0:0:
128,192,117280,1,0,0:0:0:0:
14,192,117880,1,0,0:0:0:0:
184,192,118180,1,0,0:0:0:0:
298,192,118480,1,0,0:0:0:0:
99,192,118780,1,0,0:0:0:0:
355,192,119080,1,0,0:0:0:0:
156,192,119380,1,0,0:0:0:0:
497,192,119680,1,0,0:0:0:0:
99,192,120280,1,0,0:0:0:0:
213,192,120580,1,0,0:0:0:0:
14,192,120880,1,0,0:0:0:0:
497,192,121480,1,0,0:0:0:0:
213,192,121780,1,0,0:0:0:0:
497,192,122080,1,0,0:0:0:0:
497,192,122380,1,0,0:0:0:0:
384,192,122980,1,0,0:0:0:0:
156,192,123280,1,0,0:0:0:0:
184,192,123580,1,0,0:0:0:0:
298,192,123880,1,0,0:0:0:0:
42,192,124180,1,0,0:0:0:0:
