osu file format v14

[General]
AudioFilename: audio.mp3
AudioLeadIn: 0
PreviewTime: 4780
Countdown: 0
SampleSet: None
StackLeniency: 0.7
Mode: 3
LetterboxInBreaks: 0
SkinPreference:osu!typing
SpecialStyle: 0
WidescreenStoryboard: 1

[Editor]
Bookmarks: 4780,6130,6880,7930,8680,9730,10480,11080,11980,13330,14080,15130,15880,16930,17680,18280,19780,20530,21280,22330,23080,24130,24880,25780,26680,27880,28930,29980,30730,31480,32080,33280,35380,37780,41080,42880,44680,48280,49930,50680,51730,52480,53530,54280,55330,56080,57130,57880,58930,59680,60730,61480,62530,63280,64330,65230,66730,68080,69730,70330,71380,72280,72880,74230,76030,77380,78880,80380,80980,82180,83230,83980,85030,85930,87280,88480,89080,89980,90880,91780,92530,95680,96730,97480,98530,99730,100480,101080,102130,103105,103780,104680,105430,106480,107230,107680,108430,108730,109330,109780,110530,111130,111505,112330,112780,113680,114130,114880,115480,116080,116830,117580,118180,118630,119080,119680,120280,120880,121480,121930,122380,123130,123880,124180
DistanceSpacing: 1
BeatDivisor: 12
GridSize: 4
TimelineZoom: 0.6999999

[Metadata]
Title:memoryfactory.lzh
TitleUnicode:memoryfactory.lzh
Artist:Frums
ArtistUnicode:Frums
Creator:Nivrad00
Version:Feisty
Source:
Tags:arcaea
BeatmapID:1299181
BeatmapSetID:615959

[Difficulty]
HPDrainRate:7
CircleSize:18
OverallDifficulty:7
ApproachRate:5
SliderMultiplier:1.4
SliderTickRate:1

[Events]
//Background and Video events
0,0,"memoryfactory.png",0,0
//Break Periods
//Storyboard Layer 0 (Background)
//Storyboard Layer 1 (Fail)
//Storyboard Layer 2 (Pass)
//Storyboard Layer 3 (Foreground)
Sprite,Foreground,Centre,"Plain-Black-Wallpaper.jpg",320,240 S,0,1780,,0.876129 F,0,1780,3077,0,0.4996129 M,0,1780,123230,318.3484,240,315.871,240 F,0,3077,124480,0.4996129 F,0,124480,125680,0.01203958,0
Sprite,Foreground,Centre,"bar.png",320,240 F,0,1780,3077,0,0.8 M,0,3077,,320,163.2001 V,0,3077,,4.592258,0.2815485 F,0,3077,124480,0.8 F,0,124480,,0.8 F,0,124480,125680,0.8,0
Sprite,Foreground,Centre,"track.png",320,240 F,0,1780,3077,0,1 S,0,2428,,0.6118707 M,0,2428,4801,320,253.2129,320.8258,253.2129 F,0,3077,124480,1 M,0,4801,123355,320.8258,253.2129,320.8258,252.3871 F,0,124480,,1 F,0,124480,125680,1,0.07692308
Sprite,Foreground,Centre,"letters2\f.png",320,240 F,0,3880,4030,0,1 M,0,3880,4780,608.2065,253.2129,26.83871,253.2129 F,0,4030,4780,1 S,0,4780,,0.3145808 F,0,4780,4817,1,0
Sprite,Foreground,Centre,"letters2\a.png",320,240 F,0,4180,4330,0,1 M,0,4180,5080,608.2065,253.2129,26.83871,253.2129 F,0,4330,5080,1 S,0,5080,,0.3145808 F,0,5080,5117,1,0
Sprite,Foreground,Centre,"letters2\t.png",320,240 F,0,4330,4480,0,1 M,0,4330,5230,608.2065,253.2129,26.83871,253.2129 F,0,4480,5230,1 S,0,5230,,0.3145808 F,0,5230,5267,1,0
Sprite,Foreground,Centre,"letters2\i.png",320,240 F,0,4480,4630,0,1 M,0,4480,5380,608.2065,253.2129,26.83871,253.2129 F,0,4630,5380,1 S,0,5380,,0.3145808 F,0,5380,5417,1,0
Sprite,Foreground,Centre,"letters2\g.png",320,240 F,0,4630,4780,0,1 M,0,4630,5530,608.2065,253.2129,26.83871,253.2129 F,0,4780,5530,1 S,0,5530,,0.3145808 F,0,5530,5567,1,0
Sprite,Foreground,Centre,"letters2\u.png",320,240 F,0,4780,4930,0,1 M,0,4780,5680,608.2065,253.2129,26.83871,253.2129 F,0,4930,5680,1 S,0,5680,,0.3145808 F,0,5680,5717,1,0
Sprite,Foreground,Centre,"letters2\e.png",320,240 F,0,4930,5080,0,1 M,0,4930,5830,608.2065,253.2129,26.83871,253.2129 F,0,5080,5830,1 S,0,5830,,0.3145808 F,0,5830,5867,1,0
Sprite,Foreground,Centre,"letters2\a.png",320,240 F,0,5230,5380,0,1 M,0,5230,6130,608.2065,253.2129,26.83871,253.2129 F,0,5380,6130,1 S,0,6130,,0.3145808 F,0,6130,6167,1,0
Sprite,Foreground,Centre,"letters2\g.png",320,240 F,0,5380,5530,0,1 M,0,5380,6280,608.2065,253.2129,26.83871,253.2129 F,0,5530,6280,1 S,0,6280,,0.3145808 F,0,6280,6317,1,0
Sprite,Foreground,Centre,"letters2\e.png",320,240 F,0,5530,5680,0,1 M,0,5530,6430,608.2065,253.2129,26.83871,253.2129 F,0,5680,6430,1 S,0,6430,,0.3145808 F,0,6430,6467,1,0
Sprite,Foreground,Centre,"letters2\d.png",320,240 F,0,5680,5830,0,1 M,0,5680,6580,608.2065,253.2129,26.83871,253.2129 F,0,5830,6580,1 S,0,6580,,0.3145808 F,0,6580,6617,1,0
Sprite,Foreground,Centre,"letters2\p.png",320,240 F,0,5980,6130,0,1 M,0,5980,6880,608.2065,253.2129,26.83871,253.2129 F,0,6130,6880,1 S,0,6880,,0.3145808 F,0,6880,6917,1,0
Sprite,Foreground,Centre,"letters2\a.png",320,240 F,0,6130,6280,0,1 M,0,6130,7030,608.2065,253.2129,26.83871,253.2129 F,0,6280,7030,1 S,0,7030,,0.3145808 F,0,7030,7067,1,0
Sprite,Foreground,Centre,"letters2\r.png",320,240 F,0,6280,6430,0,1 M,0,6280,7180,608.2065,253.2129,26.83871,253.2129 F,0,6430,7180,1 S,0,7180,,0.3145808 F,0,7180,7217,1,0
Sprite,Foreground,Centre,"letters2\o.png",320,240 F,0,6430,6580,0,1 M,0,6430,7330,608.2065,253.2129,26.83871,253.2129 F,0,6580,7330,1 S,0,7330,,0.3145808 F,0,7330,7367,1,0
Sprite,Foreground,Centre,"letters2\d.png",320,240 F,0,6580,6730,0,1 M,0,6580,7480,608.2065,253.2129,26.83871,253.2129 F,0,6730,7480,1 S,0,7480,,0.3145808 F,0,7480,7517,1,0
Sprite,Foreground,Centre,"letters2\y.png",320,240 F,0,6730,6880,0,1 M,0,6730,7630,608.2065,253.2129,26.83871,253.2129 F,0,6880,7630,1 S,0,7630,,0.3145808 F,0,7630,7667,1,0
Sprite,Foreground,Centre,"letters2\d.png",320,240 F,0,7030,7180,0,1 M,0,7030,7930,608.2065,253.2129,26.83871,253.2129 F,0,7180,7930,1 S,0,7930,,0.3145808 F,0,7930,7967,1,0
Sprite,Foreground,Centre,"letters2\r.png",320,240 F,0,7105,7255,0,1 M,0,7105,8005,608.2065,253.2129,26.83871,253.2129 F,0,7255,8005,1 S,0,8005,,0.3145808 F,0,8005,8042,1,0
Sprite,Foreground,Centre,"letters2\a.png",320,240 F,0,7180,7330,0,1 M,0,7180,8080,608.2065,253.2129,26.83871,253.2129 F,0,7330,8080,1 S,0,8080,,0.3145808 F,0,8080,8117,1,0
Sprite,Foreground,Centre,"letters2\p.png",320,240 F,0,7330,7480,0,1 M,0,7330,8230,608.2065,253.2129,26.83871,253.2129 F,0,7480,8230,1 S,0,8230,,0.3145808 F,0,8230,8267,1,0
Sprite,Foreground,Centre,"letters2\e.png",320,240 F,0,7480,7630,0,1 M,0,7480,8380,608.2065,253.2129,26.83871,253.2129 F,0,7630,8380,1 S,0,8380,,0.3145808 F,0,8380,8417,1,0
Sprite,Foreground,Centre,"letters2\d.png",320,240 F,0,7780,7930,0,1 M,0,7780,8680,608.2065,253.2129,26.83871,253.2129 F,0,7930,8680,1 S,0,8680,,0.3145808 F,0,8680,8717,1,0
Sprite,Foreground,Centre,"letters2\e.png",320,240 F,0,7930,8080,0,1 M,0,7930,8830,608.2065,253.2129,26.83871,253.2129 F,0,8080,8830,1 S,0,8830,,0.3145808 F,0,8830,8867,1,0
Sprite,Foreground,Centre,"letters2\t.png",320,240 F,0,8080,8230,0,1 M,0,8080,8980,608.2065,253.2129,26.83871,253.2129 F,0,8230,8980,1 S,0,8980,,0.3145808 F,0,8980,9017,1,0
Sprite,Foreground,Centre,"letters2\a.png",320,240 F,0,8230,8380,0,1 M,0,8230,9130,608.2065,253.2129,26.83871,253.2129 F,0,8380,9130,1 S,0,9130,,0.3145808 F,0,9130,9167,1,0
Sprite,Foreground,Centre,"letters2\i.png",320,240 F,0,8380,8530,0,1 M,0,8380,9280,608.2065,253.2129,26.83871,253.2129 F,0,8530,9280,1 S,0,9280,,0.3145808 F,0,9280,9317,1,0
Sprite,Foreground,Centre,"letters2\l.png",320,240 F,0,8530,8680,0,1 M,0,8530,9430,608.2065,253.2129,26.83871,253.2129 F,0,8680,9430,1 S,0,9430,,0.3145808 F,0,9430,9467,1,0
Sprite,Foreground,Centre,"letters2\h.png",320,240 F,0,8830,8980,0,1 M,0,8830,9730,608.2065,253.2129,26.83871,253.2129 F,0,8980,9730,1 S,0,9730,,0.3145808 F,0,9730,9767,1,0
Sprite,Foreground,Centre,"letters2\i.png",320,240 F,0,8980,9130,0,1 M,0,8980,9880,608.2065,253.2129,26.83871,253.2129 F,0,9130,9880,1 S,0,9880,,0.3145808 F,0,9880,9917,1,0
Sprite,Foreground,Centre,"letters2\r.png",320,240 F,0,9130,9280,0,1 M,0,9130,10030,608.2065,253.2129,26.83871,253.2129 F,0,9280,10030,1 S,0,10030,,0.3145808 F,0,10030,10067,1,0
Sprite,Foreground,Centre,"letters2\e.png",320,240 F,0,9280,9430,0,1 M,0,9280,10180,608.2065,253.2129,26.83871,253.2129 F,0,9430,10180,1 S,0,10180,,0.3145808 F,0,10180,10217,1,0
Sprite,Foreground,Centre,"letters2\u.png",320,240 F,0,9580,9730,0,1 M,0,9580,10480,608.2065,253.2129,26.83871,253.2129 F,0,9730,10480,1 S,0,10480,,0.3145808 F,0,10480,10517,1,0
Sprite,Foreground,Centre,"letters2\s.png",320,240 F,0,9655,9805,0,1 M,0,9655,10555,608.2065,253.2129,26.83871,253.2129 F,0,9805,10555,1 S,0,10555,,0.3145808 F,0,10555,10592,1,0
Sprite,Foreground,Centre,"letters2\a.png",320,240 F,0,9730,9880,0,1 M,0,9730,10630,608.2065,253.2129,26.83871,253.2129 F,0,9880,10630,1 S,0,10630,,0.3145808 F,0,10630,10667,1,0
Sprite,Foreground,Centre,"letters2\g.png",320,240 F,0,9805,9955,0,1 M,0,9805,10705,608.2065,253.2129,26.83871,253.2129 F,0,9955,10705,1 S,0,10705,,0.3145808 F,0,10705,10742,1,0
Sprite,Foreground,Centre,"letters2\e.png",320,240 F,0,9880,10030,0,1 M,0,9880,10780,608.2065,253.2129,26.83871,253.2129 F,0,10030,10780,1 S,0,10780,,0.3145808 F,0,10780,10817,1,0
Sprite,Foreground,Centre,"letters2\t.png",320,240 F,0,10180,10330,0,1 M,0,10180,11080,608.2065,253.2129,26.83871,253.2129 F,0,10330,11080,1 S,0,11080,,0.3145808 F,0,11080,11117,1,0
Sprite,Foreground,Centre,"letters2\w.png",320,240 F,0,10330,10480,0,1 M,0,10330,11230,608.2065,253.2129,26.83871,253.2129 F,0,10480,11230,1 S,0,11230,,0.3145808 F,0,11230,11267,1,0
Sprite,Foreground,Centre,"letters2\e.png",320,240 F,0,10480,10630,0,1 M,0,10480,11380,608.2065,253.2129,26.83871,253.2129 F,0,10630,11380,1 S,0,11380,,0.3145808 F,0,11380,11417,1,0
Sprite,Foreground,Centre,"letters2\a.png",320,240 F,0,10630,10780,0,1 M,0,10630,11530,608.2065,253.2129,26.83871,253.2129 F,0,10780,11530,1 S,0,11530,,0.3145808 F,0,11530,11567,1,0
Sprite,Foreground,Centre,"letters2\k.png",320,240 F,0,10780,10930,0,1 M,0,10780,11680,608.2065,253.2129,26.83871,253.2129 F,0,10930,11680,1 S,0,11680,,0.3145808 F,0,11680,11717,1,0
Sprite,Foreground,Centre,"letters2\s.png",320,240 F,0,11080,11230,0,1 M,0,11080,11980,608.2065,253.2129,26.83871,253.2129 F,0,11230,11980,1 S,0,11980,,0.3145808 F,0,11980,12017,1,0
Sprite,Foreground,Centre,"letters2\h.png",320,240 F,0,11380,11530,0,1 M,0,11380,12280,608.2065,253.2129,26.83871,253.2129 F,0,11530,12280,1 S,0,12280,,0.3145808 F,0,12280,12317,1,0
Sprite,Foreground,Centre,"letters2\a.png",320,240 F,0,11530,11680,0,1 M,0,11530,12430,608.2065,253.2129,26.83871,253.2129 F,0,11680,12430,1 S,0,12430,,0.3145808 F,0,12430,12467,1,0
Sprite,Foreground,Centre,"letters2\k.png",320,240 F,0,11680,11830,0,1 M,0,11680,12580,608.2065,253.2129,26.83871,253.2129 F,0,11830,12580,1 S,0,12580,,0.3145808 F,0,12580,12617,1,0
Sprite,Foreground,Centre,"letters2\i.png",320,240 F,0,11830,11980,0,1 M,0,11830,12730,608.2065,253.2129,26.83871,253.2129 F,0,11980,12730,1 S,0,12730,,0.3145808 F,0,12730,12767,1,0
Sprite,Foreground,Centre,"letters2\l.png",320,240 F,0,11980,12130,0,1 M,0,11980,12880,608.2065,253.2129,26.83871,253.2129 F,0,12130,12880,1 S,0,12880,,0.3145808 F,0,12880,12917,1,0
Sprite,Foreground,Centre,"letters2\y.png",320,240 F,0,12130,12280,0,1 M,0,12130,13030,608.2065,253.2129,26.83871,253.2129 F,0,12280,13030,1 S,0,13030,,0.3145808 F,0,13030,13067,1,0
Sprite,Foreground,Centre,"letters2\g.png",320,240 F,0,12430,12580,0,1 M,0,12430,13330,608.2065,253.2129,26.83871,253.2129 F,0,12580,13330,1 S,0,13330,,0.3145808 F,0,13330,13367,1,0
Sprite,Foreground,Centre,"letters2\a.png",320,240 F,0,12580,12730,0,1 M,0,12580,13480,608.2065,253.2129,26.83871,253.2129 F,0,12730,13480,1 S,0,13480,,0.3145808 F,0,13480,13517,1,0
Sprite,Foreground,Centre,"letters2\l.png",320,240 F,0,12730,12880,0,1 M,0,12730,13630,608.2065,253.2129,26.83871,253.2129 F,0,12880,13630,1 S,0,13630,,0.3145808 F,0,13630,13667,1,0
Sprite,Foreground,Centre,"letters2\a.png",320,240 F,0,12880,13030,0,1 M,0,12880,13780,608.2065,253.2129,26.83871,253.2129 F,0,13030,13780,1 S,0,13780,,0.3145808 F,0,13780,13817,1,0
Sprite,Foreground,Centre,"letters2\t.png",320,240 F,0,13180,13330,0,1 M,0,13180,14080,608.2065,253.2129,26.83871,253.2129 F,0,13330,14080,1 S,0,14080,,0.3145808 F,0,14080,14117,1,0
Sprite,Foreground,Centre,"letters2\h.png",320,240 F,0,13330,13480,0,1 M,0,13330,14230,608.2065,253.2129,26.83871,253.2129 F,0,13480,14230,1 S,0,14230,,0.3145808 F,0,14230,14267,1,0
Sprite,Foreground,Centre,"letters2\r.png",320,240 F,0,13480,13630,0,1 M,0,13480,14380,608.2065,253.2129,26.83871,253.2129 F,0,13630,14380,1 S,0,14380,,0.3145808 F,0,14380,14417,1,0
Sprite,Foreground,Centre,"letters2\u.png",320,240 F,0,13630,13780,0,1 M,0,13630,14530,608.2065,253.2129,26.83871,253.2129 F,0,13780,14530,1 S,0,14530,,0.3145808 F,0,14530,14567,1,0
Sprite,Foreground,Centre,"letters2\s.png",320,240 F,0,13780,13930,0,1 M,0,13780,14680,608.2065,253.2129,26.83871,253.2129 F,0,13930,14680,1 S,0,14680,,0.3145808 F,0,14680,14717,1,0
Sprite,Foreground,Centre,"letters2\t.png",320,240 F,0,13930,14080,0,1 M,0,13930,14830,608.2065,253.2129,26.83871,253.2129 F,0,14080,14830,1 S,0,14830,,0.3145808 F,0,14830,14867,1,0
Sprite,Foreground,Centre,"letters2\g.png",320,240 F,0,14230,14380,0,1 M,0,14230,15130,608.2065,253.2129,26.83871,253.2129 F,0,14380,15130,1 S,0,15130,,0.3145808 F,0,15130,15167,1,0
Sprite,Foreground,Centre,"letters2\a.png",320,240 F,0,14305,14455,0,1 M,0,14305,15205,608.2065,253.2129,26.83871,253.2129 F,0,14455,15205,1 S,0,15205,,0.3145808 F,0,15205,15242,1,0
Sprite,Foreground,Centre,"letters2\f.png",320,240 F,0,14380,14530,0,1 M,0,14380,15280,608.2065,253.2129,26.83871,253.2129 F,0,14530,15280,1 S,0,15280,,0.3145808 F,0,15280,15317,1,0
Sprite,Foreground,Centre,"letters2\f.png",320,240 F,0,14530,14680,0,1 M,0,14530,15430,608.2065,253.2129,26.83871,253.2129 F,0,14680,15430,1 S,0,15430,,0.3145808 F,0,15430,15467,1,0
Sprite,Foreground,Centre,"letters2\e.png",320,240 F,0,14680,14830,0,1 M,0,14680,15580,608.2065,253.2129,26.83871,253.2129 F,0,14830,15580,1 S,0,15580,,0.3145808 F,0,15580,15617,1,0
Sprite,Foreground,Centre,"letters2\d.png",320,240 F,0,14980,15130,0,1 M,0,14980,15880,608.2065,253.2129,26.83871,253.2129 F,0,15130,15880,1 S,0,15880,,0.3145808 F,0,15880,15917,1,0
Sprite,Foreground,Centre,"letters2\e.png",320,240 F,0,15130,15280,0,1 M,0,15130,16030,608.2065,253.2129,26.83871,253.2129 F,0,15280,16030,1 S,0,16030,,0.3145808 F,0,16030,16067,1,0
Sprite,Foreground,Centre,"letters2\p.png",320,240 F,0,15280,15430,0,1 M,0,15280,16180,608.2065,253.2129,26.83871,253.2129 F,0,15430,16180,1 S,0,16180,,0.3145808 F,0,16180,16217,1,0
Sprite,Foreground,Centre,"letters2\l.png",320,240 F,0,15430,15580,0,1 M,0,15430,16330,608.2065,253.2129,26.83871,253.2129 F,0,15580,16330,1 S,0,16330,,0.3145808 F,0,16330,16367,1,0
Sprite,Foreground,Centre,"letters2\o.png",320,240 F,0,15580,15730,0,1 M,0,15580,16480,608.2065,253.2129,26.83871,253.2129 F,0,15730,16480,1 S,0,16480,,0.3145808 F,0,16480,16517,1,0
Sprite,Foreground,Centre,"letters2\y.png",320,240 F,0,15730,15880,0,1 M,0,15730,16630,608.2065,253.2129,26.83871,253.2129 F,0,15880,16630,1 S,0,16630,,0.3145808 F,0,16630,16667,1,0
Sprite,Foreground,Centre,"letters2\p.png",320,240 F,0,16030,16180,0,1 M,0,16030,16930,608.2065,253.2129,26.83871,253.2129 F,0,16180,16930,1 S,0,16930,,0.3145808 F,0,16930,16967,1,0
Sprite,Foreground,Centre,"letters2\o.png",320,240 F,0,16180,16330,0,1 M,0,16180,17080,608.2065,253.2129,26.83871,253.2129 F,0,16330,17080,1 S,0,17080,,0.3145808 F,0,17080,17117,1,0
Sprite,Foreground,Centre,"letters2\p.png",320,240 F,0,16330,16480,0,1 M,0,16330,17230,608.2065,253.2129,26.83871,253.2129 F,0,16480,17230,1 S,0,17230,,0.3145808 F,0,17230,17267,1,0
Sprite,Foreground,Centre,"letters2\e.png",320,240 F,0,16480,16630,0,1 M,0,16480,17380,608.2065,253.2129,26.83871,253.2129 F,0,16630,17380,1 S,0,17380,,0.3145808 F,0,17380,17417,1,0
Sprite,Foreground,Centre,"letters2\e.png",320,240 F,0,16780,16930,0,1 M,0,16780,17680,608.2065,253.2129,26.83871,253.2129 F,0,16930,17680,1 S,0,17680,,0.3145808 F,0,17680,17717,1,0
Sprite,Foreground,Centre,"letters2\k.png",320,240 F,0,16930,17080,0,1 M,0,16930,17830,608.2065,253.2129,26.83871,253.2129 F,0,17080,17830,1 S,0,17830,,0.3145808 F,0,17830,17867,1,0
Sprite,Foreground,Centre,"letters2\e.png",320,240 F,0,17080,17230,0,1 M,0,17080,17980,608.2065,253.2129,26.83871,253.2129 F,0,17230,17980,1 S,0,17980,,0.3145808 F,0,17980,18017,1,0
Sprite,Foreground,Centre,"letters2\r.png",320,240 F,0,17380,17530,0,1 M,0,17380,18280,608.2065,253.2129,26.83871,253.2129 F,0,17530,18280,1 S,0,18280,,0.3145808 F,0,18280,18317,1,0
Sprite,Foreground,Centre,"letters2\e.png",320,240 F,0,17530,17680,0,1 M,0,17530,18430,608.2065,253.2129,26.83871,253.2129 F,0,17680,18430,1 S,0,18430,,0.3145808 F,0,18430,18467,1,0
Sprite,Foreground,Centre,"letters2\g.png",320,240 F,0,17680,17830,0,1 M,0,17680,18580,608.2065,253.2129,26.83871,253.2129 F,0,17830,18580,1 S,0,18580,,0.3145808 F,0,18580,18617,1,0
Sprite,Foreground,Centre,"letters2\a.png",320,240 F,0,17830,17980,0,1 M,0,17830,18730,608.2065,253.2129,26.83871,253.2129 F,0,17980,18730,1 S,0,18730,,0.3145808 F,0,18730,18767,1,0
Sprite,Foreground,Centre,"letters2\r.png",320,240 F,0,17980,18130,0,1 M,0,17980,18880,608.2065,253.2129,26.83871,253.2129 F,0,18130,18880,1 S,0,18880,,0.3145808 F,0,18880,18917,1,0
Sprite,Foreground,Centre,"letters2\d.png",320,240 F,0,18130,18280,0,1 M,0,18130,19030,608.2065,253.2129,26.83871,253.2129 F,0,18280,19030,1 S,0,19030,,0.3145808 F,0,19030,19067,1,0
Sprite,Foreground,Centre,"letters2\l.png",320,240 F,0,18205,18355,0,1 M,0,18205,19105,608.2065,253.2129,26.83871,253.2129 F,0,18355,19105,1 S,0,19105,,0.3145808 F,0,19105,19142,1,0
Sprite,Foreground,Centre,"letters2\e.png",320,240 F,0,18280,18430,0,1 M,0,18280,19180,608.2065,253.2129,26.83871,253.2129 F,0,18430,19180,1 S,0,19180,,0.3145808 F,0,19180,19217,1,0
Sprite,Foreground,Centre,"letters2\s.png",320,240 F,0,18430,18580,0,1 M,0,18430,19330,608.2065,253.2129,26.83871,253.2129 F,0,18580,19330,1 S,0,19330,,0.3145808 F,0,19330,19367,1,0
Sprite,Foreground,Centre,"letters2\s.png",320,240 F,0,18580,18730,0,1 M,0,18580,19480,608.2065,253.2129,26.83871,253.2129 F,0,18730,19480,1 S,0,19480,,0.3145808 F,0,19480,19517,1,0
Sprite,Foreground,Centre,"letters2\j.png",320,240 F,0,18880,19030,0,1 M,0,18880,19780,608.2065,253.2129,26.83871,253.2129 F,0,19030,19780,1 S,0,19780,,0.3145808 F,0,19780,19817,1,0
Sprite,Foreground,Centre,"letters2\i.png",320,240 F,0,19180,19330,0,1 M,0,19180,20080,608.2065,253.2129,26.83871,253.2129 F,0,19330,20080,1 S,0,20080,,0.3145808 F,0,20080,20117,1,0
Sprite,Foreground,Centre,"letters2\g.png",320,240 F,0,19330,19480,0,1 M,0,19330,20230,608.2065,253.2129,26.83871,253.2129 F,0,19480,20230,1 S,0,20230,,0.3145808 F,0,20230,20267,1,0
Sprite,Foreground,Centre,"letters2\a.png",320,240 F,0,19630,19780,0,1 M,0,19630,20530,608.2065,253.2129,26.83871,253.2129 F,0,19780,20530,1 S,0,20530,,0.3145808 F,0,20530,20567,1,0
Sprite,Foreground,Centre,"letters2\u.png",320,240 F,0,19780,19930,0,1 M,0,19780,20680,608.2065,253.2129,26.83871,253.2129 F,0,19930,20680,1 S,0,20680,,0.3145808 F,0,20680,20717,1,0
Sprite,Foreground,Centre,"letters2\t.png",320,240 F,0,19930,20080,0,1 M,0,19930,20830,608.2065,253.2129,26.83871,253.2129 F,0,20080,20830,1 S,0,20830,,0.3145808 F,0,20830,20867,1,0
Sprite,Foreground,Centre,"letters2\o.png",320,240 F,0,20080,20230,0,1 M,0,20080,20980,608.2065,253.2129,26.83871,253.2129 F,0,20230,20980,1 S,0,20980,,0.3145808 F,0,20980,21017,1,0
Sprite,Foreground,Centre,"letters2\a.png",320,240 F,0,20380,20530,0,1 M,0,20380,21280,608.2065,253.2129,26.83871,253.2129 F,0,20530,21280,1 S,0,21280,,0.3145808 F,0,21280,21317,1,0
Sprite,Foreground,Centre,"letters2\d.png",320,240 F,0,20530,20680,0,1 M,0,20530,21430,608.2065,253.2129,26.83871,253.2129 F,0,20680,21430,1 S,0,21430,,0.3145808 F,0,21430,21467,1,0
Sprite,Foreground,Centre,"letters2\j.png",320,240 F,0,20680,20830,0,1 M,0,20680,21580,608.2065,253.2129,26.83871,253.2129 F,0,20830,21580,1 S,0,21580,,0.3145808 F,0,21580,21617,1,0
Sprite,Foreground,Centre,"letters2\u.png",320,240 F,0,20830,20980,0,1 M,0,20830,21730,608.2065,253.2129,26.83871,253.2129 F,0,20980,21730,1 S,0,21730,,0.3145808 F,0,21730,21767,1,0
Sprite,Foreground,Centre,"letters2\s.png",320,240 F,0,20980,21130,0,1 M,0,20980,21880,608.2065,253.2129,26.83871,253.2129 F,0,21130,21880,1 S,0,21880,,0.3145808 F,0,21880,21917,1,0
Sprite,Foreground,Centre,"letters2\t.png",320,240 F,0,21130,21280,0,1 M,0,21130,22030,608.2065,253.2129,26.83871,253.2129 F,0,21280,22030,1 S,0,22030,,0.3145808 F,0,22030,22067,1,0
Sprite,Foreground,Centre,"letters2\s.png",320,240 F,0,21430,21580,0,1 M,0,21430,22330,608.2065,253.2129,26.83871,253.2129 F,0,21580,22330,1 S,0,22330,,0.3145808 F,0,22330,22367,1,0
Sprite,Foreground,Centre,"letters2\p.png",320,240 F,0,21505,21655,0,1 M,0,21505,22405,608.2065,253.2129,26.83871,253.2129 F,0,21655,22405,1 S,0,22405,,0.3145808 F,0,22405,22442,1,0
Sprite,Foreground,Centre,"letters2\r.png",320,240 F,0,21580,21730,0,1 M,0,21580,22480,608.2065,253.2129,26.83871,253.2129 F,0,21730,22480,1 S,0,22480,,0.3145808 F,0,22480,22517,1,0
Sprite,Foreground,Centre,"letters2\i.png",320,240 F,0,21730,21880,0,1 M,0,21730,22630,608.2065,253.2129,26.83871,253.2129 F,0,21880,22630,1 S,0,22630,,0.3145808 F,0,22630,22667,1,0
Sprite,Foreground,Centre,"letters2\g.png",320,240 F,0,21880,22030,0,1 M,0,21880,22780,608.2065,253.2129,26.83871,253.2129 F,0,22030,22780,1 S,0,22780,,0.3145808 F,0,22780,22817,1,0
Sprite,Foreground,Centre,"letters2\s.png",320,240 F,0,22180,22330,0,1 M,0,22180,23080,608.2065,253.2129,26.83871,253.2129 F,0,22330,23080,1 S,0,23080,,0.3145808 F,0,23080,23117,1,0
Sprite,Foreground,Centre,"letters2\h.png",320,240 F,0,22330,22480,0,1 M,0,22330,23230,608.2065,253.2129,26.83871,253.2129 F,0,22480,23230,1 S,0,23230,,0.3145808 F,0,23230,23267,1,0
Sprite,Foreground,Centre,"letters2\o.png",320,240 F,0,22480,22630,0,1 M,0,22480,23380,608.2065,253.2129,26.83871,253.2129 F,0,22630,23380,1 S,0,23380,,0.3145808 F,0,23380,23417,1,0
Sprite,Foreground,Centre,"letters2\u.png",320,240 F,0,22630,22780,0,1 M,0,22630,23530,608.2065,253.2129,26.83871,253.2129 F,0,22780,23530,1 S,0,23530,,0.3145808 F,0,23530,23567,1,0
Sprite,Foreground,Centre,"letters2\l.png",320,240 F,0,22780,22930,0,1 M,0,22780,23680,608.2065,253.2129,26.83871,253.2129 F,0,22930,23680,1 S,0,23680,,0.3145808 F,0,23680,23717,1,0
Sprite,Foreground,Centre,"letters2\d.png",320,240 F,0,22930,23080,0,1 M,0,22930,23830,608.2065,253.2129,26.83871,253.2129 F,0,23080,23830,1 S,0,23830,,0.3145808 F,0,23830,23867,1,0
Sprite,Foreground,Centre,"letters2\w.png",320,240 F,0,23230,23380,0,1 M,0,23230,24130,608.2065,253.2129,26.83871,253.2129 F,0,23380,24130,1 S,0,24130,,0.3145808 F,0,24130,24167,1,0
Sprite,Foreground,Centre,"letters2\e.png",320,240 F,0,23380,23530,0,1 M,0,23380,24280,608.2065,253.2129,26.83871,253.2129 F,0,23530,24280,1 S,0,24280,,0.3145808 F,0,24280,24317,1,0
Sprite,Foreground,Centre,"letters2\p.png",320,240 F,0,23530,23680,0,1 M,0,23530,24430,608.2065,253.2129,26.83871,253.2129 F,0,23680,24430,1 S,0,24430,,0.3145808 F,0,24430,24467,1,0
Sprite,Foreground,Centre,"letters2\t.png",320,240 F,0,23680,23830,0,1 M,0,23680,24580,608.2065,253.2129,26.83871,253.2129 F,0,23830,24580,1 S,0,24580,,0.3145808 F,0,24580,24617,1,0
Sprite,Foreground,Centre,"letters2\p.png",320,240 F,0,23980,24130,0,1 M,0,23980,24880,608.2065,253.2129,26.83871,253.2129 F,0,24130,24880,1 S,0,24880,,0.3145808 F,0,24880,24917,1,0
Sprite,Foreground,Centre,"letters2\i.png",320,240 F,0,24130,24280,0,1 M,0,24130,25030,608.2065,253.2129,26.83871,253.2129 F,0,24280,25030,1 S,0,25030,,0.3145808 F,0,25030,25067,1,0
Sprite,Foreground,Centre,"letters2\t.png",320,240 F,0,24280,24430,0,1 M,0,24280,25180,608.2065,253.2129,26.83871,253.2129 F,0,24430,25180,1 S,0,25180,,0.3145808 F,0,25180,25217,1,0
Sprite,Foreground,Centre,"letters2\i.png",320,240 F,0,24430,24580,0,1 M,0,24430,25330,608.2065,253.2129,26.83871,253.2129 F,0,24580,25330,1 S,0,25330,,0.3145808 F,0,25330,25367,1,0
Sprite,Foreground,Centre,"letters2\f.png",320,240 F,0,24505,24655,0,1 M,0,24505,25405,608.2065,253.2129,26.83871,253.2129 F,0,24655,25405,1 S,0,25405,,0.3145808 F,0,25405,25442,1,0
Sprite,Foreground,Centre,"letters2\u.png",320,240 F,0,24580,24730,0,1 M,0,24580,25480,608.2065,253.2129,26.83871,253.2129 F,0,24730,25480,1 S,0,25480,,0.3145808 F,0,25480,25517,1,0
Sprite,Foreground,Centre,"letters2\l.png",320,240 F,0,24730,24880,0,1 M,0,24730,25630,608.2065,253.2129,26.83871,253.2129 F,0,24880,25630,1 S,0,25630,,0.3145808 F,0,25630,25667,1,0
Sprite,Foreground,Centre,"letters2\i.png",320,240 F,0,24880,25030,0,1 M,0,24880,25780,608.2065,253.2129,26.83871,253.2129 F,0,25030,25780,1 S,0,25780,,0.3145808 F,0,25780,25817,1,0
Sprite,Foreground,Centre,"letters2\r.png",320,240 F,0,25030,25180,0,1 M,0,25030,25930,608.2065,253.2129,26.83871,253.2129 F,0,25180,25930,1 S,0,25930,,0.3145808 F,0,25930,25967,1,0
Sprite,Foreground,Centre,"letters2\a.png",320,240 F,0,25180,25330,0,1 M,0,25180,26080,608.2065,253.2129,26.83871,253.2129 F,0,25330,26080,1 S,0,26080,,0.3145808 F,0,26080,26117,1,0
Sprite,Foreground,Centre,"letters2\t.png",320,240 F,0,25330,25480,0,1 M,0,25330,26230,608.2065,253.2129,26.83871,253.2129 F,0,25480,26230,1 S,0,26230,,0.3145808 F,0,26230,26267,1,0
Sprite,Foreground,Centre,"letters2\e.png",320,240 F,0,25480,25630,0,1 M,0,25480,26380,608.2065,253.2129,26.83871,253.2129 F,0,25630,26380,1 S,0,26380,,0.3145808 F,0,26380,26417,1,0
Sprite,Foreground,Centre,"letters2\f.png",320,240 F,0,25780,25930,0,1 M,0,25780,26680,608.2065,253.2129,26.83871,253.2129 F,0,25930,26680,1 S,0,26680,,0.3145808 F,0,26680,26717,1,0
Sprite,Foreground,Centre,"letters2\o.png",320,240 F,0,25855,26005,0,1 M,0,25855,26755,608.2065,253.2129,26.83871,253.2129 F,0,26005,26755,1 S,0,26755,,0.3145808 F,0,26755,26792,1,0
Sprite,Foreground,Centre,"letters2\r.png",320,240 F,0,25930,26080,0,1 M,0,25930,26830,608.2065,253.2129,26.83871,253.2129 F,0,26080,26830,1 S,0,26830,,0.3145808 F,0,26830,26867,1,0
Sprite,Foreground,Centre,"letters2\t.png",320,240 F,0,26005,26155,0,1 M,0,26005,26905,608.2065,253.2129,26.83871,253.2129 F,0,26155,26905,1 S,0,26905,,0.3145808 F,0,26905,26942,1,0
Sprite,Foreground,Centre,"letters2\r.png",320,240 F,0,26080,26230,0,1 M,0,26080,26980,608.2065,253.2129,26.83871,253.2129 F,0,26230,26980,1 S,0,26980,,0.3145808 F,0,26980,27017,1,0
Sprite,Foreground,Centre,"letters2\e.png",320,240 F,0,26230,26380,0,1 M,0,26230,27130,608.2065,253.2129,26.83871,253.2129 F,0,26380,27130,1 S,0,27130,,0.3145808 F,0,27130,27167,1,0
Sprite,Foreground,Centre,"letters2\s.png",320,240 F,0,26530,26680,0,1 M,0,26530,27430,608.2065,253.2129,26.83871,253.2129 F,0,26680,27430,1 S,0,27430,,0.3145808 F,0,27430,27467,1,0
Sprite,Foreground,Centre,"letters2\s.png",320,240 F,0,26680,26830,0,1 M,0,26680,27580,608.2065,253.2129,26.83871,253.2129 F,0,26830,27580,1 S,0,27580,,0.3145808 F,0,27580,27617,1,0
Sprite,Foreground,Centre,"letters2\d.png",320,240 F,0,26980,27130,0,1 M,0,26980,27880,608.2065,253.2129,26.83871,253.2129 F,0,27130,27880,1 S,0,27880,,0.3145808 F,0,27880,27917,1,0
Sprite,Foreground,Centre,"letters2\a.png",320,240 F,0,27130,27280,0,1 M,0,27130,28030,608.2065,253.2129,26.83871,253.2129 F,0,27280,28030,1 S,0,28030,,0.3145808 F,0,28030,28067,1,0
Sprite,Foreground,Centre,"letters2\d.png",320,240 F,0,27280,27430,0,1 M,0,27280,28180,608.2065,253.2129,26.83871,253.2129 F,0,27430,28180,1 S,0,28180,,0.3145808 F,0,28180,28217,1,0
Sprite,Foreground,Centre,"letters2\d.png",320,240 F,0,27580,27730,0,1 M,0,27580,28480,608.2065,253.2129,26.83871,253.2129 F,0,27730,28480,1 S,0,28480,,0.3145808 F,0,28480,28517,1,0
Sprite,Foreground,Centre,"letters2\y.png",320,240 F,0,27730,27880,0,1 M,0,27730,28630,608.2065,253.2129,26.83871,253.2129 F,0,27880,28630,1 S,0,28630,,0.3145808 F,0,28630,28667,1,0
Sprite,Foreground,Centre,"letters2\s.png",320,240 F,0,28030,28180,0,1 M,0,28030,28930,608.2065,253.2129,26.83871,253.2129 F,0,28180,28930,1 S,0,28930,,0.3145808 F,0,28930,28967,1,0
Sprite,Foreground,Centre,"letters2\w.png",320,240 F,0,28180,28330,0,1 M,0,28180,29080,608.2065,253.2129,26.83871,253.2129 F,0,28330,29080,1 S,0,29080,,0.3145808 F,0,29080,29117,1,0
Sprite,Foreground,Centre,"letters2\e.png",320,240 F,0,28330,28480,0,1 M,0,28330,29230,608.2065,253.2129,26.83871,253.2129 F,0,28480,29230,1 S,0,29230,,0.3145808 F,0,29230,29267,1,0
Sprite,Foreground,Centre,"letters2\e.png",320,240 F,0,28480,28630,0,1 M,0,28480,29380,608.2065,253.2129,26.83871,253.2129 F,0,28630,29380,1 S,0,29380,,0.3145808 F,0,29380,29417,1,0
Sprite,Foreground,Centre,"letters2\p.png",320,240 F,0,28630,28780,0,1 M,0,28630,29530,608.2065,253.2129,26.83871,253.2129 F,0,28780,29530,1 S,0,29530,,0.3145808 F,0,29530,29567,1,0
Sprite,Foreground,Centre,"letters2\e.png",320,240 F,0,28705,28855,0,1 M,0,28705,29605,608.2065,253.2129,26.83871,253.2129 F,0,28855,29605,1 S,0,29605,,0.3145808 F,0,29605,29642,1,0
Sprite,Foreground,Centre,"letters2\r.png",320,240 F,0,28780,28930,0,1 M,0,28780,29680,608.2065,253.2129,26.83871,253.2129 F,0,28930,29680,1 S,0,29680,,0.3145808 F,0,29680,29717,1,0
Sprite,Foreground,Centre,"letters2\f.png",320,240 F,0,29080,29230,0,1 M,0,29080,29980,608.2065,253.2129,26.83871,253.2129 F,0,29230,29980,1 S,0,29980,,0.3145808 F,0,29980,30017,1,0
Sprite,Foreground,Centre,"letters2\i.png",320,240 F,0,29230,29380,0,1 M,0,29230,30130,608.2065,253.2129,26.83871,253.2129 F,0,29380,30130,1 S,0,30130,,0.3145808 F,0,30130,30167,1,0
Sprite,Foreground,Centre,"letters2\d.png",320,240 F,0,29305,29455,0,1 M,0,29305,30205,608.2065,253.2129,26.83871,253.2129 F,0,29455,30205,1 S,0,30205,,0.3145808 F,0,30205,30242,1,0
Sprite,Foreground,Centre,"letters2\g.png",320,240 F,0,29380,29530,0,1 M,0,29380,30280,608.2065,253.2129,26.83871,253.2129 F,0,29530,30280,1 S,0,30280,,0.3145808 F,0,30280,30317,1,0
Sprite,Foreground,Centre,"letters2\e.png",320,240 F,0,29455,29605,0,1 M,0,29455,30355,608.2065,253.2129,26.83871,253.2129 F,0,29605,30355,1 S,0,30355,,0.3145808 F,0,30355,30392,1,0
Sprite,Foreground,Centre,"letters2\t.png",320,240 F,0,29530,29680,0,1 M,0,29530,30430,608.2065,253.2129,26.83871,253.2129 F,0,29680,30430,1 S,0,30430,,0.3145808 F,0,30430,30467,1,0
Sprite,Foreground,Centre,"letters2\s.png",320,240 F,0,29830,29980,0,1 M,0,29830,30730,608.2065,253.2129,26.83871,253.2129 F,0,29980,30730,1 S,0,30730,,0.3145808 F,0,30730,30767,1,0
Sprite,Foreground,Centre,"letters2\t.png",320,240 F,0,29905,30055,0,1 M,0,29905,30805,608.2065,253.2129,26.83871,253.2129 F,0,30055,30805,1 S,0,30805,,0.3145808 F,0,30805,30842,1,0
Sprite,Foreground,Centre,"letters2\e.png",320,240 F,0,29980,30130,0,1 M,0,29980,30880,608.2065,253.2129,26.83871,253.2129 F,0,30130,30880,1 S,0,30880,,0.3145808 F,0,30880,30917,1,0
Sprite,Foreground,Centre,"letters2\e.png",320,240 F,0,30130,30280,0,1 M,0,30130,31030,608.2065,253.2129,26.83871,253.2129 F,0,30280,31030,1 S,0,31030,,0.3145808 F,0,31030,31067,1,0
Sprite,Foreground,Centre,"letters2\r.png",320,240 F,0,30280,30430,0,1 M,0,30280,31180,608.2065,253.2129,26.83871,253.2129 F,0,30430,31180,1 S,0,31180,,0.3145808 F,0,31180,31217,1,0
Sprite,Foreground,Centre,"letters2\p.png",320,240 F,0,30580,30730,0,1 M,0,30580,31480,608.2065,253.2129,26.83871,253.2129 F,0,30730,31480,1 S,0,31480,,0.3145808 F,0,31480,31517,1,0
Sprite,Foreground,Centre,"letters2\e.png",320,240 F,0,30730,30880,0,1 M,0,30730,31630,608.2065,253.2129,26.83871,253.2129 F,0,30880,31630,1 S,0,31630,,0.3145808 F,0,31630,31667,1,0
Sprite,Foreground,Centre,"letters2\g.png",320,240 F,0,30880,31030,0,1 M,0,30880,31780,608.2065,253.2129,26.83871,253.2129 F,0,31030,31780,1 S,0,31780,,0.3145808 F,0,31780,31817,1,0
Sprite,Foreground,Centre,"letters2\s.png",320,240 F,0,31180,31330,0,1 M,0,31180,32080,608.2065,253.2129,26.83871,253.2129 F,0,31330,32080,1 S,0,32080,,0.3145808 F,0,32080,32117,1,0
Sprite,Foreground,Centre,"letters2\w.png",320,240 F,0,31330,31480,0,1 M,0,31330,32230,608.2065,253.2129,26.83871,253.2129 F,0,31480,32230,1 S,0,32230,,0.3145808 F,0,32230,32267,1,0
Sprite,Foreground,Centre,"letters2\e.png",320,240 F,0,31630,31780,0,1 M,0,31630,32530,608.2065,253.2129,26.83871,253.2129 F,0,31780,32530,1 S,0,32530,,0.3145808 F,0,32530,32567,1,0
Sprite,Foreground,Centre,"letters2\a.png",320,240 F,0,31780,31930,0,1 M,0,31780,32680,608.2065,253.2129,26.83871,253.2129 F,0,31930,32680,1 S,0,32680,,0.3145808 F,0,32680,32717,1,0
Sprite,Foreground,Centre,"letters2\t.png",320,240 F,0,31930,32080,0,1 M,0,31930,32830,608.2065,253.2129,26.83871,253.2129 F,0,32080,32830,1 S,0,32830,,0.3145808 F,0,32830,32867,1,0
Sprite,Foreground,Centre,"letters2\s.png",320,240 F,0,32080,32230,0,1 M,0,32080,32980,608.2065,253.2129,26.83871,253.2129 F,0,32230,32980,1 S,0,32980,,0.3145808 F,0,32980,33017,1,0
Sprite,Foreground,Centre,"letters2\g.png",320,240 F,0,32380,32530,0,1 M,0,32380,33280,608.2065,253.2129,26.83871,253.2129 F,0,32530,33280,1 S,0,33280,,0.3145808 F,0,33280,33317,1,0
Sprite,Foreground,Centre,"letters2\i.png",320,240 F,0,32530,32680,0,1 M,0,32530,33430,608.2065,253.2129,26.83871,253.2129 F,0,32680,33430,1 S,0,33430,,0.3145808 F,0,33430,33467,1,0
Sprite,Foreground,Centre,"letters2\a.png",320,240 F,0,34480,34630,0,1 M,0,34480,35380,608.2065,253.2129,26.83871,253.2129 F,0,34630,35380,1 S,0,35380,,0.3145808 F,0,35380,35417,1,0
Sprite,Foreground,Centre,"letters2\g.png",320,240 F,0,34630,34780,0,1 M,0,34630,35530,608.2065,253.2129,26.83871,253.2129 F,0,34780,35530,1 S,0,35530,,0.3145808 F,0,35530,35567,1,0
Sprite,Foreground,Centre,"letters2\r.png",320,240 F,0,34780,34930,0,1 M,0,34780,35680,608.2065,253.2129,26.83871,253.2129 F,0,34930,35680,1 S,0,35680,,0.3145808 F,0,35680,35717,1,0
Sprite,Foreground,Centre,"letters2\e.png",320,240 F,0,35080,35230,0,1 M,0,35080,35980,608.2065,253.2129,26.83871,253.2129 F,0,35230,35980,1 S,0,35980,,0.3145808 F,0,35980,36017,1,0
Sprite,Foreground,Centre,"letters2\e.png",320,240 F,0,35230,35380,0,1 M,0,35230,36130,608.2065,253.2129,26.83871,253.2129 F,0,35380,36130,1 S,0,36130,,0.3145808 F,0,36130,36167,1,0
Sprite,Foreground,Centre,"letters2\h.png",320,240 F,0,36880,37030,0,1 M,0,36880,37780,608.2065,253.2129,26.83871,253.2129 F,0,37030,37780,1 S,0,37780,,0.3145808 F,0,37780,37817,1,0
Sprite,Foreground,Centre,"letters2\e.png",320,240 F,0,37030,37180,0,1 M,0,37030,37930,608.2065,253.2129,26.83871,253.2129 F,0,37180,37930,1 S,0,37930,,0.3145808 F,0,37930,37967,1,0
Sprite,Foreground,Centre,"letters2\l.png",320,240 F,0,37330,37480,0,1 M,0,37330,38230,608.2065,253.2129,26.83871,253.2129 F,0,37480,38230,1 S,0,38230,,0.3145808 F,0,38230,38267,1,0
Sprite,Foreground,Centre,"letters2\p.png",320,240 F,0,37780,37930,0,1 M,0,37780,38680,608.2065,253.2129,26.83871,253.2129 F,0,37930,38680,1 S,0,38680,,0.3145808 F,0,38680,38717,1,0
Sprite,Foreground,Centre,"letters2\f.png",320,240 F,0,38080,38230,0,1 M,0,38080,38980,608.2065,253.2129,26.83871,253.2129 F,0,38230,38980,1 S,0,38980,,0.3145808 F,0,38980,39017,1,0
Sprite,Foreground,Centre,"letters2\u.png",320,240 F,0,38380,38530,0,1 M,0,38380,39280,608.2065,253.2129,26.83871,253.2129 F,0,38530,39280,1 S,0,39280,,0.3145808 F,0,39280,39317,1,0
Sprite,Foreground,Centre,"letters2\l.png",320,240 F,0,38680,38830,0,1 M,0,38680,39580,608.2065,253.2129,26.83871,253.2129 F,0,38830,39580,1 S,0,39580,,0.3145808 F,0,39580,39617,1,0
Sprite,Foreground,Centre,"letters2\e.png",320,240 F,0,40180,40330,0,1 M,0,40180,41080,608.2065,253.2129,26.83871,253.2129 F,0,40330,41080,1 S,0,41080,,0.3145808 F,0,41080,41117,1,0
Sprite,Foreground,Centre,"letters2\r.png",320,240 F,0,40330,40480,0,1 M,0,40330,41230,608.2065,253.2129,26.83871,253.2129 F,0,40480,41230,1 S,0,41230,,0.3145808 F,0,41230,41267,1,0
Sprite,Foreground,Centre,"letters2\u.png",320,240 F,0,40480,40630,0,1 M,0,40480,41380,608.2065,253.2129,26.83871,253.2129 F,0,40630,41380,1 S,0,41380,,0.3145808 F,0,41380,41417,1,0
Sprite,Foreground,Centre,"letters2\p.png",320,240 F,0,40930,41080,0,1 M,0,40930,41830,608.2065,253.2129,26.83871,253.2129 F,0,41080,41830,1 S,0,41830,,0.3145808 F,0,41830,41867,1,0
Sprite,Foreground,Centre,"letters2\t.png",320,240 F,0,41380,41530,0,1 M,0,41380,42280,608.2065,253.2129,26.83871,253.2129 F,0,41530,42280,1 S,0,42280,,0.3145808 F,0,42280,42317,1,0
Sprite,Foreground,Centre,"letters2\g.png",320,240 F,0,41980,42130,0,1 M,0,41980,42880,608.2065,253.2129,26.83871,253.2129 F,0,42130,42880,1 S,0,42880,,0.3145808 F,0,42880,42917,1,0
Sprite,Foreground,Centre,"letters2\r.png",320,240 F,0,42055,42205,0,1 M,0,42055,42955,608.2065,253.2129,26.83871,253.2129 F,0,42205,42955,1 S,0,42955,,0.3145808 F,0,42955,42992,1,0
Sprite,Foreground,Centre,"letters2\e.png",320,240 F,0,42130,42280,0,1 M,0,42130,43030,608.2065,253.2129,26.83871,253.2129 F,0,42280,43030,1 S,0,43030,,0.3145808 F,0,43030,43067,1,0
Sprite,Foreground,Centre,"letters2\e.png",320,240 F,0,42205,42355,0,1 M,0,42205,43105,608.2065,253.2129,26.83871,253.2129 F,0,42355,43105,1 S,0,43105,,0.3145808 F,0,43105,43142,1,0
Sprite,Foreground,Centre,"letters2\t.png",320,240 F,0,42280,42430,0,1 M,0,42280,43180,608.2065,253.2129,26.83871,253.2129 F,0,42430,43180,1 S,0,43180,,0.3145808 F,0,43180,43217,1,0
Sprite,Foreground,Centre,"letters2\s.png",320,240 F,0,43780,43930,0,1 M,0,43780,44680,608.2065,253.2129,26.83871,253.2129 F,0,43930,44680,1 S,0,44680,,0.3145808 F,0,44680,44717,1,0
Sprite,Foreground,Centre,"letters2\t.png",320,240 F,0,43930,44080,0,1 M,0,43930,44830,608.2065,253.2129,26.83871,253.2129 F,0,44080,44830,1 S,0,44830,,0.3145808 F,0,44830,44867,1,0
Sprite,Foreground,Centre,"letters2\r.png",320,240 F,0,44230,44380,0,1 M,0,44230,45130,608.2065,253.2129,26.83871,253.2129 F,0,44380,45130,1 S,0,45130,,0.3145808 F,0,45130,45167,1,0
Sprite,Foreground,Centre,"letters2\a.png",320,240 F,0,44380,44530,0,1 M,0,44380,45280,608.2065,253.2129,26.83871,253.2129 F,0,44530,45280,1 S,0,45280,,0.3145808 F,0,45280,45317,1,0
Sprite,Foreground,Centre,"letters2\t.png",320,240 F,0,44530,44680,0,1 M,0,44530,45430,608.2065,253.2129,26.83871,253.2129 F,0,44680,45430,1 S,0,45430,,0.3145808 F,0,45430,45467,1,0
Sprite,Foreground,Centre,"letters2\o.png",320,240 F,0,44830,44980,0,1 M,0,44830,45730,608.2065,253.2129,26.83871,253.2129 F,0,44980,45730,1 S,0,45730,,0.3145808 F,0,45730,45767,1,0
Sprite,Foreground,Centre,"letters2\s.png",320,240 F,0,45130,45280,0,1 M,0,45130,46030,608.2065,253.2129,26.83871,253.2129 F,0,45280,46030,1 S,0,46030,,0.3145808 F,0,46030,46067,1,0
Sprite,Foreground,Centre,"letters2\p.png",320,240 F,0,45430,45580,0,1 M,0,45430,46330,608.2065,253.2129,26.83871,253.2129 F,0,45580,46330,1 S,0,46330,,0.3145808 F,0,46330,46367,1,0
Sprite,Foreground,Centre,"letters2\h.png",320,240 F,0,45730,45880,0,1 M,0,45730,46630,608.2065,253.2129,26.83871,253.2129 F,0,45880,46630,1 S,0,46630,,0.3145808 F,0,46630,46667,1,0
Sprite,Foreground,Centre,"letters2\e.png",320,240 F,0,46030,46180,0,1 M,0,46030,46930,608.2065,253.2129,26.83871,253.2129 F,0,46180,46930,1 S,0,46930,,0.3145808 F,0,46930,46967,1,0
Sprite,Foreground,Centre,"letters2\r.png",320,240 F,0,46180,46330,0,1 M,0,46180,47080,608.2065,253.2129,26.83871,253.2129 F,0,46330,47080,1 S,0,47080,,0.3145808 F,0,47080,47117,1,0
Sprite,Foreground,Centre,"letters2\e.png",320,240 F,0,46330,46480,0,1 M,0,46330,47230,608.2065,253.2129,26.83871,253.2129 F,0,46480,47230,1 S,0,47230,,0.3145808 F,0,47230,47267,1,0
Sprite,Foreground,Centre,"letters2\t.png",320,240 F,0,47380,47530,0,1 M,0,47380,48280,608.2065,253.2129,26.83871,253.2129 F,0,47530,48280,1 S,0,48280,,0.3145808 F,0,48280,48317,1,0
Sprite,Foreground,Centre,"letters2\u.png",320,240 F,0,47530,47680,0,1 M,0,47530,48430,608.2065,253.2129,26.83871,253.2129 F,0,47680,48430,1 S,0,48430,,0.3145808 F,0,48430,48467,1,0
Sprite,Foreground,Centre,"letters2\s.png",320,240 F,0,47680,47830,0,1 M,0,47680,48580,608.2065,253.2129,26.83871,253.2129 F,0,47830,48580,1 S,0,48580,,0.3145808 F,0,48580,48617,1,0
Sprite,Foreground,Centre,"letters2\h.png",320,240 F,0,48130,48280,0,1 M,0,48130,49030,608.2065,253.2129,26.83871,253.2129 F,0,48280,49030,1 S,0,49030,,0.3145808 F,0,49030,49067,1,0
Sprite,Foreground,Centre,"letters2\d.png",320,240 F,0,49030,49180,0,1 M,0,49030,49930,608.2065,253.2129,26.83871,253.2129 F,0,49180,49930,1 S,0,49930,,0.3145808 F,0,49930,49967,1,0
Sprite,Foreground,Centre,"letters2\r.png",320,240 F,0,49180,49330,0,1 M,0,49180,50080,608.2065,253.2129,26.83871,253.2129 F,0,49330,50080,1 S,0,50080,,0.3145808 F,0,50080,50117,1,0
Sprite,Foreground,Centre,"letters2\o.png",320,240 F,0,49330,49480,0,1 M,0,49330,50230,608.2065,253.2129,26.83871,253.2129 F,0,49480,50230,1 S,0,50230,,0.3145808 F,0,50230,50267,1,0
Sprite,Foreground,Centre,"letters2\p.png",320,240 F,0,49405,49555,0,1 M,0,49405,50305,608.2065,253.2129,26.83871,253.2129 F,0,49555,50305,1 S,0,50305,,0.3145808 F,0,50305,50342,1,0
Sprite,Foreground,Centre,"letters2\s.png",320,240 F,0,49480,49630,0,1 M,0,49480,50380,608.2065,253.2129,26.83871,253.2129 F,0,49630,50380,1 S,0,50380,,0.3145808 F,0,50380,50417,1,0
Sprite,Foreground,Centre,"letters2\r.png",320,240 F,0,49780,49930,0,1 M,0,49780,50680,608.2065,253.2129,26.83871,253.2129 F,0,49930,50680,1 S,0,50680,,0.3145808 F,0,50680,50717,1,0
Sprite,Foreground,Centre,"letters2\e.png",320,240 F,0,49930,50080,0,1 M,0,49930,50830,608.2065,253.2129,26.83871,253.2129 F,0,50080,50830,1 S,0,50830,,0.3145808 F,0,50830,50867,1,0
Sprite,Foreground,Centre,"letters2\p.png",320,240 F,0,50080,50230,0,1 M,0,50080,50980,608.2065,253.2129,26.83871,253.2129 F,0,50230,50980,1 S,0,50980,,0.3145808 F,0,50980,51017,1,0
Sprite,Foreground,Centre,"letters2\o.png",320,240 F,0,50230,50380,0,1 M,0,50230,51130,608.2065,253.2129,26.83871,253.2129 F,0,50380,51130,1 S,0,51130,,0.3145808 F,0,51130,51167,1,0
Sprite,Foreground,Centre,"letters2\r.png",320,240 F,0,50380,50530,0,1 M,0,50380,51280,608.2065,253.2129,26.83871,253.2129 F,0,50530,51280,1 S,0,51280,,0.3145808 F,0,51280,51317,1,0
Sprite,Foreground,Centre,"letters2\t.png",320,240 F,0,50530,50680,0,1 M,0,50530,51430,608.2065,253.2129,26.83871,253.2129 F,0,50680,51430,1 S,0,51430,,0.3145808 F,0,51430,51467,1,0
Sprite,Foreground,Centre,"letters2\a.png",320,240 F,0,50830,50980,0,1 M,0,50830,51730,608.2065,253.2129,26.83871,253.2129 F,0,50980,51730,1 S,0,51730,,0.3145808 F,0,51730,51767,1,0
Sprite,Foreground,Centre,"letters2\s.png",320,240 F,0,50980,51130,0,1 M,0,50980,51880,608.2065,253.2129,26.83871,253.2129 F,0,51130,51880,1 S,0,51880,,0.3145808 F,0,51880,51917,1,0
Sprite,Foreground,Centre,"letters2\a.png",320,240 F,0,51130,51280,0,1 M,0,51130,52030,608.2065,253.2129,26.83871,253.2129 F,0,51280,52030,1 S,0,52030,,0.3145808 F,0,52030,52067,1,0
Sprite,Foreground,Centre,"letters2\p.png",320,240 F,0,51280,51430,0,1 M,0,51280,52180,608.2065,253.2129,26.83871,253.2129 F,0,51430,52180,1 S,0,52180,,0.3145808 F,0,52180,52217,1,0
Sprite,Foreground,Centre,"letters2\a.png",320,240 F,0,51580,51730,0,1 M,0,51580,52480,608.2065,253.2129,26.83871,253.2129 F,0,51730,52480,1 S,0,52480,,0.3145808 F,0,52480,52517,1,0
Sprite,Foreground,Centre,"letters2\f.png",320,240 F,0,51730,51880,0,1 M,0,51730,52630,608.2065,253.2129,26.83871,253.2129 F,0,51880,52630,1 S,0,52630,,0.3145808 F,0,52630,52667,1,0
Sprite,Foreground,Centre,"letters2\f.png",320,240 F,0,51880,52030,0,1 M,0,51880,52780,608.2065,253.2129,26.83871,253.2129 F,0,52030,52780,1 S,0,52780,,0.3145808 F,0,52780,52817,1,0
Sprite,Foreground,Centre,"letters2\a.png",320,240 F,0,52030,52180,0,1 M,0,52030,52930,608.2065,253.2129,26.83871,253.2129 F,0,52180,52930,1 S,0,52930,,0.3145808 F,0,52930,52967,1,0
Sprite,Foreground,Centre,"letters2\i.png",320,240 F,0,52180,52330,0,1 M,0,52180,53080,608.2065,253.2129,26.83871,253.2129 F,0,52330,53080,1 S,0,53080,,0.3145808 F,0,53080,53117,1,0
Sprite,Foreground,Centre,"letters2\r.png",320,240 F,0,52330,52480,0,1 M,0,52330,53230,608.2065,253.2129,26.83871,253.2129 F,0,52480,53230,1 S,0,53230,,0.3145808 F,0,53230,53267,1,0
Sprite,Foreground,Centre,"letters2\f.png",320,240 F,0,52630,52780,0,1 M,0,52630,53530,608.2065,253.2129,26.83871,253.2129 F,0,52780,53530,1 S,0,53530,,0.3145808 F,0,53530,53567,1,0
Sprite,Foreground,Centre,"letters2\l.png",320,240 F,0,52705,52855,0,1 M,0,52705,53605,608.2065,253.2129,26.83871,253.2129 F,0,52855,53605,1 S,0,53605,,0.3145808 F,0,53605,53642,1,0
Sprite,Foreground,Centre,"letters2\a.png",320,240 F,0,52780,52930,0,1 M,0,52780,53680,608.2065,253.2129,26.83871,253.2129 F,0,52930,53680,1 S,0,53680,,0.3145808 F,0,53680,53717,1,0
Sprite,Foreground,Centre,"letters2\i.png",320,240 F,0,52930,53080,0,1 M,0,52930,53830,608.2065,253.2129,26.83871,253.2129 F,0,53080,53830,1 S,0,53830,,0.3145808 F,0,53830,53867,1,0
Sprite,Foreground,Centre,"letters2\l.png",320,240 F,0,53080,53230,0,1 M,0,53080,53980,608.2065,253.2129,26.83871,253.2129 F,0,53230,53980,1 S,0,53980,,0.3145808 F,0,53980,54017,1,0
Sprite,Foreground,Centre,"letters2\f.png",320,240 F,0,53380,53530,0,1 M,0,53380,54280,608.2065,253.2129,26.83871,253.2129 F,0,53530,54280,1 S,0,54280,,0.3145808 F,0,54280,54317,1,0
Sprite,Foreground,Centre,"letters2\e.png",320,240 F,0,53530,53680,0,1 M,0,53530,54430,608.2065,253.2129,26.83871,253.2129 F,0,53680,54430,1 S,0,54430,,0.3145808 F,0,54430,54467,1,0
Sprite,Foreground,Centre,"letters2\i.png",320,240 F,0,53680,53830,0,1 M,0,53680,54580,608.2065,253.2129,26.83871,253.2129 F,0,53830,54580,1 S,0,54580,,0.3145808 F,0,54580,54617,1,0
Sprite,Foreground,Centre,"letters2\s.png",320,240 F,0,53830,53980,0,1 M,0,53830,54730,608.2065,253.2129,26.83871,253.2129 F,0,53980,54730,1 S,0,54730,,0.3145808 F,0,54730,54767,1,0
Sprite,Foreground,Centre,"letters2\t.png",320,240 F,0,53980,54130,0,1 M,0,53980,54880,608.2065,253.2129,26.83871,253.2129 F,0,54130,54880,1 S,0,54880,,0.3145808 F,0,54880,54917,1,0
Sprite,Foreground,Centre,"letters2\y.png",320,240 F,0,54130,54280,0,1 M,0,54130,55030,608.2065,253.2129,26.83871,253.2129 F,0,54280,55030,1 S,0,55030,,0.3145808 F,0,55030,55067,1,0
Sprite,Foreground,Centre,"letters2\f.png",320,240 F,0,54430,54580,0,1 M,0,54430,55330,608.2065,253.2129,26.83871,253.2129 F,0,54580,55330,1 S,0,55330,,0.3145808 F,0,55330,55367,1,0
Sprite,Foreground,Centre,"letters2\i.png",320,240 F,0,54580,54730,0,1 M,0,54580,55480,608.2065,253.2129,26.83871,253.2129 F,0,54730,55480,1 S,0,55480,,0.3145808 F,0,55480,55517,1,0
Sprite,Foreground,Centre,"letters2\a.png",320,240 F,0,54730,54880,0,1 M,0,54730,55630,608.2065,253.2129,26.83871,253.2129 F,0,54880,55630,1 S,0,55630,,0.3145808 F,0,55630,55667,1,0
Sprite,Foreground,Centre,"letters2\t.png",320,240 F,0,54880,55030,0,1 M,0,54880,55780,608.2065,253.2129,26.83871,253.2129 F,0,55030,55780,1 S,0,55780,,0.3145808 F,0,55780,55817,1,0
Sprite,Foreground,Centre,"letters2\a.png",320,240 F,0,55180,55330,0,1 M,0,55180,56080,608.2065,253.2129,26.83871,253.2129 F,0,55330,56080,1 S,0,56080,,0.3145808 F,0,56080,56117,1,0
Sprite,Foreground,Centre,"letters2\w.png",320,240 F,0,55330,55480,0,1 M,0,55330,56230,608.2065,253.2129,26.83871,253.2129 F,0,55480,56230,1 S,0,56230,,0.3145808 F,0,56230,56267,1,0
Sprite,Foreground,Centre,"letters2\h.png",320,240 F,0,55480,55630,0,1 M,0,55480,56380,608.2065,253.2129,26.83871,253.2129 F,0,55630,56380,1 S,0,56380,,0.3145808 F,0,56380,56417,1,0
Sprite,Foreground,Centre,"letters2\i.png",320,240 F,0,55630,55780,0,1 M,0,55630,56530,608.2065,253.2129,26.83871,253.2129 F,0,55780,56530,1 S,0,56530,,0.3145808 F,0,56530,56567,1,0
Sprite,Foreground,Centre,"letters2\l.png",320,240 F,0,55780,55930,0,1 M,0,55780,56680,608.2065,253.2129,26.83871,253.2129 F,0,55930,56680,1 S,0,56680,,0.3145808 F,0,56680,56717,1,0
Sprite,Foreground,Centre,"letters2\e.png",320,240 F,0,55930,56080,0,1 M,0,55930,56830,608.2065,253.2129,26.83871,253.2129 F,0,56080,56830,1 S,0,56830,,0.3145808 F,0,56830,56867,1,0
Sprite,Foreground,Centre,"letters2\t.png",320,240 F,0,56230,56380,0,1 M,0,56230,57130,608.2065,253.2129,26.83871,253.2129 F,0,56380,57130,1 S,0,57130,,0.3145808 F,0,57130,57167,1,0
Sprite,Foreground,Centre,"letters2\e.png",320,240 F,0,56380,56530,0,1 M,0,56380,57280,608.2065,253.2129,26.83871,253.2129 F,0,56530,57280,1 S,0,57280,,0.3145808 F,0,57280,57317,1,0
Sprite,Foreground,Centre,"letters2\s.png",320,240 F,0,56530,56680,0,1 M,0,56530,57430,608.2065,253.2129,26.83871,253.2129 F,0,56680,57430,1 S,0,57430,,0.3145808 F,0,57430,57467,1,0
Sprite,Foreground,Centre,"letters2\t.png",320,240 F,0,56680,56830,0,1 M,0,56680,57580,608.2065,253.2129,26.83871,253.2129 F,0,56830,57580,1 S,0,57580,,0.3145808 F,0,57580,57617,1,0
Sprite,Foreground,Centre,"letters2\t.png",320,240 F,0,56980,57130,0,1 M,0,56980,57880,608.2065,253.2129,26.83871,253.2129 F,0,57130,57880,1 S,0,57880,,0.3145808 F,0,57880,57917,1,0
Sprite,Foreground,Centre,"letters2\o.png",320,240 F,0,57055,57205,0,1 M,0,57055,57955,608.2065,253.2129,26.83871,253.2129 F,0,57205,57955,1 S,0,57955,,0.3145808 F,0,57955,57992,1,0
Sprite,Foreground,Centre,"letters2\l.png",320,240 F,0,57130,57280,0,1 M,0,57130,58030,608.2065,253.2129,26.83871,253.2129 F,0,57280,58030,1 S,0,58030,,0.3145808 F,0,58030,58067,1,0
Sprite,Foreground,Centre,"letters2\l.png",320,240 F,0,57205,57355,0,1 M,0,57205,58105,608.2065,253.2129,26.83871,253.2129 F,0,57355,58105,1 S,0,58105,,0.3145808 F,0,58105,58142,1,0
Sprite,Foreground,Centre,"letters2\g.png",320,240 F,0,57280,57430,0,1 M,0,57280,58180,608.2065,253.2129,26.83871,253.2129 F,0,57430,58180,1 S,0,58180,,0.3145808 F,0,58180,58217,1,0
Sprite,Foreground,Centre,"letters2\a.png",320,240 F,0,57430,57580,0,1 M,0,57430,58330,608.2065,253.2129,26.83871,253.2129 F,0,57580,58330,1 S,0,58330,,0.3145808 F,0,58330,58367,1,0
Sprite,Foreground,Centre,"letters2\t.png",320,240 F,0,57580,57730,0,1 M,0,57580,58480,608.2065,253.2129,26.83871,253.2129 F,0,57730,58480,1 S,0,58480,,0.3145808 F,0,58480,58517,1,0
Sprite,Foreground,Centre,"letters2\e.png",320,240 F,0,57730,57880,0,1 M,0,57730,58630,608.2065,253.2129,26.83871,253.2129 F,0,57880,58630,1 S,0,58630,,0.3145808 F,0,58630,58667,1,0
Sprite,Foreground,Centre,"letters2\f.png",320,240 F,0,58030,58180,0,1 M,0,58030,58930,608.2065,253.2129,26.83871,253.2129 F,0,58180,58930,1 S,0,58930,,0.3145808 F,0,58930,58967,1,0
Sprite,Foreground,Centre,"letters2\i.png",320,240 F,0,58180,58330,0,1 M,0,58180,59080,608.2065,253.2129,26.83871,253.2129 F,0,58330,59080,1 S,0,59080,,0.3145808 F,0,59080,59117,1,0
Sprite,Foreground,Centre,"letters2\r.png",320,240 F,0,58330,58480,0,1 M,0,58330,59230,608.2065,253.2129,26.83871,253.2129 F,0,58480,59230,1 S,0,59230,,0.3145808 F,0,59230,59267,1,0
Sprite,Foreground,Centre,"letters2\e.png",320,240 F,0,58480,58630,0,1 M,0,58480,59380,608.2065,253.2129,26.83871,253.2129 F,0,58630,59380,1 S,0,59380,,0.3145808 F,0,59380,59417,1,0
Sprite,Foreground,Centre,"letters2\t.png",320,240 F,0,58780,58930,0,1 M,0,58780,59680,608.2065,253.2129,26.83871,253.2129 F,0,58930,59680,1 S,0,59680,,0.3145808 F,0,59680,59717,1,0
Sprite,Foreground,Centre,"letters2\r.png",320,240 F,0,58930,59080,0,1 M,0,58930,59830,608.2065,253.2129,26.83871,253.2129 F,0,59080,59830,1 S,0,59830,,0.3145808 F,0,59830,59867,1,0
Sprite,Foreground,Centre,"letters2\i.png",320,240 F,0,59080,59230,0,1 M,0,59080,59980,608.2065,253.2129,26.83871,253.2129 F,0,59230,59980,1 S,0,59980,,0.3145808 F,0,59980,60017,1,0
Sprite,Foreground,Centre,"letters2\f.png",320,240 F,0,59230,59380,0,1 M,0,59230,60130,608.2065,253.2129,26.83871,253.2129 F,0,59380,60130,1 S,0,60130,,0.3145808 F,0,60130,60167,1,0
Sprite,Foreground,Centre,"letters2\l.png",320,240 F,0,59380,59530,0,1 M,0,59380,60280,608.2065,253.2129,26.83871,253.2129 F,0,59530,60280,1 S,0,60280,,0.3145808 F,0,60280,60317,1,0
Sprite,Foreground,Centre,"letters2\e.png",320,240 F,0,59530,59680,0,1 M,0,59530,60430,608.2065,253.2129,26.83871,253.2129 F,0,59680,60430,1 S,0,60430,,0.3145808 F,0,60430,60467,1,0
Sprite,Foreground,Centre,"letters2\g.png",320,240 F,0,59830,59980,0,1 M,0,59830,60730,608.2065,253.2129,26.83871,253.2129 F,0,59980,60730,1 S,0,60730,,0.3145808 F,0,60730,60767,1,0
Sprite,Foreground,Centre,"letters2\r.png",320,240 F,0,59905,60055,0,1 M,0,59905,60805,608.2065,253.2129,26.83871,253.2129 F,0,60055,60805,1 S,0,60805,,0.3145808 F,0,60805,60842,1,0
Sprite,Foreground,Centre,"letters2\u.png",320,240 F,0,59980,60130,0,1 M,0,59980,60880,608.2065,253.2129,26.83871,253.2129 F,0,60130,60880,1 S,0,60880,,0.3145808 F,0,60880,60917,1,0
Sprite,Foreground,Centre,"letters2\f.png",320,240 F,0,60130,60280,0,1 M,0,60130,61030,608.2065,253.2129,26.83871,253.2129 F,0,60280,61030,1 S,0,61030,,0.3145808 F,0,61030,61067,1,0
Sprite,Foreground,Centre,"letters2\f.png",320,240 F,0,60280,60430,0,1 M,0,60280,61180,608.2065,253.2129,26.83871,253.2129 F,0,60430,61180,1 S,0,61180,,0.3145808 F,0,61180,61217,1,0
Sprite,Foreground,Centre,"letters2\t.png",320,240 F,0,60580,60730,0,1 M,0,60580,61480,608.2065,253.2129,26.83871,253.2129 F,0,60730,61480,1 S,0,61480,,0.3145808 F,0,61480,61517,1,0
Sprite,Foreground,Centre,"letters2\h.png",320,240 F,0,60730,60880,0,1 M,0,60730,61630,608.2065,253.2129,26.83871,253.2129 F,0,60880,61630,1 S,0,61630,,0.3145808 F,0,61630,61667,1,0
Sprite,Foreground,Centre,"letters2\r.png",320,240 F,0,60880,61030,0,1 M,0,60880,61780,608.2065,253.2129,26.83871,253.2129 F,0,61030,61780,1 S,0,61780,,0.3145808 F,0,61780,61817,1,0
Sprite,Foreground,Centre,"letters2\i.png",320,240 F,0,61030,61180,0,1 M,0,61030,61930,608.2065,253.2129,26.83871,253.2129 F,0,61180,61930,1 S,0,61930,,0.3145808 F,0,61930,61967,1,0
Sprite,Foreground,Centre,"letters2\l.png",320,240 F,0,61180,61330,0,1 M,0,61180,62080,608.2065,253.2129,26.83871,253.2129 F,0,61330,62080,1 S,0,62080,,0.3145808 F,0,62080,62117,1,0
Sprite,Foreground,Centre,"letters2\l.png",320,240 F,0,61330,61480,0,1 M,0,61330,62230,608.2065,253.2129,26.83871,253.2129 F,0,61480,62230,1 S,0,62230,,0.3145808 F,0,62230,62267,1,0
Sprite,Foreground,Centre,"letters2\g.png",320,240 F,0,61630,61780,0,1 M,0,61630,62530,608.2065,253.2129,26.83871,253.2129 F,0,61780,62530,1 S,0,62530,,0.3145808 F,0,62530,62567,1,0
Sprite,Foreground,Centre,"letters2\r.png",320,240 F,0,61780,61930,0,1 M,0,61780,62680,608.2065,253.2129,26.83871,253.2129 F,0,61930,62680,1 S,0,62680,,0.3145808 F,0,62680,62717,1,0
Sprite,Foreground,Centre,"letters2\e.png",320,240 F,0,61930,62080,0,1 M,0,61930,62830,608.2065,253.2129,26.83871,253.2129 F,0,62080,62830,1 S,0,62830,,0.3145808 F,0,62830,62867,1,0
Sprite,Foreground,Centre,"letters2\w.png",320,240 F,0,62080,62230,0,1 M,0,62080,62980,608.2065,253.2129,26.83871,253.2129 F,0,62230,62980,1 S,0,62980,,0.3145808 F,0,62980,63017,1,0
Sprite,Foreground,Centre,"letters2\g.png",320,240 F,0,62380,62530,0,1 M,0,62380,63280,608.2065,253.2129,26.83871,253.2129 F,0,62530,63280,1 S,0,63280,,0.3145808 F,0,63280,63317,1,0
Sprite,Foreground,Centre,"letters2\o.png",320,240 F,0,62530,62680,0,1 M,0,62530,63430,608.2065,253.2129,26.83871,253.2129 F,0,62680,63430,1 S,0,63430,,0.3145808 F,0,63430,63467,1,0
Sprite,Foreground,Centre,"letters2\p.png",320,240 F,0,62680,62830,0,1 M,0,62680,63580,608.2065,253.2129,26.83871,253.2129 F,0,62830,63580,1 S,0,63580,,0.3145808 F,0,63580,63617,1,0
Sprite,Foreground,Centre,"letters2\h.png",320,240 F,0,62830,62980,0,1 M,0,62830,63730,608.2065,253.2129,26.83871,253.2129 F,0,62980,63730,1 S,0,63730,,0.3145808 F,0,63730,63767,1,0
Sprite,Foreground,Centre,"letters2\e.png",320,240 F,0,62980,63130,0,1 M,0,62980,63880,608.2065,253.2129,26.83871,253.2129 F,0,63130,63880,1 S,0,63880,,0.3145808 F,0,63880,63917,1,0
Sprite,Foreground,Centre,"letters2\r.png",320,240 F,0,63130,63280,0,1 M,0,63130,64030,608.2065,253.2129,26.83871,253.2129 F,0,63280,64030,1 S,0,64030,,0.3145808 F,0,64030,64067,1,0
Sprite,Foreground,Centre,"letters2\p.png",320,240 F,0,63430,63580,0,1 M,0,63430,64330,608.2065,253.2129,26.83871,253.2129 F,0,63580,64330,1 S,0,64330,,0.3145808 F,0,64330,64367,1,0
Sprite,Foreground,Centre,"letters2\a.png",320,240 F,0,63580,63730,0,1 M,0,63580,64480,608.2065,253.2129,26.83871,253.2129 F,0,63730,64480,1 S,0,64480,,0.3145808 F,0,64480,64517,1,0
Sprite,Foreground,Centre,"letters2\s.png",320,240 F,0,63730,63880,0,1 M,0,63730,64630,608.2065,253.2129,26.83871,253.2129 F,0,63880,64630,1 S,0,64630,,0.3145808 F,0,64630,64667,1,0
Sprite,Foreground,Centre,"letters2\t.png",320,240 F,0,63880,64030,0,1 M,0,63880,64780,608.2065,253.2129,26.83871,253.2129 F,0,64030,64780,1 S,0,64780,,0.3145808 F,0,64780,64817,1,0
Sprite,Foreground,Centre,"letters2\y.png",320,240 F,0,64030,64180,0,1 M,0,64030,64930,608.2065,253.2129,26.83871,253.2129 F,0,64180,64930,1 S,0,64930,,0.3145808 F,0,64930,64967,1,0
Sprite,Foreground,Centre,"letters2\w.png",320,240 F,0,64330,64480,0,1 M,0,64330,65230,608.2065,253.2129,26.83871,253.2129 F,0,64480,65230,1 S,0,65230,,0.3145808 F,0,65230,65267,1,0
Sprite,Foreground,Centre,"letters2\e.png",320,240 F,0,64405,64555,0,1 M,0,64405,65305,608.2065,253.2129,26.83871,253.2129 F,0,64555,65305,1 S,0,65305,,0.3145808 F,0,65305,65342,1,0
Sprite,Foreground,Centre,"letters2\i.png",320,240 F,0,64480,64630,0,1 M,0,64480,65380,608.2065,253.2129,26.83871,253.2129 F,0,64630,65380,1 S,0,65380,,0.3145808 F,0,65380,65417,1,0
Sprite,Foreground,Centre,"letters2\g.png",320,240 F,0,64630,64780,0,1 M,0,64630,65530,608.2065,253.2129,26.83871,253.2129 F,0,64780,65530,1 S,0,65530,,0.3145808 F,0,65530,65567,1,0
Sprite,Foreground,Centre,"letters2\h.png",320,240 F,0,64780,64930,0,1 M,0,64780,65680,608.2065,253.2129,26.83871,253.2129 F,0,64930,65680,1 S,0,65680,,0.3145808 F,0,65680,65717,1,0
Sprite,Foreground,Centre,"letters2\t.png",320,240 F,0,64930,65080,0,1 M,0,64930,65830,608.2065,253.2129,26.83871,253.2129 F,0,65080,65830,1 S,0,65830,,0.3145808 F,0,65830,65867,1,0
Sprite,Foreground,Centre,"letters2\l.png",320,240 F,0,65080,65230,0,1 M,0,65080,65980,608.2065,253.2129,26.83871,253.2129 F,0,65230,65980,1 S,0,65980,,0.3145808 F,0,65980,66017,1,0
Sprite,Foreground,Centre,"letters2\e.png",320,240 F,0,65230,65380,0,1 M,0,65230,66130,608.2065,253.2129,26.83871,253.2129 F,0,65380,66130,1 S,0,66130,,0.3145808 F,0,66130,66167,1,0
Sprite,Foreground,Centre,"letters2\s.png",320,240 F,0,65380,65530,0,1 M,0,65380,66280,608.2065,253.2129,26.83871,253.2129 F,0,65530,66280,1 S,0,66280,,0.3145808 F,0,66280,66317,1,0
Sprite,Foreground,Centre,"letters2\s.png",320,240 F,0,65530,65680,0,1 M,0,65530,66430,608.2065,253.2129,26.83871,253.2129 F,0,65680,66430,1 S,0,66430,,0.3145808 F,0,66430,66467,1,0
Sprite,Foreground,Centre,"letters2\s.png",320,240 F,0,65830,65980,0,1 M,0,65830,66730,608.2065,253.2129,26.83871,253.2129 F,0,65980,66730,1 S,0,66730,,0.3145808 F,0,66730,66767,1,0
Sprite,Foreground,Centre,"letters2\p.png",320,240 F,0,65980,66130,0,1 M,0,65980,66880,608.2065,253.2129,26.83871,253.2129 F,0,66130,66880,1 S,0,66880,,0.3145808 F,0,66880,66917,1,0
Sprite,Foreground,Centre,"letters2\l.png",320,240 F,0,66130,66280,0,1 M,0,66130,67030,608.2065,253.2129,26.83871,253.2129 F,0,66280,67030,1 S,0,67030,,0.3145808 F,0,67030,67067,1,0
Sprite,Foreground,Centre,"letters2\a.png",320,240 F,0,66430,66580,0,1 M,0,66430,67330,608.2065,253.2129,26.83871,253.2129 F,0,66580,67330,1 S,0,67330,,0.3145808 F,0,67330,67367,1,0
Sprite,Foreground,Centre,"letters2\t.png",320,240 F,0,66730,66880,0,1 M,0,66730,67630,608.2065,253.2129,26.83871,253.2129 F,0,66880,67630,1 S,0,67630,,0.3145808 F,0,67630,67667,1,0
Sprite,Foreground,Centre,"letters2\f.png",320,240 F,0,67180,67330,0,1 M,0,67180,68080,608.2065,253.2129,26.83871,253.2129 F,0,67330,68080,1 S,0,68080,,0.3145808 F,0,68080,68117,1,0
Sprite,Foreground,Centre,"letters2\o.png",320,240 F,0,67330,67480,0,1 M,0,67330,68230,608.2065,253.2129,26.83871,253.2129 F,0,67480,68230,1 S,0,68230,,0.3145808 F,0,68230,68267,1,0
Sprite,Foreground,Centre,"letters2\r.png",320,240 F,0,67480,67630,0,1 M,0,67480,68380,608.2065,253.2129,26.83871,253.2129 F,0,67630,68380,1 S,0,68380,,0.3145808 F,0,68380,68417,1,0
Sprite,Foreground,Centre,"letters2\e.png",320,240 F,0,67555,67705,0,1 M,0,67555,68455,608.2065,253.2129,26.83871,253.2129 F,0,67705,68455,1 S,0,68455,,0.3145808 F,0,68455,68492,1,0
Sprite,Foreground,Centre,"letters2\t.png",320,240 F,0,67780,67930,0,1 M,0,67780,68680,608.2065,253.2129,26.83871,253.2129 F,0,67930,68680,1 S,0,68680,,0.3145808 F,0,68680,68717,1,0
Sprite,Foreground,Centre,"letters2\o.png",320,240 F,0,67930,68080,0,1 M,0,67930,68830,608.2065,253.2129,26.83871,253.2129 F,0,68080,68830,1 S,0,68830,,0.3145808 F,0,68830,68867,1,0
Sprite,Foreground,Centre,"letters2\l.png",320,240 F,0,68230,68380,0,1 M,0,68230,69130,608.2065,253.2129,26.83871,253.2129 F,0,68380,69130,1 S,0,69130,,0.3145808 F,0,69130,69167,1,0
Sprite,Foreground,Centre,"letters2\d.png",320,240 F,0,68530,68680,0,1 M,0,68530,69430,608.2065,253.2129,26.83871,253.2129 F,0,68680,69430,1 S,0,69430,,0.3145808 F,0,69430,69467,1,0
Sprite,Foreground,Centre,"letters2\p.png",320,240 F,0,68830,68980,0,1 M,0,68830,69730,608.2065,253.2129,26.83871,253.2129 F,0,68980,69730,1 S,0,69730,,0.3145808 F,0,69730,69767,1,0
Sprite,Foreground,Centre,"letters2\i.png",320,240 F,0,68980,69130,0,1 M,0,68980,69880,608.2065,253.2129,26.83871,253.2129 F,0,69130,69880,1 S,0,69880,,0.3145808 F,0,69880,69917,1,0
Sprite,Foreground,Centre,"letters2\t.png",320,240 F,0,69130,69280,0,1 M,0,69130,70030,608.2065,253.2129,26.83871,253.2129 F,0,69280,70030,1 S,0,70030,,0.3145808 F,0,70030,70067,1,0
Sprite,Foreground,Centre,"letters2\f.png",320,240 F,0,69430,69580,0,1 M,0,69430,70330,608.2065,253.2129,26.83871,253.2129 F,0,69580,70330,1 S,0,70330,,0.3145808 F,0,70330,70367,1,0
Sprite,Foreground,Centre,"letters2\r.png",320,240 F,0,69580,69730,0,1 M,0,69580,70480,608.2065,253.2129,26.83871,253.2129 F,0,69730,70480,1 S,0,70480,,0.3145808 F,0,70480,70517,1,0
Sprite,Foreground,Centre,"letters2\e.png",320,240 F,0,69730,69880,0,1 M,0,69730,70630,608.2065,253.2129,26.83871,253.2129 F,0,69880,70630,1 S,0,70630,,0.3145808 F,0,70630,70667,1,0
Sprite,Foreground,Centre,"letters2\s.png",320,240 F,0,69880,70030,0,1 M,0,69880,70780,608.2065,253.2129,26.83871,253.2129 F,0,70030,70780,1 S,0,70780,,0.3145808 F,0,70780,70817,1,0
Sprite,Foreground,Centre,"letters2\h.png",320,240 F,0,70030,70180,0,1 M,0,70030,70930,608.2065,253.2129,26.83871,253.2129 F,0,70180,70930,1 S,0,70930,,0.3145808 F,0,70930,70967,1,0
Sprite,Foreground,Centre,"letters2\l.png",320,240 F,0,70180,70330,0,1 M,0,70180,71080,608.2065,253.2129,26.83871,253.2129 F,0,70330,71080,1 S,0,71080,,0.3145808 F,0,71080,71117,1,0
Sprite,Foreground,Centre,"letters2\y.png",320,240 F,0,70330,70480,0,1 M,0,70330,71230,608.2065,253.2129,26.83871,253.2129 F,0,70480,71230,1 S,0,71230,,0.3145808 F,0,71230,71267,1,0
Sprite,Foreground,Centre,"letters2\p.png",320,240 F,0,70480,70630,0,1 M,0,70480,71380,608.2065,253.2129,26.83871,253.2129 F,0,70630,71380,1 S,0,71380,,0.3145808 F,0,71380,71417,1,0
Sprite,Foreground,Centre,"letters2\u.png",320,240 F,0,70630,70780,0,1 M,0,70630,71530,608.2065,253.2129,26.83871,253.2129 F,0,70780,71530,1 S,0,71530,,0.3145808 F,0,71530,71567,1,0
Sprite,Foreground,Centre,"letters2\p.png",320,240 F,0,70780,70930,0,1 M,0,70780,71680,608.2065,253.2129,26.83871,253.2129 F,0,70930,71680,1 S,0,71680,,0.3145808 F,0,71680,71717,1,0
Sprite,Foreground,Centre,"letters2\p.png",320,240 F,0,70880,71030,0,1 M,0,70880,71780,608.2065,253.2129,26.83871,253.2129 F,0,71030,71780,1 S,0,71780,,0.3145808 F,0,71780,71817,1,0
Sprite,Foreground,Centre,"letters2\e.png",320,240 F,0,70980,71130,0,1 M,0,70980,71880,608.2065,253.2129,26.83871,253.2129 F,0,71130,71880,1 S,0,71880,,0.3145808 F,0,71880,71917,1,0
Sprite,Foreground,Centre,"letters2\t.png",320,240 F,0,71080,71230,0,1 M,0,71080,71980,608.2065,253.2129,26.83871,253.2129 F,0,71230,71980,1 S,0,71980,,0.3145808 F,0,71980,72017,1,0
Sprite,Foreground,Centre,"letters2\t.png",320,240 F,0,71380,71530,0,1 M,0,71380,72280,608.2065,253.2129,26.83871,253.2129 F,0,71530,72280,1 S,0,72280,,0.3145808 F,0,72280,72317,1,0
Sprite,Foreground,Centre,"letters2\o.png",320,240 F,0,71455,71605,0,1 M,0,71455,72355,608.2065,253.2129,26.83871,253.2129 F,0,71605,72355,1 S,0,72355,,0.3145808 F,0,72355,72392,1,0
Sprite,Foreground,Centre,"letters2\o.png",320,240 F,0,71530,71680,0,1 M,0,71530,72430,608.2065,253.2129,26.83871,253.2129 F,0,71680,72430,1 S,0,72430,,0.3145808 F,0,72430,72467,1,0
Sprite,Foreground,Centre,"letters2\t.png",320,240 F,0,71980,72130,0,1 M,0,71980,72880,608.2065,253.2129,26.83871,253.2129 F,0,72130,72880,1 S,0,72880,,0.3145808 F,0,72880,72917,1,0
Sprite,Foreground,Centre,"letters2\a.png",320,240 F,0,72280,72430,0,1 M,0,72280,73180,608.2065,253.2129,26.83871,253.2129 F,0,72430,73180,1 S,0,73180,,0.3145808 F,0,73180,73217,1,0
Sprite,Foreground,Centre,"letters2\u.png",320,240 F,0,72505,72655,0,1 M,0,72505,73405,608.2065,253.2129,26.83871,253.2129 F,0,72655,73405,1 S,0,73405,,0.3145808 F,0,73405,73442,1,0
Sprite,Foreground,Centre,"letters2\r.png",320,240 F,0,72730,72880,0,1 M,0,72730,73630,608.2065,253.2129,26.83871,253.2129 F,0,72880,73630,1 S,0,73630,,0.3145808 F,0,73630,73667,1,0
Sprite,Foreground,Centre,"letters2\u.png",320,240 F,0,72880,73030,0,1 M,0,72880,73780,608.2065,253.2129,26.83871,253.2129 F,0,73030,73780,1 S,0,73780,,0.3145808 F,0,73780,73817,1,0
Sprite,Foreground,Centre,"letters2\s.png",320,240 F,0,73030,73180,0,1 M,0,73030,73930,608.2065,253.2129,26.83871,253.2129 F,0,73180,73930,1 S,0,73930,,0.3145808 F,0,73930,73967,1,0
Sprite,Foreground,Centre,"letters2\a.png",320,240 F,0,73330,73480,0,1 M,0,73330,74230,608.2065,253.2129,26.83871,253.2129 F,0,73480,74230,1 S,0,74230,,0.3145808 F,0,74230,74267,1,0
Sprite,Foreground,Centre,"letters2\f.png",320,240 F,0,73630,73780,0,1 M,0,73630,74530,608.2065,253.2129,26.83871,253.2129 F,0,73780,74530,1 S,0,74530,,0.3145808 F,0,74530,74567,1,0
Sprite,Foreground,Centre,"letters2\l.png",320,240 F,0,73780,73930,0,1 M,0,73780,74680,608.2065,253.2129,26.83871,253.2129 F,0,73930,74680,1 S,0,74680,,0.3145808 F,0,74680,74717,1,0
Sprite,Foreground,Centre,"letters2\o.png",320,240 F,0,74080,74230,0,1 M,0,74080,74980,608.2065,253.2129,26.83871,253.2129 F,0,74230,74980,1 S,0,74980,,0.3145808 F,0,74980,75017,1,0
Sprite,Foreground,Centre,"letters2\a.png",320,240 F,0,74380,74530,0,1 M,0,74380,75280,608.2065,253.2129,26.83871,253.2129 F,0,74530,75280,1 S,0,75280,,0.3145808 F,0,75280,75317,1,0
Sprite,Foreground,Centre,"letters2\t.png",320,240 F,0,74680,74830,0,1 M,0,74680,75580,608.2065,253.2129,26.83871,253.2129 F,0,74830,75580,1 S,0,75580,,0.3145808 F,0,75580,75617,1,0
Sprite,Foreground,Centre,"letters2\l.png",320,240 F,0,75130,75280,0,1 M,0,75130,76030,608.2065,253.2129,26.83871,253.2129 F,0,75280,76030,1 S,0,76030,,0.3145808 F,0,76030,76067,1,0
Sprite,Foreground,Centre,"letters2\a.png",320,240 F,0,75580,75730,0,1 M,0,75580,76480,608.2065,253.2129,26.83871,253.2129 F,0,75730,76480,1 S,0,76480,,0.3145808 F,0,76480,76517,1,0
Sprite,Foreground,Centre,"letters2\k.png",320,240 F,0,75880,76030,0,1 M,0,75880,76780,608.2065,253.2129,26.83871,253.2129 F,0,76030,76780,1 S,0,76780,,0.3145808 F,0,76780,76817,1,0
Sprite,Foreground,Centre,"letters2\e.png",320,240 F,0,76180,76330,0,1 M,0,76180,77080,608.2065,253.2129,26.83871,253.2129 F,0,76330,77080,1 S,0,77080,,0.3145808 F,0,77080,77117,1,0
Sprite,Foreground,Centre,"letters2\h.png",320,240 F,0,76480,76630,0,1 M,0,76480,77380,608.2065,253.2129,26.83871,253.2129 F,0,76630,77380,1 S,0,77380,,0.3145808 F,0,77380,77417,1,0
Sprite,Foreground,Centre,"letters2\o.png",320,240 F,0,76630,76780,0,1 M,0,76630,77530,608.2065,253.2129,26.83871,253.2129 F,0,76780,77530,1 S,0,77530,,0.3145808 F,0,77530,77567,1,0
Sprite,Foreground,Centre,"letters2\s.png",320,240 F,0,76780,76930,0,1 M,0,76780,77680,608.2065,253.2129,26.83871,253.2129 F,0,76930,77680,1 S,0,77680,,0.3145808 F,0,77680,77717,1,0
Sprite,Foreground,Centre,"letters2\t.png",320,240 F,0,77080,77230,0,1 M,0,77080,77980,608.2065,253.2129,26.83871,253.2129 F,0,77230,77980,1 S,0,77980,,0.3145808 F,0,77980,78017,1,0
Sprite,Foreground,Centre,"letters2\e.png",320,240 F,0,77230,77380,0,1 M,0,77230,78130,608.2065,253.2129,26.83871,253.2129 F,0,77380,78130,1 S,0,78130,,0.3145808 F,0,78130,78167,1,0
Sprite,Foreground,Centre,"letters2\s.png",320,240 F,0,77530,77680,0,1 M,0,77530,78430,608.2065,253.2129,26.83871,253.2129 F,0,77680,78430,1 S,0,78430,,0.3145808 F,0,78430,78467,1,0
Sprite,Foreground,Centre,"letters2\s.png",320,240 F,0,77680,77830,0,1 M,0,77680,78580,608.2065,253.2129,26.83871,253.2129 F,0,77830,78580,1 S,0,78580,,0.3145808 F,0,78580,78617,1,0
Sprite,Foreground,Centre,"letters2\h.png",320,240 F,0,77980,78130,0,1 M,0,77980,78880,608.2065,253.2129,26.83871,253.2129 F,0,78130,78880,1 S,0,78880,,0.3145808 F,0,78880,78917,1,0
Sprite,Foreground,Centre,"letters2\a.png",320,240 F,0,78130,78280,0,1 M,0,78130,79030,608.2065,253.2129,26.83871,253.2129 F,0,78280,79030,1 S,0,79030,,0.3145808 F,0,79030,79067,1,0
Sprite,Foreground,Centre,"letters2\r.png",320,240 F,0,78280,78430,0,1 M,0,78280,79180,608.2065,253.2129,26.83871,253.2129 F,0,78430,79180,1 S,0,79180,,0.3145808 F,0,79180,79217,1,0
Sprite,Foreground,Centre,"letters2\d.png",320,240 F,0,78430,78580,0,1 M,0,78430,79330,608.2065,253.2129,26.83871,253.2129 F,0,78580,79330,1 S,0,79330,,0.3145808 F,0,79330,79367,1,0
Sprite,Foreground,Centre,"letters2\h.png",320,240 F,0,78580,78730,0,1 M,0,78580,79480,608.2065,253.2129,26.83871,253.2129 F,0,78730,79480,1 S,0,79480,,0.3145808 F,0,79480,79517,1,0
Sprite,Foreground,Centre,"letters2\e.png",320,240 F,0,78730,78880,0,1 M,0,78730,79630,608.2065,253.2129,26.83871,253.2129 F,0,78880,79630,1 S,0,79630,,0.3145808 F,0,79630,79667,1,0
Sprite,Foreground,Centre,"letters2\a.png",320,240 F,0,78880,79030,0,1 M,0,78880,79780,608.2065,253.2129,26.83871,253.2129 F,0,79030,79780,1 S,0,79780,,0.3145808 F,0,79780,79817,1,0
Sprite,Foreground,Centre,"letters2\d.png",320,240 F,0,79030,79180,0,1 M,0,79030,79930,608.2065,253.2129,26.83871,253.2129 F,0,79180,79930,1 S,0,79930,,0.3145808 F,0,79930,79967,1,0
Sprite,Foreground,Centre,"letters2\e.png",320,240 F,0,79180,79330,0,1 M,0,79180,80080,608.2065,253.2129,26.83871,253.2129 F,0,79330,80080,1 S,0,80080,,0.3145808 F,0,80080,80117,1,0
Sprite,Foreground,Centre,"letters2\d.png",320,240 F,0,79330,79480,0,1 M,0,79330,80230,608.2065,253.2129,26.83871,253.2129 F,0,79480,80230,1 S,0,80230,,0.3145808 F,0,80230,80267,1,0
Sprite,Foreground,Centre,"letters2\l.png",320,240 F,0,79480,79630,0,1 M,0,79480,80380,608.2065,253.2129,26.83871,253.2129 F,0,79630,80380,1 S,0,80380,,0.3145808 F,0,80380,80417,1,0
Sprite,Foreground,Centre,"letters2\e.png",320,240 F,0,79630,79780,0,1 M,0,79630,80530,608.2065,253.2129,26.83871,253.2129 F,0,79780,80530,1 S,0,80530,,0.3145808 F,0,80530,80567,1,0
Sprite,Foreground,Centre,"letters2\w.png",320,240 F,0,79780,79930,0,1 M,0,79780,80680,608.2065,253.2129,26.83871,253.2129 F,0,79930,80680,1 S,0,80680,,0.3145808 F,0,80680,80717,1,0
Sprite,Foreground,Centre,"letters2\d.png",320,240 F,0,79930,80080,0,1 M,0,79930,80830,608.2065,253.2129,26.83871,253.2129 F,0,80080,80830,1 S,0,80830,,0.3145808 F,0,80830,80867,1,0
Sprite,Foreground,Centre,"letters2\f.png",320,240 F,0,80080,80230,0,1 M,0,80080,80980,608.2065,253.2129,26.83871,253.2129 F,0,80230,80980,1 S,0,80980,,0.3145808 F,0,80980,81017,1,0
Sprite,Foreground,Centre,"letters2\o.png",320,240 F,0,80230,80380,0,1 M,0,80230,81130,608.2065,253.2129,26.83871,253.2129 F,0,80380,81130,1 S,0,81130,,0.3145808 F,0,81130,81167,1,0
Sprite,Foreground,Centre,"letters2\u.png",320,240 F,0,80380,80530,0,1 M,0,80380,81280,608.2065,253.2129,26.83871,253.2129 F,0,80530,81280,1 S,0,81280,,0.3145808 F,0,81280,81317,1,0
Sprite,Foreground,Centre,"letters2\r.png",320,240 F,0,80530,80680,0,1 M,0,80530,81430,608.2065,253.2129,26.83871,253.2129 F,0,80680,81430,1 S,0,81430,,0.3145808 F,0,81430,81467,1,0
Sprite,Foreground,Centre,"letters2\t.png",320,240 F,0,80680,80830,0,1 M,0,80680,81580,608.2065,253.2129,26.83871,253.2129 F,0,80830,81580,1 S,0,81580,,0.3145808 F,0,81580,81617,1,0
Sprite,Foreground,Centre,"letters2\h.png",320,240 F,0,80830,80980,0,1 M,0,80830,81730,608.2065,253.2129,26.83871,253.2129 F,0,80980,81730,1 S,0,81730,,0.3145808 F,0,81730,81767,1,0
Sprite,Foreground,Centre,"letters2\l.png",320,240 F,0,80980,81130,0,1 M,0,80980,81880,608.2065,253.2129,26.83871,253.2129 F,0,81130,81880,1 S,0,81880,,0.3145808 F,0,81880,81917,1,0
Sprite,Foreground,Centre,"letters2\y.png",320,240 F,0,81130,81280,0,1 M,0,81130,82030,608.2065,253.2129,26.83871,253.2129 F,0,81280,82030,1 S,0,82030,,0.3145808 F,0,82030,82067,1,0
Sprite,Foreground,Centre,"letters2\a.png",320,240 F,0,81280,81430,0,1 M,0,81280,82180,608.2065,253.2129,26.83871,253.2129 F,0,81430,82180,1 S,0,82180,,0.3145808 F,0,82180,82217,1,0
Sprite,Foreground,Centre,"letters2\l.png",320,240 F,0,81430,81580,0,1 M,0,81430,82330,608.2065,253.2129,26.83871,253.2129 F,0,81580,82330,1 S,0,82330,,0.3145808 F,0,82330,82367,1,0
Sprite,Foreground,Centre,"letters2\l.png",320,240 F,0,81580,81730,0,1 M,0,81580,82480,608.2065,253.2129,26.83871,253.2129 F,0,81730,82480,1 S,0,82480,,0.3145808 F,0,82480,82517,1,0
Sprite,Foreground,Centre,"letters2\y.png",320,240 F,0,81730,81880,0,1 M,0,81730,82630,608.2065,253.2129,26.83871,253.2129 F,0,81880,82630,1 S,0,82630,,0.3145808 F,0,82630,82667,1,0
Sprite,Foreground,Centre,"letters2\p.png",320,240 F,0,82330,82480,0,1 M,0,82330,83230,608.2065,253.2129,26.83871,253.2129 F,0,82480,83230,1 S,0,83230,,0.3145808 F,0,83230,83267,1,0
Sprite,Foreground,Centre,"letters2\l.png",320,240 F,0,82480,82630,0,1 M,0,82480,83380,608.2065,253.2129,26.83871,253.2129 F,0,82630,83380,1 S,0,83380,,0.3145808 F,0,83380,83417,1,0
Sprite,Foreground,Centre,"letters2\a.png",320,240 F,0,82555,82705,0,1 M,0,82555,83455,608.2065,253.2129,26.83871,253.2129 F,0,82705,83455,1 S,0,83455,,0.3145808 F,0,83455,83492,1,0
Sprite,Foreground,Centre,"letters2\y.png",320,240 F,0,82630,82780,0,1 M,0,82630,83530,608.2065,253.2129,26.83871,253.2129 F,0,82780,83530,1 S,0,83530,,0.3145808 F,0,83530,83567,1,0
Sprite,Foreground,Centre,"letters2\e.png",320,240 F,0,82780,82930,0,1 M,0,82780,83680,608.2065,253.2129,26.83871,253.2129 F,0,82930,83680,1 S,0,83680,,0.3145808 F,0,83680,83717,1,0
Sprite,Foreground,Centre,"letters2\r.png",320,240 F,0,82930,83080,0,1 M,0,82930,83830,608.2065,253.2129,26.83871,253.2129 F,0,83080,83830,1 S,0,83830,,0.3145808 F,0,83830,83867,1,0
Sprite,Foreground,Centre,"letters2\e.png",320,240 F,0,83080,83230,0,1 M,0,83080,83980,608.2065,253.2129,26.83871,253.2129 F,0,83230,83980,1 S,0,83980,,0.3145808 F,0,83980,84017,1,0
Sprite,Foreground,Centre,"letters2\l.png",320,240 F,0,83230,83380,0,1 M,0,83230,84130,608.2065,253.2129,26.83871,253.2129 F,0,83380,84130,1 S,0,84130,,0.3145808 F,0,84130,84167,1,0
Sprite,Foreground,Centre,"letters2\a.png",320,240 F,0,83380,83530,0,1 M,0,83380,84280,608.2065,253.2129,26.83871,253.2129 F,0,83530,84280,1 S,0,84280,,0.3145808 F,0,84280,84317,1,0
Sprite,Foreground,Centre,"letters2\t.png",320,240 F,0,83530,83680,0,1 M,0,83530,84430,608.2065,253.2129,26.83871,253.2129 F,0,83680,84430,1 S,0,84430,,0.3145808 F,0,84430,84467,1,0
Sprite,Foreground,Centre,"letters2\e.png",320,240 F,0,83680,83830,0,1 M,0,83680,84580,608.2065,253.2129,26.83871,253.2129 F,0,83830,84580,1 S,0,84580,,0.3145808 F,0,84580,84617,1,0
Sprite,Foreground,Centre,"letters2\d.png",320,240 F,0,83830,83980,0,1 M,0,83830,84730,608.2065,253.2129,26.83871,253.2129 F,0,83980,84730,1 S,0,84730,,0.3145808 F,0,84730,84767,1,0
Sprite,Foreground,Centre,"letters2\e.png",320,240 F,0,84130,84280,0,1 M,0,84130,85030,608.2065,253.2129,26.83871,253.2129 F,0,84280,85030,1 S,0,85030,,0.3145808 F,0,85030,85067,1,0
Sprite,Foreground,Centre,"letters2\t.png",320,240 F,0,84280,84430,0,1 M,0,84280,85180,608.2065,253.2129,26.83871,253.2129 F,0,84430,85180,1 S,0,85180,,0.3145808 F,0,85180,85217,1,0
Sprite,Foreground,Centre,"letters2\h.png",320,240 F,0,84430,84580,0,1 M,0,84430,85330,608.2065,253.2129,26.83871,253.2129 F,0,84580,85330,1 S,0,85330,,0.3145808 F,0,85330,85367,1,0
Sprite,Foreground,Centre,"letters2\e.png",320,240 F,0,84580,84730,0,1 M,0,84580,85480,608.2065,253.2129,26.83871,253.2129 F,0,84730,85480,1 S,0,85480,,0.3145808 F,0,85480,85517,1,0
Sprite,Foreground,Centre,"letters2\r.png",320,240 F,0,84730,84880,0,1 M,0,84730,85630,608.2065,253.2129,26.83871,253.2129 F,0,84880,85630,1 S,0,85630,,0.3145808 F,0,85630,85667,1,0
Sprite,Foreground,Centre,"letters2\r.png",320,240 F,0,85030,85180,0,1 M,0,85030,85930,608.2065,253.2129,26.83871,253.2129 F,0,85180,85930,1 S,0,85930,,0.3145808 F,0,85930,85967,1,0
Sprite,Foreground,Centre,"letters2\i.png",320,240 F,0,85180,85330,0,1 M,0,85180,86080,608.2065,253.2129,26.83871,253.2129 F,0,85330,86080,1 S,0,86080,,0.3145808 F,0,86080,86117,1,0
Sprite,Foreground,Centre,"letters2\g.png",320,240 F,0,85255,85405,0,1 M,0,85255,86155,608.2065,253.2129,26.83871,253.2129 F,0,85405,86155,1 S,0,86155,,0.3145808 F,0,86155,86192,1,0
Sprite,Foreground,Centre,"letters2\h.png",320,240 F,0,85330,85480,0,1 M,0,85330,86230,608.2065,253.2129,26.83871,253.2129 F,0,85480,86230,1 S,0,86230,,0.3145808 F,0,86230,86267,1,0
Sprite,Foreground,Centre,"letters2\t.png",320,240 F,0,85480,85630,0,1 M,0,85480,86380,608.2065,253.2129,26.83871,253.2129 F,0,85630,86380,1 S,0,86380,,0.3145808 F,0,86380,86417,1,0
Sprite,Foreground,Centre,"letters2\s.png",320,240 F,0,85780,85930,0,1 M,0,85780,86680,608.2065,253.2129,26.83871,253.2129 F,0,85930,86680,1 S,0,86680,,0.3145808 F,0,86680,86717,1,0
Sprite,Foreground,Centre,"letters2\f.png",320,240 F,0,86380,86530,0,1 M,0,86380,87280,608.2065,253.2129,26.83871,253.2129 F,0,86530,87280,1 S,0,87280,,0.3145808 F,0,87280,87317,1,0
Sprite,Foreground,Centre,"letters2\l.png",320,240 F,0,86680,86830,0,1 M,0,86680,87580,608.2065,253.2129,26.83871,253.2129 F,0,86830,87580,1 S,0,87580,,0.3145808 F,0,87580,87617,1,0
Sprite,Foreground,Centre,"letters2\a.png",320,240 F,0,86980,87130,0,1 M,0,86980,87880,608.2065,253.2129,26.83871,253.2129 F,0,87130,87880,1 S,0,87880,,0.3145808 F,0,87880,87917,1,0
Sprite,Foreground,Centre,"letters2\t.png",320,240 F,0,87280,87430,0,1 M,0,87280,88180,608.2065,253.2129,26.83871,253.2129 F,0,87430,88180,1 S,0,88180,,0.3145808 F,0,88180,88217,1,0
Sprite,Foreground,Centre,"letters2\g.png",320,240 F,0,87580,87730,0,1 M,0,87580,88480,608.2065,253.2129,26.83871,253.2129 F,0,87730,88480,1 S,0,88480,,0.3145808 F,0,88480,88517,1,0
Sprite,Foreground,Centre,"letters2\r.png",320,240 F,0,87680,87830,0,1 M,0,87680,88580,608.2065,253.2129,26.83871,253.2129 F,0,87830,88580,1 S,0,88580,,0.3145808 F,0,88580,88617,1,0
Sprite,Foreground,Centre,"letters2\e.png",320,240 F,0,87780,87930,0,1 M,0,87780,88680,608.2065,253.2129,26.83871,253.2129 F,0,87930,88680,1 S,0,88680,,0.3145808 F,0,88680,88717,1,0
Sprite,Foreground,Centre,"letters2\w.png",320,240 F,0,87880,88030,0,1 M,0,87880,88780,608.2065,253.2129,26.83871,253.2129 F,0,88030,88780,1 S,0,88780,,0.3145808 F,0,88780,88817,1,0
Sprite,Foreground,Centre,"letters2\a.png",320,240 F,0,88180,88330,0,1 M,0,88180,89080,608.2065,253.2129,26.83871,253.2129 F,0,88330,89080,1 S,0,89080,,0.3145808 F,0,89080,89117,1,0
Sprite,Foreground,Centre,"letters2\l.png",320,240 F,0,88280,88430,0,1 M,0,88280,89180,608.2065,253.2129,26.83871,253.2129 F,0,88430,89180,1 S,0,89180,,0.3145808 F,0,89180,89217,1,0
Sprite,Foreground,Centre,"letters2\r.png",320,240 F,0,88380,88530,0,1 M,0,88380,89280,608.2065,253.2129,26.83871,253.2129 F,0,88530,89280,1 S,0,89280,,0.3145808 F,0,89280,89317,1,0
Sprite,Foreground,Centre,"letters2\e.png",320,240 F,0,88480,88630,0,1 M,0,88480,89380,608.2065,253.2129,26.83871,253.2129 F,0,88630,89380,1 S,0,89380,,0.3145808 F,0,89380,89417,1,0
Sprite,Foreground,Centre,"letters2\a.png",320,240 F,0,88580,88730,0,1 M,0,88580,89480,608.2065,253.2129,26.83871,253.2129 F,0,88730,89480,1 S,0,89480,,0.3145808 F,0,89480,89517,1,0
Sprite,Foreground,Centre,"letters2\d.png",320,240 F,0,88680,88830,0,1 M,0,88680,89580,608.2065,253.2129,26.83871,253.2129 F,0,88830,89580,1 S,0,89580,,0.3145808 F,0,89580,89617,1,0
Sprite,Foreground,Centre,"letters2\y.png",320,240 F,0,88780,88930,0,1 M,0,88780,89680,608.2065,253.2129,26.83871,253.2129 F,0,88930,89680,1 S,0,89680,,0.3145808 F,0,89680,89717,1,0
Sprite,Foreground,Centre,"letters2\f.png",320,240 F,0,89080,89230,0,1 M,0,89080,89980,608.2065,253.2129,26.83871,253.2129 F,0,89230,89980,1 S,0,89980,,0.3145808 F,0,89980,90017,1,0
Sprite,Foreground,Centre,"letters2\e.png",320,240 F,0,89380,89530,0,1 M,0,89380,90280,608.2065,253.2129,26.83871,253.2129 F,0,89530,90280,1 S,0,90280,,0.3145808 F,0,90280,90317,1,0
Sprite,Foreground,Centre,"letters2\t.png",320,240 F,0,89480,89630,0,1 M,0,89480,90380,608.2065,253.2129,26.83871,253.2129 F,0,89630,90380,1 S,0,90380,,0.3145808 F,0,90380,90417,1,0
Sprite,Foreground,Centre,"letters2\i.png",320,240 F,0,89580,89730,0,1 M,0,89580,90480,608.2065,253.2129,26.83871,253.2129 F,0,89730,90480,1 S,0,90480,,0.3145808 F,0,90480,90517,1,0
Sprite,Foreground,Centre,"letters2\d.png",320,240 F,0,89680,89830,0,1 M,0,89680,90580,608.2065,253.2129,26.83871,253.2129 F,0,89830,90580,1 S,0,90580,,0.3145808 F,0,90580,90617,1,0
Sprite,Foreground,Centre,"letters2\a.png",320,240 F,0,89980,90130,0,1 M,0,89980,90880,608.2065,253.2129,26.83871,253.2129 F,0,90130,90880,1 S,0,90880,,0.3145808 F,0,90880,90917,1,0
Sprite,Foreground,Centre,"letters2\l.png",320,240 F,0,90080,90230,0,1 M,0,90080,90980,608.2065,253.2129,26.83871,253.2129 F,0,90230,90980,1 S,0,90980,,0.3145808 F,0,90980,91017,1,0
Sprite,Foreground,Centre,"letters2\l.png",320,240 F,0,90180,90330,0,1 M,0,90180,91080,608.2065,253.2129,26.83871,253.2129 F,0,90330,91080,1 S,0,91080,,0.3145808 F,0,91080,91117,1,0
Sprite,Foreground,Centre,"letters2\e.png",320,240 F,0,90280,90430,0,1 M,0,90280,91180,608.2065,253.2129,26.83871,253.2129 F,0,90430,91180,1 S,0,91180,,0.3145808 F,0,91180,91217,1,0
Sprite,Foreground,Centre,"letters2\r.png",320,240 F,0,90380,90530,0,1 M,0,90380,91280,608.2065,253.2129,26.83871,253.2129 F,0,90530,91280,1 S,0,91280,,0.3145808 F,0,91280,91317,1,0
Sprite,Foreground,Centre,"letters2\g.png",320,240 F,0,90480,90630,0,1 M,0,90480,91380,608.2065,253.2129,26.83871,253.2129 F,0,90630,91380,1 S,0,91380,,0.3145808 F,0,91380,91417,1,0
Sprite,Foreground,Centre,"letters2\y.png",320,240 F,0,90580,90730,0,1 M,0,90580,91480,608.2065,253.2129,26.83871,253.2129 F,0,90730,91480,1 S,0,91480,,0.3145808 F,0,91480,91517,1,0
Sprite,Foreground,Centre,"letters2\d.png",320,240 F,0,90880,91030,0,1 M,0,90880,91780,608.2065,253.2129,26.83871,253.2129 F,0,91030,91780,1 S,0,91780,,0.3145808 F,0,91780,91817,1,0
Sprite,Foreground,Centre,"letters2\u.png",320,240 F,0,91180,91330,0,1 M,0,91180,92080,608.2065,253.2129,26.83871,253.2129 F,0,91330,92080,1 S,0,92080,,0.3145808 F,0,92080,92117,1,0
Sprite,Foreground,Centre,"letters2\e.png",320,240 F,0,91255,91405,0,1 M,0,91255,92155,608.2065,253.2129,26.83871,253.2129 F,0,91405,92155,1 S,0,92155,,0.3145808 F,0,92155,92192,1,0
Sprite,Foreground,Centre,"letters2\s.png",320,240 F,0,91330,91480,0,1 M,0,91330,92230,608.2065,253.2129,26.83871,253.2129 F,0,91480,92230,1 S,0,92230,,0.3145808 F,0,92230,92267,1,0
Sprite,Foreground,Centre,"letters2\a.png",320,240 F,0,91630,91780,0,1 M,0,91630,92530,608.2065,253.2129,26.83871,253.2129 F,0,91780,92530,1 S,0,92530,,0.3145808 F,0,92530,92567,1,0
Sprite,Foreground,Centre,"letters2\l.png",320,240 F,0,91780,91930,0,1 M,0,91780,92680,608.2065,253.2129,26.83871,253.2129 F,0,91930,92680,1 S,0,92680,,0.3145808 F,0,92680,92717,1,0
Sprite,Foreground,Centre,"letters2\t.png",320,240 F,0,91930,92080,0,1 M,0,91930,92830,608.2065,253.2129,26.83871,253.2129 F,0,92080,92830,1 S,0,92830,,0.3145808 F,0,92830,92867,1,0
Sprite,Foreground,Centre,"letters2\a.png",320,240 F,0,92080,92230,0,1 M,0,92080,92980,608.2065,253.2129,26.83871,253.2129 F,0,92230,92980,1 S,0,92980,,0.3145808 F,0,92980,93017,1,0
Sprite,Foreground,Centre,"letters2\r.png",320,240 F,0,92380,92530,0,1 M,0,92380,93280,608.2065,253.2129,26.83871,253.2129 F,0,92530,93280,1 S,0,93280,,0.3145808 F,0,93280,93317,1,0
Sprite,Foreground,Centre,"letters2\j.png",320,240 F,0,94780,94930,0,1 M,0,94780,95680,608.2065,253.2129,26.83871,253.2129 F,0,94930,95680,1 S,0,95680,,0.3145808 F,0,95680,95717,1,0
Sprite,Foreground,Centre,"letters2\e.png",320,240 F,0,95080,95230,0,1 M,0,95080,95980,608.2065,253.2129,26.83871,253.2129 F,0,95230,95980,1 S,0,95980,,0.3145808 F,0,95980,96017,1,0
Sprite,Foreground,Centre,"letters2\w.png",320,240 F,0,95230,95380,0,1 M,0,95230,96130,608.2065,253.2129,26.83871,253.2129 F,0,95380,96130,1 S,0,96130,,0.3145808 F,0,96130,96167,1,0
Sprite,Foreground,Centre,"letters2\e.png",320,240 F,0,95305,95455,0,1 M,0,95305,96205,608.2065,253.2129,26.83871,253.2129 F,0,95455,96205,1 S,0,96205,,0.3145808 F,0,96205,96242,1,0
Sprite,Foreground,Centre,"letters2\l.png",320,240 F,0,95380,95530,0,1 M,0,95380,96280,608.2065,253.2129,26.83871,253.2129 F,0,95530,96280,1 S,0,96280,,0.3145808 F,0,96280,96317,1,0
Sprite,Foreground,Centre,"letters2\r.png",320,240 F,0,95455,95605,0,1 M,0,95455,96355,608.2065,253.2129,26.83871,253.2129 F,0,95605,96355,1 S,0,96355,,0.3145808 F,0,96355,96392,1,0
Sprite,Foreground,Centre,"letters2\y.png",320,240 F,0,95530,95680,0,1 M,0,95530,96430,608.2065,253.2129,26.83871,253.2129 F,0,95680,96430,1 S,0,96430,,0.3145808 F,0,96430,96467,1,0
Sprite,Foreground,Centre,"letters2\s.png",320,240 F,0,95830,95980,0,1 M,0,95830,96730,608.2065,253.2129,26.83871,253.2129 F,0,95980,96730,1 S,0,96730,,0.3145808 F,0,96730,96767,1,0
Sprite,Foreground,Centre,"letters2\o.png",320,240 F,0,95905,96055,0,1 M,0,95905,96805,608.2065,253.2129,26.83871,253.2129 F,0,96055,96805,1 S,0,96805,,0.3145808 F,0,96805,96842,1,0
Sprite,Foreground,Centre,"letters2\l.png",320,240 F,0,96130,96280,0,1 M,0,96130,97030,608.2065,253.2129,26.83871,253.2129 F,0,96280,97030,1 S,0,97030,,0.3145808 F,0,97030,97067,1,0
Sprite,Foreground,Centre,"letters2\o.png",320,240 F,0,96280,96430,0,1 M,0,96280,97180,608.2065,253.2129,26.83871,253.2129 F,0,96430,97180,1 S,0,97180,,0.3145808 F,0,97180,97217,1,0
Sprite,Foreground,Centre,"letters2\f.png",320,240 F,0,96580,96730,0,1 M,0,96580,97480,608.2065,253.2129,26.83871,253.2129 F,0,96730,97480,1 S,0,97480,,0.3145808 F,0,97480,97517,1,0
Sprite,Foreground,Centre,"letters2\u.png",320,240 F,0,96880,97030,0,1 M,0,96880,97780,608.2065,253.2129,26.83871,253.2129 F,0,97030,97780,1 S,0,97780,,0.3145808 F,0,97780,97817,1,0
Sprite,Foreground,Centre,"letters2\s.png",320,240 F,0,97180,97330,0,1 M,0,97180,98080,608.2065,253.2129,26.83871,253.2129 F,0,97330,98080,1 S,0,98080,,0.3145808 F,0,98080,98117,1,0
Sprite,Foreground,Centre,"letters2\s.png",320,240 F,0,97330,97480,0,1 M,0,97330,98230,608.2065,253.2129,26.83871,253.2129 F,0,97480,98230,1 S,0,98230,,0.3145808 F,0,98230,98267,1,0
Sprite,Foreground,Centre,"letters2\w.png",320,240 F,0,97630,97780,0,1 M,0,97630,98530,608.2065,253.2129,26.83871,253.2129 F,0,97780,98530,1 S,0,98530,,0.3145808 F,0,98530,98567,1,0
Sprite,Foreground,Centre,"letters2\o.png",320,240 F,0,97930,98080,0,1 M,0,97930,98830,608.2065,253.2129,26.83871,253.2129 F,0,98080,98830,1 S,0,98830,,0.3145808 F,0,98830,98867,1,0
Sprite,Foreground,Centre,"letters2\e.png",320,240 F,0,98080,98230,0,1 M,0,98080,98980,608.2065,253.2129,26.83871,253.2129 F,0,98230,98980,1 S,0,98980,,0.3145808 F,0,98980,99017,1,0
Sprite,Foreground,Centre,"letters2\s.png",320,240 F,0,98380,98530,0,1 M,0,98380,99280,608.2065,253.2129,26.83871,253.2129 F,0,98530,99280,1 S,0,99280,,0.3145808 F,0,99280,99317,1,0
Sprite,Foreground,Centre,"letters2\d.png",320,240 F,0,98830,98980,0,1 M,0,98830,99730,608.2065,253.2129,26.83871,253.2129 F,0,98980,99730,1 S,0,99730,,0.3145808 F,0,99730,99767,1,0
Sprite,Foreground,Centre,"letters2\i.png",320,240 F,0,98980,99130,0,1 M,0,98980,99880,608.2065,253.2129,26.83871,253.2129 F,0,99130,99880,1 S,0,99880,,0.3145808 F,0,99880,99917,1,0
Sprite,Foreground,Centre,"letters2\s.png",320,240 F,0,99130,99280,0,1 M,0,99130,100030,608.2065,253.2129,26.83871,253.2129 F,0,99280,100030,1 S,0,100030,,0.3145808 F,0,100030,100067,1,0
Sprite,Foreground,Centre,"letters2\p.png",320,240 F,0,99205,99355,0,1 M,0,99205,100105,608.2065,253.2129,26.83871,253.2129 F,0,99355,100105,1 S,0,100105,,0.3145808 F,0,100105,100142,1,0
Sprite,Foreground,Centre,"letters2\u.png",320,240 F,0,99280,99430,0,1 M,0,99280,100180,608.2065,253.2129,26.83871,253.2129 F,0,99430,100180,1 S,0,100180,,0.3145808 F,0,100180,100217,1,0
Sprite,Foreground,Centre,"letters2\t.png",320,240 F,0,99355,99505,0,1 M,0,99355,100255,608.2065,253.2129,26.83871,253.2129 F,0,99505,100255,1 S,0,100255,,0.3145808 F,0,100255,100292,1,0
Sprite,Foreground,Centre,"letters2\e.png",320,240 F,0,99430,99580,0,1 M,0,99430,100330,608.2065,253.2129,26.83871,253.2129 F,0,99580,100330,1 S,0,100330,,0.3145808 F,0,100330,100367,1,0
Sprite,Foreground,Centre,"letters2\t.png",320,240 F,0,99580,99730,0,1 M,0,99580,100480,608.2065,253.2129,26.83871,253.2129 F,0,99730,100480,1 S,0,100480,,0.3145808 F,0,100480,100517,1,0
Sprite,Foreground,Centre,"letters2\r.png",320,240 F,0,99655,99805,0,1 M,0,99655,100555,608.2065,253.2129,26.83871,253.2129 F,0,99805,100555,1 S,0,100555,,0.3145808 F,0,100555,100592,1,0
Sprite,Foreground,Centre,"letters2\a.png",320,240 F,0,99730,99880,0,1 M,0,99730,100630,608.2065,253.2129,26.83871,253.2129 F,0,99880,100630,1 S,0,100630,,0.3145808 F,0,100630,100667,1,0
Sprite,Foreground,Centre,"letters2\y.png",320,240 F,0,99880,100030,0,1 M,0,99880,100780,608.2065,253.2129,26.83871,253.2129 F,0,100030,100780,1 S,0,100780,,0.3145808 F,0,100780,100817,1,0
Sprite,Foreground,Centre,"letters2\o.png",320,240 F,0,100180,100330,0,1 M,0,100180,101080,608.2065,253.2129,26.83871,253.2129 F,0,100330,101080,1 S,0,101080,,0.3145808 F,0,101080,101117,1,0
Sprite,Foreground,Centre,"letters2\d.png",320,240 F,0,100405,100555,0,1 M,0,100405,101305,608.2065,253.2129,26.83871,253.2129 F,0,100555,101305,1 S,0,101305,,0.3145808 F,0,101305,101342,1,0
Sprite,Foreground,Centre,"letters2\y.png",320,240 F,0,100480,100630,0,1 M,0,100480,101380,608.2065,253.2129,26.83871,253.2129 F,0,100630,101380,1 S,0,101380,,0.3145808 F,0,101380,101417,1,0
Sprite,Foreground,Centre,"letters2\s.png",320,240 F,0,100630,100780,0,1 M,0,100630,101530,608.2065,253.2129,26.83871,253.2129 F,0,100780,101530,1 S,0,101530,,0.3145808 F,0,101530,101567,1,0
Sprite,Foreground,Centre,"letters2\s.png",320,240 F,0,100780,100930,0,1 M,0,100780,101680,608.2065,253.2129,26.83871,253.2129 F,0,100930,101680,1 S,0,101680,,0.3145808 F,0,101680,101717,1,0
Sprite,Foreground,Centre,"letters2\e.png",320,240 F,0,100930,101080,0,1 M,0,100930,101830,608.2065,253.2129,26.83871,253.2129 F,0,101080,101830,1 S,0,101830,,0.3145808 F,0,101830,101867,1,0
Sprite,Foreground,Centre,"letters2\y.png",320,240 F,0,101005,101155,0,1 M,0,101005,101905,608.2065,253.2129,26.83871,253.2129 F,0,101155,101905,1 S,0,101905,,0.3145808 F,0,101905,101942,1,0
Sprite,Foreground,Centre,"letters2\t.png",320,240 F,0,101230,101380,0,1 M,0,101230,102130,608.2065,253.2129,26.83871,253.2129 F,0,101380,102130,1 S,0,102130,,0.3145808 F,0,102130,102167,1,0
Sprite,Foreground,Centre,"letters2\a.png",320,240 F,0,101380,101530,0,1 M,0,101380,102280,608.2065,253.2129,26.83871,253.2129 F,0,101530,102280,1 S,0,102280,,0.3145808 F,0,102280,102317,1,0
Sprite,Foreground,Centre,"letters2\k.png",320,240 F,0,101530,101680,0,1 M,0,101530,102430,608.2065,253.2129,26.83871,253.2129 F,0,101680,102430,1 S,0,102430,,0.3145808 F,0,102430,102467,1,0
Sprite,Foreground,Centre,"letters2\e.png",320,240 F,0,101605,101755,0,1 M,0,101605,102505,608.2065,253.2129,26.83871,253.2129 F,0,101755,102505,1 S,0,102505,,0.3145808 F,0,102505,102542,1,0
Sprite,Foreground,Centre,"letters2\o.png",320,240 F,0,101680,101830,0,1 M,0,101680,102580,608.2065,253.2129,26.83871,253.2129 F,0,101830,102580,1 S,0,102580,,0.3145808 F,0,102580,102617,1,0
Sprite,Foreground,Centre,"letters2\f.png",320,240 F,0,101830,101980,0,1 M,0,101830,102730,608.2065,253.2129,26.83871,253.2129 F,0,101980,102730,1 S,0,102730,,0.3145808 F,0,102730,102767,1,0
Sprite,Foreground,Centre,"letters2\f.png",320,240 F,0,101980,102130,0,1 M,0,101980,102880,608.2065,253.2129,26.83871,253.2129 F,0,102130,102880,1 S,0,102880,,0.3145808 F,0,102880,102917,1,0
Sprite,Foreground,Centre,"letters2\j.png",320,240 F,0,102205,102355,0,1 M,0,102205,103105,608.2065,253.2129,26.83871,253.2129 F,0,102355,103105,1 S,0,103105,,0.3145808 F,0,103105,103142,1,0
Sprite,Foreground,Centre,"letters2\u.png",320,240 F,0,102355,102505,0,1 M,0,102355,103255,608.2065,253.2129,26.83871,253.2129 F,0,102505,103255,1 S,0,103255,,0.3145808 F,0,103255,103292,1,0
Sprite,Foreground,Centre,"letters2\r.png",320,240 F,0,102430,102580,0,1 M,0,102430,103330,608.2065,253.2129,26.83871,253.2129 F,0,102580,103330,1 S,0,103330,,0.3145808 F,0,103330,103367,1,0
Sprite,Foreground,Centre,"letters2\y.png",320,240 F,0,102580,102730,0,1 M,0,102580,103480,608.2065,253.2129,26.83871,253.2129 F,0,102730,103480,1 S,0,103480,,0.3145808 F,0,103480,103517,1,0
Sprite,Foreground,Centre,"letters2\g.png",320,240 F,0,102880,103030,0,1 M,0,102880,103780,608.2065,253.2129,26.83871,253.2129 F,0,103030,103780,1 S,0,103780,,0.3145808 F,0,103780,103817,1,0
Sprite,Foreground,Centre,"letters2\r.png",320,240 F,0,103030,103180,0,1 M,0,103030,103930,608.2065,253.2129,26.83871,253.2129 F,0,103180,103930,1 S,0,103930,,0.3145808 F,0,103930,103967,1,0
Sprite,Foreground,Centre,"letters2\o.png",320,240 F,0,103180,103330,0,1 M,0,103180,104080,608.2065,253.2129,26.83871,253.2129 F,0,103330,104080,1 S,0,104080,,0.3145808 F,0,104080,104117,1,0
Sprite,Foreground,Centre,"letters2\s.png",320,240 F,0,103330,103480,0,1 M,0,103330,104230,608.2065,253.2129,26.83871,253.2129 F,0,103480,104230,1 S,0,104230,,0.3145808 F,0,104230,104267,1,0
Sprite,Foreground,Centre,"letters2\s.png",320,240 F,0,103480,103630,0,1 M,0,103480,104380,608.2065,253.2129,26.83871,253.2129 F,0,103630,104380,1 S,0,104380,,0.3145808 F,0,104380,104417,1,0
Sprite,Foreground,Centre,"letters2\p.png",320,240 F,0,103780,103930,0,1 M,0,103780,104680,608.2065,253.2129,26.83871,253.2129 F,0,103930,104680,1 S,0,104680,,0.3145808 F,0,104680,104717,1,0
Sprite,Foreground,Centre,"letters2\u.png",320,240 F,0,104005,104155,0,1 M,0,104005,104905,608.2065,253.2129,26.83871,253.2129 F,0,104155,104905,1 S,0,104905,,0.3145808 F,0,104905,104942,1,0
Sprite,Foreground,Centre,"letters2\l.png",320,240 F,0,104080,104230,0,1 M,0,104080,104980,608.2065,253.2129,26.83871,253.2129 F,0,104230,104980,1 S,0,104980,,0.3145808 F,0,104980,105017,1,0
Sprite,Foreground,Centre,"letters2\l.png",320,240 F,0,104155,104305,0,1 M,0,104155,105055,608.2065,253.2129,26.83871,253.2129 F,0,104305,105055,1 S,0,105055,,0.3145808 F,0,105055,105092,1,0
Sprite,Foreground,Centre,"letters2\o.png",320,240 F,0,104230,104380,0,1 M,0,104230,105130,608.2065,253.2129,26.83871,253.2129 F,0,104380,105130,1 S,0,105130,,0.3145808 F,0,105130,105167,1,0
Sprite,Foreground,Centre,"letters2\u.png",320,240 F,0,104305,104455,0,1 M,0,104305,105205,608.2065,253.2129,26.83871,253.2129 F,0,104455,105205,1 S,0,105205,,0.3145808 F,0,105205,105242,1,0
Sprite,Foreground,Centre,"letters2\t.png",320,240 F,0,104380,104530,0,1 M,0,104380,105280,608.2065,253.2129,26.83871,253.2129 F,0,104530,105280,1 S,0,105280,,0.3145808 F,0,105280,105317,1,0
Sprite,Foreground,Centre,"letters2\w.png",320,240 F,0,104530,104680,0,1 M,0,104530,105430,608.2065,253.2129,26.83871,253.2129 F,0,104680,105430,1 S,0,105430,,0.3145808 F,0,105430,105467,1,0
Sprite,Foreground,Centre,"letters2\h.png",320,240 F,0,104680,104830,0,1 M,0,104680,105580,608.2065,253.2129,26.83871,253.2129 F,0,104830,105580,1 S,0,105580,,0.3145808 F,0,105580,105617,1,0
Sprite,Foreground,Centre,"letters2\i.png",320,240 F,0,104830,104980,0,1 M,0,104830,105730,608.2065,253.2129,26.83871,253.2129 F,0,104980,105730,1 S,0,105730,,0.3145808 F,0,105730,105767,1,0
Sprite,Foreground,Centre,"letters2\p.png",320,240 F,0,104980,105130,0,1 M,0,104980,105880,608.2065,253.2129,26.83871,253.2129 F,0,105130,105880,1 S,0,105880,,0.3145808 F,0,105880,105917,1,0
Sprite,Foreground,Centre,"letters2\l.png",320,240 F,0,105055,105205,0,1 M,0,105055,105955,608.2065,253.2129,26.83871,253.2129 F,0,105205,105955,1 S,0,105955,,0.3145808 F,0,105955,105992,1,0
Sprite,Foreground,Centre,"letters2\a.png",320,240 F,0,105130,105280,0,1 M,0,105130,106030,608.2065,253.2129,26.83871,253.2129 F,0,105280,106030,1 S,0,106030,,0.3145808 F,0,106030,106067,1,0
Sprite,Foreground,Centre,"letters2\s.png",320,240 F,0,105205,105355,0,1 M,0,105205,106105,608.2065,253.2129,26.83871,253.2129 F,0,105355,106105,1 S,0,106105,,0.3145808 F,0,106105,106142,1,0
Sprite,Foreground,Centre,"letters2\h.png",320,240 F,0,105280,105430,0,1 M,0,105280,106180,608.2065,253.2129,26.83871,253.2129 F,0,105430,106180,1 S,0,106180,,0.3145808 F,0,106180,106217,1,0
Sprite,Foreground,Centre,"letters2\h.png",320,240 F,0,105580,105730,0,1 M,0,105580,106480,608.2065,253.2129,26.83871,253.2129 F,0,105730,106480,1 S,0,106480,,0.3145808 F,0,106480,106517,1,0
Sprite,Foreground,Centre,"letters2\o.png",320,240 F,0,105730,105880,0,1 M,0,105730,106630,608.2065,253.2129,26.83871,253.2129 F,0,105880,106630,1 S,0,106630,,0.3145808 F,0,106630,106667,1,0
Sprite,Foreground,Centre,"letters2\i.png",320,240 F,0,105880,106030,0,1 M,0,105880,106780,608.2065,253.2129,26.83871,253.2129 F,0,106030,106780,1 S,0,106780,,0.3145808 F,0,106780,106817,1,0
Sprite,Foreground,Centre,"letters2\s.png",320,240 F,0,106030,106180,0,1 M,0,106030,106930,608.2065,253.2129,26.83871,253.2129 F,0,106180,106930,1 S,0,106930,,0.3145808 F,0,106930,106967,1,0
Sprite,Foreground,Centre,"letters2\t.png",320,240 F,0,106180,106330,0,1 M,0,106180,107080,608.2065,253.2129,26.83871,253.2129 F,0,106330,107080,1 S,0,107080,,0.3145808 F,0,107080,107117,1,0
Sprite,Foreground,Centre,"letters2\f.png",320,240 F,0,106330,106480,0,1 M,0,106330,107230,608.2065,253.2129,26.83871,253.2129 F,0,106480,107230,1 S,0,107230,,0.3145808 F,0,107230,107267,1,0
Sprite,Foreground,Centre,"letters2\l.png",320,240 F,0,106405,106555,0,1 M,0,106405,107305,608.2065,253.2129,26.83871,253.2129 F,0,106555,107305,1 S,0,107305,,0.3145808 F,0,107305,107342,1,0
Sprite,Foreground,Centre,"letters2\o.png",320,240 F,0,106480,106630,0,1 M,0,106480,107380,608.2065,253.2129,26.83871,253.2129 F,0,106630,107380,1 S,0,107380,,0.3145808 F,0,107380,107417,1,0
Sprite,Foreground,Centre,"letters2\u.png",320,240 F,0,106555,106705,0,1 M,0,106555,107455,608.2065,253.2129,26.83871,253.2129 F,0,106705,107455,1 S,0,107455,,0.3145808 F,0,107455,107492,1,0
Sprite,Foreground,Centre,"letters2\t.png",320,240 F,0,106630,106780,0,1 M,0,106630,107530,608.2065,253.2129,26.83871,253.2129 F,0,106780,107530,1 S,0,107530,,0.3145808 F,0,107530,107567,1,0
Sprite,Foreground,Centre,"letters2\h.png",320,240 F,0,106780,106930,0,1 M,0,106780,107680,608.2065,253.2129,26.83871,253.2129 F,0,106930,107680,1 S,0,107680,,0.3145808 F,0,107680,107717,1,0
Sprite,Foreground,Centre,"letters2\e.png",320,240 F,0,106930,107080,0,1 M,0,106930,107830,608.2065,253.2129,26.83871,253.2129 F,0,107080,107830,1 S,0,107830,,0.3145808 F,0,107830,107867,1,0
Sprite,Foreground,Centre,"letters2\a.png",320,240 F,0,107080,107230,0,1 M,0,107080,107980,608.2065,253.2129,26.83871,253.2129 F,0,107230,107980,1 S,0,107980,,0.3145808 F,0,107980,108017,1,0
Sprite,Foreground,Centre,"letters2\t.png",320,240 F,0,107230,107380,0,1 M,0,107230,108130,608.2065,253.2129,26.83871,253.2129 F,0,107380,108130,1 S,0,108130,,0.3145808 F,0,108130,108167,1,0
Sprite,Foreground,Centre,"letters2\e.png",320,240 F,0,107305,107455,0,1 M,0,107305,108205,608.2065,253.2129,26.83871,253.2129 F,0,107455,108205,1 S,0,108205,,0.3145808 F,0,108205,108242,1,0
Sprite,Foreground,Centre,"letters2\d.png",320,240 F,0,107380,107530,0,1 M,0,107380,108280,608.2065,253.2129,26.83871,253.2129 F,0,107530,108280,1 S,0,108280,,0.3145808 F,0,108280,108317,1,0
Sprite,Foreground,Centre,"letters2\s.png",320,240 F,0,107530,107680,0,1 M,0,107530,108430,608.2065,253.2129,26.83871,253.2129 F,0,107680,108430,1 S,0,108430,,0.3145808 F,0,108430,108467,1,0
Sprite,Foreground,Centre,"letters2\e.png",320,240 F,0,107605,107755,0,1 M,0,107605,108505,608.2065,253.2129,26.83871,253.2129 F,0,107755,108505,1 S,0,108505,,0.3145808 F,0,108505,108542,1,0
Sprite,Foreground,Centre,"letters2\t.png",320,240 F,0,107680,107830,0,1 M,0,107680,108580,608.2065,253.2129,26.83871,253.2129 F,0,107830,108580,1 S,0,108580,,0.3145808 F,0,108580,108617,1,0
Sprite,Foreground,Centre,"letters2\a.png",320,240 F,0,107830,107980,0,1 M,0,107830,108730,608.2065,253.2129,26.83871,253.2129 F,0,107980,108730,1 S,0,108730,,0.3145808 F,0,108730,108767,1,0
Sprite,Foreground,Centre,"letters2\u.png",320,240 F,0,107905,108055,0,1 M,0,107905,108805,608.2065,253.2129,26.83871,253.2129 F,0,108055,108805,1 S,0,108805,,0.3145808 F,0,108805,108842,1,0
Sprite,Foreground,Centre,"letters2\s.png",320,240 F,0,107980,108130,0,1 M,0,107980,108880,608.2065,253.2129,26.83871,253.2129 F,0,108130,108880,1 S,0,108880,,0.3145808 F,0,108880,108917,1,0
Sprite,Foreground,Centre,"letters2\t.png",320,240 F,0,108055,108205,0,1 M,0,108055,108955,608.2065,253.2129,26.83871,253.2129 F,0,108205,108955,1 S,0,108955,,0.3145808 F,0,108955,108992,1,0
Sprite,Foreground,Centre,"letters2\e.png",320,240 F,0,108130,108280,0,1 M,0,108130,109030,608.2065,253.2129,26.83871,253.2129 F,0,108280,109030,1 S,0,109030,,0.3145808 F,0,109030,109067,1,0
Sprite,Foreground,Centre,"letters2\r.png",320,240 F,0,108205,108355,0,1 M,0,108205,109105,608.2065,253.2129,26.83871,253.2129 F,0,108355,109105,1 S,0,109105,,0.3145808 F,0,109105,109142,1,0
Sprite,Foreground,Centre,"letters2\e.png",320,240 F,0,108280,108430,0,1 M,0,108280,109180,608.2065,253.2129,26.83871,253.2129 F,0,108430,109180,1 S,0,109180,,0.3145808 F,0,109180,109217,1,0
Sprite,Foreground,Centre,"letters2\y.png",320,240 F,0,108430,108580,0,1 M,0,108430,109330,608.2065,253.2129,26.83871,253.2129 F,0,108580,109330,1 S,0,109330,,0.3145808 F,0,109330,109367,1,0
Sprite,Foreground,Centre,"letters2\o.png",320,240 F,0,108505,108655,0,1 M,0,108505,109405,608.2065,253.2129,26.83871,253.2129 F,0,108655,109405,1 S,0,109405,,0.3145808 F,0,109405,109442,1,0
Sprite,Foreground,Centre,"letters2\k.png",320,240 F,0,108580,108730,0,1 M,0,108580,109480,608.2065,253.2129,26.83871,253.2129 F,0,108730,109480,1 S,0,109480,,0.3145808 F,0,109480,109517,1,0
Sprite,Foreground,Centre,"letters2\e.png",320,240 F,0,108655,108805,0,1 M,0,108655,109555,608.2065,253.2129,26.83871,253.2129 F,0,108805,109555,1 S,0,109555,,0.3145808 F,0,109555,109592,1,0
Sprite,Foreground,Centre,"letters2\l.png",320,240 F,0,108730,108880,0,1 M,0,108730,109630,608.2065,253.2129,26.83871,253.2129 F,0,108880,109630,1 S,0,109630,,0.3145808 F,0,109630,109667,1,0
Sprite,Foreground,Centre,"letters2\p.png",320,240 F,0,108880,109030,0,1 M,0,108880,109780,608.2065,253.2129,26.83871,253.2129 F,0,109030,109780,1 S,0,109780,,0.3145808 F,0,109780,109817,1,0
Sprite,Foreground,Centre,"letters2\a.png",320,240 F,0,109030,109180,0,1 M,0,109030,109930,608.2065,253.2129,26.83871,253.2129 F,0,109180,109930,1 S,0,109930,,0.3145808 F,0,109930,109967,1,0
Sprite,Foreground,Centre,"letters2\s.png",320,240 F,0,109105,109255,0,1 M,0,109105,110005,608.2065,253.2129,26.83871,253.2129 F,0,109255,110005,1 S,0,110005,,0.3145808 F,0,110005,110042,1,0
Sprite,Foreground,Centre,"letters2\t.png",320,240 F,0,109180,109330,0,1 M,0,109180,110080,608.2065,253.2129,26.83871,253.2129 F,0,109330,110080,1 S,0,110080,,0.3145808 F,0,110080,110117,1,0
Sprite,Foreground,Centre,"letters2\e.png",320,240 F,0,109255,109405,0,1 M,0,109255,110155,608.2065,253.2129,26.83871,253.2129 F,0,109405,110155,1 S,0,110155,,0.3145808 F,0,110155,110192,1,0
Sprite,Foreground,Centre,"letters2\l.png",320,240 F,0,109330,109480,0,1 M,0,109330,110230,608.2065,253.2129,26.83871,253.2129 F,0,109480,110230,1 S,0,110230,,0.3145808 F,0,110230,110267,1,0
Sprite,Foreground,Centre,"letters2\l.png",320,240 F,0,109630,109780,0,1 M,0,109630,110530,608.2065,253.2129,26.83871,253.2129 F,0,109780,110530,1 S,0,110530,,0.3145808 F,0,110530,110567,1,0
Sprite,Foreground,Centre,"letters2\e.png",320,240 F,0,109705,109855,0,1 M,0,109705,110605,608.2065,253.2129,26.83871,253.2129 F,0,109855,110605,1 S,0,110605,,0.3145808 F,0,110605,110642,1,0
Sprite,Foreground,Centre,"letters2\e.png",320,240 F,0,109780,109930,0,1 M,0,109780,110680,608.2065,253.2129,26.83871,253.2129 F,0,109930,110680,1 S,0,110680,,0.3145808 F,0,110680,110717,1,0
Sprite,Foreground,Centre,"letters2\r.png",320,240 F,0,109930,110080,0,1 M,0,109930,110830,608.2065,253.2129,26.83871,253.2129 F,0,110080,110830,1 S,0,110830,,0.3145808 F,0,110830,110867,1,0
Sprite,Foreground,Centre,"letters2\y.png",320,240 F,0,110080,110230,0,1 M,0,110080,110980,608.2065,253.2129,26.83871,253.2129 F,0,110230,110980,1 S,0,110980,,0.3145808 F,0,110980,111017,1,0
Sprite,Foreground,Centre,"letters2\g.png",320,240 F,0,110230,110380,0,1 M,0,110230,111130,608.2065,253.2129,26.83871,253.2129 F,0,110380,111130,1 S,0,111130,,0.3145808 F,0,111130,111167,1,0
Sprite,Foreground,Centre,"letters2\e.png",320,240 F,0,110305,110455,0,1 M,0,110305,111205,608.2065,253.2129,26.83871,253.2129 F,0,110455,111205,1 S,0,111205,,0.3145808 F,0,111205,111242,1,0
Sprite,Foreground,Centre,"letters2\l.png",320,240 F,0,110380,110530,0,1 M,0,110380,111280,608.2065,253.2129,26.83871,253.2129 F,0,110530,111280,1 S,0,111280,,0.3145808 F,0,111280,111317,1,0
Sprite,Foreground,Centre,"letters2\h.png",320,240 F,0,110605,110755,0,1 M,0,110605,111505,608.2065,253.2129,26.83871,253.2129 F,0,110755,111505,1 S,0,111505,,0.3145808 F,0,111505,111542,1,0
Sprite,Foreground,Centre,"letters2\e.png",320,240 F,0,110680,110830,0,1 M,0,110680,111580,608.2065,253.2129,26.83871,253.2129 F,0,110830,111580,1 S,0,111580,,0.3145808 F,0,111580,111617,1,0
Sprite,Foreground,Centre,"letters2\a.png",320,240 F,0,110830,110980,0,1 M,0,110830,111730,608.2065,253.2129,26.83871,253.2129 F,0,110980,111730,1 S,0,111730,,0.3145808 F,0,111730,111767,1,0
Sprite,Foreground,Centre,"letters2\r.png",320,240 F,0,110980,111130,0,1 M,0,110980,111880,608.2065,253.2129,26.83871,253.2129 F,0,111130,111880,1 S,0,111880,,0.3145808 F,0,111880,111917,1,0
Sprite,Foreground,Centre,"letters2\t.png",320,240 F,0,111130,111280,0,1 M,0,111130,112030,608.2065,253.2129,26.83871,253.2129 F,0,111280,112030,1 S,0,112030,,0.3145808 F,0,112030,112067,1,0
Sprite,Foreground,Centre,"letters2\s.png",320,240 F,0,111280,111430,0,1 M,0,111280,112180,608.2065,253.2129,26.83871,253.2129 F,0,111430,112180,1 S,0,112180,,0.3145808 F,0,112180,112217,1,0
Sprite,Foreground,Centre,"letters2\p.png",320,240 F,0,111430,111580,0,1 M,0,111430,112330,608.2065,253.2129,26.83871,253.2129 F,0,111580,112330,1 S,0,112330,,0.3145808 F,0,112330,112367,1,0
Sprite,Foreground,Centre,"letters2\i.png",320,240 F,0,111505,111655,0,1 M,0,111505,112405,608.2065,253.2129,26.83871,253.2129 F,0,111655,112405,1 S,0,112405,,0.3145808 F,0,112405,112442,1,0
Sprite,Foreground,Centre,"letters2\l.png",320,240 F,0,111580,111730,0,1 M,0,111580,112480,608.2065,253.2129,26.83871,253.2129 F,0,111730,112480,1 S,0,112480,,0.3145808 F,0,112480,112517,1,0
Sprite,Foreground,Centre,"letters2\e.png",320,240 F,0,111730,111880,0,1 M,0,111730,112630,608.2065,253.2129,26.83871,253.2129 F,0,111880,112630,1 S,0,112630,,0.3145808 F,0,112630,112667,1,0
Sprite,Foreground,Centre,"letters2\t.png",320,240 F,0,111880,112030,0,1 M,0,111880,112780,608.2065,253.2129,26.83871,253.2129 F,0,112030,112780,1 S,0,112780,,0.3145808 F,0,112780,112817,1,0
Sprite,Foreground,Centre,"letters2\h.png",320,240 F,0,111955,112105,0,1 M,0,111955,112855,608.2065,253.2129,26.83871,253.2129 F,0,112105,112855,1 S,0,112855,,0.3145808 F,0,112855,112892,1,0
Sprite,Foreground,Centre,"letters2\e.png",320,240 F,0,112030,112180,0,1 M,0,112030,112930,608.2065,253.2129,26.83871,253.2129 F,0,112180,112930,1 S,0,112930,,0.3145808 F,0,112930,112967,1,0
Sprite,Foreground,Centre,"letters2\r.png",320,240 F,0,112105,112255,0,1 M,0,112105,113005,608.2065,253.2129,26.83871,253.2129 F,0,112255,113005,1 S,0,113005,,0.3145808 F,0,113005,113042,1,0
Sprite,Foreground,Centre,"letters2\e.png",320,240 F,0,112180,112330,0,1 M,0,112180,113080,608.2065,253.2129,26.83871,253.2129 F,0,112330,113080,1 S,0,113080,,0.3145808 F,0,113080,113117,1,0
Sprite,Foreground,Centre,"letters2\f.png",320,240 F,0,112255,112405,0,1 M,0,112255,113155,608.2065,253.2129,26.83871,253.2129 F,0,112405,113155,1 S,0,113155,,0.3145808 F,0,113155,113192,1,0
Sprite,Foreground,Centre,"letters2\o.png",320,240 F,0,112330,112480,0,1 M,0,112330,113230,608.2065,253.2129,26.83871,253.2129 F,0,112480,113230,1 S,0,113230,,0.3145808 F,0,113230,113267,1,0
Sprite,Foreground,Centre,"letters2\r.png",320,240 F,0,112405,112555,0,1 M,0,112405,113305,608.2065,253.2129,26.83871,253.2129 F,0,112555,113305,1 S,0,113305,,0.3145808 F,0,113305,113342,1,0
Sprite,Foreground,Centre,"letters2\e.png",320,240 F,0,112480,112630,0,1 M,0,112480,113380,608.2065,253.2129,26.83871,253.2129 F,0,112630,113380,1 S,0,113380,,0.3145808 F,0,113380,113417,1,0
Sprite,Foreground,Centre,"letters2\p.png",320,240 F,0,112780,112930,0,1 M,0,112780,113680,608.2065,253.2129,26.83871,253.2129 F,0,112930,113680,1 S,0,113680,,0.3145808 F,0,113680,113717,1,0
Sprite,Foreground,Centre,"letters2\u.png",320,240 F,0,112930,113080,0,1 M,0,112930,113830,608.2065,253.2129,26.83871,253.2129 F,0,113080,113830,1 S,0,113830,,0.3145808 F,0,113830,113867,1,0
Sprite,Foreground,Centre,"letters2\k.png",320,240 F,0,113005,113155,0,1 M,0,113005,113905,608.2065,253.2129,26.83871,253.2129 F,0,113155,113905,1 S,0,113905,,0.3145808 F,0,113905,113942,1,0
Sprite,Foreground,Centre,"letters2\e.png",320,240 F,0,113080,113230,0,1 M,0,113080,113980,608.2065,253.2129,26.83871,253.2129 F,0,113230,113980,1 S,0,113980,,0.3145808 F,0,113980,114017,1,0
Sprite,Foreground,Centre,"letters2\h.png",320,240 F,0,113230,113380,0,1 M,0,113230,114130,608.2065,253.2129,26.83871,253.2129 F,0,113380,114130,1 S,0,114130,,0.3145808 F,0,114130,114167,1,0
Sprite,Foreground,Centre,"letters2\u.png",320,240 F,0,113380,113530,0,1 M,0,113380,114280,608.2065,253.2129,26.83871,253.2129 F,0,113530,114280,1 S,0,114280,,0.3145808 F,0,114280,114317,1,0
Sprite,Foreground,Centre,"letters2\d.png",320,240 F,0,113530,113680,0,1 M,0,113530,114430,608.2065,253.2129,26.83871,253.2129 F,0,113680,114430,1 S,0,114430,,0.3145808 F,0,114430,114467,1,0
Sprite,Foreground,Centre,"letters2\d.png",320,240 F,0,113605,113755,0,1 M,0,113605,114505,608.2065,253.2129,26.83871,253.2129 F,0,113755,114505,1 S,0,114505,,0.3145808 F,0,114505,114542,1,0
Sprite,Foreground,Centre,"letters2\l.png",320,240 F,0,113680,113830,0,1 M,0,113680,114580,608.2065,253.2129,26.83871,253.2129 F,0,113830,114580,1 S,0,114580,,0.3145808 F,0,114580,114617,1,0
Sprite,Foreground,Centre,"letters2\e.png",320,240 F,0,113755,113905,0,1 M,0,113755,114655,608.2065,253.2129,26.83871,253.2129 F,0,113905,114655,1 S,0,114655,,0.3145808 F,0,114655,114692,1,0
Sprite,Foreground,Centre,"letters2\d.png",320,240 F,0,113830,113980,0,1 M,0,113830,114730,608.2065,253.2129,26.83871,253.2129 F,0,113980,114730,1 S,0,114730,,0.3145808 F,0,114730,114767,1,0
Sprite,Foreground,Centre,"letters2\l.png",320,240 F,0,113980,114130,0,1 M,0,113980,114880,608.2065,253.2129,26.83871,253.2129 F,0,114130,114880,1 S,0,114880,,0.3145808 F,0,114880,114917,1,0
Sprite,Foreground,Centre,"letters2\o.png",320,240 F,0,114130,114280,0,1 M,0,114130,115030,608.2065,253.2129,26.83871,253.2129 F,0,114280,115030,1 S,0,115030,,0.3145808 F,0,115030,115067,1,0
Sprite,Foreground,Centre,"letters2\r.png",320,240 F,0,114280,114430,0,1 M,0,114280,115180,608.2065,253.2129,26.83871,253.2129 F,0,114430,115180,1 S,0,115180,,0.3145808 F,0,115180,115217,1,0
Sprite,Foreground,Centre,"letters2\e.png",320,240 F,0,114430,114580,0,1 M,0,114430,115330,608.2065,253.2129,26.83871,253.2129 F,0,114580,115330,1 S,0,115330,,0.3145808 F,0,115330,115367,1,0
Sprite,Foreground,Centre,"letters2\p.png",320,240 F,0,114580,114730,0,1 M,0,114580,115480,608.2065,253.2129,26.83871,253.2129 F,0,114730,115480,1 S,0,115480,,0.3145808 F,0,115480,115517,1,0
Sprite,Foreground,Centre,"letters2\e.png",320,240 F,0,114680,114830,0,1 M,0,114680,115580,608.2065,253.2129,26.83871,253.2129 F,0,114830,115580,1 S,0,115580,,0.3145808 F,0,115580,115617,1,0
Sprite,Foreground,Centre,"letters2\o.png",320,240 F,0,114780,114930,0,1 M,0,114780,115680,608.2065,253.2129,26.83871,253.2129 F,0,114930,115680,1 S,0,115680,,0.3145808 F,0,115680,115717,1,0
Sprite,Foreground,Centre,"letters2\p.png",320,240 F,0,114880,115030,0,1 M,0,114880,115780,608.2065,253.2129,26.83871,253.2129 F,0,115030,115780,1 S,0,115780,,0.3145808 F,0,115780,115817,1,0
Sprite,Foreground,Centre,"letters2\l.png",320,240 F,0,114955,115105,0,1 M,0,114955,115855,608.2065,253.2129,26.83871,253.2129 F,0,115105,115855,1 S,0,115855,,0.3145808 F,0,115855,115892,1,0
Sprite,Foreground,Centre,"letters2\e.png",320,240 F,0,115030,115180,0,1 M,0,115030,115930,608.2065,253.2129,26.83871,253.2129 F,0,115180,115930,1 S,0,115930,,0.3145808 F,0,115930,115967,1,0
Sprite,Foreground,Centre,"letters2\t.png",320,240 F,0,115180,115330,0,1 M,0,115180,116080,608.2065,253.2129,26.83871,253.2129 F,0,115330,116080,1 S,0,116080,,0.3145808 F,0,116080,116117,1,0
Sprite,Foreground,Centre,"letters2\o.png",320,240 F,0,115330,115480,0,1 M,0,115330,116230,608.2065,253.2129,26.83871,253.2129 F,0,115480,116230,1 S,0,116230,,0.3145808 F,0,116230,116267,1,0
Sprite,Foreground,Centre,"letters2\p.png",320,240 F,0,115480,115630,0,1 M,0,115480,116380,608.2065,253.2129,26.83871,253.2129 F,0,115630,116380,1 S,0,116380,,0.3145808 F,0,116380,116417,1,0
Sprite,Foreground,Centre,"letters2\l.png",320,240 F,0,115555,115705,0,1 M,0,115555,116455,608.2065,253.2129,26.83871,253.2129 F,0,115705,116455,1 S,0,116455,,0.3145808 F,0,116455,116492,1,0
Sprite,Foreground,Centre,"letters2\e.png",320,240 F,0,115630,115780,0,1 M,0,115630,116530,608.2065,253.2129,26.83871,253.2129 F,0,115780,116530,1 S,0,116530,,0.3145808 F,0,116530,116567,1,0
Sprite,Foreground,Centre,"letters2\s.png",320,240 F,0,115705,115855,0,1 M,0,115705,116605,608.2065,253.2129,26.83871,253.2129 F,0,115855,116605,1 S,0,116605,,0.3145808 F,0,116605,116642,1,0
Sprite,Foreground,Centre,"letters2\s.png",320,240 F,0,115780,115930,0,1 M,0,115780,116680,608.2065,253.2129,26.83871,253.2129 F,0,115930,116680,1 S,0,116680,,0.3145808 F,0,116680,116717,1,0
Sprite,Foreground,Centre,"letters2\r.png",320,240 F,0,115930,116080,0,1 M,0,115930,116830,608.2065,253.2129,26.83871,253.2129 F,0,116080,116830,1 S,0,116830,,0.3145808 F,0,116830,116867,1,0
Sprite,Foreground,Centre,"letters2\a.png",320,240 F,0,116080,116230,0,1 M,0,116080,116980,608.2065,253.2129,26.83871,253.2129 F,0,116230,116980,1 S,0,116980,,0.3145808 F,0,116980,117017,1,0
Sprite,Foreground,Centre,"letters2\g.png",320,240 F,0,116155,116305,0,1 M,0,116155,117055,608.2065,253.2129,26.83871,253.2129 F,0,116305,117055,1 S,0,117055,,0.3145808 F,0,117055,117092,1,0
Sprite,Foreground,Centre,"letters2\g.png",320,240 F,0,116230,116380,0,1 M,0,116230,117130,608.2065,253.2129,26.83871,253.2129 F,0,116380,117130,1 S,0,117130,,0.3145808 F,0,117130,117167,1,0
Sprite,Foreground,Centre,"letters2\e.png",320,240 F,0,116305,116455,0,1 M,0,116305,117205,608.2065,253.2129,26.83871,253.2129 F,0,116455,117205,1 S,0,117205,,0.3145808 F,0,117205,117242,1,0
Sprite,Foreground,Centre,"letters2\d.png",320,240 F,0,116380,116530,0,1 M,0,116380,117280,608.2065,253.2129,26.83871,253.2129 F,0,116530,117280,1 S,0,117280,,0.3145808 F,0,117280,117317,1,0
Sprite,Foreground,Centre,"letters2\f.png",320,240 F,0,116680,116830,0,1 M,0,116680,117580,608.2065,253.2129,26.83871,253.2129 F,0,116830,117580,1 S,0,117580,,0.3145808 F,0,117580,117617,1,0
Sprite,Foreground,Centre,"letters2\r.png",320,240 F,0,116780,116930,0,1 M,0,116780,117680,608.2065,253.2129,26.83871,253.2129 F,0,116930,117680,1 S,0,117680,,0.3145808 F,0,117680,117717,1,0
Sprite,Foreground,Centre,"letters2\i.png",320,240 F,0,116880,117030,0,1 M,0,116880,117780,608.2065,253.2129,26.83871,253.2129 F,0,117030,117780,1 S,0,117780,,0.3145808 F,0,117780,117817,1,0
Sprite,Foreground,Centre,"letters2\g.png",320,240 F,0,116980,117130,0,1 M,0,116980,117880,608.2065,253.2129,26.83871,253.2129 F,0,117130,117880,1 S,0,117880,,0.3145808 F,0,117880,117917,1,0
Sprite,Foreground,Centre,"letters2\i.png",320,240 F,0,117055,117205,0,1 M,0,117055,117955,608.2065,253.2129,26.83871,253.2129 F,0,117205,117955,1 S,0,117955,,0.3145808 F,0,117955,117992,1,0
Sprite,Foreground,Centre,"letters2\d.png",320,240 F,0,117130,117280,0,1 M,0,117130,118030,608.2065,253.2129,26.83871,253.2129 F,0,117280,118030,1 S,0,118030,,0.3145808 F,0,118030,118067,1,0
Sprite,Foreground,Centre,"letters2\r.png",320,240 F,0,117280,117430,0,1 M,0,117280,118180,608.2065,253.2129,26.83871,253.2129 F,0,117430,118180,1 S,0,118180,,0.3145808 F,0,118180,118217,1,0
Sprite,Foreground,Centre,"letters2\u.png",320,240 F,0,117355,117505,0,1 M,0,117355,118255,608.2065,253.2129,26.83871,253.2129 F,0,117505,118255,1 S,0,118255,,0.3145808 F,0,118255,118292,1,0
Sprite,Foreground,Centre,"letters2\d.png",320,240 F,0,117430,117580,0,1 M,0,117430,118330,608.2065,253.2129,26.83871,253.2129 F,0,117580,118330,1 S,0,118330,,0.3145808 F,0,118330,118367,1,0
Sprite,Foreground,Centre,"letters2\d.png",320,240 F,0,117505,117655,0,1 M,0,117505,118405,608.2065,253.2129,26.83871,253.2129 F,0,117655,118405,1 S,0,118405,,0.3145808 F,0,118405,118442,1,0
Sprite,Foreground,Centre,"letters2\y.png",320,240 F,0,117580,117730,0,1 M,0,117580,118480,608.2065,253.2129,26.83871,253.2129 F,0,117730,118480,1 S,0,118480,,0.3145808 F,0,118480,118517,1,0
Sprite,Foreground,Centre,"letters2\h.png",320,240 F,0,117730,117880,0,1 M,0,117730,118630,608.2065,253.2129,26.83871,253.2129 F,0,117880,118630,1 S,0,118630,,0.3145808 F,0,118630,118667,1,0
Sprite,Foreground,Centre,"letters2\e.png",320,240 F,0,117805,117955,0,1 M,0,117805,118705,608.2065,253.2129,26.83871,253.2129 F,0,117955,118705,1 S,0,118705,,0.3145808 F,0,118705,118742,1,0
Sprite,Foreground,Centre,"letters2\a.png",320,240 F,0,117880,118030,0,1 M,0,117880,118780,608.2065,253.2129,26.83871,253.2129 F,0,118030,118780,1 S,0,118780,,0.3145808 F,0,118780,118817,1,0
Sprite,Foreground,Centre,"letters2\d.png",320,240 F,0,117955,118105,0,1 M,0,117955,118855,608.2065,253.2129,26.83871,253.2129 F,0,118105,118855,1 S,0,118855,,0.3145808 F,0,118855,118892,1,0
Sprite,Foreground,Centre,"letters2\y.png",320,240 F,0,118030,118180,0,1 M,0,118030,118930,608.2065,253.2129,26.83871,253.2129 F,0,118180,118930,1 S,0,118930,,0.3145808 F,0,118930,118967,1,0
Sprite,Foreground,Centre,"letters2\h.png",320,240 F,0,118180,118330,0,1 M,0,118180,119080,608.2065,253.2129,26.83871,253.2129 F,0,118330,119080,1 S,0,119080,,0.3145808 F,0,119080,119117,1,0
Sprite,Foreground,Centre,"letters2\a.png",320,240 F,0,118330,118480,0,1 M,0,118330,119230,608.2065,253.2129,26.83871,253.2129 F,0,118480,119230,1 S,0,119230,,0.3145808 F,0,119230,119267,1,0
Sprite,Foreground,Centre,"letters2\s.png",320,240 F,0,118480,118630,0,1 M,0,118480,119380,608.2065,253.2129,26.83871,253.2129 F,0,118630,119380,1 S,0,119380,,0.3145808 F,0,119380,119417,1,0
Sprite,Foreground,Centre,"letters2\t.png",320,240 F,0,118555,118705,0,1 M,0,118555,119455,608.2065,253.2129,26.83871,253.2129 F,0,118705,119455,1 S,0,119455,,0.3145808 F,0,119455,119492,1,0
Sprite,Foreground,Centre,"letters2\y.png",320,240 F,0,118630,118780,0,1 M,0,118630,119530,608.2065,253.2129,26.83871,253.2129 F,0,118780,119530,1 S,0,119530,,0.3145808 F,0,119530,119567,1,0
Sprite,Foreground,Centre,"letters2\e.png",320,240 F,0,118780,118930,0,1 M,0,118780,119680,608.2065,253.2129,26.83871,253.2129 F,0,118930,119680,1 S,0,119680,,0.3145808 F,0,119680,119717,1,0
Sprite,Foreground,Centre,"letters2\e.png",320,240 F,0,118930,119080,0,1 M,0,118930,119830,608.2065,253.2129,26.83871,253.2129 F,0,119080,119830,1 S,0,119830,,0.3145808 F,0,119830,119867,1,0
Sprite,Foreground,Centre,"letters2\r.png",320,240 F,0,119005,119155,0,1 M,0,119005,119905,608.2065,253.2129,26.83871,253.2129 F,0,119155,119905,1 S,0,119905,,0.3145808 F,0,119905,119942,1,0
Sprite,Foreground,Centre,"letters2\i.png",320,240 F,0,119080,119230,0,1 M,0,119080,119980,608.2065,253.2129,26.83871,253.2129 F,0,119230,119980,1 S,0,119980,,0.3145808 F,0,119980,120017,1,0
Sprite,Foreground,Centre,"letters2\l.png",320,240 F,0,119155,119305,0,1 M,0,119155,120055,608.2065,253.2129,26.83871,253.2129 F,0,119305,120055,1 S,0,120055,,0.3145808 F,0,120055,120092,1,0
Sprite,Foreground,Centre,"letters2\y.png",320,240 F,0,119230,119380,0,1 M,0,119230,120130,608.2065,253.2129,26.83871,253.2129 F,0,119380,120130,1 S,0,120130,,0.3145808 F,0,120130,120167,1,0
Sprite,Foreground,Centre,"letters2\a.png",320,240 F,0,119380,119530,0,1 M,0,119380,120280,608.2065,253.2129,26.83871,253.2129 F,0,119530,120280,1 S,0,120280,,0.3145808 F,0,120280,120317,1,0
Sprite,Foreground,Centre,"letters2\l.png",320,240 F,0,119530,119680,0,1 M,0,119530,120430,608.2065,253.2129,26.83871,253.2129 F,0,119680,120430,1 S,0,120430,,0.3145808 F,0,120430,120467,1,0
Sprite,Foreground,Centre,"letters2\o.png",320,240 F,0,119680,119830,0,1 M,0,119680,120580,608.2065,253.2129,26.83871,253.2129 F,0,119830,120580,1 S,0,120580,,0.3145808 F,0,120580,120617,1,0
Sprite,Foreground,Centre,"letters2\f.png",320,240 F,0,119780,119930,0,1 M,0,119780,120680,608.2065,253.2129,26.83871,253.2129 F,0,119930,120680,1 S,0,120680,,0.3145808 F,0,120680,120717,1,0
Sprite,Foreground,Centre,"letters2\t.png",320,240 F,0,119880,120030,0,1 M,0,119880,120780,608.2065,253.2129,26.83871,253.2129 F,0,120030,120780,1 S,0,120780,,0.3145808 F,0,120780,120817,1,0
Sprite,Foreground,Centre,"letters2\g.png",320,240 F,0,119980,120130,0,1 M,0,119980,120880,608.2065,253.2129,26.83871,253.2129 F,0,120130,120880,1 S,0,120880,,0.3145808 F,0,120880,120917,1,0
Sprite,Foreground,Centre,"letters2\o.png",320,240 F,0,120055,120205,0,1 M,0,120055,120955,608.2065,253.2129,26.83871,253.2129 F,0,120205,120955,1 S,0,120955,,0.3145808 F,0,120955,120992,1,0
Sprite,Foreground,Centre,"letters2\d.png",320,240 F,0,120130,120280,0,1 M,0,120130,121030,608.2065,253.2129,26.83871,253.2129 F,0,120280,121030,1 S,0,121030,,0.3145808 F,0,121030,121067,1,0
Sprite,Foreground,Centre,"letters2\d.png",320,240 F,0,120205,120355,0,1 M,0,120205,121105,608.2065,253.2129,26.83871,253.2129 F,0,120355,121105,1 S,0,121105,,0.3145808 F,0,121105,121142,1,0
Sprite,Foreground,Centre,"letters2\e.png",320,240 F,0,120280,120430,0,1 M,0,120280,121180,608.2065,253.2129,26.83871,253.2129 F,0,120430,121180,1 S,0,121180,,0.3145808 F,0,121180,121217,1,0
Sprite,Foreground,Centre,"letters2\s.png",320,240 F,0,120355,120505,0,1 M,0,120355,121255,608.2065,253.2129,26.83871,253.2129 F,0,120505,121255,1 S,0,121255,,0.3145808 F,0,121255,121292,1,0
Sprite,Foreground,Centre,"letters2\s.png",320,240 F,0,120430,120580,0,1 M,0,120430,121330,608.2065,253.2129,26.83871,253.2129 F,0,120580,121330,1 S,0,121330,,0.3145808 F,0,121330,121367,1,0
Sprite,Foreground,Centre,"letters2\r.png",320,240 F,0,120580,120730,0,1 M,0,120580,121480,608.2065,253.2129,26.83871,253.2129 F,0,120730,121480,1 S,0,121480,,0.3145808 F,0,121480,121517,1,0
Sprite,Foreground,Centre,"letters2\e.png",320,240 F,0,120730,120880,0,1 M,0,120730,121630,608.2065,253.2129,26.83871,253.2129 F,0,120880,121630,1 S,0,121630,,0.3145808 F,0,121630,121667,1,0
Sprite,Foreground,Centre,"letters2\e.png",320,240 F,0,120805,120955,0,1 M,0,120805,121705,608.2065,253.2129,26.83871,253.2129 F,0,120955,121705,1 S,0,121705,,0.3145808 F,0,121705,121742,1,0
Sprite,Foreground,Centre,"letters2\d.png",320,240 F,0,120880,121030,0,1 M,0,120880,121780,608.2065,253.2129,26.83871,253.2129 F,0,121030,121780,1 S,0,121780,,0.3145808 F,0,121780,121817,1,0
Sprite,Foreground,Centre,"letters2\g.png",320,240 F,0,121030,121180,0,1 M,0,121030,121930,608.2065,253.2129,26.83871,253.2129 F,0,121180,121930,1 S,0,121930,,0.3145808 F,0,121930,121967,1,0
Sprite,Foreground,Centre,"letters2\u.png",320,240 F,0,121180,121330,0,1 M,0,121180,122080,608.2065,253.2129,26.83871,253.2129 F,0,121330,122080,1 S,0,122080,,0.3145808 F,0,122080,122117,1,0
Sprite,Foreground,Centre,"letters2\s.png",320,240 F,0,121255,121405,0,1 M,0,121255,122155,608.2065,253.2129,26.83871,253.2129 F,0,121405,122155,1 S,0,122155,,0.3145808 F,0,122155,122192,1,0
Sprite,Foreground,Centre,"letters2\t.png",320,240 F,0,121330,121480,0,1 M,0,121330,122230,608.2065,253.2129,26.83871,253.2129 F,0,121480,122230,1 S,0,122230,,0.3145808 F,0,122230,122267,1,0
Sprite,Foreground,Centre,"letters2\h.png",320,240 F,0,121480,121630,0,1 M,0,121480,122380,608.2065,253.2129,26.83871,253.2129 F,0,121630,122380,1 S,0,122380,,0.3145808 F,0,122380,122417,1,0
Sprite,Foreground,Centre,"letters2\u.png",320,240 F,0,121630,121780,0,1 M,0,121630,122530,608.2065,253.2129,26.83871,253.2129 F,0,121780,122530,1 S,0,122530,,0.3145808 F,0,122530,122567,1,0
Sprite,Foreground,Centre,"letters2\r.png",320,240 F,0,121780,121930,0,1 M,0,121780,122680,608.2065,253.2129,26.83871,253.2129 F,0,121930,122680,1 S,0,122680,,0.3145808 F,0,122680,122717,1,0
Sprite,Foreground,Centre,"letters2\r.png",320,240 F,0,121930,122080,0,1 M,0,121930,122830,608.2065,253.2129,26.83871,253.2129 F,0,122080,122830,1 S,0,122830,,0.3145808 F,0,122830,122867,1,0
Sprite,Foreground,Centre,"letters2\a.png",320,240 F,0,122005,122155,0,1 M,0,122005,122905,608.2065,253.2129,26.83871,253.2129 F,0,122155,122905,1 S,0,122905,,0.3145808 F,0,122905,122942,1,0
Sprite,Foreground,Centre,"letters2\h.png",320,240 F,0,122080,122230,0,1 M,0,122080,122980,608.2065,253.2129,26.83871,253.2129 F,0,122230,122980,1 S,0,122980,,0.3145808 F,0,122980,123017,1,0
Sprite,Foreground,Centre,"letters2\s.png",320,240 F,0,122230,122380,0,1 M,0,122230,123130,608.2065,253.2129,26.83871,253.2129 F,0,122380,123130,1 S,0,123130,,0.3145808 F,0,123130,123167,1,0
Sprite,Foreground,Centre,"letters2\o.png",320,240 F,0,122380,122530,0,1 M,0,122380,123280,608.2065,253.2129,26.83871,253.2129 F,0,122530,123280,1 S,0,123280,,0.3145808 F,0,123280,123317,1,0
Sprite,Foreground,Centre,"letters2\u.png",320,240 F,0,122530,122680,0,1 M,0,122530,123430,608.2065,253.2129,26.83871,253.2129 F,0,122680,123430,1 S,0,123430,,0.3145808 F,0,123430,123467,1,0
Sprite,Foreground,Centre,"letters2\t.png",320,240 F,0,122680,122830,0,1 M,0,122680,123580,608.2065,253.2129,26.83871,253.2129 F,0,122830,123580,1 S,0,123580,,0.3145808 F,0,123580,123617,1,0
Sprite,Foreground,Centre,"letters2\h.png",320,240 F,0,122830,122980,0,1 M,0,122830,123730,608.2065,253.2129,26.83871,253.2129 F,0,122980,123730,1 S,0,123730,,0.3145808 F,0,123730,123767,1,0
Sprite,Foreground,Centre,"letters2\e.png",320,240 F,0,122980,123130,0,1 M,0,122980,123880,608.2065,253.2129,26.83871,253.2129 F,0,123130,123880,1 S,0,123880,,0.3145808 F,0,123880,123917,1,0
Sprite,Foreground,Centre,"letters2\r.png",320,240 F,0,123055,123205,0,1 M,0,123055,123955,608.2065,253.2129,26.83871,253.2129 F,0,123205,123955,1 S,0,123955,,0.3145808 F,0,123955,123992,1,0
Sprite,Foreground,Centre,"letters2\r.png",320,240 F,0,123130,123280,0,1 M,0,123130,124030,608.2065,253.2129,26.83871,253.2129 F,0,123280,124030,1 S,0,124030,,0.3145808 F,0,124030,124067,1,0
Sprite,Foreground,Centre,"letters2\f.png",320,240 F,0,123630,123780,0,1 M,0,123630,124180,603.4352,252.3871,26.83871,253.2129 F,0,123780,124180,1 S,0,124180,,0.3145808 F,0,124180,124217,1,0
Sprite,Foreground,Centre,"letters2\e.png",320,240 F,0,123680,123830,0,1 M,0,123680,124230,603.4352,252.3871,26.83871,253.2129 F,0,123830,124230,1 S,0,124230,,0.3145808 F,0,124230,124267,1,0
Sprite,Foreground,Centre,"letters2\i.png",320,240 F,0,123730,123880,0,1 M,0,123730,124280,603.4352,252.3871,26.83871,253.2129 F,0,123880,124280,1 S,0,124280,,0.3145808 F,0,124280,124317,1,0
Sprite,Foreground,Centre,"letters2\s.png",320,240 F,0,123780,123930,0,1 M,0,123780,124330,603.4352,252.3871,26.83871,253.2129 F,0,123930,124330,1 S,0,124330,,0.3145808 F,0,124330,124367,1,0
Sprite,Foreground,Centre,"letters2\t.png",320,240 F,0,123830,123980,0,1 M,0,123830,124380,603.4352,252.3871,26.83871,253.2129 F,0,123980,124380,1 S,0,124380,,0.3145808 F,0,124380,124417,1,0
Sprite,Foreground,Centre,"letters2\y.png",320,240 F,0,123880,124030,0,1 M,0,123880,124430,603.4352,252.3871,26.83871,253.2129 F,0,124030,124430,1 S,0,124430,,0.3145808 F,0,124430,124467,1,0
//Storyboard Sound Samples

[TimingPoints]
4780,600,3,1,1,100,1,0
33580,600,4,1,1,100,1,0
35980,600,3,1,1,100,1,0
93580,600,4,1,1,100,1,0
95680,600,3,1,1,100,1,0

[HitObjects]
355,192,4780,5,0,0:0:0:0:
270,192,5080,1,0,0:0:0:0:
99,192,5230,1,0,0:0:0:0:
184,192,5380,1,0,0:0:0:0:
384,192,5530,1,0,0:0:0:0:
156,192,5680,1,0,0:0:0:0:
42,192,5830,1,0,0:0:0:0:
270,192,6130,1,0,0:0:0:0:
384,192,6280,1,0,0:0:0:0:
42,192,6430,1,0,0:0:0:0:
327,192,6580,1,0,0:0:0:0:
241,192,6880,1,0,0:0:0:0:
270,192,7030,1,0,0:0:0:0:
71,192,7180,1,0,0:0:0:0:
213,192,7330,1,0,0:0:0:0:
327,192,7480,1,0,0:0:0:0:
128,192,7630,1,0,0:0:0:0:
327,192,7930,1,0,0:0:0:0:
71,192,8005,1,0,0:0:0:0:
270,192,8080,1,0,0:0:0:0:
241,192,8230,1,0,0:0:0:0:
42,192,8380,1,0,0:0:0:0:
327,192,8680,1,0,0:0:0:0:
42,192,8830,1,0,0:0:0:0:
99,192,8980,1,0,0:0:0:0:
270,192,9130,1,0,0:0:0:0:
184,192,9280,1,0,0:0:0:0:
497,192,9430,1,0,0:0:0:0:
412,192,9730,1,0,0:0:0:0:
184,192,9880,1,0,0:0:0:0:
71,192,10030,1,0,0:0:0:0:
42,192,10180,1,0,0:0:0:0:
156,192,10480,1,0,0:0:0:0:
298,192,10555,1,0,0:0:0:0:
270,192,10630,1,0,0:0:0:0:
384,192,10705,1,0,0:0:0:0:
42,192,10780,1,0,0:0:0:0:
99,192,11080,1,0,0:0:0:0:
14,192,11230,1,0,0:0:0:0:
42,192,11380,1,0,0:0:0:0:
270,192,11530,1,0,0:0:0:0:
469,192,11680,1,0,0:0:0:0:
298,192,11980,1,0,0:0:0:0:
412,192,12280,1,0,0:0:0:0:
270,192,12430,1,0,0:0:0:0:
469,192,12580,1,0,0:0:0:0:
184,192,12730,1,0,0:0:0:0:
497,192,12880,1,0,0:0:0:0:
128,192,13030,1,0,0:0:0:0:
384,192,13330,1,0,0:0:0:0:
270,192,13480,1,0,0:0:0:0:
497,192,13630,1,0,0:0:0:0:
270,192,13780,1,0,0:0:0:0:
99,192,14080,1,0,0:0:0:0:
412,192,14230,1,0,0:0:0:0:
71,192,14380,1,0,0:0:0:0:
156,192,14530,1,0,0:0:0:0:
298,192,14680,1,0,0:0:0:0:
99,192,14830,1,0,0:0:0:0:
384,192,15130,1,0,0:0:0:0:
270,192,15205,1,0,0:0:0:0:
355,192,15280,1,0,0:0:0:0:
355,192,15430,1,0,0:0:0:0:
42,192,15580,1,0,0:0:0:0:
327,192,15880,1,0,0:0:0:0:
42,192,16030,1,0,0:0:0:0:
241,192,16180,1,0,0:0:0:0:
497,192,16330,1,0,0:0:0:0:
213,192,16480,1,0,0:0:0:0:
128,192,16630,1,0,0:0:0:0:
241,192,16930,1,0,0:0:0:0:
213,192,17080,1,0,0:0:0:0:
241,192,17230,1,0,0:0:0:0:
42,192,17380,1,0,0:0:0:0:
42,192,17680,1,0,0:0:0:0:
469,192,17830,1,0,0:0:0:0:
42,192,17980,1,0,0:0:0:0:
71,192,18280,1,0,0:0:0:0:
42,192,18430,1,0,0:0:0:0:
384,192,18580,1,0,0:0:0:0:
270,192,18730,1,0,0:0:0:0:
71,192,18880,1,0,0:0:0:0:
327,192,19030,1,0,0:0:0:0:
497,192,19105,1,0,0:0:0:0:
42,192,19180,1,0,0:0:0:0:
298,192,19330,1,0,0:0:0:0:
298,192,19480,1,0,0:0:0:0:
440,192,19780,1,0,0:0:0:0:
184,192,20080,1,0,0:0:0:0:
384,192,20230,1,0,0:0:0:0:
270,192,20530,1,0,0:0:0:0:
156,192,20680,1,0,0:0:0:0:
99,192,20830,1,0,0:0:0:0:
213,192,20980,1,0,0:0:0:0:
270,192,21280,1,0,0:0:0:0:
327,192,21430,1,0,0:0:0:0:
440,192,21580,1,0,0:0:0:0:
156,192,21730,1,0,0:0:0:0:
298,192,21880,1,0,0:0:0:0:
99,192,22030,1,0,0:0:0:0:
298,192,22330,1,0,0:0:0:0:
241,192,22405,1,0,0:0:0:0:
71,192,22480,1,0,0:0:0:0:
184,192,22630,1,0,0:0:0:0:
384,192,22780,1,0,0:0:0:0:
298,192,23080,1,0,0:0:0:0:
412,192,23230,1,0,0:0:0:0:
213,192,23380,1,0,0:0:0:0:
156,192,23530,1,0,0:0:0:0:
497,192,23680,1,0,0:0:0:0:
327,192,23830,1,0,0:0:0:0:
14,192,24130,1,0,0:0:0:0:
42,192,24280,1,0,0:0:0:0:
241,192,24430,1,0,0:0:0:0:
99,192,24580,1,0,0:0:0:0:
241,192,24880,1,0,0:0:0:0:
184,192,25030,1,0,0:0:0:0:
99,192,25180,1,0,0:0:0:0:
184,192,25330,1,0,0:0:0:0:
355,192,25405,1,0,0:0:0:0:
156,192,25480,1,0,0:0:0:0:
497,192,25630,1,0,0:0:0:0:
184,192,25780,1,0,0:0:0:0:
71,192,25930,1,0,0:0:0:0:
270,192,26080,1,0,0:0:0:0:
99,192,26230,1,0,0:0:0:0:
42,192,26380,1,0,0:0:0:0:
355,192,26680,1,0,0:0:0:0:
213,192,26755,1,0,0:0:0:0:
71,192,26830,1,0,0:0:0:0:
99,192,26905,1,0,0:0:0:0:
71,192,26980,1,0,0:0:0:0:
42,192,27130,1,0,0:0:0:0:
298,192,27430,1,0,0:0:0:0:
298,192,27580,1,0,0:0:0:0:
327,192,27880,1,0,0:0:0:0:
270,192,28030,1,0,0:0:0:0:
327,192,28180,1,0,0:0:0:0:
327,192,28480,1,0,0:0:0:0:
128,192,28630,1,0,0:0:0:0:
298,192,28930,1,0,0:0:0:0:
14,192,29080,1,0,0:0:0:0:
42,192,29230,1,0,0:0:0:0:
42,192,29380,1,0,0:0:0:0:
241,192,29530,1,0,0:0:0:0:
42,192,29605,1,0,0:0:0:0:
71,192,29680,1,0,0:0:0:0:
355,192,29980,1,0,0:0:0:0:
184,192,30130,1,0,0:0:0:0:
327,192,30205,1,0,0:0:0:0:
384,192,30280,1,0,0:0:0:0:
42,192,30355,1,0,0:0:0:0:
99,192,30430,1,0,0:0:0:0:
298,192,30730,1,0,0:0:0:0:
99,192,30805,1,0,0:0:0:0:
42,192,30880,1,0,0:0:0:0:
42,192,31030,1,0,0:0:0:0:
71,192,31180,1,0,0:0:0:0:
241,192,31480,1,0,0:0:0:0:
42,192,31630,1,0,0:0:0:0:
384,192,31780,1,0,0:0:0:0:
298,192,32080,1,0,0:0:0:0:
14,192,32230,1,0,0:0:0:0:
42,192,32530,1,0,0:0:0:0:
270,192,32680,1,0,0:0:0:0:
99,192,32830,1,0,0:0:0:0:
298,192,32980,1,0,0:0:0:0:
384,192,33280,1,0,0:0:0:0:
184,192,33430,1,0,0:0:0:0:
270,192,35380,1,0,0:0:0:0:
384,192,35530,1,0,0:0:0:0:
71,192,35680,1,0,0:0:0:0:
42,192,35980,1,0,0:0:0:0:
42,192,36130,1,0,0:0:0:0:
412,192,37780,1,0,0:0:0:0:
42,192,37930,1,0,0:0:0:0:
497,192,38230,1,0,0:0:0:0:
241,192,38680,1,0,0:0:0:0:
355,192,38980,1,0,0:0:0:0:
156,192,39280,1,0,0:0:0:0:
497,192,39580,1,0,0:0:0:0:
42,192,41080,1,0,0:0:0:0:
71,192,41230,1,0,0:0:0:0:
156,192,41380,1,0,0:0:0:0:
241,192,41830,1,0,0:0:0:0:
99,192,42280,1,0,0:0:0:0:
384,192,42880,1,0,0:0:0:0:
71,192,42955,1,0,0:0:0:0:
42,192,43030,1,0,0:0:0:0:
42,192,43105,1,0,0:0:0:0:
99,192,43180,1,0,0:0:0:0:
298,192,44680,1,0,0:0:0:0:
99,192,44830,1,0,0:0:0:0:
71,192,45130,1,0,0:0:0:0:
270,192,45280,1,0,0:0:0:0:
99,192,45430,1,0,0:0:0:0:
213,192,45730,1,0,0:0:0:0:
298,192,46030,1,0,0:0:0:0:
241,192,46330,1,0,0:0:0:0:
412,192,46630,1,0,0:0:0:0:
42,192,46930,1,0,0:0:0:0:
71,192,47080,1,0,0:0:0:0:
42,192,47230,1,0,0:0:0:0:
99,192,48280,1,0,0:0:0:0:
156,192,48430,1,0,0:0:0:0:
298,192,48580,1,0,0:0:0:0:
412,192,49030,1,0,0:0:0:0:
327,192,49930,1,0,0:0:0:0:
71,192,50080,1,0,0:0:0:0:
213,192,50230,1,0,0:0:0:0:
241,192,50305,1,0,0:0:0:0:
298,192,50380,1,0,0:0:0:0:
71,192,50680,1,0,0:0:0:0:
42,192,50830,1,0,0:0:0:0:
241,192,50980,1,0,0:0:0:0:
213,192,51130,1,0,0:0:0:0:
71,192,51280,1,0,0:0:0:0:
99,192,51430,1,0,0:0:0:0:
270,192,51730,1,0,0:0:0:0:
298,192,51880,1,0,0:0:0:0:
270,192,52030,1,0,0:0:0:0:
241,192,52180,1,0,0:0:0:0:
270,192,52480,1,0,0:0:0:0:
355,192,52630,1,0,0:0:0:0:
355,192,52780,1,0,0:0:0:0:
270,192,52930,1,0,0:0:0:0:
184,192,53080,1,0,0:0:0:0:
71,192,53230,1,0,0:0:0:0:
355,192,53530,1,0,0:0:0:0:
497,192,53605,1,0,0:0:0:0:
270,192,53680,1,0,0:0:0:0:
184,192,53830,1,0,0:0:0:0:
497,192,53980,1,0,0:0:0:0:
355,192,54280,1,0,0:0:0:0:
42,192,54430,1,0,0:0:0:0:
184,192,54580,1,0,0:0:0:0:
298,192,54730,1,0,0:0:0:0:
99,192,54880,1,0,0:0:0:0:
128,192,55030,1,0,0:0:0:0:
355,192,55330,1,0,0:0:0:0:
184,192,55480,1,0,0:0:0:0:
270,192,55630,1,0,0:0:0:0:
99,192,55780,1,0,0:0:0:0:
270,192,56080,1,0,0:0:0:0:
14,192,56230,1,0,0:0:0:0:
412,192,56380,1,0,0:0:0:0:
184,192,56530,1,0,0:0:0:0:
497,192,56680,1,0,0:0:0:0:
42,192,56830,1,0,0:0:0:0:
99,192,57130,1,0,0:0:0:0:
42,192,57280,1,0,0:0:0:0:
298,192,57430,1,0,0:0:0:0:
99,192,57580,1,0,0:0:0:0:
99,192,57880,1,0,0:0:0:0:
213,192,57955,1,0,0:0:0:0:
497,192,58030,1,0,0:0:0:0:
497,192,58105,1,0,0:0:0:0:
384,192,58180,1,0,0:0:0:0:
270,192,58330,1,0,0:0:0:0:
99,192,58480,1,0,0:0:0:0:
42,192,58630,1,0,0:0:0:0:
355,192,58930,1,0,0:0:0:0:
184,192,59080,1,0,0:0:0:0:
71,192,59230,1,0,0:0:0:0:
42,192,59380,1,0,0:0:0:0:
99,192,59680,1,0,0:0:0:0:
71,192,59830,1,0,0:0:0:0:
184,192,59980,1,0,0:0:0:0:
355,192,60130,1,0,0:0:0:0:
497,192,60280,1,0,0:0:0:0:
42,192,60430,1,0,0:0:0:0:
384,192,60730,1,0,0:0:0:0:
71,192,60805,1,0,0:0:0:0:
156,192,60880,1,0,0:0:0:0:
355,192,61030,1,0,0:0:0:0:
355,192,61180,1,0,0:0:0:0:
99,192,61480,1,0,0:0:0:0:
412,192,61630,1,0,0:0:0:0:
71,192,61780,1,0,0:0:0:0:
184,192,61930,1,0,0:0:0:0:
497,192,62080,1,0,0:0:0:0:
497,192,62230,1,0,0:0:0:0:
384,192,62530,1,0,0:0:0:0:
71,192,62680,1,0,0:0:0:0:
42,192,62830,1,0,0:0:0:0:
14,192,62980,1,0,0:0:0:0:
384,192,63280,1,0,0:0:0:0:
213,192,63430,1,0,0:0:0:0:
241,192,63580,1,0,0:0:0:0:
412,192,63730,1,0,0:0:0:0:
42,192,63880,1,0,0:0:0:0:
71,192,64030,1,0,0:0:0:0:
241,192,64330,1,0,0:0:0:0:
270,192,64480,1,0,0:0:0:0:
298,192,64630,1,0,0:0:0:0:
99,192,64780,1,0,0:0:0:0:
128,192,64930,1,0,0:0:0:0:
14,192,65230,1,0,0:0:0:0:
42,192,65305,1,0,0:0:0:0:
184,192,65380,1,0,0:0:0:0:
384,192,65530,1,0,0:0:0:0:
412,192,65680,1,0,0:0:0:0:
99,192,65830,1,0,0:0:0:0:
497,192,65980,1,0,0:0:0:0:
42,192,66130,1,0,0:0:0:0:
298,192,66280,1,0,0:0:0:0:
298,192,66430,1,0,0:0:0:0:
298,192,66730,1,0,0:0:0:0:
241,192,66880,1,0,0:0:0:0:
497,192,67030,1,0,0:0:0:0:
270,192,67330,1,0,0:0:0:0:
99,192,67630,1,0,0:0:0:0:
355,192,68080,1,0,0:0:0:0:
213,192,68230,1,0,0:0:0:0:
71,192,68380,1,0,0:0:0:0:
42,192,68455,1,0,0:0:0:0:
99,192,68680,1,0,0:0:0:0:
213,192,68830,1,0,0:0:0:0:
497,192,69130,1,0,0:0:0:0:
327,192,69430,1,0,0:0:0:0:
241,192,69730,1,0,0:0:0:0:
184,192,69880,1,0,0:0:0:0:
99,192,70030,1,0,0:0:0:0:
355,192,70330,1,0,0:0:0:0:
71,192,70480,1,0,0:0:0:0:
42,192,70630,1,0,0:0:0:0:
298,192,70780,1,0,0:0:0:0:
412,192,70930,1,0,0:0:0:0:
497,192,71080,1,0,0:0:0:0:
128,192,71230,1,0,0:0:0:0:
241,192,71380,1,0,0:0:0:0:
156,192,71530,1,0,0:0:0:0:
241,192,71680,1,0,0:0:0:0:
241,192,71780,1,0,0:0:0:0:
42,192,71880,1,0,0:0:0:0:
99,192,71980,1,0,0:0:0:0:
99,192,72280,1,0,0:0:0:0:
213,192,72355,1,0,0:0:0:0:
213,192,72430,1,0,0:0:0:0:
99,192,72880,1,0,0:0:0:0:
270,192,73180,1,0,0:0:0:0:
156,192,73405,1,0,0:0:0:0:
71,192,73630,1,0,0:0:0:0:
156,192,73780,1,0,0:0:0:0:
298,192,73930,1,0,0:0:0:0:
270,192,74230,1,0,0:0:0:0:
355,192,74530,1,0,0:0:0:0:
497,192,74680,1,0,0:0:0:0:
213,192,74980,1,0,0:0:0:0:
270,192,75280,1,0,0:0:0:0:
99,192,75580,1,0,0:0:0:0:
497,192,76030,1,0,0:0:0:0:
270,192,76480,1,0,0:0:0:0:
469,192,76780,1,0,0:0:0:0:
42,192,77080,1,0,0:0:0:0:
412,192,77380,1,0,0:0:0:0:
213,192,77530,1,0,0:0:0:0:
298,192,77680,1,0,0:0:0:0:
99,192,77980,1,0,0:0:0:0:
42,192,78130,1,0,0:0:0:0:
298,192,78430,1,0,0:0:0:0:
298,192,78580,1,0,0:0:0:0:
412,192,78880,1,0,0:0:0:0:
270,192,79030,1,0,0:0:0:0:
71,192,79180,1,0,0:0:0:0:
327,192,79330,1,0,0:0:0:0:
412,192,79480,1,0,0:0:0:0:
42,192,79630,1,0,0:0:0:0:
270,192,79780,1,0,0:0:0:0:
327,192,79930,1,0,0:0:0:0:
42,192,80080,1,0,0:0:0:0:
327,192,80230,1,0,0:0:0:0:
497,192,80380,1,0,0:0:0:0:
42,192,80530,1,0,0:0:0:0:
14,192,80680,1,0,0:0:0:0:
327,192,80830,1,0,0:0:0:0:
355,192,80980,1,0,0:0:0:0:
213,192,81130,1,0,0:0:0:0:
156,192,81280,1,0,0:0:0:0:
71,192,81430,1,0,0:0:0:0:
99,192,81580,1,0,0:0:0:0:
412,192,81730,1,0,0:0:0:0:
497,192,81880,1,0,0:0:0:0:
128,192,82030,1,0,0:0:0:0:
270,192,82180,1,0,0:0:0:0:
497,192,82330,1,0,0:0:0:0:
497,192,82480,1,0,0:0:0:0:
128,192,82630,1,0,0:0:0:0:
241,192,83230,1,0,0:0:0:0:
497,192,83380,1,0,0:0:0:0:
270,192,83455,1,0,0:0:0:0:
128,192,83530,1,0,0:0:0:0:
42,192,83680,1,0,0:0:0:0:
71,192,83830,1,0,0:0:0:0:
42,192,83980,1,0,0:0:0:0:
497,192,84130,1,0,0:0:0:0:
270,192,84280,1,0,0:0:0:0:
99,192,84430,1,0,0:0:0:0:
42,192,84580,1,0,0:0:0:0:
327,192,84730,1,0,0:0:0:0:
42,192,85030,1,0,0:0:0:0:
99,192,85180,1,0,0:0:0:0:
412,192,85330,1,0,0:0:0:0:
42,192,85480,1,0,0:0:0:0:
71,192,85630,1,0,0:0:0:0:
71,192,85930,1,0,0:0:0:0:
184,192,86080,1,0,0:0:0:0:
384,192,86155,1,0,0:0:0:0:
412,192,86230,1,0,0:0:0:0:
99,192,86380,1,0,0:0:0:0:
298,192,86680,1,0,0:0:0:0:
355,192,87280,1,0,0:0:0:0:
497,192,87580,1,0,0:0:0:0:
270,192,87880,1,0,0:0:0:0:
99,192,88180,1,0,0:0:0:0:
384,192,88480,1,0,0:0:0:0:
71,192,88580,1,0,0:0:0:0:
42,192,88680,1,0,0:0:0:0:
14,192,88780,1,0,0:0:0:0:
270,192,89080,1,0,0:0:0:0:
497,192,89180,1,0,0:0:0:0:
71,192,89280,1,0,0:0:0:0:
42,192,89380,1,0,0:0:0:0:
270,192,89480,1,0,0:0:0:0:
327,192,89580,1,0,0:0:0:0:
128,192,89680,1,0,0:0:0:0:
355,192,89980,1,0,0:0:0:0:
42,192,90280,1,0,0:0:0:0:
99,192,90380,1,0,0:0:0:0:
184,192,90480,1,0,0:0:0:0:
327,192,90580,1,0,0:0:0:0:
270,192,90880,1,0,0:0:0:0:
497,192,90980,1,0,0:0:0:0:
497,192,91080,1,0,0:0:0:0:
42,192,91180,1,0,0:0:0:0:
71,192,91280,1,0,0:0:0:0:
384,192,91380,1,0,0:0:0:0:
128,192,91480,1,0,0:0:0:0:
327,192,91780,1,0,0:0:0:0:
156,192,92080,1,0,0:0:0:0:
42,192,92155,1,0,0:0:0:0:
298,192,92230,1,0,0:0:0:0:
270,192,92530,1,0,0:0:0:0:
497,192,92680,1,0,0:0:0:0:
99,192,92830,1,0,0:0:0:0:
270,192,92980,1,0,0:0:0:0:
71,192,93280,1,0,0:0:0:0:
440,192,95680,1,0,0:0:0:0:
42,192,95980,1,0,0:0:0:0:
14,192,96130,1,0,0:0:0:0:
42,192,96205,1,0,0:0:0:0:
497,192,96280,1,0,0:0:0:0:
71,192,96355,1,0,0:0:0:0:
128,192,96430,1,0,0:0:0:0:
298,192,96730,1,0,0:0:0:0:
213,192,96805,1,0,0:0:0:0:
497,192,97030,1,0,0:0:0:0:
213,192,97180,1,0,0:0:0:0:
355,192,97480,1,0,0:0:0:0:
156,192,97780,1,0,0:0:0:0:
298,192,98080,1,0,0:0:0:0:
298,192,98230,1,0,0:0:0:0:
14,192,98530,1,0,0:0:0:0:
213,192,98830,1,0,0:0:0:0:
42,192,98980,1,0,0:0:0:0:
298,192,99280,1,0,0:0:0:0:
327,192,99730,1,0,0:0:0:0:
184,192,99880,1,0,0:0:0:0:
298,192,100030,1,0,0:0:0:0:
241,192,100105,1,0,0:0:0:0:
156,192,100180,1,0,0:0:0:0:
99,192,100255,1,0,0:0:0:0:
42,192,100330,1,0,0:0:0:0:
99,192,100480,1,0,0:0:0:0:
71,192,100555,1,0,0:0:0:0:
270,192,100630,1,0,0:0:0:0:
128,192,100780,1,0,0:0:0:0:
213,192,101080,1,0,0:0:0:0:
327,192,101305,1,0,0:0:0:0:
128,192,101380,1,0,0:0:0:0:
298,192,101530,1,0,0:0:0:0:
298,192,101680,1,0,0:0:0:0:
42,192,101830,1,0,0:0:0:0:
128,192,101905,1,0,0:0:0:0:
99,192,102130,1,0,0:0:0:0:
270,192,102280,1,0,0:0:0:0:
469,192,102430,1,0,0:0:0:0:
42,192,102505,1,0,0:0:0:0:
213,192,102580,1,0,0:0:0:0:
355,192,102730,1,0,0:0:0:0:
355,192,102880,1,0,0:0:0:0:
440,192,103105,1,0,0:0:0:0:
156,192,103255,1,0,0:0:0:0:
71,192,103330,1,0,0:0:0:0:
128,192,103480,1,0,0:0:0:0:
384,192,103780,1,0,0:0:0:0:
71,192,103930,1,0,0:0:0:0:
213,192,104080,1,0,0:0:0:0:
298,192,104230,1,0,0:0:0:0:
298,192,104380,1,0,0:0:0:0:
241,192,104680,1,0,0:0:0:0:
156,192,104905,1,0,0:0:0:0:
497,192,104980,1,0,0:0:0:0:
497,192,105055,1,0,0:0:0:0:
213,192,105130,1,0,0:0:0:0:
156,192,105205,1,0,0:0:0:0:
99,192,105280,1,0,0:0:0:0:
14,192,105430,1,0,0:0:0:0:
412,192,105580,1,0,0:0:0:0:
184,192,105730,1,0,0:0:0:0:
241,192,105880,1,0,0:0:0:0:
497,192,105955,1,0,0:0:0:0:
270,192,106030,1,0,0:0:0:0:
298,192,106105,1,0,0:0:0:0:
412,192,106180,1,0,0:0:0:0:
412,192,106480,1,0,0:0:0:0:
213,192,106630,1,0,0:0:0:0:
184,192,106780,1,0,0:0:0:0:
298,192,106930,1,0,0:0:0:0:
99,192,107080,1,0,0:0:0:0:
355,192,107230,1,0,0:0:0:0:
497,192,107305,1,0,0:0:0:0:
213,192,107380,1,0,0:0:0:0:
156,192,107455,1,0,0:0:0:0:
99,192,107530,1,0,0:0:0:0:
412,192,107680,1,0,0:0:0:0:
42,192,107830,1,0,0:0:0:0:
270,192,107980,1,0,0:0:0:0:
99,192,108130,1,0,0:0:0:0:
42,192,108205,1,0,0:0:0:0:
327,192,108280,1,0,0:0:0:0:
298,192,108430,1,0,0:0:0:0:
42,192,108505,1,0,0:0:0:0:
99,192,108580,1,0,0:0:0:0:
270,192,108730,1,0,0:0:0:0:
156,192,108805,1,0,0:0:0:0:
298,192,108880,1,0,0:0:0:0:
99,192,108955,1,0,0:0:0:0:
42,192,109030,1,0,0:0:0:0:
71,192,109105,1,0,0:0:0:0:
42,192,109180,1,0,0:0:0:0:
128,192,109330,1,0,0:0:0:0:
213,192,109405,1,0,0:0:0:0:
469,192,109480,1,0,0:0:0:0:
42,192,109555,1,0,0:0:0:0:
497,192,109630,1,0,0:0:0:0:
241,192,109780,1,0,0:0:0:0:
270,192,109930,1,0,0:0:0:0:
298,192,110005,1,0,0:0:0:0:
99,192,110080,1,0,0:0:0:0:
42,192,110155,1,0,0:0:0:0:
497,192,110230,1,0,0:0:0:0:
497,192,110530,1,0,0:0:0:0:
42,192,110605,1,0,0:0:0:0:
42,192,110680,1,0,0:0:0:0:
71,192,110830,1,0,0:0:0:0:
128,192,110980,1,0,0:0:0:0:
384,192,111130,1,0,0:0:0:0:
42,192,111205,1,0,0:0:0:0:
497,192,111280,1,0,0:0:0:0:
412,192,111505,1,0,0:0:0:0:
42,192,111580,1,0,0:0:0:0:
270,192,111730,1,0,0:0:0:0:
71,192,111880,1,0,0:0:0:0:
99,192,112030,1,0,0:0:0:0:
298,192,112180,1,0,0:0:0:0:
241,192,112330,1,0,0:0:0:0:
184,192,112405,1,0,0:0:0:0:
497,192,112480,1,0,0:0:0:0:
42,192,112630,1,0,0:0:0:0:
99,192,112780,1,0,0:0:0:0:
412,192,112855,1,0,0:0:0:0:
42,192,112930,1,0,0:0:0:0:
71,192,113005,1,0,0:0:0:0:
42,192,113080,1,0,0:0:0:0:
355,192,113155,1,0,0:0:0:0:
213,192,113230,1,0,0:0:0:0:
71,192,113305,1,0,0:0:0:0:
42,192,113380,1,0,0:0:0:0:
241,192,113680,1,0,0:0:0:0:
156,192,113830,1,0,0:0:0:0:
469,192,113905,1,0,0:0:0:0:
42,192,113980,1,0,0:0:0:0:
412,192,114130,1,0,0:0:0:0:
156,192,114280,1,0,0:0:0:0:
327,192,114430,1,0,0:0:0:0:
327,192,114505,1,0,0:0:0:0:
497,192,114580,1,0,0:0:0:0:
42,192,114655,1,0,0:0:0:0:
327,192,114730,1,0,0:0:0:0:
497,192,114880,1,0,0:0:0:0:
213,192,115030,1,0,0:0:0:0:
71,192,115180,1,0,0:0:0:0:
42,192,115330,1,0,0:0:0:0:
241,192,115480,1,0,0:0:0:0:
42,192,115580,1,0,0:0:0:0:
213,192,115680,1,0,0:0:0:0:
241,192,115780,1,0,0:0:0:0:
497,192,115855,1,0,0:0:0:0:
42,192,115930,1,0,0:0:0:0:
99,192,116080,1,0,0:0:0:0:
213,192,116230,1,0,0:0:0:0:
241,192,116380,1,0,0:0:0:0:
497,192,116455,1,0,0:0:0:0:
42,192,116530,1,0,0:0:0:0:
298,192,116605,1,0,0:0:0:0:
298,192,116680,1,0,0:0:0:0:
71,192,116830,1,0,0:0:0:0:
270,192,116980,1,0,0:0:0:0:
384,192,117055,1,0,0:0:0:0:
384,192,117130,1,0,0:0:0:0:
42,192,117205,1,0,0:0:0:0:
327,192,117280,1,0,0:0:0:0:
355,192,117580,1,0,0:0:0:0:
71,192,117680,1,0,0:0:0:0:
184,192,117780,1,0,0:0:0:0:
384,192,117880,1,0,0:0:0:0:
184,192,117955,1,0,0:0:0:0:
327,192,118030,1,0,0:0:0:0:
71,192,118180,1,0,0:0:0:0:
156,192,118255,1,0,0:0:0:0:
327,192,118330,1,0,0:0:0:0:
327,192,118405,1,0,0:0:0:0:
128,192,118480,1,0,0:0:0:0:
412,192,118630,1,0,0:0:0:0:
42,192,118705,1,0,0:0:0:0:
270,192,118780,1,0,0:0:0:0:
327,192,118855,1,0,0:0:0:0:
128,192,118930,1,0,0:0:0:0:
412,192,119080,1,0,0:0:0:0:
270,192,119230,1,0,0:0:0:0:
298,192,119380,1,0,0:0:0:0:
99,192,119455,1,0,0:0:0:0:
128,192,119530,1,0,0:0:0:0:
42,192,119680,1,0,0:0:0:0:
42,192,119830,1,0,0:0:0:0:
71,192,119905,1,0,0:0:0:0:
184,192,119980,1,0,0:0:0:0:
497,192,120055,1,0,0:0:0:0:
128,192,120130,1,0,0:0:0:0:
270,192,120280,1,0,0:0:0:0:
497,192,120430,1,0,0:0:0:0:
213,192,120580,1,0,0:0:0:0:
355,192,120680,1,0,0:0:0:0:
99,192,120780,1,0,0:0:0:0:
384,192,120880,1,0,0:0:0:0:
213,192,120955,1,0,0:0:0:0:
327,192,121030,1,0,0:0:0:0:
327,192,121105,1,0,0:0:0:0:
42,192,121180,1,0,0:0:0:0:
298,192,121255,1,0,0:0:0:0:
298,192,121330,1,0,0:0:0:0:
71,192,121480,1,0,0:0:0:0:
42,192,121630,1,0,0:0:0:0:
42,192,121705,1,0,0:0:0:0:
327,192,121780,1,0,0:0:0:0:
384,192,121930,1,0,0:0:0:0:
156,192,122080,1,0,0:0:0:0:
298,192,122155,1,0,0:0:0:0:
99,192,122230,1,0,0:0:0:0:
412,192,122380,1,0,0:0:0:0:
156,192,122530,1,0,0:0:0:0:
71,192,122680,1,0,0:0:0:0:
71,192,122830,1,0,0:0:0:0:
270,192,122905,1,0,0:0:0:0:
412,192,122980,1,0,0:0:0:0:
298,192,123130,1,0,0:0:0:0:
213,192,123280,1,0,0:0:0:0:
156,192,123430,1,0,0:0:0:0:
99,192,123580,1,0,0:0:0:0:
412,192,123730,1,0,0:0:0:0:
42,192,123880,1,0,0:0:0:0:
71,192,123955,1,0,0:0:0:0:
71,192,124030,1,0,0:0:0:0:
355,192,124180,1,0,0:0:0:0:
42,192,124230,1,0,0:0:0:0:
184,192,124280,1,0,0:0:0:0:
298,192,124330,1,0,0:0:0:0:
99,192,124380,1,0,0:0:0:0:
128,192,124430,1,0,0:0:0:0:
