osu file format v14

[General]
AudioFilename: audio.mp3
AudioLeadIn: 0
PreviewTime: 93796
Countdown: 0
SampleSet: Normal
StackLeniency: 0.7
Mode: 1
LetterboxInBreaks: 0
WidescreenStoryboard: 0

[Editor]
Bookmarks: 26446,50446,57646,64846,72046,79246,86446,93646,95746,102946,110146,124546
DistanceSpacing: 0.9
BeatDivisor: 12
GridSize: 8
TimelineZoom: 1.6

[Metadata]
Title:memoryfactory.lzh
TitleUnicode:memoryfactory.lzh
Artist:Frums
ArtistUnicode:Frums
Creator:Nifty
Version:DEFLATE.zip
Source:Arcaea
Tags:
BeatmapID:1601977
BeatmapSetID:761900

[Difficulty]
HPDrainRate:5
CircleSize:2
OverallDifficulty:6.5
ApproachRate:10
SliderMultiplier:1.4
SliderTickRate:1

[Events]
//Background and Video events
0,0,"hlep.png",0,0
//Break Periods
//Storyboard Layer 0 (Background)
//Storyboard Layer 1 (Fail)
//Storyboard Layer 2 (Pass)
//Storyboard Layer 3 (Foreground)
//Storyboard Sound Samples

[TimingPoints]
46,600,4,1,0,60,1,0
46,-90.9090909090909,4,1,0,60,0,0
4396,-86.9565217391304,4,1,0,60,0,0
4546,-83.3333333333333,4,1,0,60,0,0
4696,-80,4,1,0,60,0,0
4846,600,3,1,0,70,1,0
4846,-76.9230769230769,3,1,0,70,0,0
33596,-76.9230769230769,3,1,0,40,0,0
33646,600,4,1,0,30,1,0
33646,-76.9230769230769,3,1,0,30,0,0
34246,-83.3333333333333,4,1,0,30,0,0
34846,-86.9565217391304,4,1,0,30,0,0
35446,-90.9090909090909,4,1,0,30,0,0
35596,-92.5925925925926,4,1,0,30,0,0
35746,-94.3396226415094,4,1,0,30,0,0
36046,600,3,1,0,30,1,0
36046,-100,3,1,0,30,0,0
49996,-98.0392156862745,3,1,0,45,0,0
50146,-96.1538461538461,3,1,0,50,0,0
50296,-94.3396226415094,3,1,0,55,0,0
50371,-92.5925925925926,3,1,0,60,0,0
50446,-90.9090909090909,3,1,0,60,0,0
56596,-90.0900900900901,3,1,0,60,0,0
56746,-89.2857142857143,3,1,0,60,0,0
56896,-88.4955752212389,3,1,0,60,0,0
57046,-87.719298245614,3,1,0,60,0,0
57196,-86.9565217391304,3,1,0,60,0,0
57271,-86.2068965517241,3,1,0,60,0,0
57346,-85.4700854700855,3,1,0,60,0,0
57421,-84.7457627118644,3,1,0,60,0,0
57496,-84.0336134453781,3,1,0,60,0,0
57571,-83.3333333333333,3,1,0,60,0,0
64396,-81.9672131147541,3,1,0,60,0,0
64546,-80.6451612903226,3,1,0,60,0,0
64696,-79.3650793650794,3,1,0,60,0,0
64771,-78.125,3,1,0,60,0,0
64846,-76.9230769230769,3,1,0,60,0,0
71596,-75.7575757575758,3,1,0,60,0,0
71746,-74.6268656716418,3,1,0,60,0,0
71846,-73.5294117647059,3,1,0,60,0,0
71946,-72.463768115942,3,1,0,60,0,0
72046,-71.4285714285714,3,1,0,60,0,0
78721,-70.9219858156028,3,1,0,60,0,0
78796,-70.4225352112676,3,1,0,60,0,0
78946,-69.4444444444444,3,1,0,60,0,0
79096,-68.4931506849315,3,1,0,60,0,0
79171,-67.5675675675676,3,1,0,60,0,0
79246,-66.6666666666667,3,1,0,60,0,0
85771,-66.2251655629139,3,1,0,60,0,0
85846,-65.7894736842105,3,1,0,60,0,0
85921,-65.359477124183,3,1,0,60,0,0
85996,-64.9350649350649,3,1,0,60,0,0
86071,-64.5161290322581,3,1,0,60,0,0
86146,-64.1025641025641,3,1,0,60,0,0
86221,-63.6942675159236,3,1,0,65,0,0
86296,-63.2911392405063,3,1,0,65,0,0
86371,-62.8930817610063,3,1,0,70,0,0
86446,-62.5,3,1,0,70,0,0
93646,-62.5,3,1,0,5,0,0
95446,600,3,1,0,60,1,8
95671,-55.5555555555556,3,1,0,60,0,0
95746,600,3,1,0,60,1,0
95746,-55.5555555555556,3,1,0,60,0,0
102946,-55.5555555555556,3,1,0,70,0,0
110146,-55.5555555555556,3,1,0,70,0,1
124546,-55.5555555555556,3,1,0,70,0,0
124621,-76.9230769230769,3,1,0,5,0,0
128296,-76.9230769230769,3,1,0,60,0,0

[HitObjects]
288,144,4246,5,8,0:0:0:0:
264,152,4396,1,8,0:0:0:0:
264,152,4546,1,8,0:0:0:0:
264,152,4696,1,8,0:0:0:0:
248,176,4846,1,0,0:0:0:0:
280,160,5146,1,8,0:0:0:0:
272,168,5296,1,0,0:0:0:0:
272,168,5446,1,8,0:0:0:0:
272,176,5596,1,8,0:0:0:0:
280,176,5746,1,0,0:0:0:0:
272,160,5896,1,8,0:0:0:0:
280,160,6046,1,0,0:0:0:0:
288,152,6196,1,0,0:0:0:0:
272,168,6346,1,8,0:0:0:0:
272,176,6496,1,0,0:0:0:0:
280,160,6646,1,0,0:0:0:0:
280,160,6946,1,8,0:0:0:0:
272,152,7096,1,0,0:0:0:0:
272,152,7246,1,8,0:0:0:0:
272,152,7396,1,0,0:0:0:0:
280,152,7546,1,8,0:0:0:0:
288,120,7596,1,8,0:0:0:0:
280,128,7646,1,8,0:0:0:0:
256,168,7696,1,0,0:0:0:0:
280,160,7846,1,0,0:0:0:0:
288,160,7996,1,8,0:0:0:0:
288,152,8071,1,8,0:0:0:0:
288,152,8146,1,0,0:0:0:0:
280,160,8246,1,8,0:0:0:0:
280,160,8346,1,8,0:0:0:0:
288,152,8446,1,0,0:0:0:0:
288,152,8746,1,8,0:0:0:0:
280,152,8896,1,0,0:0:0:0:
288,152,9046,1,8,0:0:0:0:
288,152,9196,1,8,0:0:0:0:
288,152,9346,1,0,0:0:0:0:
280,152,9496,1,8,0:0:0:0:
288,160,9646,1,0,0:0:0:0:
288,160,9796,1,0,0:0:0:0:
288,160,9946,1,8,0:0:0:0:
288,160,10096,1,8,0:0:0:0:
288,160,10246,1,0,0:0:0:0:
288,152,10321,1,0,0:0:0:0:
280,152,10396,1,0,0:0:0:0:
276,122,10471,1,0,0:0:0:0:
288,152,10546,1,8,0:0:0:0:
288,136,10621,1,8,0:0:0:0:
288,136,10696,1,0,0:0:0:0:
288,136,10771,1,0,0:0:0:0:
288,136,10846,1,8,0:0:0:0:
296,136,10996,1,0,0:0:0:0:
296,136,11146,1,8,0:0:0:0:
304,128,11196,1,0,0:0:0:0:
304,128,11246,1,0,0:0:0:0:
304,128,11296,1,8,0:0:0:0:
304,128,11371,1,0,0:0:0:0:
288,128,11446,1,8,0:0:0:0:
296,120,11596,1,0,0:0:0:0:
296,128,11746,1,8,0:0:0:0:
296,120,11896,1,0,0:0:0:0:
296,136,12046,1,0,0:0:0:0:
304,128,12346,1,8,0:0:0:0:
296,128,12496,1,0,0:0:0:0:
304,112,12646,1,8,0:0:0:0:
304,120,12796,1,8,0:0:0:0:
296,112,12946,1,0,0:0:0:0:
304,112,13096,1,8,0:0:0:0:
304,112,13246,1,0,0:0:0:0:
304,112,13396,1,0,0:0:0:0:
304,112,13546,1,8,0:0:0:0:
312,104,13846,1,8,0:0:0:0:
304,112,13946,1,0,0:0:0:0:
304,112,14046,1,0,0:0:0:0:
312,112,14146,1,8,0:0:0:0:
312,112,14296,1,0,0:0:0:0:
312,104,14446,1,8,0:0:0:0:
312,104,14596,1,8,0:0:0:0:
312,104,14746,1,0,0:0:0:0:
264,152,14796,1,0,0:0:0:0:
264,152,14846,1,0,0:0:0:0:
320,104,14896,1,8,0:0:0:0:
312,112,15046,1,0,0:0:0:0:
312,112,15196,1,8,0:0:0:0:
320,96,15271,1,0,0:0:0:0:
312,104,15346,1,8,0:0:0:0:
320,96,15421,1,8,0:0:0:0:
320,96,15496,1,0,0:0:0:0:
320,96,15571,1,0,0:0:0:0:
320,96,15646,1,8,0:0:0:0:
296,104,15946,1,8,0:0:0:0:
312,120,16096,1,0,0:0:0:0:
312,120,16246,1,8,0:0:0:0:
296,144,16396,1,8,0:0:0:0:
280,144,16471,1,8,0:0:0:0:
296,144,16546,1,0,0:0:0:0:
296,128,16621,1,0,0:0:0:0:
296,120,16696,1,8,0:0:0:0:
304,136,16746,1,0,0:0:0:0:
304,136,16796,1,0,0:0:0:0:
304,128,16846,1,8,0:0:0:0:
304,104,16996,1,0,0:0:0:0:
312,104,17071,1,0,0:0:0:0:
320,112,17146,1,8,0:0:0:0:
320,96,17296,1,8,0:0:0:0:
304,112,17446,1,0,0:0:0:0:
288,120,17521,1,8,0:0:0:0:
288,120,17596,1,0,0:0:0:0:
296,120,17671,1,0,0:0:0:0:
296,112,17746,1,8,0:0:0:0:
320,96,17896,1,0,0:0:0:0:
312,104,18046,1,8,0:0:0:0:
304,96,18196,1,0,0:0:0:0:
304,112,18271,1,8,0:0:0:0:
304,112,18346,1,0,0:0:0:0:
312,112,18496,1,8,0:0:0:0:
304,96,18646,1,0,0:0:0:0:
304,104,18796,1,0,0:0:0:0:
304,104,18946,1,8,0:0:0:0:
312,96,19096,1,8,0:0:0:0:
312,96,19171,1,8,0:0:0:0:
312,96,19246,1,0,0:0:0:0:
304,96,19546,1,8,0:0:0:0:
304,104,19696,1,0,0:0:0:0:
304,104,19771,1,0,0:0:0:0:
304,104,19846,1,8,0:0:0:0:
304,96,19996,1,8,0:0:0:0:
312,96,20146,1,0,0:0:0:0:
320,88,20196,1,0,0:0:0:0:
312,96,20246,1,0,0:0:0:0:
320,96,20296,1,8,0:0:0:0:
320,96,20371,1,0,0:0:0:0:
320,96,20446,1,8,0:0:0:0:
320,96,20596,1,0,0:0:0:0:
320,96,20746,1,8,0:0:0:0:
320,96,21046,1,0,0:0:0:0:
320,96,21196,1,8,0:0:0:0:
320,96,21271,1,8,0:0:0:0:
320,96,21346,1,8,0:0:0:0:
320,96,21496,1,0,0:0:0:0:
320,96,21646,1,8,0:0:0:0:
320,96,21796,1,0,0:0:0:0:
320,96,21946,1,8,0:0:0:0:
320,96,21996,1,8,0:0:0:0:
299,92,22046,1,8,0:0:0:0:
320,96,22096,1,0,0:0:0:0:
320,96,22246,1,0,0:0:0:0:
336,96,22396,1,8,0:0:0:0:
336,96,22471,1,8,0:0:0:0:
336,96,22546,1,0,0:0:0:0:
328,96,22646,1,8,0:0:0:0:
328,96,22746,1,8,0:0:0:0:
328,96,22846,1,0,0:0:0:0:
312,96,22996,1,8,0:0:0:0:
336,104,23071,1,0,0:0:0:0:
328,88,23146,1,8,0:0:0:0:
312,104,23221,1,8,0:0:0:0:
304,96,23296,1,0,0:0:0:0:
328,104,23446,1,8,0:0:0:0:
336,96,23596,1,8,0:0:0:0:
336,96,23671,1,8,0:0:0:0:
336,96,23746,1,0,0:0:0:0:
328,96,23821,1,0,0:0:0:0:
336,96,23896,1,8,0:0:0:0:
336,104,23946,1,0,0:0:0:0:
336,104,23996,1,0,0:0:0:0:
336,104,24046,1,8,0:0:0:0:
344,88,24196,1,0,0:0:0:0:
344,88,24271,1,0,0:0:0:0:
344,88,24346,1,8,0:0:0:0:
344,80,24496,1,8,0:0:0:0:
344,80,24646,1,0,0:0:0:0:
336,88,24796,1,0,0:0:0:0:
336,88,24946,1,8,0:0:0:0:
336,80,25096,1,0,0:0:0:0:
336,80,25246,1,8,0:0:0:0:
336,72,25396,1,8,0:0:0:0:
336,72,25471,1,8,0:0:0:0:
336,72,25546,1,0,0:0:0:0:
336,72,25696,1,8,0:0:0:0:
336,80,25846,1,8,0:0:0:0:
336,64,25996,1,0,0:0:0:0:
336,64,26146,1,8,0:0:0:0:
336,72,26296,1,8,0:0:0:0:
336,72,26446,1,0,0:0:0:0:
328,64,26596,1,0,0:0:0:0:
304,104,26746,1,8,0:0:0:0:
304,72,26821,1,8,0:0:0:0:
304,104,26896,1,0,0:0:0:0:
312,72,26971,1,0,0:0:0:0:
304,104,27046,1,8,0:0:0:0:
312,72,27196,1,8,0:0:0:0:
320,72,27346,1,0,0:0:0:0:
320,72,27496,1,8,0:0:0:0:
296,96,27646,1,0,0:0:0:0:
328,96,27796,1,0,0:0:0:0:
272,136,27946,1,8,0:0:0:0:
272,112,28246,1,0,0:0:0:0:
288,112,28396,1,0,0:0:0:0:
288,112,28546,1,8,0:0:0:0:
240,136,28696,1,0,0:0:0:0:
248,128,28846,1,8,0:0:0:0:
272,112,28996,1,8,0:0:0:0:
280,120,29146,1,0,0:0:0:0:
272,120,29296,1,8,0:0:0:0:
280,120,29446,1,0,0:0:0:0:
280,104,29596,1,8,0:0:0:0:
280,104,29671,1,8,0:0:0:0:
280,104,29746,1,0,0:0:0:0:
296,96,29846,1,8,0:0:0:0:
296,96,29946,1,8,0:0:0:0:
296,88,30046,1,0,0:0:0:0:
304,104,30196,1,8,0:0:0:0:
288,96,30271,1,0,0:0:0:0:
288,96,30346,1,8,0:0:0:0:
312,88,30496,1,0,0:0:0:0:
304,96,30646,1,8,0:0:0:0:
296,96,30796,1,0,0:0:0:0:
280,104,30871,1,0,0:0:0:0:
304,96,30946,1,0,0:0:0:0:
264,128,31096,1,8,0:0:0:0:
288,104,31246,1,0,0:0:0:0:
296,96,31396,1,8,0:0:0:0:
296,96,31546,1,8,0:0:0:0:
296,96,31696,1,8,0:0:0:0:
296,80,31846,1,0,0:0:0:0:
296,80,31996,1,0,0:0:0:0:
296,80,32071,1,0,0:0:0:0:
296,80,32146,1,8,0:0:0:0:
296,72,32296,1,8,0:0:0:0:
296,80,32371,1,8,0:0:0:0:
296,80,32446,1,0,0:0:0:0:
296,72,32596,1,0,0:0:0:0:
296,80,32746,1,8,0:0:0:0:
296,80,32896,1,8,0:0:0:0:
296,80,33046,1,0,0:0:0:0:
296,72,33196,1,8,0:0:0:0:
296,80,33346,1,8,0:0:0:0:
296,80,33421,1,0,0:0:0:0:
296,72,33496,1,8,0:0:0:0:
296,72,33571,1,8,0:0:0:0:
296,72,33646,1,0,0:0:0:0:
272,104,34246,1,0,0:0:0:0:
272,104,34846,1,0,0:0:0:0:
272,104,35446,1,0,0:0:0:0:
272,104,35596,1,8,0:0:0:0:
272,104,35746,1,8,0:0:0:0:
272,104,36046,1,0,0:0:0:0:
256,96,36346,1,8,0:0:0:0:
256,112,36496,1,0,0:0:0:0:
256,112,36796,1,0,0:0:0:0:
256,104,37096,1,8,0:0:0:0:
264,104,37246,1,0,0:0:0:0:
264,104,37546,1,8,0:0:0:0:
264,104,37846,1,0,0:0:0:0:
248,104,38146,1,8,0:0:0:0:
264,104,38296,1,0,0:0:0:0:
264,104,38596,1,0,0:0:0:0:
264,96,38896,1,8,0:0:0:0:
264,96,39046,1,0,0:0:0:0:
264,88,39346,1,8,0:0:0:0:
272,96,39446,1,8,0:0:0:0:
272,96,39546,1,8,0:0:0:0:
272,96,39646,1,0,0:0:0:0:
264,88,39946,1,8,0:0:0:0:
272,80,40096,1,0,0:0:0:0:
272,96,40396,1,0,0:0:0:0:
272,88,40696,1,8,0:0:0:0:
272,88,40846,1,0,0:0:0:0:
280,96,41146,1,8,0:0:0:0:
280,96,41296,1,8,0:0:0:0:
272,88,41446,1,0,0:0:0:0:
272,88,41746,1,8,0:0:0:0:
272,88,41896,1,0,0:0:0:0:
272,88,42196,1,0,0:0:0:0:
272,88,42496,1,8,0:0:0:0:
272,88,42646,1,8,0:0:0:0:
272,88,42946,1,8,0:0:0:0:
272,88,43096,1,8,0:0:0:0:
272,88,43246,1,0,0:0:0:0:
272,112,43546,1,8,0:0:0:0:
240,176,43696,1,0,0:0:0:0:
248,160,43996,1,0,0:0:0:0:
248,168,44296,1,8,0:0:0:0:
248,168,44446,1,0,0:0:0:0:
248,160,44746,1,8,0:0:0:0:
248,168,45046,1,0,0:0:0:0:
248,168,45346,1,8,0:0:0:0:
248,160,45496,1,0,0:0:0:0:
248,160,45796,1,0,0:0:0:0:
248,168,46096,1,8,0:0:0:0:
248,168,46246,1,0,0:0:0:0:
264,152,46546,1,8,0:0:0:0:
272,144,46646,1,8,0:0:0:0:
248,136,46746,1,8,0:0:0:0:
272,144,46846,1,0,0:0:0:0:
288,144,47146,1,8,0:0:0:0:
288,144,47296,1,0,0:0:0:0:
288,144,47596,1,0,0:0:0:0:
272,144,47896,1,8,0:0:0:0:
272,152,48046,1,0,0:0:0:0:
272,152,48346,1,8,0:0:0:0:
272,144,48496,1,8,0:0:0:0:
272,144,48646,1,0,0:0:0:0:
272,144,48946,1,8,0:0:0:0:
272,144,49096,1,0,0:0:0:0:
272,144,49396,1,0,0:0:0:0:
272,144,49696,1,8,0:0:0:0:
272,144,49846,1,0,0:0:0:0:
280,136,49996,1,8,0:0:0:0:
280,136,50146,1,8,0:0:0:0:
280,136,50296,1,8,0:0:0:0:
304,120,50371,1,8,0:0:0:0:
304,120,50446,1,8,0:0:0:0:
288,144,50746,1,0,0:0:0:0:
288,144,50896,1,0,0:0:0:0:
288,144,51046,1,8,0:0:0:0:
304,128,51346,1,0,0:0:0:0:
304,128,51496,1,8,0:0:0:0:
296,128,51796,1,0,0:0:0:0:
304,128,51946,1,8,0:0:0:0:
304,128,52096,1,0,0:0:0:0:
304,128,52246,1,8,0:0:0:0:
296,128,52546,1,0,0:0:0:0:
296,128,52696,1,0,0:0:0:0:
304,128,52846,1,8,0:0:0:0:
304,120,52996,1,0,0:0:0:0:
304,120,53296,1,8,0:0:0:0:
304,120,53596,1,8,0:0:0:0:
304,120,53671,1,8,0:0:0:0:
304,120,53746,1,0,0:0:0:0:
328,128,53846,1,8,0:0:0:0:
328,128,53946,1,8,0:0:0:0:
328,128,54046,1,0,0:0:0:0:
328,120,54346,1,0,0:0:0:0:
328,120,54496,1,0,0:0:0:0:
328,120,54646,1,8,0:0:0:0:
328,128,54796,1,0,0:0:0:0:
328,128,54871,1,0,0:0:0:0:
328,120,54946,1,0,0:0:0:0:
328,120,55021,1,0,0:0:0:0:
328,112,55096,1,8,0:0:0:0:
328,112,55396,1,0,0:0:0:0:
328,112,55546,1,8,0:0:0:0:
328,112,55696,1,8,0:0:0:0:
328,112,55846,1,0,0:0:0:0:
328,112,56146,1,8,0:0:0:0:
336,120,56296,1,0,0:0:0:0:
336,120,56371,1,0,0:0:0:0:
328,120,56446,1,8,0:0:0:0:
336,112,56596,1,0,0:0:0:0:
336,112,56746,1,8,0:0:0:0:
336,112,56896,1,8,0:0:0:0:
336,112,57046,1,0,0:0:0:0:
336,120,57196,1,8,0:0:0:0:
336,120,57271,1,0,0:0:0:0:
336,120,57346,1,8,0:0:0:0:
336,120,57421,1,0,0:0:0:0:
336,112,57496,1,8,0:0:0:0:
336,112,57571,1,8,0:0:0:0:
336,112,57646,1,0,0:0:0:0:
312,128,57796,1,8,0:0:0:0:
312,128,57871,1,0,0:0:0:0:
312,128,57946,1,8,0:0:0:0:
328,136,58096,1,0,0:0:0:0:
328,136,58171,1,0,0:0:0:0:
328,136,58246,1,8,0:0:0:0:
320,128,58396,1,8,0:0:0:0:
320,128,58546,1,0,0:0:0:0:
336,120,58696,1,8,0:0:0:0:
328,128,58846,1,0,0:0:0:0:
336,120,58996,1,8,0:0:0:0:
328,120,59146,1,8,0:0:0:0:
336,120,59296,1,0,0:0:0:0:
336,120,59446,1,8,0:0:0:0:
344,104,59746,1,0,0:0:0:0:
328,112,59896,1,0,0:0:0:0:
328,112,60046,1,8,0:0:0:0:
352,120,60196,1,0,0:0:0:0:
344,112,60346,1,0,0:0:0:0:
344,104,60496,1,8,0:0:0:0:
352,104,60796,1,8,0:0:0:0:
352,104,60871,1,0,0:0:0:0:
352,104,60946,1,8,0:0:0:0:
352,112,61096,1,0,0:0:0:0:
344,112,61246,1,8,0:0:0:0:
352,112,61546,1,0,0:0:0:0:
352,112,61696,1,0,0:0:0:0:
344,104,61846,1,8,0:0:0:0:
352,104,61996,1,8,0:0:0:0:
352,104,62146,1,0,0:0:0:0:
352,104,62296,1,8,0:0:0:0:
352,104,62446,1,0,0:0:0:0:
352,104,62596,1,8,0:0:0:0:
360,96,62746,1,8,0:0:0:0:
360,96,62896,1,8,0:0:0:0:
360,96,63046,1,0,0:0:0:0:
352,104,63346,1,8,0:0:0:0:
352,96,63496,1,0,0:0:0:0:
352,96,63646,1,8,0:0:0:0:
360,96,63796,1,8,0:0:0:0:
360,96,63946,1,0,0:0:0:0:
368,96,64096,1,8,0:0:0:0:
368,96,64171,1,8,0:0:0:0:
368,96,64246,1,0,0:0:0:0:
368,96,64396,1,8,0:0:0:0:
328,112,64546,1,8,0:0:0:0:
328,112,64696,1,8,0:0:0:0:
328,112,64771,1,8,0:0:0:0:
352,112,64846,1,0,0:0:0:0:
336,120,65146,1,8,0:0:0:0:
344,120,65296,1,0,0:0:0:0:
320,128,65371,1,0,0:0:0:0:
344,120,65446,1,8,0:0:0:0:
344,120,65596,1,8,0:0:0:0:
344,120,65746,1,0,0:0:0:0:
352,112,65896,1,8,0:0:0:0:
312,128,66046,1,0,0:0:0:0:
352,112,66196,1,8,0:0:0:0:
352,112,66271,1,0,0:0:0:0:
352,112,66346,1,8,0:0:0:0:
352,112,66496,1,0,0:0:0:0:
352,112,66646,1,8,0:0:0:0:
352,112,66796,1,8,0:0:0:0:
352,112,66946,1,0,0:0:0:0:
352,112,67096,1,0,0:0:0:0:
352,112,67246,1,8,0:0:0:0:
352,112,67396,1,0,0:0:0:0:
352,112,67471,1,0,0:0:0:0:
352,112,67546,1,8,0:0:0:0:
352,104,67621,1,8,0:0:0:0:
352,104,67696,1,0,0:0:0:0:
352,112,67846,1,0,0:0:0:0:
344,104,67996,1,8,0:0:0:0:
344,104,68071,1,8,0:0:0:0:
344,104,68146,1,8,0:0:0:0:
344,104,68296,1,0,0:0:0:0:
344,104,68446,1,8,0:0:0:0:
352,104,68596,1,8,0:0:0:0:
344,104,68746,1,0,0:0:0:0:
344,104,68896,1,8,0:0:0:0:
344,104,69046,1,0,0:0:0:0:
344,104,69121,1,0,0:0:0:0:
344,104,69196,1,0,0:0:0:0:
344,104,69346,1,8,0:0:0:0:
344,96,69496,1,8,0:0:0:0:
344,104,69646,1,0,0:0:0:0:
352,88,69796,1,8,0:0:0:0:
352,88,69946,1,8,0:0:0:0:
352,88,70096,1,0,0:0:0:0:
352,88,70246,1,8,0:0:0:0:
328,112,70396,1,0,0:0:0:0:
312,128,70546,1,8,0:0:0:0:
312,120,70696,1,0,0:0:0:0:
312,120,70846,1,8,0:0:0:0:
312,120,70996,1,8,0:0:0:0:
328,112,71071,1,0,0:0:0:0:
328,112,71146,1,8,0:0:0:0:
328,112,71221,1,8,0:0:0:0:
328,112,71296,1,0,0:0:0:0:
328,112,71371,1,0,0:0:0:0:
328,120,71446,1,8,0:0:0:0:
320,104,71596,1,8,0:0:0:0:
320,104,71746,1,0,0:0:0:0:
320,104,71846,1,0,0:0:0:0:
304,112,71946,1,8,0:0:0:0:
328,112,72046,1,0,0:0:0:0:
312,112,72196,1,8,0:0:0:0:
312,112,72271,1,8,0:0:0:0:
312,112,72346,1,8,0:0:0:0:
312,104,72421,1,8,0:0:0:0:
320,104,72496,1,0,0:0:0:0:
328,112,72646,1,8,0:0:0:0:
328,112,72796,1,8,0:0:0:0:
328,112,72946,1,0,0:0:0:0:
328,112,73096,1,8,0:0:0:0:
328,112,73246,1,0,0:0:0:0:
328,112,73396,1,8,0:0:0:0:
328,112,73546,1,0,0:0:0:0:
328,112,73696,1,0,0:0:0:0:
328,112,73846,1,8,0:0:0:0:
320,112,73996,1,8,0:0:0:0:
320,112,74071,1,8,0:0:0:0:
320,112,74146,1,0,0:0:0:0:
328,112,74296,1,0,0:0:0:0:
328,112,74446,1,8,0:0:0:0:
336,128,74596,1,8,0:0:0:0:
336,104,74746,1,0,0:0:0:0:
336,104,74896,1,8,0:0:0:0:
336,104,75046,1,0,0:0:0:0:
336,104,75121,1,0,0:0:0:0:
336,104,75196,1,8,0:0:0:0:
320,104,75271,1,8,0:0:0:0:
336,112,75346,1,0,0:0:0:0:
304,104,75446,1,8,0:0:0:0:
304,104,75546,1,8,0:0:0:0:
344,120,75646,1,0,0:0:0:0:
344,120,75796,1,0,0:0:0:0:
344,120,75946,1,8,0:0:0:0:
344,120,76021,1,8,0:0:0:0:
344,120,76096,1,0,0:0:0:0:
352,112,76246,1,8,0:0:0:0:
352,112,76396,1,8,0:0:0:0:
352,112,76546,1,0,0:0:0:0:
352,112,76696,1,8,0:0:0:0:
344,120,76846,1,0,0:0:0:0:
344,120,76996,1,8,0:0:0:0:
344,120,77146,1,8,0:0:0:0:
344,120,77221,1,8,0:0:0:0:
344,120,77296,1,0,0:0:0:0:
352,120,77446,1,0,0:0:0:0:
352,120,77596,1,8,0:0:0:0:
352,120,77671,1,0,0:0:0:0:
352,120,77746,1,8,0:0:0:0:
352,120,77821,1,8,0:0:0:0:
352,120,77896,1,0,0:0:0:0:
352,120,77971,1,0,0:0:0:0:
352,120,78046,1,8,0:0:0:0:
352,120,78196,1,0,0:0:0:0:
352,120,78346,1,8,0:0:0:0:
352,120,78496,1,8,0:0:0:0:
352,120,78646,1,0,0:0:0:0:
352,120,78721,1,0,0:0:0:0:
352,120,78796,1,8,0:0:0:0:
344,120,78946,1,0,0:0:0:0:
352,128,79096,1,8,0:0:0:0:
352,128,79171,1,8,0:0:0:0:
352,128,79246,1,0,0:0:0:0:
328,96,79396,1,0,0:0:0:0:
352,112,79546,1,8,0:0:0:0:
280,152,79696,1,0,0:0:0:0:
288,160,79771,1,0,0:0:0:0:
288,160,79846,1,8,0:0:0:0:
288,160,79996,1,8,0:0:0:0:
288,160,80146,1,0,0:0:0:0:
288,160,80296,1,8,0:0:0:0:
288,160,80371,1,8,0:0:0:0:
288,160,80446,1,0,0:0:0:0:
296,144,80596,1,8,0:0:0:0:
288,144,80746,1,8,0:0:0:0:
280,160,80896,1,0,0:0:0:0:
280,160,80971,1,8,0:0:0:0:
280,160,81046,1,0,0:0:0:0:
280,160,81196,1,0,0:0:0:0:
280,160,81346,1,8,0:0:0:0:
280,160,81496,1,0,0:0:0:0:
280,160,81571,1,0,0:0:0:0:
280,160,81646,1,8,0:0:0:0:
280,160,81796,1,0,0:0:0:0:
280,160,81946,1,8,0:0:0:0:
280,160,82096,1,8,0:0:0:0:
280,160,82171,1,8,0:0:0:0:
280,160,82246,1,0,0:0:0:0:
280,160,82396,1,8,0:0:0:0:
280,160,82471,1,8,0:0:0:0:
280,160,82546,1,0,0:0:0:0:
280,152,82621,1,0,0:0:0:0:
280,152,82696,1,8,0:0:0:0:
288,160,82846,1,0,0:0:0:0:
272,152,82921,1,0,0:0:0:0:
288,152,82996,1,0,0:0:0:0:
280,160,83071,1,0,0:0:0:0:
280,160,83146,1,8,0:0:0:0:
288,160,83296,1,0,0:0:0:0:
288,152,83446,1,8,0:0:0:0:
288,152,83521,1,8,0:0:0:0:
280,152,83596,1,0,0:0:0:0:
280,152,83746,1,8,0:0:0:0:
280,144,83896,1,0,0:0:0:0:
280,144,83971,1,0,0:0:0:0:
280,144,84046,1,8,0:0:0:0:
280,144,84196,1,0,0:0:0:0:
280,144,84346,1,8,0:0:0:0:
288,128,84421,1,0,0:0:0:0:
288,128,84496,1,8,0:0:0:0:
288,128,84646,1,0,0:0:0:0:
280,128,84796,1,8,0:0:0:0:
296,128,84871,1,8,0:0:0:0:
296,128,84946,1,0,0:0:0:0:
296,144,85096,1,8,0:0:0:0:
296,144,85246,1,0,0:0:0:0:
304,136,85321,1,8,0:0:0:0:
304,136,85396,1,0,0:0:0:0:
288,128,85546,1,8,0:0:0:0:
296,128,85696,1,8,0:0:0:0:
296,128,85771,1,8,0:0:0:0:
296,128,85846,1,0,0:0:0:0:
296,128,85921,1,0,0:0:0:0:
296,128,85996,1,8,0:0:0:0:
296,128,86071,1,0,0:0:0:0:
296,128,86146,1,8,0:0:0:0:
296,128,86221,1,8,0:0:0:0:
296,128,86296,1,0,0:0:0:0:
296,128,86371,1,0,0:0:0:0:
296,128,86446,1,8,0:0:0:0:
320,128,86596,1,0,0:0:0:0:
312,128,86746,1,8,0:0:0:0:
312,128,86821,1,8,0:0:0:0:
312,128,86896,1,0,0:0:0:0:
312,128,86971,1,0,0:0:0:0:
312,128,87046,1,8,0:0:0:0:
304,120,87196,1,0,0:0:0:0:
312,128,87271,1,0,0:0:0:0:
312,120,87346,1,8,0:0:0:0:
320,128,87496,1,0,0:0:0:0:
320,128,87571,1,8,0:0:0:0:
312,128,87646,1,0,0:0:0:0:
328,120,87796,1,8,0:0:0:0:
320,112,87871,1,8,0:0:0:0:
320,112,87946,1,0,0:0:0:0:
312,120,88096,1,8,0:0:0:0:
320,120,88246,1,0,0:0:0:0:
320,120,88321,1,0,0:0:0:0:
320,120,88396,1,0,0:0:0:0:
320,120,88546,1,8,0:0:0:0:
328,120,88696,1,0,0:0:0:0:
328,120,88771,1,0,0:0:0:0:
320,112,88846,1,8,0:0:0:0:
328,104,88996,1,8,0:0:0:0:
328,104,89146,1,0,0:0:0:0:
336,112,89221,1,8,0:0:0:0:
336,112,89296,1,0,0:0:0:0:
336,112,89371,1,0,0:0:0:0:
336,112,89446,1,8,0:0:0:0:
336,96,89596,1,8,0:0:0:0:
336,96,89671,1,8,0:0:0:0:
336,96,89746,1,0,0:0:0:0:
328,96,89896,1,8,0:0:0:0:
328,96,90046,1,0,0:0:0:0:
320,96,90196,1,0,0:0:0:0:
328,88,90271,1,0,0:0:0:0:
336,88,90346,1,8,0:0:0:0:
328,88,90421,1,8,0:0:0:0:
336,88,90496,1,0,0:0:0:0:
336,88,90646,1,8,0:0:0:0:
336,88,90721,1,0,0:0:0:0:
336,88,90796,1,8,0:0:0:0:
336,96,90946,1,0,0:0:0:0:
336,80,91021,1,0,0:0:0:0:
336,80,91096,1,8,0:0:0:0:
336,80,91246,1,0,0:0:0:0:
336,80,91396,1,8,0:0:0:0:
336,88,91471,1,0,0:0:0:0:
336,88,91546,1,8,0:0:0:0:
336,72,91696,1,0,0:0:0:0:
336,72,91846,1,8,0:0:0:0:
288,144,91921,1,8,0:0:0:0:
288,144,91996,1,0,0:0:0:0:
288,144,92146,1,8,0:0:0:0:
304,128,92196,1,0,0:0:0:0:
304,128,92246,1,0,0:0:0:0:
304,128,92296,1,8,0:0:0:0:
296,128,92446,1,8,0:0:0:0:
296,128,92596,1,0,0:0:0:0:
296,128,92671,1,0,0:0:0:0:
296,120,92746,1,8,0:0:0:0:
296,120,92896,1,8,0:0:0:0:
296,120,93046,1,0,0:0:0:0:
296,120,93121,1,0,0:0:0:0:
296,120,93196,1,8,0:0:0:0:
296,120,93346,1,8,0:0:0:0:
296,128,93421,1,8,0:0:0:0:
296,128,93496,1,0,0:0:0:0:
296,128,93546,1,0,0:0:0:0:
296,128,93596,1,0,0:0:0:0:
272,152,95746,1,0,0:0:0:0:
272,152,95971,1,8,0:0:0:0:
272,152,96046,1,0,0:0:0:0:
272,152,96196,1,8,0:0:0:0:
296,144,96246,1,0,0:0:0:0:
288,144,96296,1,0,0:0:0:0:
288,152,96346,1,8,0:0:0:0:
296,144,96421,1,8,0:0:0:0:
296,144,96496,1,0,0:0:0:0:
296,144,96571,1,0,0:0:0:0:
296,144,96646,1,8,0:0:0:0:
296,144,96721,1,0,0:0:0:0:
304,128,96796,1,8,0:0:0:0:
280,128,96846,1,8,0:0:0:0:
304,136,96896,1,8,0:0:0:0:
304,136,96946,1,0,0:0:0:0:
304,136,97096,1,8,0:0:0:0:
304,144,97171,1,0,0:0:0:0:
304,144,97246,1,8,0:0:0:0:
312,144,97396,1,8,0:0:0:0:
304,136,97446,1,8,0:0:0:0:
296,144,97496,1,8,0:0:0:0:
320,144,97546,1,0,0:0:0:0:
312,144,97621,1,0,0:0:0:0:
312,144,97696,1,8,0:0:0:0:
312,144,97846,1,8,0:0:0:0:
312,144,97996,1,0,0:0:0:0:
312,144,98071,1,0,0:0:0:0:
312,144,98146,1,8,0:0:0:0:
312,144,98296,1,8,0:0:0:0:
320,152,98446,1,0,0:0:0:0:
320,144,98496,1,0,0:0:0:0:
320,144,98546,1,0,0:0:0:0:
312,144,98596,1,8,0:0:0:0:
312,144,98671,1,0,0:0:0:0:
312,144,98746,1,8,0:0:0:0:
312,128,98896,1,8,0:0:0:0:
320,144,99046,1,0,0:0:0:0:
288,144,99146,1,8,0:0:0:0:
304,144,99246,1,8,0:0:0:0:
304,144,99346,1,0,0:0:0:0:
288,144,99496,1,0,0:0:0:0:
296,144,99646,1,8,0:0:0:0:
320,136,99721,1,8,0:0:0:0:
304,128,99796,1,0,0:0:0:0:
304,128,99946,1,8,0:0:0:0:
312,128,100096,1,8,0:0:0:0:
304,128,100171,1,8,0:0:0:0:
312,128,100246,1,8,0:0:0:0:
312,128,100321,1,8,0:0:0:0:
312,128,100396,1,0,0:0:0:0:
304,104,100471,1,8,0:0:0:0:
312,128,100546,1,0,0:0:0:0:
312,128,100621,1,0,0:0:0:0:
312,128,100696,1,8,0:0:0:0:
304,120,100771,1,0,0:0:0:0:
312,128,100846,1,8,0:0:0:0:
312,120,100996,1,0,0:0:0:0:
320,128,101046,1,0,0:0:0:0:
320,128,101096,1,0,0:0:0:0:
320,128,101146,1,8,0:0:0:0:
312,128,101296,1,0,0:0:0:0:
312,128,101371,1,8,0:0:0:0:
328,136,101446,1,0,0:0:0:0:
320,120,101596,1,8,0:0:0:0:
320,128,101671,1,0,0:0:0:0:
320,128,101746,1,8,0:0:0:0:
336,128,101796,1,0,0:0:0:0:
312,128,101846,1,0,0:0:0:0:
336,128,101896,1,8,0:0:0:0:
336,128,101971,1,8,0:0:0:0:
336,128,102046,1,0,0:0:0:0:
336,128,102121,1,0,0:0:0:0:
320,128,102196,1,8,0:0:0:0:
320,120,102271,1,0,0:0:0:0:
304,136,102346,1,8,0:0:0:0:
328,128,102496,1,0,0:0:0:0:
328,120,102571,1,8,0:0:0:0:
328,120,102646,1,0,0:0:0:0:
336,112,102796,1,8,0:0:0:0:
336,112,102946,1,4,0:0:0:0:
344,104,103096,1,8,0:0:0:0:
344,104,103171,1,0,0:0:0:0:
344,104,103246,1,8,0:0:0:0:
344,104,103321,1,8,0:0:0:0:
344,104,103396,1,0,0:0:0:0:
344,104,103546,1,8,0:0:0:0:
344,104,103696,1,0,0:0:0:0:
344,104,103771,1,0,0:0:0:0:
344,104,103846,1,8,0:0:0:0:
344,104,103921,1,0,0:0:0:0:
344,104,103996,1,8,0:0:0:0:
344,104,104071,1,8,0:0:0:0:
344,104,104146,1,0,0:0:0:0:
336,96,104296,1,0,0:0:0:0:
352,88,104446,1,8,0:0:0:0:
328,120,104496,1,0,0:0:0:0:
352,88,104546,1,0,0:0:0:0:
352,88,104596,1,8,0:0:0:0:
352,88,104746,1,0,0:0:0:0:
304,120,104896,1,0,0:0:0:0:
304,120,104971,1,0,0:0:0:0:
304,120,105046,1,8,0:0:0:0:
288,120,105196,1,0,0:0:0:0:
288,120,105271,1,8,0:0:0:0:
288,128,105346,1,0,0:0:0:0:
312,136,105496,1,8,0:0:0:0:
312,136,105646,1,0,0:0:0:0:
312,128,105721,1,8,0:0:0:0:
312,128,105796,1,0,0:0:0:0:
296,128,105846,1,0,0:0:0:0:
288,128,105896,1,0,0:0:0:0:
296,128,105946,1,8,0:0:0:0:
320,112,106096,1,0,0:0:0:0:
320,112,106171,1,0,0:0:0:0:
320,104,106246,1,8,0:0:0:0:
304,104,106346,1,8,0:0:0:0:
304,104,106446,1,8,0:0:0:0:
312,104,106546,1,0,0:0:0:0:
312,88,106696,1,8,0:0:0:0:
304,88,106846,1,0,0:0:0:0:
328,88,106921,1,8,0:0:0:0:
328,88,106996,1,0,0:0:0:0:
328,80,107146,1,8,0:0:0:0:
320,88,107196,1,0,0:0:0:0:
320,88,107246,1,0,0:0:0:0:
320,88,107296,1,8,0:0:0:0:
320,104,107371,1,0,0:0:0:0:
320,104,107446,1,8,0:0:0:0:
320,104,107521,1,8,0:0:0:0:
320,104,107596,1,0,0:0:0:0:
312,88,107746,1,0,0:0:0:0:
304,88,107896,1,8,0:0:0:0:
320,88,107971,1,0,0:0:0:0:
320,88,108046,1,8,0:0:0:0:
320,88,108196,1,0,0:0:0:0:
320,88,108271,1,8,0:0:0:0:
320,88,108346,1,0,0:0:0:0:
320,88,108496,1,8,0:0:0:0:
312,88,108646,1,0,0:0:0:0:
312,88,108721,1,0,0:0:0:0:
320,88,108796,1,8,0:0:0:0:
320,88,108946,1,0,0:0:0:0:
312,88,109021,1,8,0:0:0:0:
312,88,109096,1,0,0:0:0:0:
312,88,109171,1,8,0:0:0:0:
312,88,109246,1,8,0:0:0:0:
312,80,109321,1,0,0:0:0:0:
312,80,109396,1,8,0:0:0:0:
320,88,109446,1,8,0:0:0:0:
320,88,109496,1,8,0:0:0:0:
312,88,109546,1,0,0:0:0:0:
320,80,109696,1,0,0:0:0:0:
320,80,109846,1,8,0:0:0:0:
320,80,109921,1,8,0:0:0:0:
320,80,109996,1,8,0:0:0:0:
320,80,110071,1,8,0:0:0:0:
320,80,110146,1,0,0:0:0:0:
304,80,110221,1,0,0:0:0:0:
304,80,110296,1,8,0:0:0:0:
312,80,110371,1,0,0:0:0:0:
312,80,110446,1,8,0:0:0:0:
328,88,110496,1,0,0:0:0:0:
328,88,110546,1,0,0:0:0:0:
328,88,110596,1,8,0:0:0:0:
320,80,110671,1,0,0:0:0:0:
320,80,110746,1,8,0:0:0:0:
320,80,110821,1,8,0:0:0:0:
320,80,110896,1,0,0:0:0:0:
320,80,110971,1,0,0:0:0:0:
320,80,111046,1,8,0:0:0:0:
320,80,111196,1,0,0:0:0:0:
320,80,111271,1,8,0:0:0:0:
312,80,111346,1,0,0:0:0:0:
312,80,111496,1,8,0:0:0:0:
320,80,111571,1,8,0:0:0:0:
320,80,111646,1,0,0:0:0:0:
320,80,111721,1,8,0:0:0:0:
320,80,111796,1,0,0:0:0:0:
328,88,111846,1,0,0:0:0:0:
320,88,111896,1,0,0:0:0:0:
320,88,111946,1,8,0:0:0:0:
320,80,112096,1,0,0:0:0:0:
320,72,112246,1,8,0:0:0:0:
336,80,112396,1,0,0:0:0:0:
336,80,112471,1,0,0:0:0:0:
336,72,112546,1,8,0:0:0:0:
336,64,112621,1,0,0:0:0:0:
312,80,112696,1,8,0:0:0:0:
320,64,112771,1,8,0:0:0:0:
320,64,112846,1,0,0:0:0:0:
328,80,112921,1,8,0:0:0:0:
320,64,112996,1,0,0:0:0:0:
320,64,113071,1,0,0:0:0:0:
320,72,113146,1,8,0:0:0:0:
328,80,113221,1,8,0:0:0:0:
328,80,113296,1,0,0:0:0:0:
328,80,113371,1,0,0:0:0:0:
328,80,113446,1,8,0:0:0:0:
336,64,113596,1,8,0:0:0:0:
336,64,113746,1,0,0:0:0:0:
336,64,113821,1,8,0:0:0:0:
328,64,113896,1,8,0:0:0:0:
336,64,113971,1,0,0:0:0:0:
336,64,114046,1,8,0:0:0:0:
328,56,114196,1,0,0:0:0:0:
328,48,114271,1,8,0:0:0:0:
328,56,114346,1,0,0:0:0:0:
328,48,114496,1,8,0:0:0:0:
336,64,114546,1,0,0:0:0:0:
328,64,114596,1,0,0:0:0:0:
328,64,114646,1,8,0:0:0:0:
320,72,114721,1,0,0:0:0:0:
328,64,114796,1,8,0:0:0:0:
328,64,114871,1,0,0:0:0:0:
328,64,114946,1,8,0:0:0:0:
296,96,115096,1,0,0:0:0:0:
304,96,115171,1,8,0:0:0:0:
295,88,115246,1,0,0:0:0:0:
304,96,115396,1,8,0:0:0:0:
304,96,115471,1,8,0:0:0:0:
296,96,115546,1,0,0:0:0:0:
312,88,115646,1,8,0:0:0:0:
312,88,115746,1,8,0:0:0:0:
312,88,115846,1,0,0:0:0:0:
296,96,115921,1,0,0:0:0:0:
296,96,115996,1,8,0:0:0:0:
296,96,116071,1,8,0:0:0:0:
304,96,116146,1,0,0:0:0:0:
304,96,116296,1,8,0:0:0:0:
304,96,116371,1,0,0:0:0:0:
304,96,116446,1,8,0:0:0:0:
304,80,116521,1,0,0:0:0:0:
304,80,116596,1,8,0:0:0:0:
304,80,116671,1,8,0:0:0:0:
304,80,116746,1,0,0:0:0:0:
320,88,116821,1,0,0:0:0:0:
320,80,116896,1,8,0:0:0:0:
320,88,116971,1,0,0:0:0:0:
320,88,117046,1,8,0:0:0:0:
312,80,117096,1,8,0:0:0:0:
312,80,117146,1,8,0:0:0:0:
312,80,117196,1,8,0:0:0:0:
312,80,117246,1,8,0:0:0:0:
312,80,117296,1,8,0:0:0:0:
304,88,117346,1,0,0:0:0:0:
312,112,117496,1,0,0:0:0:0:
320,96,117646,1,8,0:0:0:0:
320,96,117721,1,0,0:0:0:0:
320,88,117796,1,8,0:0:0:0:
320,96,117871,1,8,0:0:0:0:
320,96,117946,1,0,0:0:0:0:
320,88,118021,1,0,0:0:0:0:
320,96,118096,1,8,0:0:0:0:
320,96,118171,1,0,0:0:0:0:
320,96,118246,1,8,0:0:0:0:
320,96,118321,1,8,0:0:0:0:
320,96,118396,1,0,0:0:0:0:
320,96,118471,1,0,0:0:0:0:
320,96,118546,1,8,0:0:0:0:
312,112,118696,1,0,0:0:0:0:
336,104,118771,1,8,0:0:0:0:
328,104,118846,1,0,0:0:0:0:
328,104,118921,1,0,0:0:0:0:
328,104,118996,1,8,0:0:0:0:
320,96,119146,1,0,0:0:0:0:
320,96,119296,1,8,0:0:0:0:
320,96,119371,1,0,0:0:0:0:
320,96,119446,1,8,0:0:0:0:
312,96,119496,1,0,0:0:0:0:
312,96,119546,1,0,0:0:0:0:
312,96,119596,1,8,0:0:0:0:
328,88,119671,1,0,0:0:0:0:
328,88,119746,1,8,0:0:0:0:
328,104,119896,1,0,0:0:0:0:
328,104,119971,1,8,0:0:0:0:
336,104,120046,1,0,0:0:0:0:
336,104,120196,1,8,0:0:0:0:
344,96,120346,1,0,0:0:0:0:
336,104,120396,1,0,0:0:0:0:
336,96,120446,1,8,0:0:0:0:
336,96,120496,1,0,0:0:0:0:
336,88,120646,1,8,0:0:0:0:
336,88,120746,1,0,0:0:0:0:
316,103,120846,1,0,0:0:0:0:
336,88,120946,1,8,0:0:0:0:
336,88,121021,1,8,0:0:0:0:
336,88,121096,1,0,0:0:0:0:
336,88,121171,1,0,0:0:0:0:
336,88,121246,1,8,0:0:0:0:
336,88,121321,1,0,0:0:0:0:
336,80,121396,1,8,0:0:0:0:
336,80,121446,1,8,0:0:0:0:
336,80,121496,1,8,0:0:0:0:
336,88,121546,1,0,0:0:0:0:
336,88,121696,1,8,0:0:0:0:
336,88,121771,1,0,0:0:0:0:
336,88,121846,1,8,0:0:0:0:
336,88,121996,1,0,0:0:0:0:
336,88,122146,1,8,0:0:0:0:
344,96,122221,1,8,0:0:0:0:
344,96,122296,1,0,0:0:0:0:
344,96,122371,1,0,0:0:0:0:
344,88,122446,1,8,0:0:0:0:
344,88,122521,1,0,0:0:0:0:
344,88,122596,1,8,0:0:0:0:
344,80,122646,1,0,0:0:0:0:
344,80,122696,1,0,0:0:0:0:
344,80,122746,1,8,0:0:0:0:
336,80,122821,1,8,0:0:0:0:
336,80,122896,1,0,0:0:0:0:
336,80,122971,1,8,0:0:0:0:
352,80,123046,1,0,0:0:0:0:
344,96,123196,1,8,0:0:0:0:
344,96,123346,1,0,0:0:0:0:
344,88,123421,1,8,0:0:0:0:
344,88,123496,1,8,0:0:0:0:
344,88,123571,1,0,0:0:0:0:
344,88,123646,1,8,0:0:0:0:
336,80,123796,1,8,0:0:0:0:
336,80,123946,1,0,0:0:0:0:
352,80,124096,1,8,0:0:0:0:
352,80,124246,1,8,0:0:0:0:
344,72,124321,1,8,0:0:0:0:
344,72,124396,1,0,0:0:0:0:
344,72,124446,1,8,0:0:0:0:
344,72,124496,1,8,0:0:0:0:
331,78,124546,1,0,0:0:0:0:
328,72,128446,5,0,0:0:0:0:
328,72,128596,1,8,0:0:0:0:
328,72,128746,1,8,0:0:0:0:
