osu file format v14

[General]
AudioFilename: audio.mp3
AudioLeadIn: 0
PreviewTime: 75014
Countdown: 0
SampleSet: Normal
StackLeniency: 0
Mode: 1
LetterboxInBreaks: 0
WidescreenStoryboard: 0

[Editor]
Bookmarks: 3315,29981,68562,111805,134372,161295,204179,277653,295938,360234,394900,447116,479006,500857,540574
DistanceSpacing: 1
BeatDivisor: 4
GridSize: 32
TimelineZoom: 3.905825

[Metadata]
Title:XNOR XNOR XNOR
TitleUnicode:XNOR XNOR XNOR
Artist:Frums
ArtistUnicode:Frums
Creator:Genjuro
Version:Oni
Source:
Tags:electronic instrumental experimental idm sequence digital jazz metacontinues frums.xyz frumsdotxyz featured artist fa mappers' guild mg moon fire water wood metal earth sun taiko
BeatmapID:2872718
BeatmapSetID:1391246

[Difficulty]
HPDrainRate:3
CircleSize:2
OverallDifficulty:7
ApproachRate:10
SliderMultiplier:1.4
SliderTickRate:1

[Events]
//Background and Video events
0,0,"bg.jpg",0,-15
//Break Periods
2,134372,147383
2,148418,155075
2,156110,160845
//Storyboard Layer 0 (Background)
//Storyboard Layer 1 (Fail)
//Storyboard Layer 2 (Pass)
//Storyboard Layer 3 (Foreground)
//Storyboard Layer 4 (Overlay)
//Storyboard Sound Samples

[TimingPoints]
3315,416.666666666667,4,1,0,10,1,0
29929,-100,4,1,0,5,0,0
31440,416.666666666667,4,1,0,5,1,0
32898,416.666666666667,4,1,0,5,1,0
34356,416.666666666667,4,1,0,5,1,0
35710,-100,4,1,0,15,0,0
35814,416.666666666667,4,1,0,15,1,0
35814,-87.5002278651767,4,1,0,15,0,0
37273,416.666666666667,4,1,0,15,1,0
37273,-87.5002278651767,4,1,0,15,0,0
38731,416.666666666667,4,1,0,15,1,0
38731,-87.5002278651767,4,1,0,15,0,0
40190,416.666666666667,4,1,0,15,1,0
40190,-87.5002278651767,4,1,0,15,0,0
41648,416.666666666667,4,1,0,15,1,0
41648,-87.5002278651767,4,1,0,15,0,0
43106,416.666666666667,4,1,0,15,1,0
43106,-87.5002278651767,4,1,0,15,0,0
44565,416.666666666667,4,1,0,15,1,0
44565,-87.5002278651767,4,1,0,15,0,0
46023,416.666666666667,4,1,0,15,1,0
46023,-87.5002278651767,4,1,0,15,0,0
47481,416.666666666667,4,1,0,15,1,0
47481,-87.5002278651767,4,1,0,15,0,0
48940,416.666666666667,4,1,0,15,1,0
48940,-87.5002278651767,4,1,0,15,0,0
50398,416.666666666667,4,1,0,15,1,0
50398,-87.5002278651767,4,1,0,15,0,0
51856,416.666666666667,4,1,0,15,1,0
51856,-87.5002278651767,4,1,0,15,0,0
53315,416.666666666667,4,1,0,15,1,0
53315,-87.5002278651767,4,1,0,15,0,0
54773,416.666666666667,4,1,0,15,1,0
54773,-87.5002278651767,4,1,0,15,0,0
56231,416.666666666667,4,1,0,15,1,0
56231,-87.5002278651767,4,1,0,15,0,0
57690,416.666666666667,4,1,0,15,1,0
57690,-87.5002278651767,4,1,0,15,0,0
59148,416.666666666667,4,1,0,15,1,0
59148,-87.5002278651767,4,1,0,15,0,0
60606,416.666666666667,4,1,0,15,1,0
60606,-87.5002278651767,4,1,0,15,0,0
62065,416.666666666667,4,1,0,15,1,0
62065,-87.5002278651767,4,1,0,15,0,0
63523,416.666666666667,4,1,0,15,1,0
63523,-87.5002278651767,4,1,0,15,0,0
64981,416.666666666667,6,1,0,15,1,0
64981,-87.5002406256617,6,1,0,15,0,0
65085,-91.3045224956082,6,1,0,15,0,0
65189,-95.4546409091864,6,1,0,15,0,0
65293,-100,6,1,0,15,0,0
67481,540.540540540541,4,1,0,15,1,8
67717,-133.333333333333,4,1,0,25,0,8
67987,-33.3333333333333,4,1,0,25,0,8
68494,-33.3333333333333,4,1,0,30,0,8
68562,540.540540540541,4,1,0,30,1,0
70386,-50,4,1,0,45,0,0
70724,-100,4,1,0,30,0,0
72480,-50,4,1,0,45,0,0
72886,-100,4,1,0,30,0,0
74778,-50,4,1,0,45,0,0
74980,-100,4,1,0,45,0,0
75116,-98.4615384615385,4,1,0,45,0,0
75183,-96.969696969697,4,1,0,45,0,0
75251,-95.5223880597015,4,1,0,45,0,0
75318,-94.1176470588235,4,1,0,45,0,0
75453,-91.4285714285714,4,1,0,45,0,0
75589,-88.8888888888889,4,1,0,45,0,0
75724,-86.4864864864865,4,1,0,45,0,0
75994,-82.0512820512821,4,1,0,45,0,0
76264,-78.0487804878049,4,1,0,45,0,0
76399,-76.1904761904762,4,1,0,45,0,0
76534,-74.4186046511628,4,1,0,45,0,0
76670,-72.7272727272727,4,1,0,45,0,0
76805,-71.1111111111111,4,1,0,45,0,0
76872,-70.3296703296703,4,1,0,45,0,0
76940,-69.5652173913043,4,1,0,45,0,0
77007,-68.8172043010753,4,1,0,45,0,0
77075,-68.0851063829787,4,1,0,45,0,0
77143,-66.6666666666667,4,1,0,60,0,0
111062,-66.6666666666667,4,1,0,65,0,0
111197,-64.5502782116991,4,1,0,60,0,0
111264,-62.5640890887603,4,1,0,60,0,0
111332,-60.6965168089899,4,1,0,60,0,0
111399,-58.9372088870239,4,1,0,60,0,0
111467,-57.2769834732992,4,1,0,60,0,0
111534,-55.7077615395843,4,1,0,60,0,0
111602,-54.2222308977792,4,1,0,60,0,0
111670,-52.8138422968106,4,1,0,60,0,0
111737,-52.8138422968106,4,1,0,80,0,0
111805,-50,4,1,0,80,0,1
129102,-50,4,1,0,80,0,0
130116,-50,4,1,0,60,0,0
130251,-50.2189798616869,4,1,0,60,0,0
130318,-50.4398862479685,4,1,0,60,0,0
130386,-50.662744694724,4,1,0,60,0,0
130453,-50.8875811911358,4,1,0,60,0,0
130521,-51.114422189793,4,1,0,60,0,0
130589,-51.3432946170663,4,1,0,60,0,0
130656,-51.574225883763,4,1,0,60,0,0
130724,-51.8072170561792,4,1,0,60,0,0
130791,-52.0423499827219,4,1,0,60,0,0
130859,-52.2796269953173,4,1,0,60,0,0
130926,-52.5190775549218,4,1,0,60,0,0
130994,-52.7607316647224,4,1,0,60,0,0
131062,-53.004619882669,4,1,0,60,0,0
131129,-53.2507733343557,4,1,0,60,0,0
131197,-53.4992237262637,4,1,0,60,0,0
131264,545.454545454546,4,1,0,60,1,0
131264,-53.2657690948764,4,1,0,60,0,0
131332,-53.5166303220635,4,1,0,60,0,0
131400,-53.7698656495872,4,1,0,60,0,0
131536,465.116279069768,4,1,0,60,1,8
131536,-63.6598519683412,4,1,0,60,0,0
131691,-64.4812404727093,4,1,0,60,0,0
131846,-65.3241391379858,4,1,0,60,0,0
132001,437.956204379562,4,1,0,60,1,8
132001,-70.2941333327013,4,1,0,60,0,0
132146,-71.2376863709172,4,1,0,60,0,0
132219,-71.7190260053712,4,1,0,60,0,0
132292,638.297872340426,4,1,0,60,1,8
132292,-49.5434304088363,4,1,0,60,0,0
132504,434.782608695652,4,1,0,60,1,8
132504,-73.7371641029725,4,1,0,60,0,0
132576,-74.2492317181807,4,1,0,60,0,0
132648,645.161290322581,4,1,0,60,1,8
132648,-50.3874412260975,4,1,0,60,0,0
132863,437.956204379563,4,1,0,60,1,8
132863,-75.2795295150293,4,1,0,60,0,0
132935,-75.8172447341424,4,1,0,60,0,0
133008,512.820512820514,4,1,0,60,1,8
133008,-65.2148579579426,4,1,0,60,0,0
133520,535.714285714286,4,1,0,60,1,8
133520,-65.2441758621343,4,1,0,60,0,0
133609,-65.7384537860196,4,1,0,60,0,0
133698,674.157303370786,5,1,0,60,1,8
133698,-52.6373637656312,4,1,0,60,0,0
134372,384.615384615385,5,1,0,15,1,0
134372,-133.333333333333,5,1,0,15,0,0
147737,-133.333333333333,5,1,0,30,0,0
148314,-133.333333333333,5,1,0,15,0,0
155429,-133.333333333333,5,1,0,30,0,0
156006,-133.333333333333,5,1,0,10,0,0
161295,384.615384615385,3,1,0,10,1,0
163602,384.615384615385,5,1,0,10,1,0
165141,384.615384615385,3,1,0,10,1,0
167448,384.615384615385,5,1,0,10,1,0
168890,-100,5,1,0,25,0,0
168987,384.615384615385,3,1,0,25,1,0
171294,384.615384615385,5,1,0,25,1,0
172833,384.615384615385,3,1,0,25,1,0
175140,384.615384615385,5,1,0,25,1,0
176679,384.615384615385,3,1,0,25,1,0
178986,384.615384615385,5,1,0,25,1,0
180525,384.615384615385,3,1,0,25,1,0
182832,384.615384615385,5,1,0,25,1,0
184372,384.615384615385,3,1,0,25,1,0
186679,384.615384615385,5,1,0,25,1,0
188218,384.615384615385,3,1,0,25,1,0
190525,384.615384615385,5,1,0,25,1,0
192064,384.615384615385,4,1,0,25,1,0
192256,-100,4,1,0,20,0,0
199756,384.615384615385,5,1,0,20,1,0
203506,-100,5,1,0,15,0,0
203602,384.615384615385,5,1,0,15,1,8
203602,-114.285714285714,5,1,0,15,0,8
204082,-100,5,1,0,40,0,8
204179,338.983050847458,3,1,0,40,1,0
204179,-113.461538461538,3,1,0,40,0,0
208162,-100,3,1,0,60,0,0
214263,-80,3,1,0,30,0,0
215365,-100,3,1,0,30,0,0
216297,-90.9090909090909,3,1,0,70,0,0
232568,-83.3333333333333,3,1,0,80,0,0
232653,-83.3333333333333,3,1,0,80,0,1
251975,-83.3333333333333,3,1,0,80,0,0
252145,-100,3,1,0,50,0,0
252907,-100,3,1,0,80,0,0
252992,-83.3333333333333,3,1,0,80,0,1
256043,-83.3333333333333,3,1,0,80,0,0
256212,-100,3,1,0,50,0,0
256974,-100,3,1,0,80,0,0
257060,-83.3333333333333,3,1,0,80,0,1
260111,-83.3333333333333,3,1,0,80,0,0
260238,-100,3,1,0,50,0,0
261071,-100,3,1,0,80,0,0
261128,-83.3333333333333,3,1,0,80,0,1
265195,-83.3333333333333,3,1,0,60,0,0
265323,-114.285714285714,3,1,0,40,0,0
269179,-100,3,1,0,60,0,0
275280,-80,3,1,0,30,0,0
276382,338.983050847458,4,1,0,30,1,0
277314,-108.108108108108,4,1,0,20,0,0
277653,285.714285714286,4,1,0,20,1,0
277653,-133.333333333333,4,1,0,20,0,0
277795,-200,4,1,0,10,0,0
294724,-160,4,1,0,25,0,0
294938,-156.117300294749,4,1,0,25,0,0
295010,-154.245769038555,4,1,0,25,0,0
295081,-152.418577995635,4,1,0,25,0,0
295224,-148.891059389666,4,1,0,25,0,0
295295,-147.187829332768,4,1,0,25,0,0
295367,-145.523126535269,4,1,0,25,0,0
295438,-143.895658380195,4,1,0,25,0,0
295510,-142.304189435337,4,1,0,25,0,0
295581,-140.747538325555,4,1,0,25,0,0
295653,-139.224574808149,4,1,0,25,0,0
295867,-133.448632952204,4,1,0,40,0,0
313224,-130.626064602427,4,1,0,40,0,0
313295,-129.313243227865,4,1,0,40,0,0
313367,-128.026547584907,4,1,0,40,0,0
313438,-126.765205486398,4,1,0,40,0,0
313510,-125.528474879242,4,1,0,40,0,0
313653,-123.126021945982,4,1,0,40,0,0
313724,-121.958953494612,4,1,0,40,0,0
313795,-120.813801768714,4,1,0,40,0,0
313938,-118.586824529447,4,1,0,40,0,0
314010,-117.503842375646,4,1,0,40,0,0
314081,-116.440461663142,4,1,0,40,0,0
314224,-114.370413746409,4,1,0,40,0,0
331581,-113.13804198779,4,1,0,40,0,0
331653,-112.013316143023,4,1,0,40,0,0
331724,-110.910609376161,4,1,0,40,0,0
331795,-109.829401989889,4,1,0,40,0,0
331867,-108.769071297039,4,1,0,40,0,0
331938,-107.729134482588,4,1,0,40,0,0
332010,-106.708781065594,4,1,0,40,0,0
332081,-105.707574793395,4,1,0,40,0,0
332153,-104.724981725491,4,1,0,40,0,0
332224,-103.760595253783,4,1,0,40,0,0
332295,-102.813702599028,4,1,0,40,0,0
332367,-101.883935857949,4,1,0,40,0,0
332438,-100.970834574433,4,1,0,40,0,0
332510,-100.074054800552,4,1,0,40,0,0
351081,-133.333333333333,4,1,0,20,0,0
358724,-114.285714285714,4,1,0,25,0,0
358938,-112.013316143023,4,1,0,25,0,0
359010,-110.910609376161,4,1,0,25,0,0
359081,-109.829401989889,4,1,0,25,0,0
359224,-107.729134482588,4,1,0,25,0,0
359295,-106.708781065594,4,1,0,25,0,0
359367,-105.707574793395,4,1,0,25,0,0
359438,-104.724981725491,4,1,0,25,0,0
359510,-103.760595253783,4,1,0,25,0,0
359581,-102.813702599028,4,1,0,25,0,0
359653,-101.883935857949,4,1,0,25,0,0
359795,-80,4,1,0,25,0,0
359938,285.714285714286,4,1,0,45,1,8
360234,666.666666666667,666,1,0,45,1,9
360234,-15.015015015015,666,1,0,45,0,1
377567,-15.015015015015,666,1,0,45,0,0
377817,-10.01001001001,666,1,0,45,0,1
384275,-20,666,1,0,30,0,1
385025,-20,666,1,0,40,0,1
385525,-20,666,1,0,50,0,1
386067,-20,666,1,0,70,0,1
394400,-100,666,1,0,50,0,1
394872,-100,666,1,0,80,0,1
394900,666.666666666667,7,1,0,80,1,1
399234,666.666666666667,7,1,0,80,1,1
403567,666.666666666667,7,1,0,80,1,1
407900,666.666666666667,7,1,0,80,1,1
412234,666.666666666667,7,1,0,80,1,1
416567,666.666666666667,7,1,0,80,1,1
420900,666.666666666667,7,1,0,80,1,1
425234,666.666666666667,8,1,0,80,1,1
430067,923.076923076924,999,1,0,80,1,0
430067,-72.222222462963,999,1,0,80,0,0
430932,-72.222222462963,999,1,0,70,0,0
430990,1200,999,1,0,70,1,8
430990,-86.9565217391304,999,1,0,70,0,8
432115,-86.9565217391304,999,1,0,60,0,8
432190,1463.41463414634,999,1,0,60,1,8
432190,-82,999,1,0,60,0,8
433561,-82,999,1,0,50,0,8
433653,1621.62162162162,999,1,0,50,1,8
433653,-87.0588235294118,999,1,0,50,0,8
435173,-87.0588235294118,999,1,0,40,0,8
435274,1967.2131147541,999,1,0,40,1,8
435274,-87.1428571428572,999,1,0,40,0,8
437118,-87.1428571428572,999,1,0,30,0,8
437241,2400,999,1,0,30,1,8
437241,-90.9090909090909,999,1,0,30,0,8
439491,-90.9090909090909,999,1,0,20,0,8
439641,3737.73555520947,999,1,0,20,1,8
439641,-80.2625,999,1,0,20,0,8
440575,-80.2625,999,1,0,25,0,8
441509,-80.2625,999,1,0,30,0,8
442444,-80.2625,999,1,0,35,0,8
443378,-80.2625,999,1,0,40,0,8
444313,-80.2625,999,1,0,45,0,8
445247,-80.2625,999,1,0,50,0,8
446182,-80.2625,999,1,0,55,0,8
447116,246.913580246914,4,1,0,55,1,0
447116,-133.333333333333,4,1,0,55,0,0
449091,246.913580246914,7,1,0,55,1,0
449091,-133.333333333333,4,1,0,55,0,0
450572,246.913580246914,4,1,0,55,1,0
450572,-133.333333333333,4,1,0,55,0,0
451992,246.913580246914,4,1,0,55,1,8
451992,-133.333333333333,4,1,0,55,0,0
452486,246.913580246914,5,1,0,55,1,0
452486,-133.333333333333,4,1,0,55,0,0
453551,246.913580246914,5,1,0,55,1,0
453551,-133.333333333333,4,1,0,55,0,0
454476,-133.333333333333,4,1,0,60,0,0
454538,246.913580246914,4,1,0,60,1,0
454538,-114.285714285714,4,1,0,60,0,0
456512,246.913580246914,7,1,0,60,1,0
456512,-114.285714285714,4,1,0,60,0,0
458118,246.913580246914,5,1,0,60,1,0
458118,-114.285714285714,4,1,0,60,0,0
458551,246.913580246914,3,1,0,60,1,8
458551,-114.285714285714,4,1,0,60,0,0
459723,246.913580246914,4,1,0,60,1,8
459723,-114.285714285714,4,1,0,60,0,0
460217,246.913580246914,6,1,0,60,1,0
460217,-114.285714285714,4,1,0,60,0,0
461620,246.913580246914,4,1,0,60,1,0
461620,-114.285714285714,4,1,0,60,0,0
462576,-103.430050773812,4,1,0,65,0,0
462607,246.913580246914,4,1,0,65,1,0
464582,246.913580246914,8,1,0,65,1,0
466311,246.913580246914,3,1,0,65,1,0
467484,246.913580246914,4,1,0,65,1,8
467978,246.913580246914,5,1,0,65,1,0
469042,246.913580246914,4,1,0,65,1,0
470029,246.913580246914,4,1,0,65,1,0
472992,246.913580246914,5,1,0,65,1,0
474042,246.913580246914,3,1,0,65,1,0
475214,246.913580246914,4,1,0,65,1,8
475708,246.913580246914,7,1,0,65,1,0
477282,246.913580246914,8,1,0,65,1,0
478948,-100,8,1,0,80,0,0
479020,246.913580246914,5,1,0,80,1,0
479020,-114.285714285714,5,1,0,80,0,0
480007,246.913580246914,7,1,0,80,1,0
480007,-114.285714285714,5,1,0,80,0,0
481489,246.913580246914,5,1,0,80,1,0
481489,-114.285714285714,5,1,0,80,0,0
482476,246.913580246914,7,1,0,80,1,0
482476,-114.285714285714,5,1,0,80,0,0
483958,246.913580246914,5,1,0,80,1,0
483958,-114.285714285714,5,1,0,80,0,0
484945,246.913580246914,7,1,0,80,1,0
484945,-114.285714285714,5,1,0,80,0,0
486427,246.913580246914,5,1,0,80,1,0
486427,-114.285714285714,5,1,0,80,0,0
487415,246.913580246914,7,1,0,80,1,0
487415,-114.285714285714,5,1,0,80,0,0
488896,246.913580246914,5,1,0,80,1,0
488896,-114.285714285714,5,1,0,80,0,0
489884,246.913580246914,7,1,0,80,1,0
489884,-114.285714285714,5,1,0,80,0,0
491365,246.913580246914,5,1,0,80,1,0
491365,-114.285714285714,5,1,0,80,0,0
492353,246.913580246914,7,1,0,80,1,0
492353,-114.285714285714,5,1,0,80,0,0
493834,246.913580246914,5,1,0,80,1,0
493834,-114.285714285714,5,1,0,80,0,0
494822,246.913580246914,7,1,0,80,1,0
494822,-114.285714285714,5,1,0,80,0,0
496303,246.913580246914,5,1,0,80,1,0
496303,-114.285714285714,5,1,0,80,0,0
497291,246.913580246914,7,1,0,80,1,0
497291,-114.285714285714,5,1,0,80,0,0
498772,243.902439024391,6,1,0,80,1,0
498772,-115.696649030341,5,1,0,80,0,0
498893,-133.333333333333,5,1,0,50,0,0
500116,246.913580246914,4,1,0,50,1,8
500116,-133.333333333333,4,1,0,50,0,0
500198,-128.60313843099,4,1,0,50,0,0
500280,-124.197065968514,4,1,0,50,0,0
500362,-120.082761038908,4,1,0,50,0,0
500445,-116.232441636785,4,1,0,50,0,0
500527,-112.621363596946,4,1,0,50,0,0
500609,-109.227900738053,4,1,0,50,0,0
500692,-106.032957163746,4,1,0,50,0,0
500774,-103.019501591651,4,1,0,50,0,0
500815,-103.019501591651,4,1,0,60,0,0
500857,246.913580246914,4,1,0,60,1,1
502585,246.913580246914,4,1,0,60,1,1
503572,246.913580246914,6,1,0,60,1,1
504868,246.913580246914,6,1,0,60,1,1
506287,246.913580246914,4,1,0,60,1,1
507858,246.913580246914,4,1,0,60,1,9
508351,246.913580246914,4,1,0,60,1,1
509215,246.913580246914,4,1,0,60,1,1
510943,246.913580246914,4,1,0,60,1,1
511930,246.913580246914,6,1,0,60,1,1
513226,246.913580246914,6,1,0,60,1,1
514645,246.913580246914,4,1,0,60,1,1
516216,246.913580246914,4,1,0,60,1,9
516709,246.913580246914,4,1,0,60,1,1
517573,246.913580246914,4,1,0,60,1,1
519301,246.913580246914,4,1,0,60,1,1
520288,246.913580246914,6,1,0,60,1,1
521584,246.913580246914,6,1,0,60,1,1
523003,246.913580246914,4,1,0,60,1,1
524574,246.913580246914,4,1,0,60,1,9
525067,246.913580246914,4,1,0,60,1,1
525931,246.913580246914,4,1,0,60,1,1
527659,246.913580246914,4,1,0,60,1,1
528646,246.913580246914,6,1,0,60,1,1
529942,246.913580246914,6,1,0,60,1,1
531361,246.913580246914,4,1,0,60,1,1
532932,246.913580246914,4,1,0,60,1,9
533425,246.913580246914,4,1,0,60,1,1
534227,-100,4,1,0,40,0,1
534289,363.636363636363,4,1,0,40,1,0
534289,-67.9012345682365,4,1,0,40,0,0
535198,434.782608695652,4,1,0,40,1,8
535198,-56.7901416857245,4,1,0,40,0,8
535270,-57.831347597628,4,1,0,40,0,8
535342,-58.9114460815935,4,1,0,40,0,8
535415,413.793103448276,4,1,0,40,1,0
535415,-63.0777925800331,4,1,0,40,0,8
535483,472.440944881889,4,1,0,40,1,8
535483,-56.3192894666201,4,1,0,40,0,8
535561,512.820512820512,4,1,0,40,1,8
535561,-52.911251686207,4,1,0,40,0,8
535646,582.52427184466,4,1,0,40,1,8
535646,-47.5201898061571,4,1,0,40,0,8
535743,526.777875329236,4,1,0,40,1,8
535743,-53.631557565623,4,1,0,40,0,8
535830,600,4,1,0,40,1,8
535830,-48.0769350961568,4,1,0,40,0,8
535930,659.340659340659,4,1,0,40,1,8
535930,-44.6900083464238,4,1,0,40,0,8
536039,638.297872340425,4,1,0,40,1,8
536039,-47.1769323671497,4,1,0,40,0,8
536145,612.244897959184,4,1,0,40,1,8
536145,-50.2886708255808,4,1,0,40,0,8
536247,749.999999999999,4,1,0,40,1,8
536247,-41.9947744642291,4,1,0,40,0,8
536372,875.912408759124,4,1,0,40,1,8
536372,-36.8032204762846,4,1,0,40,0,8
536517,1010.10101010101,4,1,0,40,1,8
536517,-32.6822554863025,4,1,0,40,0,8
536685,1104.97237569061,4,1,0,40,1,8
536685,-30.6131098934873,4,1,0,40,0,8
536869,1276.59574468085,4,1,0,40,1,8
536869,-27.1676341408005,4,1,0,40,0,8
537081,1377.72675086108,4,1,0,40,1,8
537081,-25.8265443028126,4,1,0,40,0,8
537310,1485.14851485149,4,1,0,40,1,8
537310,-24.5966595325395,4,1,0,40,0,8
537557,1744.18604651163,4,1,0,40,1,8
537557,-21.5168191596166,4,1,0,40,0,8
537847,1967.2131147541,4,1,0,40,1,8
537847,-19.6141582531252,4,1,0,40,0,8
538174,2105.26315789474,4,1,0,40,1,8
538174,-18.8585555529573,4,1,0,40,0,8
538524,-19.4207799401578,4,1,0,40,0,8
538875,-20.0175572941471,4,1,0,40,0,8
539226,1348.31460674157,4,1,0,40,1,8
539226,-32.2463768115942,4,1,0,40,0,8
540405,-32.2463768115942,4,1,0,30,0,8
540574,551.977920883165,4,1,0,30,1,0
542781,-100,4,1,0,26,0,0
544989,-100,4,1,0,22,0,0
547197,-100,4,1,0,18,0,0
548715,-100,4,1,0,20,0,0
548853,500,4,1,0,20,1,8
548853,-66.6666666666667,4,1,0,20,0,8
549353,546.946216955333,4,1,0,20,1,0

[HitObjects]
256,192,3315,5,0,0:0:0:0:
256,192,3523,1,8,0:0:0:0:
256,192,3627,1,8,0:0:0:0:
256,192,3835,1,0,0:0:0:0:
256,192,4044,1,8,0:0:0:0:
256,192,4148,1,0,0:0:0:0:
256,192,4356,1,0,0:0:0:0:
256,192,4460,1,0,0:0:0:0:
256,192,4565,1,8,0:0:0:0:
256,192,4773,1,0,0:0:0:0:
256,192,4981,1,0,0:0:0:0:
256,192,5190,1,8,0:0:0:0:
256,192,5294,1,8,0:0:0:0:
256,192,5502,1,0,0:0:0:0:
256,192,5710,1,8,0:0:0:0:
256,192,5815,1,8,0:0:0:0:
256,192,5867,1,0,0:0:0:0:
256,192,5919,1,8,0:0:0:0:
256,192,5971,1,0,0:0:0:0:
256,192,6023,1,8,0:0:0:0:
256,192,6075,1,0,0:0:0:0:
256,192,6127,1,8,0:0:0:0:
256,192,6179,1,0,0:0:0:0:
256,192,6231,1,8,0:0:0:0:
256,192,6440,1,0,0:0:0:0:
256,192,6648,1,0,0:0:0:0:
256,192,6856,1,8,0:0:0:0:
256,192,6960,1,8,0:0:0:0:
256,192,7169,1,0,0:0:0:0:
256,192,7377,1,8,0:0:0:0:
256,192,7481,1,0,0:0:0:0:
256,192,7690,1,0,0:0:0:0:
256,192,7794,1,0,0:0:0:0:
256,192,7898,1,8,0:0:0:0:
256,192,8106,1,0,0:0:0:0:
256,192,8315,1,8,0:0:0:0:
256,192,8523,1,8,0:0:0:0:
256,192,8627,1,8,0:0:0:0:
256,192,8835,1,8,0:0:0:0:
256,192,8940,1,8,0:0:0:0:
256,192,9148,1,8,0:0:0:0:
256,192,9252,1,8,0:0:0:0:
256,192,9460,1,8,0:0:0:0:
256,192,9565,1,0,0:0:0:0:
256,192,9669,1,0,0:0:0:0:
256,192,9773,1,8,0:0:0:0:
256,192,9981,1,0,0:0:0:0:
256,192,10190,1,8,0:0:0:0:
256,192,10294,1,8,0:0:0:0:
256,192,10398,1,0,0:0:0:0:
256,192,10502,1,0,0:0:0:0:
256,192,10710,1,8,0:0:0:0:
256,192,10815,1,0,0:0:0:0:
256,192,11023,1,0,0:0:0:0:
256,192,11127,1,0,0:0:0:0:
256,192,11231,1,8,0:0:0:0:
256,192,11440,1,0,0:0:0:0:
256,192,11648,1,0,0:0:0:0:
256,192,11856,1,8,0:0:0:0:
256,192,11960,1,8,0:0:0:0:
256,192,12065,1,0,0:0:0:0:
256,192,12169,1,0,0:0:0:0:
256,192,12377,1,8,0:0:0:0:
256,192,12481,1,8,0:0:0:0:
256,192,12533,1,0,0:0:0:0:
256,192,12585,1,8,0:0:0:0:
256,192,12637,1,0,0:0:0:0:
256,192,12690,1,8,0:0:0:0:
256,192,12742,1,0,0:0:0:0:
256,192,12794,1,8,0:0:0:0:
256,192,12846,1,0,0:0:0:0:
256,192,12898,1,8,0:0:0:0:
256,192,13106,1,0,0:0:0:0:
256,192,13315,1,0,0:0:0:0:
256,192,13523,1,8,0:0:0:0:
256,192,13627,1,8,0:0:0:0:
256,192,13731,1,0,0:0:0:0:
256,192,13835,1,0,0:0:0:0:
256,192,14044,1,8,0:0:0:0:
256,192,14148,1,0,0:0:0:0:
256,192,14356,1,0,0:0:0:0:
256,192,14460,1,0,0:0:0:0:
256,192,14565,1,8,0:0:0:0:
256,192,14773,1,0,0:0:0:0:
256,192,14981,1,8,0:0:0:0:
256,192,15085,1,8,0:0:0:0:
256,192,15294,1,0,0:0:0:0:
256,192,15502,1,8,0:0:0:0:
256,192,15606,1,8,0:0:0:0:
256,192,15710,1,0,0:0:0:0:
256,192,15919,1,8,0:0:0:0:
256,192,16005,1,0,0:0:0:0:
256,192,16092,1,8,0:0:0:0:
256,192,16179,1,0,0:0:0:0:
256,192,16266,1,8,0:0:0:0:
256,192,16353,1,0,0:0:0:0:
256,192,16440,1,8,0:0:0:0:
256,192,16648,1,0,0:0:0:0:
256,192,16700,1,0,0:0:0:0:
256,192,16752,1,0,0:0:0:0:
256,192,16856,1,8,0:0:0:0:
256,192,16960,1,8,0:0:0:0:
256,192,17065,1,0,0:0:0:0:
256,192,17169,1,0,0:0:0:0:
256,192,17377,1,8,0:0:0:0:
256,192,17481,1,0,0:0:0:0:
256,192,17690,1,0,0:0:0:0:
256,192,17794,1,0,0:0:0:0:
256,192,17898,1,8,0:0:0:0:
256,192,18106,1,0,0:0:0:0:
256,192,18315,1,0,0:0:0:0:
256,192,18523,1,8,0:0:0:0:
256,192,18627,1,8,0:0:0:0:
256,192,18731,1,0,0:0:0:0:
256,192,18835,1,0,0:0:0:0:
256,192,19044,1,8,0:0:0:0:
256,192,19148,1,8,0:0:0:0:
256,192,19200,1,0,0:0:0:0:
256,192,19252,1,8,0:0:0:0:
256,192,19304,1,0,0:0:0:0:
256,192,19356,1,8,0:0:0:0:
256,192,19408,1,0,0:0:0:0:
256,192,19460,1,8,0:0:0:0:
256,192,19512,1,0,0:0:0:0:
256,192,19565,1,8,0:0:0:0:
256,192,19773,1,0,0:0:0:0:
256,192,19981,1,0,0:0:0:0:
256,192,20190,1,8,0:0:0:0:
256,192,20294,1,8,0:0:0:0:
256,192,20398,1,0,0:0:0:0:
256,192,20502,1,0,0:0:0:0:
256,192,20710,1,8,0:0:0:0:
256,192,20815,1,0,0:0:0:0:
256,192,21023,1,0,0:0:0:0:
256,192,21127,1,0,0:0:0:0:
256,192,21231,1,8,0:0:0:0:
256,192,21440,1,0,0:0:0:0:
256,192,21648,1,8,0:0:0:0:
256,192,21752,1,8,0:0:0:0:
256,192,21960,1,0,0:0:0:0:
256,192,22169,1,8,0:0:0:0:
256,192,22273,1,0,0:0:0:0:
256,192,22325,1,0,0:0:0:0:
256,192,22377,1,0,0:0:0:0:
256,192,22481,1,8,0:0:0:0:
256,192,22585,1,8,0:0:0:0:
256,192,22690,1,0,0:0:0:0:
256,192,22742,1,0,0:0:0:0:
256,192,22794,1,0,0:0:0:0:
256,192,22898,1,8,0:0:0:0:
256,192,23065,1,0,0:0:0:0:
256,192,23148,1,8,0:0:0:0:
256,192,23231,1,8,0:0:0:0:
256,192,23315,1,0,0:0:0:0:
256,192,23523,1,8,0:0:0:0:
256,192,23627,1,8,0:0:0:0:
256,192,23731,1,0,0:0:0:0:
256,192,23835,1,0,0:0:0:0:
256,192,24044,1,8,0:0:0:0:
256,192,24148,1,0,0:0:0:0:
256,192,24356,1,0,0:0:0:0:
256,192,24460,1,0,0:0:0:0:
256,192,24565,1,8,0:0:0:0:
256,192,24773,1,0,0:0:0:0:
256,192,24981,1,0,0:0:0:0:
256,192,25190,1,8,0:0:0:0:
256,192,25294,1,8,0:0:0:0:
256,192,25398,1,0,0:0:0:0:
256,192,25502,1,0,0:0:0:0:
256,192,25710,1,8,0:0:0:0:
256,192,25815,1,8,0:0:0:0:
256,192,25867,1,0,0:0:0:0:
256,192,25919,1,8,0:0:0:0:
256,192,25971,1,0,0:0:0:0:
256,192,26023,1,8,0:0:0:0:
256,192,26075,1,0,0:0:0:0:
256,192,26127,1,8,0:0:0:0:
256,192,26179,1,0,0:0:0:0:
256,192,26231,1,8,0:0:0:0:
256,192,26440,1,0,0:0:0:0:
256,192,26648,1,0,0:0:0:0:
256,192,26856,1,8,0:0:0:0:
256,192,26960,1,8,0:0:0:0:
256,192,27065,1,0,0:0:0:0:
256,192,27169,1,0,0:0:0:0:
256,192,27377,1,8,0:0:0:0:
256,192,27481,1,0,0:0:0:0:
256,192,27690,1,0,0:0:0:0:
256,192,27794,1,0,0:0:0:0:
256,192,27898,1,8,0:0:0:0:
256,192,28106,1,0,0:0:0:0:
256,192,28315,1,8,0:0:0:0:
256,192,28419,1,8,0:0:0:0:
256,192,28627,1,0,0:0:0:0:
256,192,28679,1,0,0:0:0:0:
256,192,28731,1,0,0:0:0:0:
256,192,28835,1,8,0:0:0:0:
256,192,28940,1,8,0:0:0:0:
256,192,29044,1,0,0:0:0:0:
256,192,29113,1,0,0:0:0:0:
256,192,29183,1,0,0:0:0:0:
256,192,29252,1,8,0:0:0:0:
256,192,29460,1,0,0:0:0:0:
256,192,29512,1,0,0:0:0:0:
256,192,29565,1,8,0:0:0:0:
256,192,29669,1,8,0:0:0:0:
256,192,29773,1,8,0:0:0:0:
256,192,29877,1,8,0:0:0:0:
256,192,29981,1,0,0:0:0:0:
256,192,30345,1,0,0:0:0:0:
256,192,30710,1,0,0:0:0:0:
256,192,31074,1,0,0:0:0:0:
256,192,31439,1,0,0:0:0:0:
256,192,31803,1,0,0:0:0:0:
256,192,32168,1,0,0:0:0:0:
256,192,32533,1,0,0:0:0:0:
256,192,32897,1,0,0:0:0:0:
256,192,33262,1,0,0:0:0:0:
256,192,33626,1,0,0:0:0:0:
256,192,33991,1,0,0:0:0:0:
256,192,34356,1,0,0:0:0:0:
256,192,34720,1,0,0:0:0:0:
256,192,35085,1,8,0:0:0:0:
256,192,35449,1,8,0:0:0:0:
256,192,35814,1,0,0:0:0:0:
256,192,35935,1,8,0:0:0:0:
256,192,36057,1,0,0:0:0:0:
256,192,36178,1,0,0:0:0:0:
256,192,36300,1,8,0:0:0:0:
256,192,36421,1,0,0:0:0:0:
256,192,36543,1,0,0:0:0:0:
256,192,36665,1,8,0:0:0:0:
256,192,36786,1,8,0:0:0:0:
256,192,36908,1,0,0:0:0:0:
256,192,37029,1,8,0:0:0:0:
256,192,37273,1,0,0:0:0:0:
256,192,37394,1,8,0:0:0:0:
256,192,37515,1,0,0:0:0:0:
256,192,37637,1,0,0:0:0:0:
256,192,37758,1,8,0:0:0:0:
256,192,37880,1,0,0:0:0:0:
256,192,38001,1,0,0:0:0:0:
256,192,38123,1,8,0:0:0:0:
256,192,38244,1,8,0:0:0:0:
256,192,38366,1,0,0:0:0:0:
256,192,38487,1,8,0:0:0:0:
256,192,38548,1,8,0:0:0:0:
256,192,38609,1,8,0:0:0:0:
256,192,38670,1,8,0:0:0:0:
256,192,38731,1,0,0:0:0:0:
256,192,38852,1,8,0:0:0:0:
256,192,38974,1,0,0:0:0:0:
256,192,39095,1,0,0:0:0:0:
256,192,39217,1,8,0:0:0:0:
256,192,39338,1,0,0:0:0:0:
256,192,39460,1,0,0:0:0:0:
256,192,39582,1,8,0:0:0:0:
256,192,39703,1,8,0:0:0:0:
256,192,39825,1,0,0:0:0:0:
256,192,39946,1,8,0:0:0:0:
256,192,40190,1,0,0:0:0:0:
256,192,40554,1,0,0:0:0:0:
256,192,40919,1,8,0:0:0:0:
256,192,41283,1,8,0:0:0:0:
256,192,41648,1,0,0:0:0:0:
256,192,41768,1,8,0:0:0:0:
256,192,41890,1,8,0:0:0:0:
256,192,42011,1,0,0:0:0:0:
256,192,42133,1,8,0:0:0:0:
256,192,42254,1,0,0:0:0:0:
256,192,42376,1,0,0:0:0:0:
256,192,42498,1,8,0:0:0:0:
256,192,42619,1,8,0:0:0:0:
256,192,42741,1,0,0:0:0:0:
256,192,42862,1,8,0:0:0:0:
256,192,43106,1,0,0:0:0:0:
256,192,43227,1,8,0:0:0:0:
256,192,43348,1,8,0:0:0:0:
256,192,43470,1,0,0:0:0:0:
256,192,43591,1,8,0:0:0:0:
256,192,43713,1,0,0:0:0:0:
256,192,43834,1,0,0:0:0:0:
256,192,43956,1,8,0:0:0:0:
256,192,44077,1,8,0:0:0:0:
256,192,44199,1,0,0:0:0:0:
256,192,44320,1,8,0:0:0:0:
256,192,44381,1,8,0:0:0:0:
256,192,44442,1,8,0:0:0:0:
256,192,44503,1,8,0:0:0:0:
256,192,44565,1,0,0:0:0:0:
256,192,44685,1,8,0:0:0:0:
256,192,44807,1,8,0:0:0:0:
256,192,44928,1,0,0:0:0:0:
256,192,45050,1,8,0:0:0:0:
256,192,45171,1,0,0:0:0:0:
256,192,45293,1,0,0:0:0:0:
256,192,45415,1,8,0:0:0:0:
256,192,45536,1,8,0:0:0:0:
256,192,45658,1,0,0:0:0:0:
256,192,45779,1,8,0:0:0:0:
256,192,46023,1,8,0:0:0:0:
256,192,46144,1,0,0:0:0:0:
256,192,46184,1,0,0:0:0:0:
256,192,46225,1,0,0:0:0:0:
256,192,46265,1,0,0:0:0:0:
256,192,46387,1,8,0:0:0:0:
256,192,46508,1,0,0:0:0:0:
256,192,46630,1,8,0:0:0:0:
256,192,46691,1,8,0:0:0:0:
256,192,46751,1,8,0:0:0:0:
256,192,46812,1,8,0:0:0:0:
256,192,46873,1,0,0:0:0:0:
256,192,46994,1,8,0:0:0:0:
256,192,47116,1,0,0:0:0:0:
256,192,47237,1,8,0:0:0:0:
256,192,47481,1,0,0:0:0:0:
256,192,47602,1,8,0:0:0:0:
256,192,47724,1,0,0:0:0:0:
256,192,47845,1,0,0:0:0:0:
256,192,47967,1,8,0:0:0:0:
256,192,48088,1,0,0:0:0:0:
256,192,48210,1,0,0:0:0:0:
256,192,48332,1,8,0:0:0:0:
256,192,48453,1,8,0:0:0:0:
256,192,48575,1,0,0:0:0:0:
256,192,48696,1,8,0:0:0:0:
256,192,48940,1,0,0:0:0:0:
256,192,49061,1,8,0:0:0:0:
256,192,49182,1,0,0:0:0:0:
256,192,49304,1,0,0:0:0:0:
256,192,49425,1,8,0:0:0:0:
256,192,49547,1,0,0:0:0:0:
256,192,49668,1,0,0:0:0:0:
256,192,49790,1,8,0:0:0:0:
256,192,49911,1,8,0:0:0:0:
256,192,50033,1,0,0:0:0:0:
256,192,50154,1,8,0:0:0:0:
256,192,50215,1,8,0:0:0:0:
256,192,50276,1,8,0:0:0:0:
256,192,50337,1,8,0:0:0:0:
256,192,50398,1,0,0:0:0:0:
256,192,50519,1,8,0:0:0:0:
256,192,50641,1,0,0:0:0:0:
256,192,50762,1,0,0:0:0:0:
256,192,50884,1,8,0:0:0:0:
256,192,51005,1,0,0:0:0:0:
256,192,51127,1,0,0:0:0:0:
256,192,51249,1,8,0:0:0:0:
256,192,51370,1,8,0:0:0:0:
256,192,51492,1,0,0:0:0:0:
256,192,51613,1,8,0:0:0:0:
256,192,51856,1,8,0:0:0:0:
256,192,51977,1,0,0:0:0:0:
256,192,52099,1,0,0:0:0:0:
256,192,52220,1,8,0:0:0:0:
256,192,52281,1,8,0:0:0:0:
256,192,52342,1,0,0:0:0:0:
256,192,52463,1,8,0:0:0:0:
256,192,52585,1,0,0:0:0:0:
256,192,52625,1,0,0:0:0:0:
256,192,52666,1,0,0:0:0:0:
256,192,52706,1,0,0:0:0:0:
256,192,52828,1,8,0:0:0:0:
256,192,52949,1,0,0:0:0:0:
256,192,53010,1,8,0:0:0:0:
256,192,53071,1,0,0:0:0:0:
256,192,53192,1,8,0:0:0:0:
256,192,53315,1,0,0:0:0:0:
256,192,53375,1,0,0:0:0:0:
256,192,53435,1,8,0:0:0:0:
256,192,53557,1,8,0:0:0:0:
256,192,53678,1,0,0:0:0:0:
256,192,53800,1,8,0:0:0:0:
256,192,53921,1,0,0:0:0:0:
256,192,54043,1,0,0:0:0:0:
256,192,54165,1,8,0:0:0:0:
256,192,54286,1,8,0:0:0:0:
256,192,54408,1,0,0:0:0:0:
256,192,54529,1,8,0:0:0:0:
256,192,54773,1,0,0:0:0:0:
256,192,54894,1,8,0:0:0:0:
256,192,55015,1,8,0:0:0:0:
256,192,55137,1,0,0:0:0:0:
256,192,55258,1,8,0:0:0:0:
256,192,55380,1,0,0:0:0:0:
256,192,55501,1,0,0:0:0:0:
256,192,55623,1,8,0:0:0:0:
256,192,55744,1,8,0:0:0:0:
256,192,55866,1,0,0:0:0:0:
256,192,55987,1,8,0:0:0:0:
256,192,56048,1,8,0:0:0:0:
256,192,56109,1,8,0:0:0:0:
256,192,56170,1,8,0:0:0:0:
256,192,56231,1,0,0:0:0:0:
256,192,56352,1,8,0:0:0:0:
256,192,56474,1,8,0:0:0:0:
256,192,56595,1,0,0:0:0:0:
256,192,56717,1,8,0:0:0:0:
256,192,56838,1,0,0:0:0:0:
256,192,56960,1,0,0:0:0:0:
256,192,57082,1,8,0:0:0:0:
256,192,57203,1,8,0:0:0:0:
256,192,57325,1,0,0:0:0:0:
256,192,57446,1,8,0:0:0:0:
256,192,57690,1,8,0:0:0:0:
256,192,57811,1,0,0:0:0:0:
256,192,57851,1,0,0:0:0:0:
256,192,57892,1,0,0:0:0:0:
256,192,57932,1,0,0:0:0:0:
256,192,58054,1,8,0:0:0:0:
256,192,58175,1,0,0:0:0:0:
256,192,58297,1,8,0:0:0:0:
256,192,58358,1,8,0:0:0:0:
256,192,58418,1,8,0:0:0:0:
256,192,58479,1,8,0:0:0:0:
256,192,58540,1,0,0:0:0:0:
256,192,58661,1,8,0:0:0:0:
256,192,58783,1,0,0:0:0:0:
256,192,58904,1,8,0:0:0:0:
256,192,59148,1,0,0:0:0:0:
256,192,59268,1,8,0:0:0:0:
256,192,59390,1,0,0:0:0:0:
256,192,59511,1,0,0:0:0:0:
256,192,59633,1,8,0:0:0:0:
256,192,59754,1,0,0:0:0:0:
256,192,59876,1,0,0:0:0:0:
256,192,59998,1,8,0:0:0:0:
256,192,60119,1,8,0:0:0:0:
256,192,60241,1,0,0:0:0:0:
256,192,60362,1,8,0:0:0:0:
256,192,60606,1,0,0:0:0:0:
256,192,60727,1,8,0:0:0:0:
256,192,60848,1,0,0:0:0:0:
256,192,60970,1,0,0:0:0:0:
256,192,61091,1,8,0:0:0:0:
256,192,61213,1,0,0:0:0:0:
256,192,61334,1,0,0:0:0:0:
256,192,61456,1,8,0:0:0:0:
256,192,61577,1,8,0:0:0:0:
256,192,61699,1,0,0:0:0:0:
256,192,61820,1,8,0:0:0:0:
256,192,61881,1,8,0:0:0:0:
256,192,61942,1,8,0:0:0:0:
256,192,62003,1,8,0:0:0:0:
256,192,62065,1,0,0:0:0:0:
256,192,62185,1,8,0:0:0:0:
256,192,62307,1,8,0:0:0:0:
256,192,62428,1,0,0:0:0:0:
256,192,62550,1,8,0:0:0:0:
256,192,62671,1,0,0:0:0:0:
256,192,62793,1,0,0:0:0:0:
256,192,62915,1,8,0:0:0:0:
256,192,63036,1,8,0:0:0:0:
256,192,63158,1,0,0:0:0:0:
256,192,63279,1,8,0:0:0:0:
256,192,63523,1,8,0:0:0:0:
256,192,63644,1,0,0:0:0:0:
256,192,63705,1,8,0:0:0:0:
256,192,63765,1,0,0:0:0:0:
256,192,63887,1,8,0:0:0:0:
256,192,63948,1,8,0:0:0:0:
256,192,64008,1,0,0:0:0:0:
256,192,64130,1,8,0:0:0:0:
256,192,64251,1,0,0:0:0:0:
256,192,64292,1,0,0:0:0:0:
256,192,64332,1,0,0:0:0:0:
256,192,64373,1,0,0:0:0:0:
256,192,64494,1,8,0:0:0:0:
256,192,64616,1,0,0:0:0:0:
256,192,64677,1,0,0:0:0:0:
256,192,64738,1,8,0:0:0:0:
256,192,64859,1,0,0:0:0:0:
256,192,64981,1,8,0:0:0:0:
256,192,65085,1,8,0:0:0:0:
256,192,65189,1,8,0:0:0:0:
256,192,65293,1,8,0:0:0:0:
256,192,67751,1,0,0:0:0:0:
256,192,67818,1,0,0:0:0:0:
256,192,67886,1,0,0:0:0:0:
256,192,68021,1,12,0:0:0:0:
256,192,68156,1,12,0:0:0:0:
256,192,68291,1,12,0:0:0:0:
256,192,68426,1,12,0:0:0:0:
256,192,68562,1,0,0:0:0:0:
256,192,68967,1,0,0:0:0:0:
256,192,69372,1,0,0:0:0:0:
256,192,69778,1,0,0:0:0:0:
256,192,70183,1,0,0:0:0:0:
256,192,70453,1,8,0:0:0:0:
256,192,70724,1,0,0:0:0:0:
256,192,71129,1,0,0:0:0:0:
256,192,71534,1,0,0:0:0:0:
256,192,71805,1,8,0:0:0:0:
256,192,71940,1,0,0:0:0:0:
256,192,72075,1,0,0:0:0:0:
256,192,72345,1,0,0:0:0:0:
256,192,72480,1,8,0:0:0:0:
256,192,72548,1,8,0:0:0:0:
256,192,72616,1,8,0:0:0:0:
256,192,72886,1,0,0:0:0:0:
256,192,73021,1,0,0:0:0:0:
256,192,73291,1,0,0:0:0:0:
256,192,73562,1,8,0:0:0:0:
256,192,73697,1,0,0:0:0:0:
256,192,73967,1,8,0:0:0:0:
256,192,74102,1,0,0:0:0:0:
256,192,74237,1,0,0:0:0:0:
256,192,74507,1,0,0:0:0:0:
256,192,74778,1,8,0:0:0:0:
256,192,75048,1,8,0:0:0:0:
256,192,75116,1,8,0:0:0:0:
256,192,75183,1,8,0:0:0:0:
256,192,75251,1,8,0:0:0:0:
256,192,75318,1,0,0:0:0:0:
256,192,75453,1,0,0:0:0:0:
256,192,75589,1,8,0:0:0:0:
256,192,75724,1,0,0:0:0:0:
256,192,75994,1,8,0:0:0:0:
256,192,76264,1,0,0:0:0:0:
256,192,76399,1,0,0:0:0:0:
256,192,76534,1,8,0:0:0:0:
256,192,76670,1,0,0:0:0:0:
256,192,76805,1,8,0:0:0:0:
256,192,76872,1,8,0:0:0:0:
256,192,76940,1,0,0:0:0:0:
256,192,77007,1,8,0:0:0:0:
256,192,77075,1,8,0:0:0:0:
256,192,77210,1,4,0:0:0:0:
256,192,77616,1,0,0:0:0:0:
256,192,77751,1,8,0:0:0:0:
256,192,78156,1,0,0:0:0:0:
256,192,78426,1,8,0:0:0:0:
256,192,78562,1,0,0:0:0:0:
256,192,78832,1,8,0:0:0:0:
256,192,79372,1,0,0:0:0:0:
256,192,79778,1,0,0:0:0:0:
256,192,79913,1,8,0:0:0:0:
256,192,80318,1,0,0:0:0:0:
256,192,80589,1,8,0:0:0:0:
256,192,80724,1,0,0:0:0:0:
256,192,80859,1,0,0:0:0:0:
256,192,80994,1,8,0:0:0:0:
256,192,81264,1,0,0:0:0:0:
256,192,81399,1,8,0:0:0:0:
256,192,81534,1,0,0:0:0:0:
256,192,81940,1,0,0:0:0:0:
256,192,82075,1,8,0:0:0:0:
256,192,82480,1,0,0:0:0:0:
256,192,82751,1,8,0:0:0:0:
256,192,82886,1,0,0:0:0:0:
256,192,83156,1,8,0:0:0:0:
256,192,83697,1,0,0:0:0:0:
256,192,84102,1,0,0:0:0:0:
256,192,84237,1,8,0:0:0:0:
256,192,84507,1,8,0:0:0:0:
256,192,84643,1,0,0:0:0:0:
256,192,84710,1,0,0:0:0:0:
256,192,84778,1,8,0:0:0:0:
256,192,85048,1,0,0:0:0:0:
256,192,85183,1,8,0:0:0:0:
256,192,85453,1,0,0:0:0:0:
256,192,85589,1,8,0:0:0:0:
256,192,85724,1,8,0:0:0:0:
256,192,85791,1,8,0:0:0:0:
256,192,85859,1,0,0:0:0:0:
256,192,86264,1,0,0:0:0:0:
256,192,86399,1,8,0:0:0:0:
256,192,86805,1,0,0:0:0:0:
256,192,87075,1,8,0:0:0:0:
256,192,87210,1,0,0:0:0:0:
256,192,87480,1,8,0:0:0:0:
256,192,87886,1,8,0:0:0:0:
256,192,87953,1,8,0:0:0:0:
256,192,88021,1,0,0:0:0:0:
256,192,88426,1,0,0:0:0:0:
256,192,88562,1,8,0:0:0:0:
256,192,88967,1,0,0:0:0:0:
256,192,89237,1,8,0:0:0:0:
256,192,89372,1,0,0:0:0:0:
256,192,89507,1,0,0:0:0:0:
256,192,89643,1,8,0:0:0:0:
256,192,90048,1,8,0:0:0:0:
256,192,90116,1,8,0:0:0:0:
256,192,90183,1,0,0:0:0:0:
256,192,90589,1,0,0:0:0:0:
256,192,90724,1,8,0:0:0:0:
256,192,91129,1,0,0:0:0:0:
256,192,91399,1,8,0:0:0:0:
256,192,91534,1,0,0:0:0:0:
256,192,91805,1,8,0:0:0:0:
256,192,92210,1,8,0:0:0:0:
256,192,92345,1,0,0:0:0:0:
256,192,92751,1,0,0:0:0:0:
256,192,92886,1,8,0:0:0:0:
256,192,93156,1,0,0:0:0:0:
256,192,93291,1,8,0:0:0:0:
256,192,93562,1,0,0:0:0:0:
256,192,93697,1,8,0:0:0:0:
256,192,93967,1,0,0:0:0:0:
256,192,94102,1,8,0:0:0:0:
256,192,94276,1,8,0:0:0:0:
256,192,94353,1,8,0:0:0:0:
256,192,94430,1,8,0:0:0:0:
256,192,94507,1,0,0:0:0:0:
256,192,94778,1,8,0:0:0:0:
256,192,94913,1,0,0:0:0:0:
256,192,95048,1,8,0:0:0:0:
256,192,95318,1,8,0:0:0:0:
256,192,95453,1,0,0:0:0:0:
256,192,95724,1,8,0:0:0:0:
256,192,95859,1,0,0:0:0:0:
256,192,96129,1,8,0:0:0:0:
256,192,96399,1,8,0:0:0:0:
256,192,96670,1,0,0:0:0:0:
256,192,96940,1,8,0:0:0:0:
256,192,97075,1,0,0:0:0:0:
256,192,97210,1,8,0:0:0:0:
256,192,97480,1,8,0:0:0:0:
256,192,97616,1,0,0:0:0:0:
256,192,97886,1,8,0:0:0:0:
256,192,98021,1,0,0:0:0:0:
256,192,98156,1,0,0:0:0:0:
256,192,98291,1,8,0:0:0:0:
256,192,98562,1,8,0:0:0:0:
256,192,98697,1,8,0:0:0:0:
256,192,98832,1,0,0:0:0:0:
256,192,99102,1,8,0:0:0:0:
256,192,99237,1,0,0:0:0:0:
256,192,99372,1,8,0:0:0:0:
256,192,99643,1,8,0:0:0:0:
256,192,99778,1,0,0:0:0:0:
256,192,100048,1,8,0:0:0:0:
256,192,100183,1,0,0:0:0:0:
256,192,100453,1,8,0:0:0:0:
256,192,100724,1,8,0:0:0:0:
256,192,100994,1,0,0:0:0:0:
256,192,101264,1,8,0:0:0:0:
256,192,101399,1,0,0:0:0:0:
256,192,101534,1,8,0:0:0:0:
256,192,101805,1,8,0:0:0:0:
256,192,101940,1,0,0:0:0:0:
256,192,102007,1,0,0:0:0:0:
256,192,102075,1,8,0:0:0:0:
256,192,102345,1,0,0:0:0:0:
256,192,102480,1,8,0:0:0:0:
256,192,102751,1,0,0:0:0:0:
256,192,102886,1,8,0:0:0:0:
256,192,103021,1,8,0:0:0:0:
256,192,103156,1,0,0:0:0:0:
256,192,103426,1,8,0:0:0:0:
256,192,103562,1,0,0:0:0:0:
256,192,103697,1,8,0:0:0:0:
256,192,103967,1,8,0:0:0:0:
256,192,104102,1,0,0:0:0:0:
256,192,104372,1,8,0:0:0:0:
256,192,104507,1,0,0:0:0:0:
256,192,104778,1,8,0:0:0:0:
256,192,105048,1,0,0:0:0:0:
256,192,105183,1,8,0:0:0:0:
256,192,105251,1,8,0:0:0:0:
256,192,105318,1,0,0:0:0:0:
256,192,105589,1,8,0:0:0:0:
256,192,105724,1,0,0:0:0:0:
256,192,105859,1,8,0:0:0:0:
256,192,106129,1,8,0:0:0:0:
256,192,106264,1,0,0:0:0:0:
256,192,106534,1,8,0:0:0:0:
256,192,106670,1,0,0:0:0:0:
256,192,106805,1,0,0:0:0:0:
256,192,106940,1,8,0:0:0:0:
256,192,107210,1,0,0:0:0:0:
256,192,107345,1,8,0:0:0:0:
256,192,107413,1,8,0:0:0:0:
256,192,107480,1,0,0:0:0:0:
256,192,107751,1,8,0:0:0:0:
256,192,107886,1,0,0:0:0:0:
256,192,108021,1,8,0:0:0:0:
256,192,108291,1,8,0:0:0:0:
256,192,108426,1,0,0:0:0:0:
256,192,108697,1,8,0:0:0:0:
256,192,108832,1,0,0:0:0:0:
256,192,109102,1,8,0:0:0:0:
256,192,109372,1,0,0:0:0:0:
256,192,109507,1,8,0:0:0:0:
256,192,109643,1,0,0:0:0:0:
256,192,109913,1,8,0:0:0:0:
256,192,110048,1,0,0:0:0:0:
256,192,110183,1,8,0:0:0:0:
256,192,110453,1,0,0:0:0:0:
256,192,110589,1,8,0:0:0:0:
256,192,110859,1,0,0:0:0:0:
256,192,110994,1,8,0:0:0:0:
256,192,111129,1,0,0:0:0:0:
256,192,111197,1,8,0:0:0:0:
256,192,111264,1,0,0:0:0:0:
256,192,111332,1,0,0:0:0:0:
256,192,111399,1,8,0:0:0:0:
256,192,111467,1,0,0:0:0:0:
256,192,111534,1,8,0:0:0:0:
256,192,111602,1,8,0:0:0:0:
256,192,111670,1,0,0:0:0:0:
256,192,111805,1,8,0:0:0:0:
256,192,111872,1,8,0:0:0:0:
256,192,111940,1,8,0:0:0:0:
256,192,112007,1,8,0:0:0:0:
256,192,112075,1,0,0:0:0:0:
256,192,112210,1,8,0:0:0:0:
256,192,112278,1,8,0:0:0:0:
256,192,112345,1,8,0:0:0:0:
256,192,112413,1,8,0:0:0:0:
256,192,112480,1,0,0:0:0:0:
256,192,112616,1,8,0:0:0:0:
256,192,112683,1,8,0:0:0:0:
256,192,112751,1,8,0:0:0:0:
256,192,112818,1,8,0:0:0:0:
256,192,112886,1,0,0:0:0:0:
256,192,113021,1,8,0:0:0:0:
256,192,113089,1,0,0:0:0:0:
256,192,113156,1,8,0:0:0:0:
256,192,113224,1,0,0:0:0:0:
256,192,113291,1,8,0:0:0:0:
256,192,113426,1,8,0:0:0:0:
256,192,113494,1,0,0:0:0:0:
256,192,113562,1,0,0:0:0:0:
256,192,113629,1,8,0:0:0:0:
256,192,113697,1,0,0:0:0:0:
256,192,113764,1,0,0:0:0:0:
256,192,113832,1,8,0:0:0:0:
256,192,113967,1,0,0:0:0:0:
256,192,114034,1,0,0:0:0:0:
256,192,114102,1,8,0:0:0:0:
256,192,114170,1,8,0:0:0:0:
256,192,114237,1,0,0:0:0:0:
256,192,114372,1,0,0:0:0:0:
256,192,114507,1,8,0:0:0:0:
256,192,114710,1,8,0:0:0:0:
256,192,114913,1,0,0:0:0:0:
256,192,115183,1,8,0:0:0:0:
256,192,115318,1,0,0:0:0:0:
256,192,115386,1,0,0:0:0:0:
256,192,115453,1,0,0:0:0:0:
256,192,115521,1,0,0:0:0:0:
256,192,115589,1,8,0:0:0:0:
256,192,115724,1,8,0:0:0:0:
256,192,115791,1,8,0:0:0:0:
256,192,115859,1,0,0:0:0:0:
256,192,115994,1,0,0:0:0:0:
256,192,116129,1,8,0:0:0:0:
256,192,116399,1,8,0:0:0:0:
256,192,116534,1,0,0:0:0:0:
256,192,116805,1,8,0:0:0:0:
256,192,116872,1,0,0:0:0:0:
256,192,116940,1,8,0:0:0:0:
256,192,117007,1,0,0:0:0:0:
256,192,117075,1,8,0:0:0:0:
256,192,117143,1,0,0:0:0:0:
256,192,117210,1,8,0:0:0:0:
256,192,117278,1,0,0:0:0:0:
256,192,117345,1,8,0:0:0:0:
256,192,117413,1,0,0:0:0:0:
256,192,117480,1,8,0:0:0:0:
256,192,117548,1,0,0:0:0:0:
256,192,117616,1,8,0:0:0:0:
256,192,117683,1,0,0:0:0:0:
256,192,117751,1,8,0:0:0:0:
256,192,117953,1,0,0:0:0:0:
256,192,118156,1,8,0:0:0:0:
256,192,118291,1,0,0:0:0:0:
256,192,118494,1,8,0:0:0:0:
256,192,118562,1,0,0:0:0:0:
256,192,118697,1,0,0:0:0:0:
256,192,118832,1,8,0:0:0:0:
256,192,119034,1,0,0:0:0:0:
256,192,119102,1,8,0:0:0:0:
256,192,119237,1,0,0:0:0:0:
256,192,119305,1,0,0:0:0:0:
256,192,119372,1,8,0:0:0:0:
256,192,119575,1,0,0:0:0:0:
256,192,119778,1,8,0:0:0:0:
256,192,120048,1,0,0:0:0:0:
256,192,120183,1,8,0:0:0:0:
256,192,120318,1,8,0:0:0:0:
256,192,120453,1,0,0:0:0:0:
256,192,120724,1,8,0:0:0:0:
256,192,120859,1,0,0:0:0:0:
256,192,120994,1,8,0:0:0:0:
256,192,121129,1,8,0:0:0:0:
256,192,121264,1,0,0:0:0:0:
256,192,121399,1,8,0:0:0:0:
256,192,121670,1,0,0:0:0:0:
256,192,121737,1,8,0:0:0:0:
256,192,121805,1,0,0:0:0:0:
256,192,121872,1,8,0:0:0:0:
256,192,121940,1,0,0:0:0:0:
256,192,122007,1,8,0:0:0:0:
256,192,122075,1,0,0:0:0:0:
256,192,122143,1,8,0:0:0:0:
256,192,122210,1,0,0:0:0:0:
256,192,122345,1,0,0:0:0:0:
256,192,122413,1,0,0:0:0:0:
256,192,122480,1,8,0:0:0:0:
256,192,122616,1,0,0:0:0:0:
256,192,122751,1,8,0:0:0:0:
256,192,122818,1,0,0:0:0:0:
256,192,122886,1,8,0:0:0:0:
256,192,122953,1,8,0:0:0:0:
256,192,123021,1,0,0:0:0:0:
256,192,123156,1,8,0:0:0:0:
256,192,123359,1,0,0:0:0:0:
256,192,123562,1,8,0:0:0:0:
256,192,123832,1,0,0:0:0:0:
256,192,124102,1,8,0:0:0:0:
256,192,124170,1,8,0:0:0:0:
256,192,124237,1,0,0:0:0:0:
256,192,124372,1,8,0:0:0:0:
256,192,124507,1,0,0:0:0:0:
256,192,124643,1,8,0:0:0:0:
256,192,124913,1,0,0:0:0:0:
256,192,125183,1,8,0:0:0:0:
256,192,125318,1,0,0:0:0:0:
256,192,125386,1,8,0:0:0:0:
256,192,125453,1,8,0:0:0:0:
256,192,125521,1,8,0:0:0:0:
256,192,125589,1,0,0:0:0:0:
256,192,125724,1,8,0:0:0:0:
256,192,125859,1,0,0:0:0:0:
256,192,125926,1,0,0:0:0:0:
256,192,125994,1,8,0:0:0:0:
256,192,126062,1,8,0:0:0:0:
256,192,126129,1,0,0:0:0:0:
256,192,126264,1,8,0:0:0:0:
256,192,126534,1,0,0:0:0:0:
256,192,126670,1,8,0:0:0:0:
256,192,126805,1,8,0:0:0:0:
256,192,126872,1,8,0:0:0:0:
256,192,126940,1,0,0:0:0:0:
256,192,127210,1,8,0:0:0:0:
256,192,127345,1,0,0:0:0:0:
256,192,127480,1,8,0:0:0:0:
256,192,127661,1,0,0:0:0:0:
256,192,127841,1,8,0:0:0:0:
256,192,128021,1,0,0:0:0:0:
256,192,128201,1,8,0:0:0:0:
256,192,128381,1,0,0:0:0:0:
256,192,128562,1,8,0:0:0:0:
256,192,128742,1,8,0:0:0:0:
256,192,128922,1,8,0:0:0:0:
256,192,129012,1,8,0:0:0:0:
256,192,129102,1,0,0:0:0:0:
256,192,130183,1,0,0:0:0:0:
256,192,130251,1,0,0:0:0:0:
256,192,130318,1,0,0:0:0:0:
256,192,130386,1,0,0:0:0:0:
256,192,130453,1,8,0:0:0:0:
256,192,130521,1,8,0:0:0:0:
256,192,130589,1,8,0:0:0:0:
256,192,130656,1,8,0:0:0:0:
256,192,130724,1,0,0:0:0:0:
256,192,130791,1,0,0:0:0:0:
256,192,130859,1,8,0:0:0:0:
256,192,130926,1,8,0:0:0:0:
256,192,130994,1,0,0:0:0:0:
256,192,131062,1,0,0:0:0:0:
256,192,131129,1,8,0:0:0:0:
256,192,131197,1,8,0:0:0:0:
256,192,131264,1,0,0:0:0:0:
256,192,131332,1,8,0:0:0:0:
256,192,131400,1,0,0:0:0:0:
256,192,131536,1,8,0:0:0:0:
256,192,131691,1,8,0:0:0:0:
256,192,131846,1,8,0:0:0:0:
256,192,132001,1,8,0:0:0:0:
256,192,132146,1,0,0:0:0:0:
256,192,132219,1,0,0:0:0:0:
256,192,132292,1,8,0:0:0:0:
256,192,132504,1,0,0:0:0:0:
256,192,132576,1,0,0:0:0:0:
256,192,132648,1,8,0:0:0:0:
256,192,132863,1,0,0:0:0:0:
256,192,132935,1,0,0:0:0:0:
256,192,133008,1,8,0:0:0:0:
256,192,133520,1,8,0:0:0:0:
256,192,133609,1,8,0:0:0:0:
256,192,133698,1,0,0:0:0:0:
256,192,147833,5,0,0:0:0:0:
256,192,148218,1,0,0:0:0:0:
256,192,155525,5,0,0:0:0:0:
256,192,155910,1,0,0:0:0:0:
256,192,161295,5,8,0:0:0:0:
256,192,162448,1,8,0:0:0:0:
256,192,163602,1,8,0:0:0:0:
256,192,165141,1,8,0:0:0:0:
256,192,166294,1,8,0:0:0:0:
256,192,167448,1,8,0:0:0:0:
256,192,168987,1,0,0:0:0:0:
256,192,169275,1,0,0:0:0:0:
256,192,169756,1,0,0:0:0:0:
256,192,170044,1,0,0:0:0:0:
256,192,170525,1,0,0:0:0:0:
256,192,170813,1,0,0:0:0:0:
256,192,171294,1,0,0:0:0:0:
256,192,171582,1,0,0:0:0:0:
256,192,172063,1,0,0:0:0:0:
256,192,172351,1,0,0:0:0:0:
256,192,172640,1,8,0:0:0:0:
256,192,172736,1,8,0:0:0:0:
256,192,172833,1,0,0:0:0:0:
256,192,173121,1,0,0:0:0:0:
256,192,173602,1,0,0:0:0:0:
256,192,173890,1,0,0:0:0:0:
256,192,174371,1,0,0:0:0:0:
256,192,174659,1,0,0:0:0:0:
256,192,175140,1,0,0:0:0:0:
256,192,175428,1,0,0:0:0:0:
256,192,175909,1,0,0:0:0:0:
256,192,176197,1,0,0:0:0:0:
256,192,176390,1,8,0:0:0:0:
256,192,176486,1,8,0:0:0:0:
256,192,176582,1,8,0:0:0:0:
256,192,176679,1,0,0:0:0:0:
256,192,176967,1,0,0:0:0:0:
256,192,177159,1,8,0:0:0:0:
256,192,177352,1,8,0:0:0:0:
256,192,177448,1,0,0:0:0:0:
256,192,177736,1,0,0:0:0:0:
256,192,177929,1,8,0:0:0:0:
256,192,178025,1,8,0:0:0:0:
256,192,178121,1,8,0:0:0:0:
256,192,178217,1,0,0:0:0:0:
256,192,178505,1,0,0:0:0:0:
256,192,178698,1,8,0:0:0:0:
256,192,178890,1,8,0:0:0:0:
256,192,178986,1,0,0:0:0:0:
256,192,179274,1,0,0:0:0:0:
256,192,179466,1,8,0:0:0:0:
256,192,179562,1,8,0:0:0:0:
256,192,179659,1,8,0:0:0:0:
256,192,179755,1,0,0:0:0:0:
256,192,180043,1,0,0:0:0:0:
256,192,180332,1,8,0:0:0:0:
256,192,180428,1,8,0:0:0:0:
256,192,180525,1,0,0:0:0:0:
256,192,180813,1,0,0:0:0:0:
256,192,181005,1,8,0:0:0:0:
256,192,181198,1,8,0:0:0:0:
256,192,181294,1,0,0:0:0:0:
256,192,181582,1,0,0:0:0:0:
256,192,181775,1,8,0:0:0:0:
256,192,181871,1,8,0:0:0:0:
256,192,181967,1,8,0:0:0:0:
256,192,182063,1,0,0:0:0:0:
256,192,182351,1,0,0:0:0:0:
256,192,182544,1,8,0:0:0:0:
256,192,182736,1,8,0:0:0:0:
256,192,182832,1,0,0:0:0:0:
256,192,183120,1,0,0:0:0:0:
256,192,183312,1,8,0:0:0:0:
256,192,183408,1,8,0:0:0:0:
256,192,183505,1,8,0:0:0:0:
256,192,183601,1,0,0:0:0:0:
256,192,183889,1,0,0:0:0:0:
256,192,184082,1,8,0:0:0:0:
256,192,184130,1,8,0:0:0:0:
256,192,184178,1,8,0:0:0:0:
256,192,184242,1,8,0:0:0:0:
256,192,184306,1,8,0:0:0:0:
256,192,184372,1,0,0:0:0:0:
256,192,184660,1,0,0:0:0:0:
256,192,184852,1,8,0:0:0:0:
256,192,185045,1,8,0:0:0:0:
256,192,185141,1,0,0:0:0:0:
256,192,185429,1,0,0:0:0:0:
256,192,185622,1,8,0:0:0:0:
256,192,185718,1,8,0:0:0:0:
256,192,185814,1,8,0:0:0:0:
256,192,185910,1,0,0:0:0:0:
256,192,186198,1,0,0:0:0:0:
256,192,186391,1,8,0:0:0:0:
256,192,186583,1,8,0:0:0:0:
256,192,186679,1,0,0:0:0:0:
256,192,186967,1,0,0:0:0:0:
256,192,187159,1,8,0:0:0:0:
256,192,187255,1,8,0:0:0:0:
256,192,187352,1,8,0:0:0:0:
256,192,187448,1,0,0:0:0:0:
256,192,187736,1,0,0:0:0:0:
256,192,188025,1,8,0:0:0:0:
256,192,188121,1,8,0:0:0:0:
256,192,188218,1,0,0:0:0:0:
256,192,188506,1,0,0:0:0:0:
256,192,188698,1,8,0:0:0:0:
256,192,188891,1,8,0:0:0:0:
256,192,188987,1,0,0:0:0:0:
256,192,189275,1,0,0:0:0:0:
256,192,189468,1,8,0:0:0:0:
256,192,189564,1,8,0:0:0:0:
256,192,189660,1,8,0:0:0:0:
256,192,189756,1,0,0:0:0:0:
256,192,190044,1,0,0:0:0:0:
256,192,190237,1,8,0:0:0:0:
256,192,190429,1,8,0:0:0:0:
256,192,190525,1,0,0:0:0:0:
256,192,190813,1,0,0:0:0:0:
256,192,191005,1,8,0:0:0:0:
256,192,191101,1,8,0:0:0:0:
256,192,191198,1,8,0:0:0:0:
256,192,191294,1,0,0:0:0:0:
256,192,191422,1,8,0:0:0:0:
256,192,191550,1,8,0:0:0:0:
256,192,191678,1,0,0:0:0:0:
256,192,191807,1,8,0:0:0:0:
256,192,191935,1,8,0:0:0:0:
256,192,192064,1,0,0:0:0:0:
256,192,192352,1,0,0:0:0:0:
256,192,192640,1,8,0:0:0:0:
256,192,192737,1,8,0:0:0:0:
256,192,192833,1,0,0:0:0:0:
256,192,193121,1,0,0:0:0:0:
256,192,193410,1,8,0:0:0:0:
256,192,193506,1,8,0:0:0:0:
256,192,193602,1,0,0:0:0:0:
256,192,193890,1,0,0:0:0:0:
256,192,194083,1,8,0:0:0:0:
256,192,194275,1,8,0:0:0:0:
256,192,194371,1,0,0:0:0:0:
256,192,194660,1,0,0:0:0:0:
256,192,194852,1,8,0:0:0:0:
256,192,194948,1,8,0:0:0:0:
256,192,195044,1,8,0:0:0:0:
256,192,195140,1,0,0:0:0:0:
256,192,195429,1,0,0:0:0:0:
256,192,195621,1,8,0:0:0:0:
256,192,195765,1,8,0:0:0:0:
256,192,195910,1,0,0:0:0:0:
256,192,196198,1,0,0:0:0:0:
256,192,196487,1,8,0:0:0:0:
256,192,196583,1,8,0:0:0:0:
256,192,196679,1,0,0:0:0:0:
256,192,196967,1,0,0:0:0:0:
256,192,197256,1,8,0:0:0:0:
256,192,197352,1,8,0:0:0:0:
256,192,197448,1,0,0:0:0:0:
256,192,197737,1,0,0:0:0:0:
256,192,197929,1,8,0:0:0:0:
256,192,198121,1,8,0:0:0:0:
256,192,198217,1,0,0:0:0:0:
256,192,198506,1,0,0:0:0:0:
256,192,198698,1,8,0:0:0:0:
256,192,198794,1,8,0:0:0:0:
256,192,198890,1,8,0:0:0:0:
256,192,198987,1,0,0:0:0:0:
256,192,199275,1,0,0:0:0:0:
256,192,199467,1,8,0:0:0:0:
256,192,199612,1,8,0:0:0:0:
256,192,199684,1,8,0:0:0:0:
256,192,199756,1,0,0:0:0:0:
256,192,200044,1,0,0:0:0:0:
256,192,201679,1,0,0:0:0:0:
256,192,201967,1,0,0:0:0:0:
256,192,203602,1,12,0:0:0:0:
256,192,203986,1,12,0:0:0:0:
256,192,204179,1,0,0:0:0:0:
256,192,204433,1,8,0:0:0:0:
256,192,204687,1,0,0:0:0:0:
256,192,204941,1,0,0:0:0:0:
256,192,206212,1,0,0:0:0:0:
256,192,206467,1,8,0:0:0:0:
256,192,206721,1,0,0:0:0:0:
256,192,206975,1,8,0:0:0:0:
256,192,208246,1,8,0:0:0:0:
256,192,208416,1,0,0:0:0:0:
256,192,208501,1,0,0:0:0:0:
256,192,208585,1,8,0:0:0:0:
256,192,208755,1,0,0:0:0:0:
256,192,208840,1,8,0:0:0:0:
256,192,208924,1,0,0:0:0:0:
256,192,209009,1,0,0:0:0:0:
256,192,209094,1,8,0:0:0:0:
256,192,209263,1,0,0:0:0:0:
256,192,209433,1,8,0:0:0:0:
256,192,209517,1,0,0:0:0:0:
256,192,209602,1,8,0:0:0:0:
256,192,209772,1,0,0:0:0:0:
256,192,209856,1,8,0:0:0:0:
256,192,210026,1,8,0:0:0:0:
256,192,210111,1,0,0:0:0:0:
256,192,210195,1,0,0:0:0:0:
256,192,210280,1,8,0:0:0:0:
256,192,210450,1,0,0:0:0:0:
256,192,210619,1,8,0:0:0:0:
256,192,210704,1,0,0:0:0:0:
256,192,210789,1,0,0:0:0:0:
256,192,210873,1,8,0:0:0:0:
256,192,210958,1,0,0:0:0:0:
256,192,211128,1,8,0:0:0:0:
256,192,211184,1,8,0:0:0:0:
256,192,211241,1,8,0:0:0:0:
256,192,211297,1,0,0:0:0:0:
256,192,211382,1,0,0:0:0:0:
256,192,211467,1,8,0:0:0:0:
256,192,211636,1,0,0:0:0:0:
256,192,211721,1,8,0:0:0:0:
256,192,211806,1,0,0:0:0:0:
256,192,211890,1,8,0:0:0:0:
256,192,211975,1,0,0:0:0:0:
256,192,212060,1,0,0:0:0:0:
256,192,212145,1,8,0:0:0:0:
256,192,212314,1,0,0:0:0:0:
256,192,212484,1,8,0:0:0:0:
256,192,212568,1,0,0:0:0:0:
256,192,212738,1,8,0:0:0:0:
256,192,212823,1,0,0:0:0:0:
256,192,212992,1,8,0:0:0:0:
256,192,213077,1,8,0:0:0:0:
256,192,213162,1,0,0:0:0:0:
256,192,213246,1,8,0:0:0:0:
256,192,213331,1,0,0:0:0:0:
256,192,213501,1,8,0:0:0:0:
256,192,213585,1,0,0:0:0:0:
256,192,213755,1,8,0:0:0:0:
256,192,213840,1,0,0:0:0:0:
256,192,214009,1,8,0:0:0:0:
256,192,214094,1,8,0:0:0:0:
256,192,214179,1,0,0:0:0:0:
256,192,214348,1,12,0:0:0:0:
256,192,214517,1,12,0:0:0:0:
256,192,214687,1,12,0:0:0:0:
256,192,214856,1,12,0:0:0:0:
256,192,215026,1,12,0:0:0:0:
256,192,215195,1,12,0:0:0:0:
256,192,215365,2,0,L|256:128,10,35
256,192,216382,1,0,0:0:0:0:
256,192,216467,1,0,0:0:0:0:
256,192,216551,1,8,0:0:0:0:
256,192,216636,1,0,0:0:0:0:
256,192,216721,1,8,0:0:0:0:
256,192,216806,1,8,0:0:0:0:
256,192,216890,1,0,0:0:0:0:
256,192,216975,1,0,0:0:0:0:
256,192,217060,1,8,0:0:0:0:
256,192,217145,1,0,0:0:0:0:
256,192,217229,1,8,0:0:0:0:
256,192,217314,1,8,0:0:0:0:
256,192,217399,1,0,0:0:0:0:
256,192,217484,1,8,0:0:0:0:
256,192,217568,1,8,0:0:0:0:
256,192,217653,1,8,0:0:0:0:
256,192,217738,1,0,0:0:0:0:
256,192,217823,1,0,0:0:0:0:
256,192,217907,1,8,0:0:0:0:
256,192,217992,1,8,0:0:0:0:
256,192,218077,1,0,0:0:0:0:
256,192,218162,1,8,0:0:0:0:
256,192,218246,1,0,0:0:0:0:
256,192,218303,1,0,0:0:0:0:
256,192,218359,1,0,0:0:0:0:
256,192,218416,1,8,0:0:0:0:
256,192,218501,1,0,0:0:0:0:
256,192,218585,1,8,0:0:0:0:
256,192,218670,1,8,0:0:0:0:
256,192,218755,1,0,0:0:0:0:
256,192,218811,1,8,0:0:0:0:
256,192,218868,1,8,0:0:0:0:
256,192,218924,1,0,0:0:0:0:
256,192,219009,1,0,0:0:0:0:
256,192,219094,1,8,0:0:0:0:
256,192,219179,1,0,0:0:0:0:
256,192,219263,1,8,0:0:0:0:
256,192,219348,1,8,0:0:0:0:
256,192,219433,1,0,0:0:0:0:
256,192,219517,1,0,0:0:0:0:
256,192,219602,1,8,0:0:0:0:
256,192,219687,1,0,0:0:0:0:
256,192,219772,1,8,0:0:0:0:
256,192,219856,1,8,0:0:0:0:
256,192,219941,1,0,0:0:0:0:
256,192,220111,1,8,0:0:0:0:
256,192,220224,1,8,0:0:0:0:
256,192,220337,1,8,0:0:0:0:
256,192,220450,1,0,0:0:0:0:
256,192,220534,1,0,0:0:0:0:
256,192,220619,1,8,0:0:0:0:
256,192,220704,1,0,0:0:0:0:
256,192,220789,1,8,0:0:0:0:
256,192,220873,1,8,0:0:0:0:
256,192,220958,1,0,0:0:0:0:
256,192,221043,1,8,0:0:0:0:
256,192,221128,1,0,0:0:0:0:
256,192,221212,1,0,0:0:0:0:
256,192,221297,1,8,0:0:0:0:
256,192,221382,1,0,0:0:0:0:
256,192,221467,1,8,0:0:0:0:
256,192,221551,1,8,0:0:0:0:
256,192,221636,1,0,0:0:0:0:
256,192,221721,1,8,0:0:0:0:
256,192,221806,1,8,0:0:0:0:
256,192,221890,1,8,0:0:0:0:
256,192,221975,1,0,0:0:0:0:
256,192,222060,1,0,0:0:0:0:
256,192,222145,1,8,0:0:0:0:
256,192,222229,1,0,0:0:0:0:
256,192,222314,1,8,0:0:0:0:
256,192,222371,1,8,0:0:0:0:
256,192,222427,1,8,0:0:0:0:
256,192,222484,1,0,0:0:0:0:
256,192,222568,1,0,0:0:0:0:
256,192,222653,1,8,0:0:0:0:
256,192,222738,1,8,0:0:0:0:
256,192,222823,1,0,0:0:0:0:
256,192,222907,1,0,0:0:0:0:
256,192,222992,1,8,0:0:0:0:
256,192,223077,1,0,0:0:0:0:
256,192,223162,1,8,0:0:0:0:
256,192,223246,1,8,0:0:0:0:
256,192,223331,1,0,0:0:0:0:
256,192,223416,1,0,0:0:0:0:
256,192,223501,1,8,0:0:0:0:
256,192,223557,1,0,0:0:0:0:
256,192,223614,1,0,0:0:0:0:
256,192,223670,1,8,0:0:0:0:
256,192,223755,1,0,0:0:0:0:
256,192,223840,1,8,0:0:0:0:
256,192,223924,1,8,0:0:0:0:
256,192,224009,1,0,0:0:0:0:
256,192,224066,1,0,0:0:0:0:
256,192,224122,1,8,0:0:0:0:
256,192,224179,1,0,0:0:0:0:
256,192,224348,1,8,0:0:0:0:
256,192,224390,1,8,0:0:0:0:
256,192,224433,1,8,0:0:0:0:
256,192,224517,1,0,0:0:0:0:
256,192,224602,1,0,0:0:0:0:
256,192,224687,1,8,0:0:0:0:
256,192,224772,1,0,0:0:0:0:
256,192,224856,1,8,0:0:0:0:
256,192,224941,1,8,0:0:0:0:
256,192,225026,1,0,0:0:0:0:
256,192,225111,1,0,0:0:0:0:
256,192,225195,1,8,0:0:0:0:
256,192,225280,1,0,0:0:0:0:
256,192,225365,1,8,0:0:0:0:
256,192,225450,1,0,0:0:0:0:
256,192,225534,1,8,0:0:0:0:
256,192,225619,1,8,0:0:0:0:
256,192,225704,1,0,0:0:0:0:
256,192,225789,1,0,0:0:0:0:
256,192,225873,1,8,0:0:0:0:
256,192,225958,1,8,0:0:0:0:
256,192,226043,1,8,0:0:0:0:
256,192,226128,1,8,0:0:0:0:
256,192,226212,1,0,0:0:0:0:
256,192,226297,1,0,0:0:0:0:
256,192,226382,1,8,0:0:0:0:
256,192,226467,1,0,0:0:0:0:
256,192,226551,1,8,0:0:0:0:
256,192,226608,1,8,0:0:0:0:
256,192,226664,1,8,0:0:0:0:
256,192,226721,1,0,0:0:0:0:
256,192,226806,1,8,0:0:0:0:
256,192,226890,1,8,0:0:0:0:
256,192,226975,1,0,0:0:0:0:
256,192,227060,1,8,0:0:0:0:
256,192,227145,1,0,0:0:0:0:
256,192,227229,1,0,0:0:0:0:
256,192,227314,1,8,0:0:0:0:
256,192,227399,1,0,0:0:0:0:
256,192,227484,1,8,0:0:0:0:
256,192,227568,1,0,0:0:0:0:
256,192,227625,1,0,0:0:0:0:
256,192,227681,1,8,0:0:0:0:
256,192,227738,1,8,0:0:0:0:
256,192,227823,1,0,0:0:0:0:
256,192,227907,1,8,0:0:0:0:
256,192,227992,1,0,0:0:0:0:
256,192,228034,1,0,0:0:0:0:
256,192,228077,1,8,0:0:0:0:
256,192,228162,1,0,0:0:0:0:
256,192,228246,1,8,0:0:0:0:
256,192,228303,1,0,0:0:0:0:
256,192,228359,1,8,0:0:0:0:
256,192,228416,1,0,0:0:0:0:
256,192,228472,1,8,0:0:0:0:
256,192,228529,1,8,0:0:0:0:
256,192,228585,1,0,0:0:0:0:
256,192,228755,1,8,0:0:0:0:
256,192,228840,1,0,0:0:0:0:
256,192,228924,1,0,0:0:0:0:
256,192,229009,1,8,0:0:0:0:
256,192,229094,1,8,0:0:0:0:
256,192,229179,1,0,0:0:0:0:
256,192,229263,1,8,0:0:0:0:
256,192,229348,1,0,0:0:0:0:
256,192,229433,1,8,0:0:0:0:
256,192,229517,1,8,0:0:0:0:
256,192,229602,1,0,0:0:0:0:
256,192,229687,1,8,0:0:0:0:
256,192,229772,1,0,0:0:0:0:
256,192,229856,1,0,0:0:0:0:
256,192,229941,1,8,0:0:0:0:
256,192,230026,1,0,0:0:0:0:
256,192,230111,1,8,0:0:0:0:
256,192,230195,1,8,0:0:0:0:
256,192,230280,1,0,0:0:0:0:
256,192,230365,1,8,0:0:0:0:
256,192,230450,1,8,0:0:0:0:
256,192,230534,1,8,0:0:0:0:
256,192,230619,1,0,0:0:0:0:
256,192,230746,1,0,0:0:0:0:
256,192,230873,1,8,0:0:0:0:
256,192,231043,1,0,0:0:0:0:
256,192,231128,1,8,0:0:0:0:
256,192,231184,1,0,0:0:0:0:
256,192,231241,1,0,0:0:0:0:
256,192,231297,1,8,0:0:0:0:
256,192,231382,1,0,0:0:0:0:
256,192,231467,1,8,0:0:0:0:
256,192,231551,1,0,0:0:0:0:
256,192,231636,1,0,0:0:0:0:
256,192,231721,1,8,0:0:0:0:
256,192,231806,1,8,0:0:0:0:
256,192,231890,1,0,0:0:0:0:
256,192,231975,1,8,0:0:0:0:
256,192,232060,1,0,0:0:0:0:
256,192,232102,1,0,0:0:0:0:
256,192,232145,1,0,0:0:0:0:
256,192,232187,1,0,0:0:0:0:
256,192,232229,1,8,0:0:0:0:
256,192,232314,1,0,0:0:0:0:
256,192,232399,1,0,0:0:0:0:
256,192,232484,1,8,0:0:0:0:
256,192,232653,1,0,0:0:0:0:
256,192,232738,1,8,0:0:0:0:
256,192,232823,1,0,0:0:0:0:
256,192,232907,1,0,0:0:0:0:
256,192,232992,1,8,0:0:0:0:
256,192,233077,1,0,0:0:0:0:
256,192,233162,1,8,0:0:0:0:
256,192,233246,1,8,0:0:0:0:
256,192,233331,1,0,0:0:0:0:
256,192,233416,1,0,0:0:0:0:
256,192,233501,1,8,0:0:0:0:
256,192,233585,1,0,0:0:0:0:
256,192,233670,1,8,0:0:0:0:
256,192,233755,1,8,0:0:0:0:
256,192,233840,1,0,0:0:0:0:
256,192,233924,1,0,0:0:0:0:
256,192,234009,1,8,0:0:0:0:
256,192,234066,1,8,0:0:0:0:
256,192,234122,1,8,0:0:0:0:
256,192,234179,1,0,0:0:0:0:
256,192,234263,1,0,0:0:0:0:
256,192,234348,1,8,0:0:0:0:
256,192,234404,1,8,0:0:0:0:
256,192,234461,1,0,0:0:0:0:
256,192,234517,1,8,0:0:0:0:
256,192,234574,1,8,0:0:0:0:
256,192,234630,1,0,0:0:0:0:
256,192,234687,1,8,0:0:0:0:
256,192,234743,1,0,0:0:0:0:
256,192,234800,1,0,0:0:0:0:
256,192,234856,1,8,0:0:0:0:
256,192,234913,1,0,0:0:0:0:
256,192,234969,1,0,0:0:0:0:
256,192,235026,1,8,0:0:0:0:
256,192,235082,1,8,0:0:0:0:
256,192,235139,1,8,0:0:0:0:
256,192,235195,1,0,0:0:0:0:
256,192,235252,1,0,0:0:0:0:
256,192,235308,1,0,0:0:0:0:
256,192,235365,1,8,0:0:0:0:
256,192,235450,1,0,0:0:0:0:
256,192,235534,1,8,0:0:0:0:
256,192,235619,1,8,0:0:0:0:
256,192,235704,1,0,0:0:0:0:
256,192,235789,1,0,0:0:0:0:
256,192,235873,1,8,0:0:0:0:
256,192,235958,1,0,0:0:0:0:
256,192,236043,1,8,0:0:0:0:
256,192,236128,1,8,0:0:0:0:
256,192,236212,1,0,0:0:0:0:
256,192,236297,1,0,0:0:0:0:
256,192,236382,1,8,0:0:0:0:
256,192,236495,1,8,0:0:0:0:
256,192,236608,1,8,0:0:0:0:
256,192,236721,1,0,0:0:0:0:
256,192,236806,1,0,0:0:0:0:
256,192,236890,1,8,0:0:0:0:
256,192,236975,1,0,0:0:0:0:
256,192,237060,1,8,0:0:0:0:
256,192,237145,1,8,0:0:0:0:
256,192,237229,1,0,0:0:0:0:
256,192,237314,1,8,0:0:0:0:
256,192,237399,1,0,0:0:0:0:
256,192,237484,1,0,0:0:0:0:
256,192,237568,1,8,0:0:0:0:
256,192,237653,1,0,0:0:0:0:
256,192,237738,1,8,0:0:0:0:
256,192,237823,1,8,0:0:0:0:
256,192,237907,1,0,0:0:0:0:
256,192,237992,1,8,0:0:0:0:
256,192,238077,1,8,0:0:0:0:
256,192,238162,1,8,0:0:0:0:
256,192,238246,1,0,0:0:0:0:
256,192,238331,1,0,0:0:0:0:
256,192,238416,1,8,0:0:0:0:
256,192,238501,1,0,0:0:0:0:
256,192,238585,1,8,0:0:0:0:
256,192,238642,1,8,0:0:0:0:
256,192,238698,1,8,0:0:0:0:
256,192,238755,1,0,0:0:0:0:
256,192,238840,1,0,0:0:0:0:
256,192,238924,1,8,0:0:0:0:
256,192,239009,1,8,0:0:0:0:
256,192,239094,1,0,0:0:0:0:
256,192,239179,1,0,0:0:0:0:
256,192,239263,1,8,0:0:0:0:
256,192,239348,1,0,0:0:0:0:
256,192,239433,1,8,0:0:0:0:
256,192,239517,1,8,0:0:0:0:
256,192,239602,1,0,0:0:0:0:
256,192,239687,1,0,0:0:0:0:
256,192,239772,1,8,0:0:0:0:
256,192,239828,1,0,0:0:0:0:
256,192,239885,1,0,0:0:0:0:
256,192,239941,1,8,0:0:0:0:
256,192,240026,1,0,0:0:0:0:
256,192,240111,1,8,0:0:0:0:
256,192,240167,1,8,0:0:0:0:
256,192,240224,1,0,0:0:0:0:
256,192,240280,1,8,0:0:0:0:
256,192,240337,1,0,0:0:0:0:
256,192,240393,1,0,0:0:0:0:
256,192,240450,1,8,0:0:0:0:
256,192,240506,1,8,0:0:0:0:
256,192,240563,1,0,0:0:0:0:
256,192,240619,1,8,0:0:0:0:
256,192,240676,1,0,0:0:0:0:
256,192,240732,1,0,0:0:0:0:
256,192,240789,1,8,0:0:0:0:
256,192,240873,1,0,0:0:0:0:
256,192,240958,1,0,0:0:0:0:
256,192,241043,1,8,0:0:0:0:
256,192,241128,1,8,0:0:0:0:
256,192,241212,1,8,0:0:0:0:
256,192,241297,1,0,0:0:0:0:
256,192,241382,1,0,0:0:0:0:
256,192,241467,1,0,0:0:0:0:
256,192,241551,1,8,0:0:0:0:
256,192,241636,1,8,0:0:0:0:
256,192,241721,1,0,0:0:0:0:
256,192,241806,1,8,0:0:0:0:
256,192,241862,1,0,0:0:0:0:
256,192,241919,1,0,0:0:0:0:
256,192,241975,1,8,0:0:0:0:
256,192,242032,1,0,0:0:0:0:
256,192,242088,1,0,0:0:0:0:
256,192,242145,1,8,0:0:0:0:
256,192,242201,1,8,0:0:0:0:
256,192,242258,1,0,0:0:0:0:
256,192,242314,1,8,0:0:0:0:
256,192,242371,1,8,0:0:0:0:
256,192,242427,1,0,0:0:0:0:
256,192,242484,1,8,0:0:0:0:
256,192,242540,1,8,0:0:0:0:
256,192,242597,1,8,0:0:0:0:
256,192,242653,1,0,0:0:0:0:
256,192,242738,1,8,0:0:0:0:
256,192,242823,1,0,0:0:0:0:
256,192,242879,1,8,0:0:0:0:
256,192,242936,1,8,0:0:0:0:
256,192,242992,1,0,0:0:0:0:
256,192,243077,1,8,0:0:0:0:
256,192,243162,1,0,0:0:0:0:
256,192,243246,1,0,0:0:0:0:
256,192,243331,1,8,0:0:0:0:
256,192,243416,1,8,0:0:0:0:
256,192,243501,1,0,0:0:0:0:
256,192,243585,1,8,0:0:0:0:
256,192,243670,1,8,0:0:0:0:
256,192,243755,1,8,0:0:0:0:
256,192,243840,1,0,0:0:0:0:
256,192,243896,1,0,0:0:0:0:
256,192,243953,1,8,0:0:0:0:
256,192,244009,1,8,0:0:0:0:
256,192,244094,1,0,0:0:0:0:
256,192,244179,1,8,0:0:0:0:
256,192,244263,1,0,0:0:0:0:
256,192,244306,1,0,0:0:0:0:
256,192,244348,1,8,0:0:0:0:
256,192,244433,1,0,0:0:0:0:
256,192,244517,1,8,0:0:0:0:
256,192,244574,1,0,0:0:0:0:
256,192,244630,1,8,0:0:0:0:
256,192,244687,1,0,0:0:0:0:
256,192,244743,1,8,0:0:0:0:
256,192,244800,1,8,0:0:0:0:
256,192,244856,1,0,0:0:0:0:
256,192,244941,1,0,0:0:0:0:
256,192,245026,1,0,0:0:0:0:
256,192,245111,1,8,0:0:0:0:
256,192,245195,1,8,0:0:0:0:
256,192,245280,1,8,0:0:0:0:
256,192,245365,1,0,0:0:0:0:
256,192,245450,1,0,0:0:0:0:
256,192,245534,1,0,0:0:0:0:
256,192,245619,1,8,0:0:0:0:
256,192,245704,1,8,0:0:0:0:
256,192,245789,1,8,0:0:0:0:
256,192,245873,1,0,0:0:0:0:
256,192,245958,1,8,0:0:0:0:
256,192,246043,1,8,0:0:0:0:
256,192,246128,1,0,0:0:0:0:
256,192,246212,1,8,0:0:0:0:
256,192,246297,1,8,0:0:0:0:
256,192,246382,1,0,0:0:0:0:
256,192,246467,1,8,0:0:0:0:
256,192,246551,1,8,0:0:0:0:
256,192,246636,1,0,0:0:0:0:
256,192,246721,1,8,0:0:0:0:
256,192,246806,1,8,0:0:0:0:
256,192,246890,1,0,0:0:0:0:
256,192,247017,1,0,0:0:0:0:
256,192,247145,1,8,0:0:0:0:
256,192,247229,1,8,0:0:0:0:
256,192,247314,1,0,0:0:0:0:
256,192,247399,1,8,0:0:0:0:
256,192,247455,1,0,0:0:0:0:
256,192,247512,1,0,0:0:0:0:
256,192,247568,1,8,0:0:0:0:
256,192,247653,1,0,0:0:0:0:
256,192,247738,1,8,0:0:0:0:
256,192,247823,1,0,0:0:0:0:
256,192,247907,1,0,0:0:0:0:
256,192,247992,1,8,0:0:0:0:
256,192,248077,1,8,0:0:0:0:
256,192,248162,1,0,0:0:0:0:
256,192,248246,1,8,0:0:0:0:
256,192,248331,1,0,0:0:0:0:
256,192,248373,1,0,0:0:0:0:
256,192,248416,1,0,0:0:0:0:
256,192,248458,1,0,0:0:0:0:
256,192,248501,1,8,0:0:0:0:
256,192,248585,1,0,0:0:0:0:
256,192,248670,1,0,0:0:0:0:
256,192,248755,1,8,0:0:0:0:
256,192,248840,1,0,0:0:0:0:
256,192,248924,1,8,0:0:0:0:
256,192,248981,1,8,0:0:0:0:
256,192,249037,1,8,0:0:0:0:
256,192,249094,1,8,0:0:0:0:
256,192,249150,1,8,0:0:0:0:
256,192,249207,1,8,0:0:0:0:
256,192,249263,1,0,0:0:0:0:
256,192,249348,1,0,0:0:0:0:
256,192,249433,1,8,0:0:0:0:
256,192,249517,1,0,0:0:0:0:
256,192,249602,1,8,0:0:0:0:
256,192,249687,1,8,0:0:0:0:
256,192,249772,1,0,0:0:0:0:
256,192,249856,1,8,0:0:0:0:
256,192,249941,1,0,0:0:0:0:
256,192,249998,1,0,0:0:0:0:
256,192,250054,1,0,0:0:0:0:
256,192,250111,1,0,0:0:0:0:
256,192,250167,1,0,0:0:0:0:
256,192,250224,1,0,0:0:0:0:
256,192,250280,1,8,0:0:0:0:
256,192,250365,1,8,0:0:0:0:
256,192,250450,1,0,0:0:0:0:
256,192,250534,1,8,0:0:0:0:
256,192,250619,1,0,0:0:0:0:
256,192,250704,1,0,0:0:0:0:
256,192,250789,1,8,0:0:0:0:
256,192,250873,1,0,0:0:0:0:
256,192,250958,1,8,0:0:0:0:
256,192,251015,1,8,0:0:0:0:
256,192,251071,1,8,0:0:0:0:
256,192,251128,1,8,0:0:0:0:
256,192,251184,1,8,0:0:0:0:
256,192,251241,1,8,0:0:0:0:
256,192,251297,1,0,0:0:0:0:
256,192,251382,1,8,0:0:0:0:
256,192,251467,1,0,0:0:0:0:
256,192,251551,1,0,0:0:0:0:
256,192,251636,1,8,0:0:0:0:
256,192,251721,1,0,0:0:0:0:
256,192,251806,1,8,0:0:0:0:
256,192,251890,1,8,0:0:0:0:
256,192,251975,1,0,0:0:0:0:
256,192,252314,1,0,0:0:0:0:
256,192,252653,1,8,0:0:0:0:
256,192,252992,1,8,0:0:0:0:
256,192,253049,1,8,0:0:0:0:
256,192,253105,1,8,0:0:0:0:
256,192,253162,1,0,0:0:0:0:
256,192,253218,1,8,0:0:0:0:
256,192,253275,1,8,0:0:0:0:
256,192,253331,1,0,0:0:0:0:
256,192,253416,1,0,0:0:0:0:
256,192,253501,1,8,0:0:0:0:
256,192,253585,1,0,0:0:0:0:
256,192,253670,1,8,0:0:0:0:
256,192,253755,1,8,0:0:0:0:
256,192,253840,1,0,0:0:0:0:
256,192,253924,1,8,0:0:0:0:
256,192,254009,1,0,0:0:0:0:
256,192,254066,1,0,0:0:0:0:
256,192,254122,1,0,0:0:0:0:
256,192,254179,1,8,0:0:0:0:
256,192,254235,1,0,0:0:0:0:
256,192,254291,1,0,0:0:0:0:
256,192,254348,1,8,0:0:0:0:
256,192,254433,1,8,0:0:0:0:
256,192,254517,1,0,0:0:0:0:
256,192,254602,1,8,0:0:0:0:
256,192,254687,1,0,0:0:0:0:
256,192,254772,1,0,0:0:0:0:
256,192,254856,1,8,0:0:0:0:
256,192,254941,1,0,0:0:0:0:
256,192,255026,1,8,0:0:0:0:
256,192,255082,1,8,0:0:0:0:
256,192,255139,1,8,0:0:0:0:
256,192,255195,1,0,0:0:0:0:
256,192,255252,1,8,0:0:0:0:
256,192,255308,1,8,0:0:0:0:
256,192,255365,1,0,0:0:0:0:
256,192,255450,1,8,0:0:0:0:
256,192,255534,1,0,0:0:0:0:
256,192,255619,1,0,0:0:0:0:
256,192,255704,1,8,0:0:0:0:
256,192,255789,1,0,0:0:0:0:
256,192,255873,1,8,0:0:0:0:
256,192,255958,1,8,0:0:0:0:
256,192,256043,1,0,0:0:0:0:
256,192,256382,1,0,0:0:0:0:
256,192,256551,1,8,0:0:0:0:
256,192,256636,1,0,0:0:0:0:
256,192,256721,1,8,0:0:0:0:
256,192,257060,1,8,0:0:0:0:
256,192,257116,1,0,0:0:0:0:
256,192,257173,1,0,0:0:0:0:
256,192,257229,1,8,0:0:0:0:
256,192,257286,1,8,0:0:0:0:
256,192,257342,1,8,0:0:0:0:
256,192,257399,1,0,0:0:0:0:
256,192,257484,1,0,0:0:0:0:
256,192,257568,1,8,0:0:0:0:
256,192,257653,1,0,0:0:0:0:
256,192,257738,1,8,0:0:0:0:
256,192,257823,1,8,0:0:0:0:
256,192,257907,1,0,0:0:0:0:
256,192,257992,1,8,0:0:0:0:
256,192,258077,1,0,0:0:0:0:
256,192,258133,1,8,0:0:0:0:
256,192,258190,1,8,0:0:0:0:
256,192,258246,1,0,0:0:0:0:
256,192,258303,1,0,0:0:0:0:
256,192,258359,1,0,0:0:0:0:
256,192,258416,1,8,0:0:0:0:
256,192,258501,1,8,0:0:0:0:
256,192,258585,1,0,0:0:0:0:
256,192,258670,1,8,0:0:0:0:
256,192,258755,1,0,0:0:0:0:
256,192,258840,1,0,0:0:0:0:
256,192,258924,1,8,0:0:0:0:
256,192,259009,1,0,0:0:0:0:
256,192,259094,1,8,0:0:0:0:
256,192,259150,1,0,0:0:0:0:
256,192,259207,1,0,0:0:0:0:
256,192,259263,1,8,0:0:0:0:
256,192,259320,1,8,0:0:0:0:
256,192,259376,1,8,0:0:0:0:
256,192,259433,1,0,0:0:0:0:
256,192,259517,1,8,0:0:0:0:
256,192,259602,1,0,0:0:0:0:
256,192,259687,1,0,0:0:0:0:
256,192,259772,1,8,0:0:0:0:
256,192,259856,1,0,0:0:0:0:
256,192,259941,1,8,0:0:0:0:
256,192,260026,1,8,0:0:0:0:
256,192,260111,1,0,0:0:0:0:
256,192,260365,1,0,0:0:0:0:
256,192,260534,1,8,0:0:0:0:
256,192,260704,1,0,0:0:0:0:
256,192,260789,1,8,0:0:0:0:
256,192,260902,1,8,0:0:0:0:
256,192,261015,1,8,0:0:0:0:
256,192,261128,1,0,0:0:0:0:
256,192,261184,1,8,0:0:0:0:
256,192,261241,1,8,0:0:0:0:
256,192,261297,1,0,0:0:0:0:
256,192,261354,1,8,0:0:0:0:
256,192,261410,1,8,0:0:0:0:
256,192,261467,1,0,0:0:0:0:
256,192,261551,1,8,0:0:0:0:
256,192,261636,1,0,0:0:0:0:
256,192,261721,1,0,0:0:0:0:
256,192,261806,1,8,0:0:0:0:
256,192,261890,1,8,0:0:0:0:
256,192,261975,1,8,0:0:0:0:
256,192,262060,1,0,0:0:0:0:
256,192,262145,1,8,0:0:0:0:
256,192,262201,1,0,0:0:0:0:
256,192,262258,1,0,0:0:0:0:
256,192,262314,1,8,0:0:0:0:
256,192,262371,1,0,0:0:0:0:
256,192,262427,1,0,0:0:0:0:
256,192,262484,1,8,0:0:0:0:
256,192,262568,1,0,0:0:0:0:
256,192,262653,1,8,0:0:0:0:
256,192,262738,1,8,0:0:0:0:
256,192,262823,1,0,0:0:0:0:
256,192,262907,1,0,0:0:0:0:
256,192,262992,1,0,0:0:0:0:
256,192,263077,1,8,0:0:0:0:
256,192,263162,1,0,0:0:0:0:
256,192,263218,1,0,0:0:0:0:
256,192,263275,1,8,0:0:0:0:
256,192,263331,1,8,0:0:0:0:
256,192,263416,1,0,0:0:0:0:
256,192,263472,1,8,0:0:0:0:
256,192,263529,1,8,0:0:0:0:
256,192,263585,1,0,0:0:0:0:
256,192,263670,1,8,0:0:0:0:
256,192,263727,1,8,0:0:0:0:
256,192,263783,1,0,0:0:0:0:
256,192,263840,1,0,0:0:0:0:
256,192,263924,1,8,0:0:0:0:
256,192,263981,1,0,0:0:0:0:
256,192,264037,1,0,0:0:0:0:
256,192,264094,1,8,0:0:0:0:
256,192,264179,1,0,0:0:0:0:
256,192,264263,1,0,0:0:0:0:
256,192,264348,1,8,0:0:0:0:
256,192,264433,1,0,0:0:0:0:
256,192,264517,1,8,0:0:0:0:
256,192,264602,1,8,0:0:0:0:
256,192,264687,1,0,0:0:0:0:
256,192,264772,1,8,0:0:0:0:
256,192,264856,1,0,0:0:0:0:
256,192,264941,1,8,0:0:0:0:
256,192,265026,1,8,0:0:0:0:
256,192,265111,1,8,0:0:0:0:
256,192,265195,1,0,0:0:0:0:
256,192,265450,1,8,0:0:0:0:
256,192,265704,1,0,0:0:0:0:
256,192,265958,1,0,0:0:0:0:
256,192,267229,1,0,0:0:0:0:
256,192,267484,1,8,0:0:0:0:
256,192,267738,1,0,0:0:0:0:
256,192,267992,1,8,0:0:0:0:
256,192,269263,1,8,0:0:0:0:
256,192,269433,1,0,0:0:0:0:
256,192,269518,1,0,0:0:0:0:
256,192,269602,1,8,0:0:0:0:
256,192,269772,1,0,0:0:0:0:
256,192,269857,1,8,0:0:0:0:
256,192,269941,1,0,0:0:0:0:
256,192,270026,1,0,0:0:0:0:
256,192,270111,1,8,0:0:0:0:
256,192,270280,1,0,0:0:0:0:
256,192,270450,1,8,0:0:0:0:
256,192,270534,1,0,0:0:0:0:
256,192,270619,1,8,0:0:0:0:
256,192,270789,1,0,0:0:0:0:
256,192,270873,1,8,0:0:0:0:
256,192,271043,1,8,0:0:0:0:
256,192,271128,1,0,0:0:0:0:
256,192,271212,1,0,0:0:0:0:
256,192,271297,1,8,0:0:0:0:
256,192,271467,1,0,0:0:0:0:
256,192,271636,1,8,0:0:0:0:
256,192,271721,1,0,0:0:0:0:
256,192,271806,1,0,0:0:0:0:
256,192,271890,1,8,0:0:0:0:
256,192,271975,1,0,0:0:0:0:
256,192,272145,1,8,0:0:0:0:
256,192,272201,1,8,0:0:0:0:
256,192,272258,1,8,0:0:0:0:
256,192,272314,1,0,0:0:0:0:
256,192,272399,1,0,0:0:0:0:
256,192,272484,1,8,0:0:0:0:
256,192,272653,1,0,0:0:0:0:
256,192,272738,1,8,0:0:0:0:
256,192,272823,1,0,0:0:0:0:
256,192,272907,1,8,0:0:0:0:
256,192,272992,1,0,0:0:0:0:
256,192,273077,1,0,0:0:0:0:
256,192,273162,1,8,0:0:0:0:
256,192,273331,1,0,0:0:0:0:
256,192,273501,1,8,0:0:0:0:
256,192,273585,1,0,0:0:0:0:
256,192,273755,1,8,0:0:0:0:
256,192,273840,1,0,0:0:0:0:
256,192,274009,1,8,0:0:0:0:
256,192,274094,1,8,0:0:0:0:
256,192,274179,1,0,0:0:0:0:
256,192,274263,1,8,0:0:0:0:
256,192,274348,1,0,0:0:0:0:
256,192,274518,1,8,0:0:0:0:
256,192,274602,1,0,0:0:0:0:
256,192,274772,1,8,0:0:0:0:
256,192,274857,1,0,0:0:0:0:
256,192,275026,1,8,0:0:0:0:
256,192,275111,1,8,0:0:0:0:
256,192,275196,1,0,0:0:0:0:
256,192,275365,1,12,0:0:0:0:
256,192,275534,1,12,0:0:0:0:
256,192,275704,1,12,0:0:0:0:
256,192,275873,1,12,0:0:0:0:
256,192,276043,1,12,0:0:0:0:
256,192,276212,1,12,0:0:0:0:
256,192,276382,2,0,L|256:128,8,35
256,192,277398,1,8,0:0:0:0:
256,192,277653,1,0,0:0:0:0:
256,192,282224,1,0,0:0:0:0:
256,192,286795,1,0,0:0:0:0:
256,192,291367,1,0,0:0:0:0:
256,192,294795,1,8,0:0:0:0:
256,192,294938,1,0,0:0:0:0:
256,192,295010,1,0,0:0:0:0:
256,192,295081,1,8,0:0:0:0:
256,192,295224,1,0,0:0:0:0:
256,192,295295,1,0,0:0:0:0:
256,192,295367,1,8,0:0:0:0:
256,192,295438,1,0,0:0:0:0:
256,192,295510,1,0,0:0:0:0:
256,192,295581,1,0,0:0:0:0:
256,192,295653,1,8,0:0:0:0:
256,192,295938,1,4,0:0:0:0:
256,192,296224,1,8,0:0:0:0:
256,192,296510,1,0,0:0:0:0:
256,192,296653,1,0,0:0:0:0:
256,192,296795,1,8,0:0:0:0:
256,192,297081,1,0,0:0:0:0:
256,192,297367,1,8,0:0:0:0:
256,192,297510,1,0,0:0:0:0:
256,192,297795,1,0,0:0:0:0:
256,192,297938,1,8,0:0:0:0:
256,192,298224,1,0,0:0:0:0:
256,192,298510,1,8,0:0:0:0:
256,192,298653,1,0,0:0:0:0:
256,192,298795,1,0,0:0:0:0:
256,192,298938,1,0,0:0:0:0:
256,192,299081,1,8,0:0:0:0:
256,192,299367,1,0,0:0:0:0:
256,192,299653,1,8,0:0:0:0:
256,192,299867,1,0,0:0:0:0:
256,192,300081,1,0,0:0:0:0:
256,192,300224,1,8,0:0:0:0:
256,192,300510,1,0,0:0:0:0:
256,192,300795,1,8,0:0:0:0:
256,192,301081,1,0,0:0:0:0:
256,192,301224,1,0,0:0:0:0:
256,192,301367,1,8,0:0:0:0:
256,192,301653,1,0,0:0:0:0:
256,192,301938,1,8,0:0:0:0:
256,192,302081,1,0,0:0:0:0:
256,192,302367,1,0,0:0:0:0:
256,192,302510,1,8,0:0:0:0:
256,192,302795,1,0,0:0:0:0:
256,192,303081,1,8,0:0:0:0:
256,192,303224,1,0,0:0:0:0:
256,192,303367,1,0,0:0:0:0:
256,192,303510,1,0,0:0:0:0:
256,192,303653,1,8,0:0:0:0:
256,192,303938,1,0,0:0:0:0:
256,192,304081,1,8,0:0:0:0:
256,192,304153,1,8,0:0:0:0:
256,192,304224,1,8,0:0:0:0:
256,192,304295,1,8,0:0:0:0:
256,192,304367,1,0,0:0:0:0:
256,192,304510,1,0,0:0:0:0:
256,192,304581,1,0,0:0:0:0:
256,192,304653,1,0,0:0:0:0:
256,192,304724,1,0,0:0:0:0:
256,192,304795,1,8,0:0:0:0:
256,192,304867,1,8,0:0:0:0:
256,192,304938,1,8,0:0:0:0:
256,192,305081,1,4,0:0:0:0:
256,192,305367,1,8,0:0:0:0:
256,192,305653,1,0,0:0:0:0:
256,192,305795,1,0,0:0:0:0:
256,192,305938,1,8,0:0:0:0:
256,192,306224,1,0,0:0:0:0:
256,192,306510,1,8,0:0:0:0:
256,192,306653,1,0,0:0:0:0:
256,192,306938,1,0,0:0:0:0:
256,192,307081,1,8,0:0:0:0:
256,192,307367,1,0,0:0:0:0:
256,192,307653,1,8,0:0:0:0:
256,192,307795,1,0,0:0:0:0:
256,192,307938,1,0,0:0:0:0:
256,192,308081,1,0,0:0:0:0:
256,192,308224,1,8,0:0:0:0:
256,192,308510,1,0,0:0:0:0:
256,192,308795,1,8,0:0:0:0:
256,192,309010,1,0,0:0:0:0:
256,192,309224,1,0,0:0:0:0:
256,192,309367,1,8,0:0:0:0:
256,192,309510,1,8,0:0:0:0:
256,192,309581,1,8,0:0:0:0:
256,192,309653,1,0,0:0:0:0:
256,192,309938,1,8,0:0:0:0:
256,192,310224,1,0,0:0:0:0:
256,192,310367,1,0,0:0:0:0:
256,192,310510,1,8,0:0:0:0:
256,192,310795,1,0,0:0:0:0:
256,192,311081,1,8,0:0:0:0:
256,192,311224,1,0,0:0:0:0:
256,192,311510,1,0,0:0:0:0:
256,192,311653,1,8,0:0:0:0:
256,192,311938,1,0,0:0:0:0:
256,192,312224,1,8,0:0:0:0:
256,192,312367,1,0,0:0:0:0:
256,192,312510,1,0,0:0:0:0:
256,192,312653,1,0,0:0:0:0:
256,192,312795,1,8,0:0:0:0:
256,192,313081,1,0,0:0:0:0:
256,192,313224,1,8,0:0:0:0:
256,192,313295,1,8,0:0:0:0:
256,192,313367,1,8,0:0:0:0:
256,192,313438,1,8,0:0:0:0:
256,192,313510,1,0,0:0:0:0:
256,192,313653,1,0,0:0:0:0:
256,192,313724,1,0,0:0:0:0:
256,192,313795,1,0,0:0:0:0:
256,192,313938,1,8,0:0:0:0:
256,192,314010,1,8,0:0:0:0:
256,192,314081,1,0,0:0:0:0:
256,192,314224,1,12,0:0:0:0:
256,192,314510,1,0,0:0:0:0:
256,192,314653,1,0,0:0:0:0:
256,192,314795,1,8,0:0:0:0:
256,192,315081,1,0,0:0:0:0:
256,192,315224,1,8,0:0:0:0:
256,192,315510,1,0,0:0:0:0:
256,192,315653,1,0,0:0:0:0:
256,192,315795,1,8,0:0:0:0:
256,192,316081,1,0,0:0:0:0:
256,192,316224,1,8,0:0:0:0:
256,192,316510,1,8,0:0:0:0:
256,192,316795,1,0,0:0:0:0:
256,192,316938,1,0,0:0:0:0:
256,192,317081,1,8,0:0:0:0:
256,192,317367,1,0,0:0:0:0:
256,192,317510,1,8,0:0:0:0:
256,192,317795,1,0,0:0:0:0:
256,192,317938,1,0,0:0:0:0:
256,192,318081,1,8,0:0:0:0:
256,192,318367,1,0,0:0:0:0:
256,192,318510,1,8,0:0:0:0:
256,192,318653,1,0,0:0:0:0:
256,192,318724,1,0,0:0:0:0:
256,192,318795,1,8,0:0:0:0:
256,192,319081,1,0,0:0:0:0:
256,192,319224,1,0,0:0:0:0:
256,192,319367,1,8,0:0:0:0:
256,192,319653,1,0,0:0:0:0:
256,192,319795,1,8,0:0:0:0:
256,192,320081,1,0,0:0:0:0:
256,192,320224,1,0,0:0:0:0:
256,192,320367,1,8,0:0:0:0:
256,192,320653,1,0,0:0:0:0:
256,192,320795,1,8,0:0:0:0:
256,192,321081,1,8,0:0:0:0:
256,192,321367,1,0,0:0:0:0:
256,192,321510,1,0,0:0:0:0:
256,192,321653,1,8,0:0:0:0:
256,192,321938,1,0,0:0:0:0:
256,192,322081,1,8,0:0:0:0:
256,192,322367,1,0,0:0:0:0:
256,192,322510,1,0,0:0:0:0:
256,192,322653,1,8,0:0:0:0:
256,192,322938,1,0,0:0:0:0:
256,192,323081,1,8,0:0:0:0:
256,192,323153,1,0,0:0:0:0:
256,192,323224,1,8,0:0:0:0:
256,192,323367,1,4,0:0:0:0:
256,192,323653,1,8,0:0:0:0:
256,192,323795,1,8,0:0:0:0:
256,192,323938,1,0,0:0:0:0:
256,192,324224,1,8,0:0:0:0:
256,192,324367,1,0,0:0:0:0:
256,192,324653,1,8,0:0:0:0:
256,192,324795,1,8,0:0:0:0:
256,192,324938,1,0,0:0:0:0:
256,192,325224,1,8,0:0:0:0:
256,192,325367,1,0,0:0:0:0:
256,192,325653,1,0,0:0:0:0:
256,192,325938,1,8,0:0:0:0:
256,192,326081,1,8,0:0:0:0:
256,192,326224,1,0,0:0:0:0:
256,192,326510,1,8,0:0:0:0:
256,192,326653,1,0,0:0:0:0:
256,192,326938,1,8,0:0:0:0:
256,192,327081,1,8,0:0:0:0:
256,192,327224,1,0,0:0:0:0:
256,192,327510,1,8,0:0:0:0:
256,192,327653,1,0,0:0:0:0:
256,192,327795,1,8,0:0:0:0:
256,192,327867,1,8,0:0:0:0:
256,192,327938,1,0,0:0:0:0:
256,192,328224,1,8,0:0:0:0:
256,192,328367,1,8,0:0:0:0:
256,192,328510,1,0,0:0:0:0:
256,192,328795,1,8,0:0:0:0:
256,192,328938,1,0,0:0:0:0:
256,192,329224,1,8,0:0:0:0:
256,192,329367,1,8,0:0:0:0:
256,192,329510,1,0,0:0:0:0:
256,192,329795,1,8,0:0:0:0:
256,192,329938,1,0,0:0:0:0:
256,192,330224,1,0,0:0:0:0:
256,192,330510,1,8,0:0:0:0:
256,192,330653,1,8,0:0:0:0:
256,192,330795,1,0,0:0:0:0:
256,192,331081,1,8,0:0:0:0:
256,192,331224,1,0,0:0:0:0:
256,192,331510,1,8,0:0:0:0:
256,192,331581,1,8,0:0:0:0:
256,192,331653,1,8,0:0:0:0:
256,192,331724,1,0,0:0:0:0:
256,192,331795,1,0,0:0:0:0:
256,192,331867,1,0,0:0:0:0:
256,192,331938,1,8,0:0:0:0:
256,192,332010,1,0,0:0:0:0:
256,192,332081,1,0,0:0:0:0:
256,192,332153,1,8,0:0:0:0:
256,192,332224,1,0,0:0:0:0:
256,192,332295,1,0,0:0:0:0:
256,192,332367,1,8,0:0:0:0:
256,192,332438,1,8,0:0:0:0:
256,192,332510,1,0,0:0:0:0:
256,192,332653,1,8,0:0:0:0:
256,192,332724,1,0,0:0:0:0:
256,192,332795,1,8,0:0:0:0:
256,192,332867,1,8,0:0:0:0:
256,192,332938,1,0,0:0:0:0:
256,192,333081,1,0,0:0:0:0:
256,192,333153,1,8,0:0:0:0:
256,192,333224,1,0,0:0:0:0:
256,192,333295,1,0,0:0:0:0:
256,192,333367,1,8,0:0:0:0:
256,192,333438,1,8,0:0:0:0:
256,192,333510,1,0,0:0:0:0:
256,192,333653,1,8,0:0:0:0:
256,192,333795,1,0,0:0:0:0:
256,192,333938,1,8,0:0:0:0:
256,192,334081,1,8,0:0:0:0:
256,192,334224,1,0,0:0:0:0:
256,192,334367,1,8,0:0:0:0:
256,192,334510,1,8,0:0:0:0:
256,192,334653,1,0,0:0:0:0:
256,192,334938,1,8,0:0:0:0:
256,192,335224,1,8,0:0:0:0:
256,192,335510,1,0,0:0:0:0:
256,192,335795,1,8,0:0:0:0:
256,192,336081,1,0,0:0:0:0:
256,192,336224,1,8,0:0:0:0:
256,192,336367,1,0,0:0:0:0:
256,192,336653,1,0,0:0:0:0:
256,192,336795,1,8,0:0:0:0:
256,192,336938,1,0,0:0:0:0:
256,192,337081,1,8,0:0:0:0:
256,192,337224,1,8,0:0:0:0:
256,192,337510,1,0,0:0:0:0:
256,192,337795,1,0,0:0:0:0:
256,192,338081,1,8,0:0:0:0:
256,192,338367,1,0,0:0:0:0:
256,192,338510,1,8,0:0:0:0:
256,192,338653,1,0,0:0:0:0:
256,192,338938,1,0,0:0:0:0:
256,192,339081,1,8,0:0:0:0:
256,192,339224,1,0,0:0:0:0:
256,192,339367,1,8,0:0:0:0:
256,192,339510,1,8,0:0:0:0:
256,192,339795,1,8,0:0:0:0:
256,192,340081,1,8,0:0:0:0:
256,192,340367,1,8,0:0:0:0:
256,192,340510,1,0,0:0:0:0:
256,192,340653,1,8,0:0:0:0:
256,192,340724,1,8,0:0:0:0:
256,192,340795,1,8,0:0:0:0:
256,192,340867,1,8,0:0:0:0:
256,192,340938,1,0,0:0:0:0:
256,192,341081,1,0,0:0:0:0:
256,192,341153,1,0,0:0:0:0:
256,192,341224,1,8,0:0:0:0:
256,192,341295,1,0,0:0:0:0:
256,192,341367,1,8,0:0:0:0:
256,192,341438,1,8,0:0:0:0:
256,192,341510,1,0,0:0:0:0:
256,192,341581,1,8,0:0:0:0:
256,192,341653,1,0,0:0:0:0:
256,192,341795,1,8,0:0:0:0:
256,192,341867,1,8,0:0:0:0:
256,192,341938,1,0,0:0:0:0:
256,192,342010,1,0,0:0:0:0:
256,192,342081,1,8,0:0:0:0:
256,192,342224,1,0,0:0:0:0:
256,192,342367,1,8,0:0:0:0:
256,192,342414,1,8,0:0:0:0:
256,192,342462,1,8,0:0:0:0:
256,192,342510,1,0,0:0:0:0:
256,192,342653,1,8,0:0:0:0:
256,192,342795,1,8,0:0:0:0:
256,192,342867,1,0,0:0:0:0:
256,192,342938,1,8,0:0:0:0:
256,192,343081,1,0,0:0:0:0:
256,192,343153,1,8,0:0:0:0:
256,192,343224,1,8,0:0:0:0:
256,192,343295,1,0,0:0:0:0:
256,192,343367,1,8,0:0:0:0:
256,192,343510,1,8,0:0:0:0:
256,192,343653,1,0,0:0:0:0:
256,192,343748,1,8,0:0:0:0:
256,192,343795,1,8,0:0:0:0:
256,192,344081,1,0,0:0:0:0:
256,192,344367,1,0,0:0:0:0:
256,192,344653,1,0,0:0:0:0:
256,192,344938,1,8,0:0:0:0:
256,192,345224,1,0,0:0:0:0:
256,192,345367,1,8,0:0:0:0:
256,192,345510,1,0,0:0:0:0:
256,192,345938,1,8,0:0:0:0:
256,192,346081,1,0,0:0:0:0:
256,192,346153,1,0,0:0:0:0:
256,192,346224,1,8,0:0:0:0:
256,192,346367,1,0,0:0:0:0:
256,192,346510,1,8,0:0:0:0:
256,192,346653,1,0,0:0:0:0:
256,192,347081,1,8,0:0:0:0:
256,192,347224,1,0,0:0:0:0:
256,192,347653,1,8,0:0:0:0:
256,192,347795,1,0,0:0:0:0:
256,192,348081,1,0,0:0:0:0:
256,192,348224,1,8,0:0:0:0:
256,192,348367,1,0,0:0:0:0:
256,192,348653,1,8,0:0:0:0:
256,192,348795,1,0,0:0:0:0:
256,192,348938,1,8,0:0:0:0:
256,192,349224,1,8,0:0:0:0:
256,192,349510,1,8,0:0:0:0:
256,192,349653,1,0,0:0:0:0:
256,192,349795,1,8,0:0:0:0:
256,192,349867,1,8,0:0:0:0:
256,192,349938,1,8,0:0:0:0:
256,192,350010,1,8,0:0:0:0:
256,192,350081,1,0,0:0:0:0:
256,192,350224,1,0,0:0:0:0:
256,192,350295,1,8,0:0:0:0:
256,192,350367,1,0,0:0:0:0:
256,192,350438,1,0,0:0:0:0:
256,192,350510,1,8,0:0:0:0:
256,192,350581,1,0,0:0:0:0:
256,192,350653,1,8,0:0:0:0:
256,192,350724,1,8,0:0:0:0:
256,192,350795,1,0,0:0:0:0:
256,192,351224,1,8,0:0:0:0:
256,192,351510,1,8,0:0:0:0:
256,192,351795,1,8,0:0:0:0:
256,192,352081,1,8,0:0:0:0:
256,192,352367,1,8,0:0:0:0:
256,192,352653,1,8,0:0:0:0:
256,192,352938,1,8,0:0:0:0:
256,192,353081,1,8,0:0:0:0:
256,192,353510,1,8,0:0:0:0:
256,192,353795,1,8,0:0:0:0:
256,192,354081,1,8,0:0:0:0:
256,192,354367,1,8,0:0:0:0:
256,192,354653,1,8,0:0:0:0:
256,192,354938,1,8,0:0:0:0:
256,192,355224,1,8,0:0:0:0:
256,192,355367,1,0,0:0:0:0:
256,192,355795,1,0,0:0:0:0:
256,192,356081,1,0,0:0:0:0:
256,192,356367,1,0,0:0:0:0:
256,192,356653,1,0,0:0:0:0:
256,192,356938,1,0,0:0:0:0:
256,192,357224,1,0,0:0:0:0:
256,192,357510,1,0,0:0:0:0:
256,192,357653,1,8,0:0:0:0:
256,192,358081,1,8,0:0:0:0:
256,192,358367,1,8,0:0:0:0:
256,192,358653,1,8,0:0:0:0:
256,192,358795,1,8,0:0:0:0:
256,192,358938,1,0,0:0:0:0:
256,192,359010,1,0,0:0:0:0:
256,192,359081,1,8,0:0:0:0:
256,192,359224,1,0,0:0:0:0:
256,192,359295,1,0,0:0:0:0:
256,192,359367,1,8,0:0:0:0:
256,192,359438,1,0,0:0:0:0:
256,192,359510,1,0,0:0:0:0:
256,192,359581,1,0,0:0:0:0:
256,192,359653,1,8,0:0:0:0:
256,192,359795,1,12,0:0:0:0:
256,192,360234,2,4,L|0:192,104,233.100005690918
256,192,377817,2,4,L|0:192,76,174.825004268189
256,192,384359,8,0,394234,0:0:0:0:
256,192,394567,5,8,0:0:0:0:
256,192,394622,1,8,0:0:0:0:
256,192,394678,1,8,0:0:0:0:
256,192,394734,1,8,0:0:0:0:
256,192,394789,1,8,0:0:0:0:
256,192,394845,1,8,0:0:0:0:
256,192,394900,1,0,0:0:0:0:
256,192,395400,1,0,0:0:0:0:
256,192,395566,1,8,0:0:0:0:
256,192,396233,1,0,0:0:0:0:
256,192,396566,1,0,0:0:0:0:
256,192,396733,1,0,0:0:0:0:
256,192,396900,1,8,0:0:0:0:
256,192,397566,1,0,0:0:0:0:
256,192,397900,1,0,0:0:0:0:
256,192,398066,1,0,0:0:0:0:
256,192,398233,1,8,0:0:0:0:
256,192,398900,1,0,0:0:0:0:
256,192,399066,1,8,0:0:0:0:
256,192,399234,1,0,0:0:0:0:
256,192,399734,1,0,0:0:0:0:
256,192,399900,1,8,0:0:0:0:
256,192,400567,1,0,0:0:0:0:
256,192,400900,1,0,0:0:0:0:
256,192,401067,1,0,0:0:0:0:
256,192,401234,1,8,0:0:0:0:
256,192,401900,1,0,0:0:0:0:
256,192,402234,1,0,0:0:0:0:
256,192,402400,1,0,0:0:0:0:
256,192,402567,1,8,0:0:0:0:
256,192,403234,1,0,0:0:0:0:
256,192,403400,1,8,0:0:0:0:
256,192,403567,1,0,0:0:0:0:
256,192,404067,1,0,0:0:0:0:
256,192,404233,1,8,0:0:0:0:
256,192,404900,1,0,0:0:0:0:
256,192,405233,1,0,0:0:0:0:
256,192,405400,1,0,0:0:0:0:
256,192,405567,1,8,0:0:0:0:
256,192,406233,1,0,0:0:0:0:
256,192,406567,1,0,0:0:0:0:
256,192,406733,1,0,0:0:0:0:
256,192,406900,1,8,0:0:0:0:
256,192,407567,1,0,0:0:0:0:
256,192,407733,1,8,0:0:0:0:
256,192,407900,1,0,0:0:0:0:
256,192,408400,1,0,0:0:0:0:
256,192,408566,1,8,0:0:0:0:
256,192,409233,1,0,0:0:0:0:
256,192,409566,1,0,0:0:0:0:
256,192,409733,1,0,0:0:0:0:
256,192,409900,1,8,0:0:0:0:
256,192,410566,1,0,0:0:0:0:
256,192,410900,1,0,0:0:0:0:
256,192,411066,1,0,0:0:0:0:
256,192,411233,1,8,0:0:0:0:
256,192,411900,1,0,0:0:0:0:
256,192,412066,1,8,0:0:0:0:
256,192,412234,1,0,0:0:0:0:
256,192,412567,1,0,0:0:0:0:
256,192,412734,1,0,0:0:0:0:
256,192,412900,1,8,0:0:0:0:
256,192,413067,1,0,0:0:0:0:
256,192,413234,1,8,0:0:0:0:
256,192,413400,1,8,0:0:0:0:
256,192,413567,1,0,0:0:0:0:
256,192,413734,1,8,0:0:0:0:
256,192,413900,1,0,0:0:0:0:
256,192,414067,1,0,0:0:0:0:
256,192,414234,1,0,0:0:0:0:
256,192,414400,1,8,0:0:0:0:
256,192,414567,1,8,0:0:0:0:
256,192,414734,1,8,0:0:0:0:
256,192,414900,1,0,0:0:0:0:
256,192,415067,1,0,0:0:0:0:
256,192,415234,1,8,0:0:0:0:
256,192,415400,1,0,0:0:0:0:
256,192,415567,1,0,0:0:0:0:
256,192,415734,1,8,0:0:0:0:
256,192,415900,1,0,0:0:0:0:
256,192,416067,1,0,0:0:0:0:
256,192,416234,1,8,0:0:0:0:
256,192,416400,1,0,0:0:0:0:
256,192,416567,1,8,0:0:0:0:
256,192,416733,1,0,0:0:0:0:
256,192,417067,1,0,0:0:0:0:
256,192,417233,1,8,0:0:0:0:
256,192,417400,1,0,0:0:0:0:
256,192,417567,1,0,0:0:0:0:
256,192,417733,1,0,0:0:0:0:
256,192,417900,1,8,0:0:0:0:
256,192,418067,1,8,0:0:0:0:
256,192,418233,1,8,0:0:0:0:
256,192,418400,1,8,0:0:0:0:
256,192,418567,1,8,0:0:0:0:
256,192,418733,1,8,0:0:0:0:
256,192,418900,1,8,0:0:0:0:
256,192,419067,1,8,0:0:0:0:
256,192,419233,1,0,0:0:0:0:
256,192,419400,1,8,0:0:0:0:
256,192,419567,1,8,0:0:0:0:
256,192,419733,1,0,0:0:0:0:
256,192,419900,1,8,0:0:0:0:
256,192,420067,1,8,0:0:0:0:
256,192,420233,1,8,0:0:0:0:
256,192,420400,1,8,0:0:0:0:
256,192,420567,1,0,0:0:0:0:
256,192,420733,1,8,0:0:0:0:
256,192,420900,1,0,0:0:0:0:
256,192,421233,1,8,0:0:0:0:
256,192,421400,1,0,0:0:0:0:
256,192,421733,1,8,0:0:0:0:
256,192,421900,1,8,0:0:0:0:
256,192,422066,1,0,0:0:0:0:
256,192,422233,1,8,0:0:0:0:
256,192,422400,1,8,0:0:0:0:
256,192,422566,1,8,0:0:0:0:
256,192,422733,1,8,0:0:0:0:
256,192,422900,1,0,0:0:0:0:
256,192,423066,1,8,0:0:0:0:
256,192,423233,1,8,0:0:0:0:
256,192,423400,1,8,0:0:0:0:
256,192,423566,1,0,0:0:0:0:
256,192,423733,1,8,0:0:0:0:
256,192,424066,1,8,0:0:0:0:
256,192,424566,1,8,0:0:0:0:
256,192,424733,1,8,0:0:0:0:
256,192,424900,1,8,0:0:0:0:
256,192,425066,1,8,0:0:0:0:
256,192,425400,1,0,0:0:0:0:
256,192,425734,1,8,0:0:0:0:
256,192,425900,1,0,0:0:0:0:
256,192,426067,1,8,0:0:0:0:
256,192,426234,1,8,0:0:0:0:
256,192,426400,1,0,0:0:0:0:
256,192,426567,1,8,0:0:0:0:
256,192,426734,1,8,0:0:0:0:
256,192,426900,1,8,0:0:0:0:
256,192,427067,1,0,0:0:0:0:
256,192,427234,1,0,0:0:0:0:
256,192,427400,1,0,0:0:0:0:
256,192,427567,1,8,0:0:0:0:
256,192,427734,1,0,0:0:0:0:
256,192,427900,1,8,0:0:0:0:
256,192,428011,1,8,0:0:0:0:
256,192,428122,1,8,0:0:0:0:
256,192,428234,1,0,0:0:0:0:
256,192,428400,1,8,0:0:0:0:
256,192,428567,1,0,0:0:0:0:
256,192,428678,1,8,0:0:0:0:
256,192,428789,1,8,0:0:0:0:
256,192,428900,1,0,0:0:0:0:
256,192,429067,1,8,0:0:0:0:
256,192,429234,1,0,0:0:0:0:
256,192,429317,1,0,0:0:0:0:
256,192,429400,1,8,0:0:0:0:
256,192,429484,1,8,0:0:0:0:
256,192,429567,1,0,0:0:0:0:
256,192,429650,1,0,0:0:0:0:
256,192,429734,1,8,0:0:0:0:
256,192,429817,1,0,0:0:0:0:
256,192,429900,1,8,0:0:0:0:
256,192,430067,1,0,0:0:0:0:
256,192,430990,8,0,432040,0:0:0:0:
256,192,432190,8,0,433470,0:0:0:0:
256,192,433653,8,0,435071,0:0:0:0:
256,192,435274,8,0,436995,0:0:0:0:
256,192,437241,8,0,439341,0:0:0:0:
256,192,439641,8,0,446882,0:0:0:0:
256,192,447116,5,8,0:0:0:0:
256,192,447362,1,0,0:0:0:0:
256,192,447486,1,0,0:0:0:0:
256,192,447609,1,8,0:0:0:0:
256,192,447733,1,0,0:0:0:0:
256,192,447856,1,0,0:0:0:0:
256,192,447980,1,8,0:0:0:0:
256,192,448227,1,0,0:0:0:0:
256,192,448350,1,0,0:0:0:0:
256,192,448474,1,8,0:0:0:0:
256,192,448535,1,8,0:0:0:0:
256,192,448597,1,8,0:0:0:0:
256,192,448720,1,0,0:0:0:0:
256,192,448844,1,0,0:0:0:0:
256,192,448906,1,0,0:0:0:0:
256,192,448967,1,0,0:0:0:0:
256,192,449029,1,0,0:0:0:0:
256,192,449091,1,8,0:0:0:0:
256,192,449337,1,8,0:0:0:0:
256,192,449461,1,8,0:0:0:0:
256,192,449584,1,0,0:0:0:0:
256,192,449646,1,0,0:0:0:0:
256,192,449708,1,8,0:0:0:0:
256,192,449831,1,8,0:0:0:0:
256,192,449893,1,8,0:0:0:0:
256,192,449955,1,0,0:0:0:0:
256,192,450078,1,0,0:0:0:0:
256,192,450140,1,0,0:0:0:0:
256,192,450202,1,8,0:0:0:0:
256,192,450263,1,8,0:0:0:0:
256,192,450325,1,8,0:0:0:0:
256,192,450572,1,8,0:0:0:0:
256,192,450818,1,0,0:0:0:0:
256,192,451127,1,0,0:0:0:0:
256,192,451189,1,0,0:0:0:0:
256,192,451251,1,8,0:0:0:0:
256,192,451395,1,0,0:0:0:0:
256,192,451559,1,8,0:0:0:0:
256,192,451724,1,0,0:0:0:0:
256,192,451868,1,0,0:0:0:0:
256,192,451992,1,8,0:0:0:0:
256,192,452115,1,0,0:0:0:0:
256,192,452238,1,8,0:0:0:0:
256,192,452362,1,8,0:0:0:0:
256,192,452486,1,0,0:0:0:0:
256,192,452568,1,0,0:0:0:0:
256,192,452650,1,8,0:0:0:0:
256,192,452732,1,0,0:0:0:0:
256,192,452815,1,0,0:0:0:0:
256,192,452897,1,8,0:0:0:0:
256,192,452979,1,0,0:0:0:0:
256,192,453144,1,8,0:0:0:0:
256,192,453309,1,0,0:0:0:0:
256,192,453551,1,8,0:0:0:0:
256,192,453674,1,0,0:0:0:0:
256,192,453797,1,8,0:0:0:0:
256,192,454538,1,0,0:0:0:0:
256,192,454661,1,8,0:0:0:0:
256,192,454723,1,8,0:0:0:0:
256,192,454784,1,0,0:0:0:0:
256,192,454908,1,0,0:0:0:0:
256,192,455031,1,8,0:0:0:0:
256,192,455093,1,8,0:0:0:0:
256,192,455155,1,0,0:0:0:0:
256,192,455278,1,0,0:0:0:0:
256,192,455340,1,0,0:0:0:0:
256,192,455402,1,8,0:0:0:0:
256,192,455463,1,8,0:0:0:0:
256,192,455525,1,0,0:0:0:0:
256,192,455649,1,8,0:0:0:0:
256,192,455710,1,0,0:0:0:0:
256,192,455772,1,8,0:0:0:0:
256,192,455834,1,0,0:0:0:0:
256,192,455896,1,8,0:0:0:0:
256,192,455957,1,8,0:0:0:0:
256,192,456019,1,0,0:0:0:0:
256,192,456081,1,0,0:0:0:0:
256,192,456142,1,0,0:0:0:0:
256,192,456204,1,0,0:0:0:0:
256,192,456266,1,8,0:0:0:0:
256,192,456389,1,0,0:0:0:0:
256,192,456451,1,8,0:0:0:0:
256,192,456512,1,0,0:0:0:0:
256,192,456635,1,8,0:0:0:0:
256,192,456697,1,0,0:0:0:0:
256,192,456758,1,8,0:0:0:0:
256,192,456820,1,0,0:0:0:0:
256,192,456882,1,8,0:0:0:0:
256,192,456944,1,0,0:0:0:0:
256,192,457005,1,8,0:0:0:0:
256,192,457067,1,8,0:0:0:0:
256,192,457129,1,8,0:0:0:0:
256,192,457191,1,8,0:0:0:0:
256,192,457252,1,0,0:0:0:0:
256,192,457314,1,0,0:0:0:0:
256,192,457376,1,8,0:0:0:0:
256,192,457468,1,0,0:0:0:0:
256,192,457561,1,8,0:0:0:0:
256,192,457623,1,0,0:0:0:0:
256,192,457684,1,0,0:0:0:0:
256,192,457746,1,8,0:0:0:0:
256,192,457808,1,8,0:0:0:0:
256,192,457870,1,0,0:0:0:0:
256,192,458118,1,8,0:0:0:0:
256,192,458190,1,8,0:0:0:0:
256,192,458262,1,8,0:0:0:0:
256,192,458335,1,0,0:0:0:0:
256,192,458407,1,0,0:0:0:0:
256,192,458480,1,0,0:0:0:0:
256,192,458551,1,8,0:0:0:0:
256,192,458736,1,8,0:0:0:0:
256,192,458797,1,0,0:0:0:0:
256,192,458921,1,8,0:0:0:0:
256,192,458983,1,0,0:0:0:0:
256,192,459044,1,8,0:0:0:0:
256,192,459168,1,0,0:0:0:0:
256,192,459230,1,8,0:0:0:0:
256,192,459291,1,0,0:0:0:0:
256,192,459353,1,0,0:0:0:0:
256,192,459415,1,8,0:0:0:0:
256,192,459538,1,0,0:0:0:0:
256,192,459600,1,8,0:0:0:0:
256,192,459723,1,8,0:0:0:0:
256,192,459784,1,0,0:0:0:0:
256,192,459846,1,8,0:0:0:0:
256,192,459969,1,8,0:0:0:0:
256,192,460031,1,8,0:0:0:0:
256,192,460093,1,8,0:0:0:0:
256,192,460155,1,8,0:0:0:0:
256,192,460217,1,0,0:0:0:0:
256,192,460299,1,8,0:0:0:0:
256,192,460381,1,8,0:0:0:0:
256,192,460463,1,0,0:0:0:0:
256,192,460546,1,8,0:0:0:0:
256,192,460628,1,8,0:0:0:0:
256,192,460710,1,0,0:0:0:0:
256,192,460875,1,8,0:0:0:0:
256,192,461040,1,0,0:0:0:0:
256,192,461122,1,8,0:0:0:0:
256,192,461235,1,0,0:0:0:0:
256,192,461297,1,0,0:0:0:0:
256,192,461358,1,8,0:0:0:0:
256,192,461420,1,8,0:0:0:0:
256,192,461620,1,8,0:0:0:0:
256,192,461743,1,0,0:0:0:0:
256,192,461866,1,8,0:0:0:0:
256,192,462113,1,8,0:0:0:0:
256,192,462360,1,8,0:0:0:0:
256,192,462422,1,8,0:0:0:0:
256,192,462484,1,8,0:0:0:0:
256,192,462545,1,8,0:0:0:0:
256,192,462607,1,0,0:0:0:0:
256,192,462689,1,0,0:0:0:0:
256,192,462771,1,0,0:0:0:0:
256,192,462853,1,8,0:0:0:0:
256,192,462977,1,0,0:0:0:0:
256,192,463100,1,8,0:0:0:0:
256,192,463183,1,8,0:0:0:0:
256,192,463265,1,8,0:0:0:0:
256,192,463347,1,0,0:0:0:0:
256,192,463471,1,8,0:0:0:0:
256,192,463532,1,8,0:0:0:0:
256,192,463594,1,0,0:0:0:0:
256,192,463718,1,0,0:0:0:0:
256,192,463841,1,8,0:0:0:0:
256,192,463965,1,0,0:0:0:0:
256,192,464026,1,0,0:0:0:0:
256,192,464088,1,8,0:0:0:0:
256,192,464170,1,0,0:0:0:0:
256,192,464253,1,8,0:0:0:0:
256,192,464335,1,8,0:0:0:0:
256,192,464417,1,0,0:0:0:0:
256,192,464582,1,0,0:0:0:0:
256,192,464664,1,0,0:0:0:0:
256,192,464746,1,8,0:0:0:0:
256,192,464828,1,8,0:0:0:0:
256,192,464911,1,0,0:0:0:0:
256,192,464993,1,8,0:0:0:0:
256,192,465075,1,0,0:0:0:0:
256,192,465158,1,0,0:0:0:0:
256,192,465240,1,8,0:0:0:0:
256,192,465322,1,0,0:0:0:0:
256,192,465384,1,8,0:0:0:0:
256,192,465446,1,8,0:0:0:0:
256,192,465507,1,8,0:0:0:0:
256,192,465569,1,0,0:0:0:0:
256,192,465693,1,8,0:0:0:0:
256,192,465754,1,8,0:0:0:0:
256,192,465816,1,0,0:0:0:0:
256,192,465940,1,8,0:0:0:0:
256,192,466063,1,0,0:0:0:0:
256,192,466145,1,0,0:0:0:0:
256,192,466228,1,0,0:0:0:0:
256,192,466311,1,8,0:0:0:0:
256,192,466434,1,0,0:0:0:0:
256,192,466496,1,8,0:0:0:0:
256,192,466557,1,0,0:0:0:0:
256,192,466619,1,0,0:0:0:0:
256,192,466681,1,8,0:0:0:0:
256,192,466743,1,0,0:0:0:0:
256,192,466804,1,8,0:0:0:0:
256,192,466887,1,0,0:0:0:0:
256,192,467051,1,0,0:0:0:0:
256,192,467175,1,8,0:0:0:0:
256,192,467236,1,8,0:0:0:0:
256,192,467298,1,8,0:0:0:0:
256,192,467360,1,0,0:0:0:0:
256,192,467484,1,8,0:0:0:0:
256,192,467576,1,8,0:0:0:0:
256,192,467669,1,0,0:0:0:0:
256,192,467761,1,0,0:0:0:0:
256,192,467854,1,8,0:0:0:0:
256,192,467978,1,0,0:0:0:0:
256,192,468060,1,8,0:0:0:0:
256,192,468142,1,0,0:0:0:0:
256,192,468224,1,0,0:0:0:0:
256,192,468307,1,8,0:0:0:0:
256,192,468389,1,0,0:0:0:0:
256,192,468471,1,8,0:0:0:0:
256,192,468554,1,8,0:0:0:0:
256,192,468636,1,8,0:0:0:0:
256,192,468718,1,8,0:0:0:0:
256,192,468801,1,0,0:0:0:0:
256,192,469042,1,8,0:0:0:0:
256,192,469165,1,8,0:0:0:0:
256,192,469288,1,0,0:0:0:0:
256,192,469350,1,0,0:0:0:0:
256,192,469412,1,0,0:0:0:0:
256,192,469474,1,0,0:0:0:0:
256,192,469535,1,8,0:0:0:0:
256,192,469659,1,0,0:0:0:0:
256,192,469782,1,8,0:0:0:0:
256,192,469823,1,8,0:0:0:0:
256,192,469865,1,8,0:0:0:0:
256,192,469906,1,8,0:0:0:0:
256,192,469967,1,8,0:0:0:0:
256,192,470029,1,0,0:0:0:0:
256,192,470152,1,8,0:0:0:0:
256,192,470214,1,8,0:0:0:0:
256,192,470275,1,0,0:0:0:0:
256,192,470399,1,0,0:0:0:0:
256,192,470522,1,8,0:0:0:0:
256,192,470584,1,8,0:0:0:0:
256,192,470646,1,0,0:0:0:0:
256,192,470769,1,0,0:0:0:0:
256,192,470893,1,8,0:0:0:0:
256,192,470954,1,8,0:0:0:0:
256,192,471016,1,8,0:0:0:0:
256,192,471140,1,8,0:0:0:0:
256,192,471201,1,0,0:0:0:0:
256,192,471263,1,8,0:0:0:0:
256,192,471325,1,0,0:0:0:0:
256,192,471387,1,8,0:0:0:0:
256,192,471448,1,0,0:0:0:0:
256,192,471510,1,8,0:0:0:0:
256,192,471633,1,0,0:0:0:0:
256,192,471757,1,0,0:0:0:0:
256,192,471819,1,8,0:0:0:0:
256,192,471880,1,8,0:0:0:0:
256,192,471942,1,0,0:0:0:0:
256,192,472004,1,8,0:0:0:0:
256,192,472066,1,8,0:0:0:0:
256,192,472127,1,0,0:0:0:0:
256,192,472251,1,8,0:0:0:0:
256,192,472312,1,0,0:0:0:0:
256,192,472374,1,8,0:0:0:0:
256,192,472436,1,8,0:0:0:0:
256,192,472498,1,0,0:0:0:0:
256,192,472559,1,0,0:0:0:0:
256,192,472621,1,8,0:0:0:0:
256,192,472745,1,0,0:0:0:0:
256,192,472868,1,8,0:0:0:0:
256,192,472950,1,0,0:0:0:0:
256,192,473033,1,8,0:0:0:0:
256,192,473115,1,0,0:0:0:0:
256,192,473238,1,8,0:0:0:0:
256,192,473362,1,8,0:0:0:0:
256,192,473418,1,8,0:0:0:0:
256,192,473475,1,8,0:0:0:0:
256,192,473531,1,8,0:0:0:0:
256,192,473588,1,8,0:0:0:0:
256,192,473645,1,8,0:0:0:0:
256,192,473701,1,8,0:0:0:0:
256,192,473758,1,8,0:0:0:0:
256,192,473814,1,8,0:0:0:0:
256,192,473871,1,8,0:0:0:0:
256,192,473928,1,8,0:0:0:0:
256,192,473984,1,8,0:0:0:0:
256,192,474042,1,0,0:0:0:0:
256,192,474227,1,8,0:0:0:0:
256,192,474288,1,0,0:0:0:0:
256,192,474412,1,0,0:0:0:0:
256,192,474474,1,0,0:0:0:0:
256,192,474535,1,8,0:0:0:0:
256,192,474659,1,8,0:0:0:0:
256,192,474721,1,0,0:0:0:0:
256,192,474782,1,0,0:0:0:0:
256,192,474844,1,0,0:0:0:0:
256,192,474906,1,8,0:0:0:0:
256,192,474998,1,8,0:0:0:0:
256,192,475091,1,0,0:0:0:0:
256,192,475214,1,8,0:0:0:0:
256,192,475275,1,0,0:0:0:0:
256,192,475337,1,8,0:0:0:0:
256,192,475460,1,0,0:0:0:0:
256,192,475522,1,0,0:0:0:0:
256,192,475584,1,8,0:0:0:0:
256,192,475646,1,8,0:0:0:0:
256,192,475708,1,0,0:0:0:0:
256,192,475790,1,0,0:0:0:0:
256,192,475872,1,8,0:0:0:0:
256,192,475954,1,0,0:0:0:0:
256,192,476037,1,0,0:0:0:0:
256,192,476119,1,8,0:0:0:0:
256,192,476201,1,8,0:0:0:0:
256,192,476366,1,8,0:0:0:0:
256,192,476448,1,8,0:0:0:0:
256,192,476531,1,0,0:0:0:0:
256,192,476613,1,0,0:0:0:0:
256,192,476695,1,8,0:0:0:0:
256,192,476788,1,0,0:0:0:0:
256,192,476834,1,8,0:0:0:0:
256,192,476880,1,0,0:0:0:0:
256,192,476973,1,8,0:0:0:0:
256,192,477066,1,0,0:0:0:0:
256,192,477119,1,0,0:0:0:0:
256,192,477173,1,0,0:0:0:0:
256,192,477227,1,0,0:0:0:0:
256,192,477282,1,8,0:0:0:0:
256,192,477405,1,0,0:0:0:0:
256,192,477528,1,8,0:0:0:0:
256,192,477775,1,0,0:0:0:0:
256,192,477899,1,8,0:0:0:0:
256,192,477961,1,8,0:0:0:0:
256,192,478022,1,0,0:0:0:0:
256,192,479020,1,0,0:0:0:0:
256,192,479266,1,0,0:0:0:0:
256,192,479513,1,0,0:0:0:0:
256,192,479760,1,0,0:0:0:0:
256,192,480007,1,0,0:0:0:0:
256,192,480253,1,0,0:0:0:0:
256,192,480500,1,0,0:0:0:0:
256,192,480747,1,8,0:0:0:0:
256,192,480830,1,8,0:0:0:0:
256,192,480994,1,0,0:0:0:0:
256,192,481076,1,8,0:0:0:0:
256,192,481159,1,8,0:0:0:0:
256,192,481241,1,0,0:0:0:0:
256,192,481406,1,8,0:0:0:0:
256,192,481489,1,0,0:0:0:0:
256,192,481735,1,0,0:0:0:0:
256,192,481982,1,0,0:0:0:0:
256,192,482229,1,0,0:0:0:0:
256,192,482476,1,0,0:0:0:0:
256,192,482722,1,0,0:0:0:0:
256,192,482969,1,0,0:0:0:0:
256,192,483216,1,8,0:0:0:0:
256,192,483299,1,8,0:0:0:0:
256,192,483463,1,8,0:0:0:0:
256,192,483545,1,0,0:0:0:0:
256,192,483628,1,8,0:0:0:0:
256,192,483792,1,0,0:0:0:0:
256,192,483875,1,8,0:0:0:0:
256,192,483958,1,0,0:0:0:0:
256,192,484204,1,0,0:0:0:0:
256,192,484451,1,0,0:0:0:0:
256,192,484698,1,0,0:0:0:0:
256,192,484945,1,0,0:0:0:0:
256,192,485191,1,0,0:0:0:0:
256,192,485438,1,0,0:0:0:0:
256,192,485685,1,8,0:0:0:0:
256,192,485768,1,8,0:0:0:0:
256,192,485932,1,0,0:0:0:0:
256,192,486014,1,8,0:0:0:0:
256,192,486097,1,8,0:0:0:0:
256,192,486179,1,0,0:0:0:0:
256,192,486344,1,8,0:0:0:0:
256,192,486427,1,0,0:0:0:0:
256,192,486673,1,0,0:0:0:0:
256,192,486920,1,0,0:0:0:0:
256,192,487167,1,0,0:0:0:0:
256,192,487415,1,0,0:0:0:0:
256,192,487661,1,0,0:0:0:0:
256,192,487908,1,0,0:0:0:0:
256,192,488073,1,8,0:0:0:0:
256,192,488155,1,8,0:0:0:0:
256,192,488238,1,0,0:0:0:0:
256,192,488320,1,8,0:0:0:0:
256,192,488402,1,0,0:0:0:0:
256,192,488484,1,8,0:0:0:0:
256,192,488567,1,0,0:0:0:0:
256,192,488649,1,8,0:0:0:0:
256,192,488731,1,8,0:0:0:0:
256,192,488814,1,8,0:0:0:0:
256,192,488896,1,0,0:0:0:0:
256,192,489142,1,0,0:0:0:0:
256,192,489389,1,0,0:0:0:0:
256,192,489636,1,0,0:0:0:0:
256,192,489884,1,0,0:0:0:0:
256,192,490130,1,0,0:0:0:0:
256,192,490377,1,0,0:0:0:0:
256,192,490624,1,8,0:0:0:0:
256,192,490707,1,8,0:0:0:0:
256,192,490871,1,0,0:0:0:0:
256,192,490953,1,8,0:0:0:0:
256,192,491036,1,8,0:0:0:0:
256,192,491118,1,0,0:0:0:0:
256,192,491283,1,8,0:0:0:0:
256,192,491365,1,0,0:0:0:0:
256,192,491611,1,0,0:0:0:0:
256,192,491858,1,0,0:0:0:0:
256,192,492105,1,0,0:0:0:0:
256,192,492353,1,0,0:0:0:0:
256,192,492599,1,0,0:0:0:0:
256,192,492846,1,0,0:0:0:0:
256,192,493093,1,8,0:0:0:0:
256,192,493176,1,8,0:0:0:0:
256,192,493340,1,8,0:0:0:0:
256,192,493422,1,0,0:0:0:0:
256,192,493505,1,8,0:0:0:0:
256,192,493669,1,0,0:0:0:0:
256,192,493752,1,8,0:0:0:0:
256,192,493834,1,0,0:0:0:0:
256,192,494080,1,0,0:0:0:0:
256,192,494327,1,0,0:0:0:0:
256,192,494574,1,0,0:0:0:0:
256,192,494822,1,0,0:0:0:0:
256,192,495068,1,0,0:0:0:0:
256,192,495315,1,0,0:0:0:0:
256,192,495562,1,8,0:0:0:0:
256,192,495645,1,8,0:0:0:0:
256,192,495809,1,0,0:0:0:0:
256,192,495891,1,8,0:0:0:0:
256,192,495974,1,8,0:0:0:0:
256,192,496056,1,0,0:0:0:0:
256,192,496221,1,8,0:0:0:0:
256,192,496303,1,0,0:0:0:0:
256,192,496549,1,0,0:0:0:0:
256,192,496796,1,0,0:0:0:0:
256,192,497043,1,0,0:0:0:0:
256,192,497291,1,8,0:0:0:0:
256,192,497373,1,0,0:0:0:0:
256,192,497455,1,0,0:0:0:0:
256,192,497537,1,8,0:0:0:0:
256,192,497702,1,0,0:0:0:0:
256,192,497784,1,8,0:0:0:0:
256,192,497867,1,0,0:0:0:0:
256,192,497949,1,8,0:0:0:0:
256,192,498031,1,8,0:0:0:0:
256,192,498114,1,0,0:0:0:0:
256,192,498196,1,8,0:0:0:0:
256,192,498278,1,0,0:0:0:0:
256,192,498360,1,8,0:0:0:0:
256,192,498443,1,0,0:0:0:0:
256,192,498525,1,8,0:0:0:0:
256,192,498607,1,8,0:0:0:0:
256,192,498690,1,8,0:0:0:0:
256,192,498772,1,0,0:0:0:0:
256,192,499015,1,8,0:0:0:0:
256,192,499124,1,0,0:0:0:0:
256,192,499198,1,0,0:0:0:0:
256,192,499381,1,8,0:0:0:0:
256,192,499564,1,8,0:0:0:0:
256,192,499747,1,8,0:0:0:0:
256,192,499808,1,0,0:0:0:0:
256,192,499869,1,8,0:0:0:0:
256,192,499991,1,0,0:0:0:0:
256,192,500116,1,8,0:0:0:0:
256,192,500198,1,8,0:0:0:0:
256,192,500280,1,8,0:0:0:0:
256,192,500362,1,8,0:0:0:0:
256,192,500445,1,8,0:0:0:0:
256,192,500527,1,8,0:0:0:0:
256,192,500609,1,8,0:0:0:0:
256,192,500692,1,8,0:0:0:0:
256,192,500774,1,8,0:0:0:0:
256,192,500857,1,0,0:0:0:0:
256,192,500918,1,0,0:0:0:0:
256,192,500980,1,0,0:0:0:0:
256,192,501042,1,0,0:0:0:0:
256,192,501103,1,8,0:0:0:0:
256,192,501165,1,8,0:0:0:0:
256,192,501227,1,0,0:0:0:0:
256,192,501289,1,0,0:0:0:0:
256,192,501350,1,0,0:0:0:0:
256,192,501412,1,0,0:0:0:0:
256,192,501474,1,8,0:0:0:0:
256,192,501536,1,8,0:0:0:0:
256,192,501597,1,0,0:0:0:0:
256,192,501659,1,0,0:0:0:0:
256,192,501721,1,0,0:0:0:0:
256,192,501782,1,0,0:0:0:0:
256,192,501844,1,8,0:0:0:0:
256,192,501906,1,0,0:0:0:0:
256,192,501968,1,8,0:0:0:0:
256,192,502029,1,8,0:0:0:0:
256,192,502091,1,0,0:0:0:0:
256,192,502153,1,8,0:0:0:0:
256,192,502215,1,0,0:0:0:0:
256,192,502276,1,0,0:0:0:0:
256,192,502338,1,8,0:0:0:0:
256,192,502400,1,0,0:0:0:0:
256,192,502461,1,8,0:0:0:0:
256,192,502585,1,0,0:0:0:0:
256,192,502646,1,8,0:0:0:0:
256,192,502708,1,0,0:0:0:0:
256,192,502770,1,0,0:0:0:0:
256,192,502831,1,8,0:0:0:0:
256,192,502893,1,0,0:0:0:0:
256,192,502955,1,8,0:0:0:0:
256,192,503017,1,8,0:0:0:0:
256,192,503078,1,0,0:0:0:0:
256,192,503140,1,8,0:0:0:0:
256,192,503202,1,0,0:0:0:0:
256,192,503264,1,0,0:0:0:0:
256,192,503325,1,8,0:0:0:0:
256,192,503387,1,0,0:0:0:0:
256,192,503449,1,8,0:0:0:0:
256,192,503510,1,8,0:0:0:0:
256,192,503572,1,0,0:0:0:0:
256,192,503633,1,8,0:0:0:0:
256,192,503695,1,8,0:0:0:0:
256,192,503757,1,8,0:0:0:0:
256,192,503818,1,0,0:0:0:0:
256,192,503880,1,8,0:0:0:0:
256,192,503942,1,8,0:0:0:0:
256,192,504004,1,0,0:0:0:0:
256,192,504065,1,8,0:0:0:0:
256,192,504127,1,8,0:0:0:0:
256,192,504189,1,0,0:0:0:0:
256,192,504251,1,8,0:0:0:0:
256,192,504312,1,0,0:0:0:0:
256,192,504374,1,8,0:0:0:0:
256,192,504436,1,8,0:0:0:0:
256,192,504497,1,0,0:0:0:0:
256,192,504559,1,8,0:0:0:0:
256,192,504621,1,8,0:0:0:0:
256,192,504683,1,8,0:0:0:0:
256,192,504744,1,0,0:0:0:0:
256,192,504868,1,8,0:0:0:0:
256,192,504929,1,8,0:0:0:0:
256,192,504991,1,8,0:0:0:0:
256,192,505053,1,8,0:0:0:0:
256,192,505114,1,0,0:0:0:0:
256,192,505176,1,0,0:0:0:0:
256,192,505238,1,8,0:0:0:0:
256,192,505300,1,8,0:0:0:0:
256,192,505361,1,8,0:0:0:0:
256,192,505423,1,8,0:0:0:0:
256,192,505485,1,0,0:0:0:0:
256,192,505547,1,0,0:0:0:0:
256,192,505608,1,8,0:0:0:0:
256,192,505670,1,8,0:0:0:0:
256,192,505732,1,8,0:0:0:0:
256,192,505793,1,8,0:0:0:0:
256,192,505855,1,0,0:0:0:0:
256,192,505917,1,8,0:0:0:0:
256,192,505979,1,0,0:0:0:0:
256,192,506040,1,8,0:0:0:0:
256,192,506102,1,8,0:0:0:0:
256,192,506164,1,0,0:0:0:0:
256,192,506287,1,0,0:0:0:0:
256,192,506348,1,0,0:0:0:0:
256,192,506410,1,8,0:0:0:0:
256,192,506472,1,0,0:0:0:0:
256,192,506533,1,8,0:0:0:0:
256,192,506595,1,8,0:0:0:0:
256,192,506657,1,0,0:0:0:0:
256,192,506719,1,8,0:0:0:0:
256,192,506780,1,0,0:0:0:0:
256,192,506842,1,0,0:0:0:0:
256,192,506904,1,8,0:0:0:0:
256,192,506966,1,8,0:0:0:0:
256,192,507027,1,0,0:0:0:0:
256,192,507089,1,8,0:0:0:0:
256,192,507151,1,8,0:0:0:0:
256,192,507212,1,8,0:0:0:0:
256,192,507274,1,0,0:0:0:0:
256,192,507336,1,0,0:0:0:0:
256,192,507398,1,8,0:0:0:0:
256,192,507459,1,0,0:0:0:0:
256,192,507521,1,8,0:0:0:0:
256,192,507577,1,0,0:0:0:0:
256,192,507633,1,0,0:0:0:0:
256,192,507689,1,8,0:0:0:0:
256,192,507745,1,0,0:0:0:0:
256,192,507801,1,0,0:0:0:0:
256,192,507858,1,8,0:0:0:0:
256,192,507919,1,0,0:0:0:0:
256,192,507981,1,8,0:0:0:0:
256,192,508043,1,8,0:0:0:0:
256,192,508104,1,0,0:0:0:0:
256,192,508166,1,8,0:0:0:0:
256,192,508228,1,0,0:0:0:0:
256,192,508351,1,8,0:0:0:0:
256,192,508412,1,8,0:0:0:0:
256,192,508474,1,8,0:0:0:0:
256,192,508536,1,0,0:0:0:0:
256,192,508597,1,0,0:0:0:0:
256,192,508659,1,0,0:0:0:0:
256,192,508721,1,8,0:0:0:0:
256,192,508844,1,8,0:0:0:0:
256,192,508906,1,0,0:0:0:0:
256,192,508968,1,0,0:0:0:0:
256,192,509030,1,0,0:0:0:0:
256,192,509091,1,8,0:0:0:0:
256,192,509215,1,0,0:0:0:0:
256,192,509276,1,0,0:0:0:0:
256,192,509338,1,8,0:0:0:0:
256,192,509400,1,8,0:0:0:0:
256,192,509461,1,8,0:0:0:0:
256,192,509523,1,8,0:0:0:0:
256,192,509585,1,0,0:0:0:0:
256,192,509647,1,0,0:0:0:0:
256,192,509708,1,8,0:0:0:0:
256,192,509770,1,8,0:0:0:0:
256,192,509832,1,8,0:0:0:0:
256,192,509894,1,8,0:0:0:0:
256,192,509955,1,0,0:0:0:0:
256,192,510017,1,0,0:0:0:0:
256,192,510079,1,8,0:0:0:0:
256,192,510140,1,8,0:0:0:0:
256,192,510202,1,0,0:0:0:0:
256,192,510264,1,8,0:0:0:0:
256,192,510326,1,0,0:0:0:0:
256,192,510387,1,0,0:0:0:0:
256,192,510449,1,8,0:0:0:0:
256,192,510511,1,0,0:0:0:0:
256,192,510573,1,8,0:0:0:0:
256,192,510634,1,8,0:0:0:0:
256,192,510696,1,0,0:0:0:0:
256,192,510758,1,8,0:0:0:0:
256,192,510819,1,0,0:0:0:0:
256,192,510943,1,8,0:0:0:0:
256,192,511004,1,8,0:0:0:0:
256,192,511066,1,0,0:0:0:0:
256,192,511128,1,8,0:0:0:0:
256,192,511189,1,0,0:0:0:0:
256,192,511251,1,0,0:0:0:0:
256,192,511313,1,8,0:0:0:0:
256,192,511375,1,0,0:0:0:0:
256,192,511436,1,8,0:0:0:0:
256,192,511498,1,8,0:0:0:0:
256,192,511560,1,0,0:0:0:0:
256,192,511622,1,0,0:0:0:0:
256,192,511683,1,8,0:0:0:0:
256,192,511745,1,8,0:0:0:0:
256,192,511807,1,8,0:0:0:0:
256,192,511868,1,0,0:0:0:0:
256,192,511930,1,8,0:0:0:0:
256,192,511991,1,8,0:0:0:0:
256,192,512053,1,0,0:0:0:0:
256,192,512115,1,8,0:0:0:0:
256,192,512176,1,0,0:0:0:0:
256,192,512238,1,0,0:0:0:0:
256,192,512300,1,8,0:0:0:0:
256,192,512362,1,0,0:0:0:0:
256,192,512423,1,8,0:0:0:0:
256,192,512485,1,8,0:0:0:0:
256,192,512547,1,0,0:0:0:0:
256,192,512609,1,8,0:0:0:0:
256,192,512670,1,8,0:0:0:0:
256,192,512732,1,0,0:0:0:0:
256,192,512794,1,8,0:0:0:0:
256,192,512855,1,0,0:0:0:0:
256,192,512917,1,8,0:0:0:0:
256,192,512979,1,8,0:0:0:0:
256,192,513041,1,8,0:0:0:0:
256,192,513102,1,0,0:0:0:0:
256,192,513226,1,8,0:0:0:0:
256,192,513287,1,8,0:0:0:0:
256,192,513349,1,0,0:0:0:0:
256,192,513411,1,0,0:0:0:0:
256,192,513472,1,0,0:0:0:0:
256,192,513534,1,0,0:0:0:0:
256,192,513596,1,8,0:0:0:0:
256,192,513658,1,8,0:0:0:0:
256,192,513719,1,0,0:0:0:0:
256,192,513781,1,0,0:0:0:0:
256,192,513843,1,0,0:0:0:0:
256,192,513905,1,0,0:0:0:0:
256,192,513966,1,8,0:0:0:0:
256,192,514028,1,0,0:0:0:0:
256,192,514090,1,8,0:0:0:0:
256,192,514151,1,8,0:0:0:0:
256,192,514213,1,0,0:0:0:0:
256,192,514275,1,8,0:0:0:0:
256,192,514337,1,0,0:0:0:0:
256,192,514398,1,8,0:0:0:0:
256,192,514460,1,8,0:0:0:0:
256,192,514522,1,0,0:0:0:0:
256,192,514645,1,0,0:0:0:0:
256,192,514706,1,8,0:0:0:0:
256,192,514768,1,0,0:0:0:0:
256,192,514830,1,0,0:0:0:0:
256,192,514891,1,8,0:0:0:0:
256,192,514953,1,0,0:0:0:0:
256,192,515015,1,8,0:0:0:0:
256,192,515077,1,8,0:0:0:0:
256,192,515138,1,0,0:0:0:0:
256,192,515200,1,8,0:0:0:0:
256,192,515262,1,8,0:0:0:0:
256,192,515324,1,8,0:0:0:0:
256,192,515385,1,0,0:0:0:0:
256,192,515447,1,0,0:0:0:0:
256,192,515509,1,8,0:0:0:0:
256,192,515570,1,8,0:0:0:0:
256,192,515632,1,0,0:0:0:0:
256,192,515694,1,8,0:0:0:0:
256,192,515756,1,0,0:0:0:0:
256,192,515817,1,0,0:0:0:0:
256,192,515879,1,8,0:0:0:0:
256,192,515935,1,8,0:0:0:0:
256,192,515991,1,8,0:0:0:0:
256,192,516047,1,0,0:0:0:0:
256,192,516103,1,0,0:0:0:0:
256,192,516159,1,0,0:0:0:0:
256,192,516216,1,8,0:0:0:0:
256,192,516277,1,0,0:0:0:0:
256,192,516339,1,8,0:0:0:0:
256,192,516401,1,8,0:0:0:0:
256,192,516462,1,0,0:0:0:0:
256,192,516524,1,8,0:0:0:0:
256,192,516586,1,0,0:0:0:0:
256,192,516709,1,8,0:0:0:0:
256,192,516770,1,0,0:0:0:0:
256,192,516832,1,0,0:0:0:0:
256,192,516894,1,8,0:0:0:0:
256,192,516955,1,0,0:0:0:0:
256,192,517017,1,0,0:0:0:0:
256,192,517079,1,8,0:0:0:0:
256,192,517202,1,8,0:0:0:0:
256,192,517264,1,8,0:0:0:0:
256,192,517326,1,0,0:0:0:0:
256,192,517388,1,8,0:0:0:0:
256,192,517449,1,8,0:0:0:0:
256,192,517573,1,0,0:0:0:0:
256,192,517819,1,8,0:0:0:0:
256,192,517881,1,0,0:0:0:0:
256,192,517943,1,8,0:0:0:0:
256,192,518005,1,0,0:0:0:0:
256,192,518066,1,8,0:0:0:0:
256,192,518128,1,8,0:0:0:0:
256,192,518190,1,0,0:0:0:0:
256,192,518252,1,0,0:0:0:0:
256,192,518313,1,8,0:0:0:0:
256,192,518375,1,0,0:0:0:0:
256,192,518437,1,8,0:0:0:0:
256,192,518498,1,0,0:0:0:0:
256,192,518560,1,8,0:0:0:0:
256,192,518622,1,8,0:0:0:0:
256,192,518684,1,0,0:0:0:0:
256,192,518745,1,0,0:0:0:0:
256,192,518807,1,8,0:0:0:0:
256,192,518992,1,0,0:0:0:0:
256,192,519054,1,8,0:0:0:0:
256,192,519177,1,8,0:0:0:0:
256,192,519301,1,0,0:0:0:0:
256,192,519547,1,8,0:0:0:0:
256,192,519671,1,0,0:0:0:0:
256,192,519918,1,8,0:0:0:0:
256,192,520041,1,0,0:0:0:0:
256,192,520103,1,0,0:0:0:0:
256,192,520165,1,0,0:0:0:0:
256,192,520288,1,8,0:0:0:0:
256,192,520411,1,0,0:0:0:0:
256,192,520473,1,8,0:0:0:0:
256,192,520534,1,0,0:0:0:0:
256,192,520658,1,8,0:0:0:0:
256,192,520781,1,0,0:0:0:0:
256,192,520843,1,0,0:0:0:0:
256,192,520905,1,8,0:0:0:0:
256,192,520967,1,0,0:0:0:0:
256,192,521028,1,8,0:0:0:0:
256,192,521152,1,0,0:0:0:0:
256,192,521275,1,8,0:0:0:0:
256,192,521399,1,8,0:0:0:0:
256,192,521460,1,8,0:0:0:0:
256,192,521522,1,8,0:0:0:0:
256,192,521584,1,0,0:0:0:0:
256,192,521830,1,0,0:0:0:0:
256,192,521954,1,8,0:0:0:0:
256,192,522077,1,0,0:0:0:0:
256,192,522139,1,0,0:0:0:0:
256,192,522201,1,0,0:0:0:0:
256,192,522324,1,8,0:0:0:0:
256,192,522448,1,0,0:0:0:0:
256,192,522509,1,8,0:0:0:0:
256,192,522571,1,8,0:0:0:0:
256,192,522633,1,0,0:0:0:0:
256,192,522756,1,8,0:0:0:0:
256,192,522818,1,8,0:0:0:0:
256,192,522880,1,8,0:0:0:0:
256,192,522942,1,8,0:0:0:0:
256,192,523003,1,0,0:0:0:0:
256,192,523249,1,0,0:0:0:0:
256,192,523373,1,0,0:0:0:0:
256,192,523435,1,0,0:0:0:0:
256,192,523496,1,8,0:0:0:0:
256,192,523620,1,0,0:0:0:0:
256,192,523743,1,8,0:0:0:0:
256,192,523784,1,0,0:0:0:0:
256,192,523826,1,0,0:0:0:0:
256,192,523867,1,8,0:0:0:0:
256,192,523990,1,0,0:0:0:0:
256,192,524114,1,0,0:0:0:0:
256,192,524237,1,0,0:0:0:0:
256,192,524407,1,8,0:0:0:0:
256,192,524574,1,0,0:0:0:0:
256,192,524697,1,8,0:0:0:0:
256,192,524820,1,8,0:0:0:0:
256,192,524944,1,8,0:0:0:0:
256,192,525006,1,8,0:0:0:0:
256,192,525067,1,0,0:0:0:0:
256,192,525190,1,0,0:0:0:0:
256,192,525252,1,8,0:0:0:0:
256,192,525313,1,0,0:0:0:0:
256,192,525437,1,0,0:0:0:0:
256,192,525499,1,0,0:0:0:0:
256,192,525560,1,8,0:0:0:0:
256,192,525746,1,8,0:0:0:0:
256,192,525931,1,0,0:0:0:0:
256,192,526177,1,8,0:0:0:0:
256,192,526301,1,0,0:0:0:0:
256,192,526363,1,0,0:0:0:0:
256,192,526424,1,0,0:0:0:0:
256,192,526486,1,0,0:0:0:0:
256,192,526548,1,8,0:0:0:0:
256,192,526671,1,0,0:0:0:0:
256,192,526733,1,8,0:0:0:0:
256,192,526795,1,0,0:0:0:0:
256,192,526856,1,0,0:0:0:0:
256,192,526918,1,8,0:0:0:0:
256,192,527042,1,0,0:0:0:0:
256,192,527103,1,0,0:0:0:0:
256,192,527165,1,8,0:0:0:0:
256,192,527289,1,0,0:0:0:0:
256,192,527412,1,8,0:0:0:0:
256,192,527474,1,0,0:0:0:0:
256,192,527535,1,8,0:0:0:0:
256,192,527597,1,8,0:0:0:0:
256,192,527659,1,0,0:0:0:0:
256,192,527844,1,0,0:0:0:0:
256,192,527905,1,8,0:0:0:0:
256,192,528029,1,0,0:0:0:0:
256,192,528276,1,8,0:0:0:0:
256,192,528399,1,0,0:0:0:0:
256,192,528461,1,0,0:0:0:0:
256,192,528523,1,0,0:0:0:0:
256,192,528646,1,8,0:0:0:0:
256,192,528769,1,0,0:0:0:0:
256,192,528831,1,8,0:0:0:0:
256,192,528892,1,0,0:0:0:0:
256,192,529016,1,8,0:0:0:0:
256,192,529139,1,0,0:0:0:0:
256,192,529201,1,0,0:0:0:0:
256,192,529263,1,8,0:0:0:0:
256,192,529325,1,0,0:0:0:0:
256,192,529386,1,8,0:0:0:0:
256,192,529510,1,0,0:0:0:0:
256,192,529633,1,8,0:0:0:0:
256,192,529757,1,8,0:0:0:0:
256,192,529818,1,8,0:0:0:0:
256,192,529880,1,8,0:0:0:0:
256,192,529942,1,0,0:0:0:0:
256,192,530188,1,0,0:0:0:0:
256,192,530312,1,8,0:0:0:0:
256,192,530435,1,0,0:0:0:0:
256,192,530497,1,0,0:0:0:0:
256,192,530559,1,0,0:0:0:0:
256,192,530682,1,8,0:0:0:0:
256,192,530806,1,0,0:0:0:0:
256,192,530867,1,8,0:0:0:0:
256,192,530929,1,8,0:0:0:0:
256,192,530991,1,0,0:0:0:0:
256,192,531114,1,8,0:0:0:0:
256,192,531176,1,8,0:0:0:0:
256,192,531238,1,8,0:0:0:0:
256,192,531300,1,8,0:0:0:0:
256,192,531361,1,0,0:0:0:0:
256,192,531484,1,0,0:0:0:0:
256,192,531546,1,0,0:0:0:0:
256,192,531607,1,8,0:0:0:0:
256,192,531669,1,0,0:0:0:0:
256,192,531731,1,8,0:0:0:0:
256,192,531793,1,0,0:0:0:0:
256,192,531854,1,8,0:0:0:0:
256,192,531916,1,8,0:0:0:0:
256,192,531978,1,0,0:0:0:0:
256,192,532040,1,0,0:0:0:0:
256,192,532101,1,8,0:0:0:0:
256,192,532163,1,0,0:0:0:0:
256,192,532225,1,8,0:0:0:0:
256,192,532348,1,0,0:0:0:0:
256,192,532472,1,0,0:0:0:0:
256,192,532595,1,0,0:0:0:0:
256,192,532765,1,8,0:0:0:0:
256,192,532932,1,0,0:0:0:0:
256,192,533055,1,8,0:0:0:0:
256,192,533178,1,8,0:0:0:0:
256,192,533302,1,8,0:0:0:0:
256,192,533364,1,8,0:0:0:0:
256,192,533425,1,0,0:0:0:0:
256,192,533671,1,0,0:0:0:0:
256,192,533918,1,8,0:0:0:0:
256,192,534104,1,8,0:0:0:0:
256,192,534289,1,0,0:0:0:0:
256,192,534470,1,8,0:0:0:0:
256,192,534652,1,0,0:0:0:0:
256,192,534834,1,8,0:0:0:0:
256,192,534925,1,0,0:0:0:0:
256,192,535198,1,8,0:0:0:0:
256,192,535270,1,8,0:0:0:0:
256,192,535342,1,8,0:0:0:0:
256,192,535415,1,8,0:0:0:0:
256,192,535483,1,8,0:0:0:0:
256,192,535561,1,8,0:0:0:0:
256,192,535646,1,8,0:0:0:0:
256,192,535743,1,8,0:0:0:0:
256,192,535830,1,8,0:0:0:0:
256,192,535930,1,8,0:0:0:0:
256,192,536039,1,8,0:0:0:0:
256,192,536145,1,8,0:0:0:0:
256,192,536247,1,8,0:0:0:0:
256,192,536372,1,8,0:0:0:0:
256,192,536517,1,8,0:0:0:0:
256,192,536685,1,8,0:0:0:0:
256,192,536869,1,8,0:0:0:0:
256,192,537081,1,8,0:0:0:0:
256,192,537310,1,8,0:0:0:0:
256,192,537557,1,8,0:0:0:0:
256,192,537847,1,8,0:0:0:0:
256,192,538174,1,8,0:0:0:0:
256,192,538524,1,0,0:0:0:0:
256,192,538875,1,8,0:0:0:0:
256,192,539226,1,8,0:0:0:0:
256,192,540574,8,0,548577,0:0:0:0:
256,192,548853,6,0,L|256:160,8,26.2500010013581
