osu file format v14

[General]
AudioFilename: audio.mp3
AudioLeadIn: 0
PreviewTime: 77389
Countdown: 0
SampleSet: Soft
StackLeniency: 0.7
Mode: 3
LetterboxInBreaks: 0
SpecialStyle: 0
WidescreenStoryboard: 1

[Editor]
Bookmarks: -48,67660,134552,204360,277834,360406,447294
DistanceSpacing: 0.8
BeatDivisor: 8
GridSize: 4
TimelineZoom: 3.105438

[Metadata]
Title:XNOR XNOR XNOR
TitleUnicode:XNOR XNOR XNOR
Artist:Frums
ArtistUnicode:Frums
Creator:FLeVI
Version:(AND) OR (NOR)
Source:osu!
Tags:featured artist fa frums.xyz frumsdotxyz metacontinues bonus track sequence experimental idm jazz Moon Fire Water Wood Metal Earth Sun digital fusion electronic instrumental
BeatmapID:2588413
BeatmapSetID:1245249

[Difficulty]
HPDrainRate:8
CircleSize:4
OverallDifficulty:8.2
ApproachRate:5
SliderMultiplier:1.4
SliderTickRate:1

[Events]
//Background and Video events
0,0,"XNOR.png",0,0
//Break Periods
//Storyboard Layer 0 (Background)
//Storyboard Layer 1 (Fail)
//Storyboard Layer 2 (Pass)
//Storyboard Layer 3 (Foreground)
//Storyboard Layer 4 (Overlay)
//Storyboard Sound Samples
Sample,25993,0,"hat+rim.wav",70
Sample,26305,0,"Rim.wav",20
Sample,53493,0,"LR_HiHat Click2.wav",30
Sample,53614,0,"hat+rim.wav",70
Sample,64639,0,"hat+rim.wav",70
Sample,111804,0,"Snare-Side.wav",70
Sample,111894,0,"Snare-Side.wav",70
Sample,172821,0,"Shaker01.wav",50
Sample,172917,0,"LR_HiHat Click2.wav",30
Sample,176667,0,"Shaker01.wav",50
Sample,176763,0,"LR_HiHat Click2.wav",30
Sample,177532,0,"LR_HiHat Click2.wav",30
Sample,178205,0,"LR_HiHat Click2.wav",30
Sample,178302,0,"LR_HiHat Click2.wav",30
Sample,178686,0,"LR_HiHat Click2.wav",30
Sample,179071,0,"LR_HiHat Click2.wav",30
Sample,179840,0,"LR_HiHat Click2.wav",30
Sample,180513,0,"Shaker01.wav",50
Sample,180609,0,"LR_HiHat Click2.wav",30
Sample,181378,0,"LR_HiHat Click2.wav",30
Sample,182052,0,"LR_HiHat Click2.wav",30
Sample,182148,0,"LR_HiHat Click2.wav",30
Sample,182917,0,"LR_HiHat Click2.wav",30
Sample,183686,0,"LR_HiHat Click2.wav",30
Sample,184359,0,"Shaker01.wav",50
Sample,185225,0,"LR_HiHat Click2.wav",30
Sample,185898,0,"LR_HiHat Click2.wav",30
Sample,185994,0,"LR_HiHat Click2.wav",30
Sample,186763,0,"LR_HiHat Click2.wav",30
Sample,187148,0,"LR_HiHat Click2.wav",30
Sample,187532,0,"LR_HiHat Click2.wav",30
Sample,188205,0,"Shaker01.wav",50
Sample,188302,0,"LR_HiHat Click2.wav",30
Sample,189071,0,"LR_HiHat Click2.wav",30
Sample,189840,0,"LR_HiHat Click2.wav",30
Sample,191282,0,"LR_HiHat Click2.wav",30
Sample,191378,0,"LR_HiHat Click2.wav",30
Sample,192821,0,"LR_HiHat Click2.wav",30
Sample,192917,0,"LR_HiHat Click2.wav",30
Sample,193590,0,"LR_HiHat Click2.wav",30
Sample,193686,0,"LR_HiHat Click2.wav",30
Sample,194455,0,"LR_HiHat Click2.wav",30
Sample,195128,0,"Shaker01.wav",50
Sample,195225,0,"LR_HiHat Click2.wav",30
Sample,196667,0,"Shaker01.wav",50
Sample,196763,0,"LR_HiHat Click2.wav",30
Sample,197436,0,"LR_HiHat Click2.wav",30
Sample,197532,0,"LR_HiHat Click2.wav",30
Sample,198302,0,"LR_HiHat Click2.wav",30
Sample,198975,0,"LR_HiHat Click2.wav",30
Sample,199071,0,"LR_HiHat Click2.wav",30
Sample,219021,0,"Kick1.wav",70
Sample,234444,0,"kickdrum.wav",70
Sample,235122,0,"snare-hard.wav",30
Sample,235292,0,"Kick1.wav",70
Sample,242241,0,"snare-hard.wav",30
Sample,242410,0,"Kick1.wav",70
Sample,249360,0,"snare-hard.wav",30
Sample,250376,0,"snare-hard.wav",30
Sample,251393,0,"snare-hard.wav",30
Sample,253427,0,"snare-hard.wav",30
Sample,254444,0,"snare-hard.wav",30
Sample,255461,0,"snare-hard.wav",30
Sample,257495,0,"snare-hard.wav",30
Sample,258512,0,"snare-hard.wav",30
Sample,259529,0,"snare-hard.wav",30
Sample,261563,0,"snare-hard.wav",30
Sample,262580,0,"snare-hard.wav",30
Sample,296119,0,"GM1PH_02.wav",70
Sample,296834,0,"GM1PH_02.wav",70
Sample,297262,0,"GM1PH_02.wav",70
Sample,297976,0,"GM1PH_02.wav",70
Sample,298405,0,"GM1PH_02.wav",70
Sample,299119,0,"GM1PH_02.wav",70
Sample,299548,0,"GM1PH_02.wav",70
Sample,300262,0,"GM1PH_02.wav",70
Sample,301405,0,"GM1PH_02.wav",70
Sample,301834,0,"GM1PH_02.wav",70
Sample,302548,0,"GM1PH_02.wav",70
Sample,302976,0,"GM1PH_02.wav",70
Sample,303691,0,"GM1PH_02.wav",70
Sample,304834,0,"hat5.wav",70
Sample,305262,0,"GM1PH_02.wav",70
Sample,305976,0,"GM1PH_02.wav",70
Sample,306405,0,"GM1PH_02.wav",70
Sample,307119,0,"GM1PH_02.wav",70
Sample,307548,0,"GM1PH_02.wav",70
Sample,308262,0,"GM1PH_02.wav",70
Sample,308691,0,"GM1PH_02.wav",70
Sample,309405,0,"GM1PH_02.wav",70
Sample,309834,0,"GM1PH_02.wav",70
Sample,310548,0,"GM1PH_02.wav",70
Sample,310976,0,"GM1PH_02.wav",70
Sample,311691,0,"GM1PH_02.wav",70
Sample,312119,0,"GM1PH_02.wav",70
Sample,312834,0,"GM1PH_02.wav",70
Sample,313976,0,"hat5.wav",70
Sample,314405,0,"hat5.wav",70
Sample,314976,0,"hat5.wav",70
Sample,315405,0,"hat5.wav",70
Sample,315976,0,"hat5.wav",70
Sample,316405,0,"hat5.wav",70
Sample,316691,0,"hat5.wav",70
Sample,317262,0,"hat5.wav",70
Sample,317691,0,"hat5.wav",70
Sample,318262,0,"hat5.wav",70
Sample,318691,0,"hat5.wav",70
Sample,318976,0,"hat5.wav",70
Sample,319548,0,"hat5.wav",70
Sample,319976,0,"hat5.wav",70
Sample,320548,0,"hat5.wav",70
Sample,321262,0,"hat5.wav",70
Sample,321834,0,"hat5.wav",70
Sample,322262,0,"hat5.wav",70
Sample,322834,0,"hat5.wav",70
Sample,323262,0,"GMLoTom1_01.wav",30
Sample,323262,0,"hat5.wav",70
Sample,323548,0,"hat5.wav",70
Sample,324119,0,"hat5.wav",70
Sample,324548,0,"hat5.wav",70
Sample,325119,0,"hat5.wav",70
Sample,325548,0,"hat5.wav",70
Sample,325834,0,"hat5.wav",70
Sample,326405,0,"hat5.wav",70
Sample,326834,0,"hat5.wav",70
Sample,328119,0,"hat5.wav",70
Sample,328691,0,"hat5.wav",70
Sample,329119,0,"hat5.wav",70
Sample,329691,0,"hat5.wav",70
Sample,330119,0,"hat5.wav",70
Sample,330405,0,"hat5.wav",70
Sample,330976,0,"hat5.wav",70
Sample,331405,0,"hat5.wav",70
Sample,332691,0,"GM1PH_02.wav",70
Sample,333405,0,"GM1PH_02.wav",70
Sample,333834,0,"GM1PH_02.wav",70
Sample,334548,0,"GM1PH_02.wav",70
Sample,334976,0,"GM1PH_02.wav",70
Sample,335691,0,"GM1PH_02.wav",70
Sample,336119,0,"GM1PH_02.wav",70
Sample,336834,0,"GM1PH_02.wav",70
Sample,337262,0,"GM1PH_02.wav",70
Sample,337976,0,"GM1PH_02.wav",70
Sample,338405,0,"GM1PH_02.wav",70
Sample,339119,0,"GM1PH_02.wav",70
Sample,339548,0,"GM1PH_02.wav",70
Sample,340262,0,"GM1PH_02.wav",70
Sample,341405,0,"hat5.wav",70
Sample,341834,0,"GM1PH_02.wav",70
Sample,342548,0,"GM1PH_02.wav",70
Sample,342976,0,"GM1PH_02.wav",70
Sample,343691,0,"GM1PH_02.wav",70
Sample,344119,0,"GM1PH_02.wav",70
Sample,344834,0,"GM1PH_02.wav",70
Sample,345262,0,"GM1PH_02.wav",70
Sample,345976,0,"GM1PH_02.wav",70
Sample,346405,0,"GM1PH_02.wav",70
Sample,347119,0,"GM1PH_02.wav",70
Sample,347548,0,"GM1PH_02.wav",70
Sample,348262,0,"GM1PH_02.wav",70
Sample,348691,0,"GM1PH_02.wav",70
Sample,349405,0,"GM1PH_02.wav",70
Sample,518363,0,"snare7.wav",50
Sample,541490,0,"applause-.wav",70

[TimingPoints]
160,416.666666666667,4,2,1,46,1,0
160,-74.6268656716418,7,2,1,46,0,0
1410,-71.9424460431655,7,2,1,46,0,0
1618,-69.4444444444444,7,2,1,46,0,0
1826,-67.1140939597315,7,2,1,46,0,0
2035,-64.9350649350649,7,2,1,46,0,0
2243,-62.8930817610063,7,2,1,46,0,0
2451,-60.9756097560976,7,2,1,46,0,0
2660,-59.1133,7,2,1,46,0,0
30160,416.666666666667,7,2,1,46,1,0
30160,-59.2592592592593,7,2,1,46,0,0
65160,416.666666666667,3,2,1,46,1,0
65160,-98.7654320987654,3,2,1,46,0,0
67660,540.540540540541,2,2,1,46,1,0
67660,-67.1750181554103,4,2,1,46,0,0
67727,-60.1039636127356,4,2,1,46,0,0
67795,-54.3797766019988,4,2,1,46,0,0
67862,-49.6511003757381,4,2,1,46,0,0
67930,-45.612115,2,2,1,46,0,0
68200,-91.709464,2,2,1,46,0,0
68268,-30.354541,2,2,1,46,0,0
68335,-91.709464,2,2,1,46,0,0
68403,-30.354541,2,2,1,46,0,0
68470,-91.709464,2,2,1,46,0,0
68538,-30.354541,2,2,1,46,0,0
68605,-91.709464,2,2,1,46,0,0
68673,-30.354541,2,2,1,46,0,0
68741,540.540540540541,4,2,1,46,1,0
68741,-45.566502,4,2,1,46,0,0
68876,-91.743119266055,4,2,1,46,0,0
69011,-45.662100456621,4,2,1,46,0,0
69078,-22.8310502283105,4,2,1,46,0,0
69146,-45.566502,4,2,1,46,0,0
69281,-91.743119266055,4,2,1,46,0,0
69416,-45.662100456621,4,2,1,46,0,0
69483,-22.8310502283105,4,2,1,46,0,0
69551,-45.566502,4,2,1,46,0,0
69686,-91.743119266055,4,2,1,46,0,0
69822,-45.662100456621,4,2,1,46,0,0
69888,-22.8310502283105,4,2,1,46,0,0
69956,-45.566502,4,2,1,46,0,0
70092,-91.743119266055,4,2,1,46,0,0
70227,-45.662100456621,4,2,1,46,0,0
70294,-22.8310502283105,4,2,1,46,0,0
70362,-91.743119266055,4,2,1,46,0,0
70452,-45.612115,4,2,1,46,0,0
70497,-45.662100456621,4,2,1,46,0,0
70542,-30.354541,4,2,1,46,0,0
70564,-22.8310502283105,4,2,1,46,0,0
70632,-91.709464,4,2,1,46,0,0
70768,-45.612115,4,2,1,46,0,0
70835,-22.806057,4,2,1,46,0,0
70903,-45.566502,4,2,1,46,0,0
71038,-91.709464,4,2,1,46,0,0
71039,-91.743119266055,4,2,1,46,0,0
71174,-45.662100456621,4,2,1,46,0,0
71240,-18.244846,4,2,1,46,0,0
71241,-22.8310502283105,4,2,1,46,0,0
71308,-45.566502,4,2,1,46,0,0
71443,-91.709464,4,2,1,46,0,0
71444,-91.743119266055,4,2,1,46,0,0
71579,-45.662100456621,4,2,1,46,0,0
71645,-18.244846,4,2,1,46,0,0
71646,-22.8310502283105,4,2,1,46,0,0
71713,-45.566502,4,2,1,46,0,0
71849,-91.709464,4,2,1,46,0,0
71916,-30.354541,4,2,1,46,0,0
71984,-91.709464,4,2,1,46,0,0
72051,-30.354541,4,2,1,46,0,0
72119,-91.709464,4,2,1,46,0,0
72186,-30.408076,4,2,1,46,0,0
72254,-45.612115,4,2,1,46,0,0
72389,-91.709464,4,2,1,46,0,0
72457,-30.354541,4,2,1,46,0,0
72524,-91.709464,4,2,1,46,0,0
72592,-30.354541,4,2,1,46,0,0
72659,-91.709464,4,2,1,46,0,0
72693,-30.354541,4,2,1,46,0,0
72727,-91.709464,4,2,1,46,0,0
72761,-30.354541,4,2,1,46,0,0
72795,-91.709464,4,2,1,46,0,0
72930,-45.612115,4,2,1,46,0,0
72997,-22.806057,4,2,1,46,0,0
73065,-91.709464,4,2,1,46,0,0
73132,-30.354541,4,2,1,46,0,0
73200,-91.709464,4,2,1,46,0,0
73267,-30.354541,4,2,1,46,0,0
73335,-91.709464,4,2,1,46,0,0
73402,-30.354541,4,2,1,46,0,0
73470,-91.709464,4,2,1,46,0,0
73537,-30.354541,4,2,1,46,0,0
73605,-91.709464,4,2,1,46,0,0
73672,-30.354541,4,2,1,46,0,0
73741,-91.709464,4,2,1,46,0,0
73808,-30.354541,4,2,1,46,0,0
73876,-91.709464,4,2,1,46,0,0
73943,-30.354541,4,2,1,46,0,0
74011,-91.709464,4,2,1,46,0,0
74078,-30.354541,4,2,1,46,0,0
74146,-91.709464,4,2,1,46,0,0
74213,-30.354541,4,2,1,46,0,0
74281,-91.709464,4,2,1,46,0,0
74348,-30.354541,4,2,1,46,0,0
74416,-91.709464,4,2,1,46,0,0
74483,-30.354541,4,2,1,46,0,0
74551,-91.709464,4,2,1,46,0,0
74618,-30.354541,4,2,1,46,0,0
74686,-91.709464,4,2,1,46,0,0
74821,-45.612115,4,2,1,46,0,0
74888,-22.806057,4,2,1,46,0,0
74957,-91.709464,4,2,1,46,0,0
75092,-45.612115,4,2,1,46,0,0
75159,-22.806057,4,2,1,46,0,0
75227,-91.709464,4,2,1,46,0,0
75261,-30.354541,4,2,1,46,0,0
75295,-91.709464,4,2,1,46,0,0
75328,-30.354541,4,2,1,46,0,0
75362,-91.709464,4,2,1,46,0,0
75396,-30.354541,4,2,1,46,0,0
75430,-91.709464,4,2,1,46,0,0
75463,-30.354541,4,2,1,46,0,0
75497,-91.709464,4,2,1,46,0,0
75565,-30.354541,4,2,1,46,0,0
75632,-91.709464,4,2,1,46,0,0
75700,-30.354541,4,2,1,46,0,0
75768,-91.709464,4,2,1,46,0,0
75835,-30.354541,4,2,1,46,0,0
75903,-91.709464,4,2,1,46,0,0
76038,-45.612115,4,2,1,46,0,0
76105,-22.806057,4,2,1,46,0,0
76173,-91.709464,4,2,1,46,0,0
76308,-45.612115,4,2,1,46,0,0
76375,-22.806057,4,2,1,46,0,0
76443,-91.709464,4,2,1,46,0,0
76511,-30.354541,4,2,1,46,0,0
76578,-91.709464,4,2,1,46,0,0
76646,-30.354541,4,2,1,46,0,0
76713,-91.709464,4,2,1,46,0,0
76781,-30.354541,4,2,1,46,0,0
76849,-91.709464,4,2,1,46,0,0
76916,-30.354541,4,2,1,46,0,0
76984,-91.709464,4,2,1,46,0,0
77018,-30.354541,4,2,1,46,0,0
77051,-91.709464,4,2,1,46,0,0
77085,-30.354541,4,2,1,46,0,0
77119,-91.709464,4,2,1,46,0,0
77153,-30.354541,4,2,1,46,0,0
77186,-91.709464,4,2,1,46,0,0
77220,-30.354541,4,2,1,46,0,0
77254,-91.709464,4,2,1,46,0,0
77322,-30.354541,4,2,1,46,0,0
77389,-45.612115,4,2,1,46,0,1
129281,-45.612115,2,2,1,46,0,0
134552,769.230769230769,5,2,1,46,1,0
134552,-300.661,5,2,1,46,0,0
134680,-279.916,5,2,1,46,0,0
134808,-261.849,5,2,1,46,0,0
134936,-245.972,5,2,1,46,0,0
135064,-231.911,5,2,1,46,0,0
135193,-219.37,5,2,1,46,0,0
135321,-208.117,5,2,1,46,0,0
135449,-197.961,5,2,1,46,0,0
135577,-188.75,5,2,1,46,0,0
135705,-180.359,5,2,1,46,0,0
135834,-172.682,5,2,1,46,0,0
135962,-165.631,5,2,1,46,0,0
136090,-159.134,5,2,1,46,0,0
136218,-153.128,5,2,1,46,0,0
136346,-147.558,5,2,1,46,0,0
136475,-142.379,5,2,1,46,0,0
136603,-137.552,5,2,1,46,0,0
136859,-128.816,5,2,1,46,0,0
137116,-121.124,5,2,1,46,0,0
137372,-114.299,5,2,1,46,0,0
137628,-108.202,5,2,1,46,0,0
137885,-102.722,5,2,1,46,0,0
138141,-97.7711,5,2,1,46,0,0
138398,-93.275,5,2,1,46,0,0
138654,-89.1742,5,2,1,46,0,0
138910,-85.419,5,2,1,46,0,0
139167,-81.9672,5,2,1,46,0,0
139423,-78.7836,5,2,1,46,0,0
139680,-75.838,5,2,1,46,0,0
139936,-73.1047,5,2,1,46,0,0
140193,-70.5617,5,2,1,46,0,0
140449,-67.0624,5,2,1,46,0,0
140705,-64.0489,5,2,1,46,0,0
159552,-58.8235294117647,5,2,1,46,0,0
159936,-54.054054054054,5,2,1,46,0,0
160321,-50,5,2,1,46,0,0
160705,-47.39336492891,5,2,1,46,0,0
161090,-45.045045045045,5,2,1,46,0,0
169167,-37.7073906485671,5,2,1,46,0,0
203782,-32.0987654321463,5,2,1,46,0,0
204360,338.983050847458,3,2,1,46,1,0
204360,-48.3091787439614,3,2,1,46,0,0
204444,-144.927536231884,3,2,1,46,0,0
204529,-48.3091787439614,3,2,1,46,0,0
204571,-144.927536231884,3,2,1,46,0,0
204614,-48.3091787439614,3,2,1,46,0,0
204656,-144.927536231884,3,2,1,46,0,0
204698,-48.3091787439614,3,2,1,46,0,0
204740,-144.927536231884,3,2,1,46,0,0
204783,-48.3091787439614,3,2,1,46,0,0
204825,-144.927536231884,3,2,1,46,0,0
204868,-48.3091787439614,3,2,1,46,0,0
204910,-144.927536231884,3,2,1,46,0,0
204953,-48.3091787439614,3,2,1,46,0,0
205037,-144.927536231884,3,2,1,46,0,0
205122,-48.3091787439614,3,2,1,46,0,0
205164,-144.927536231884,3,2,1,46,0,0
205207,-48.3091787439614,3,2,1,46,0,0
205249,-144.927536231884,3,2,1,46,0,0
205292,-48.3091787439614,3,2,1,46,0,0
205334,-144.927536231884,3,2,1,46,0,0
205376,-48.3091787439614,3,2,1,46,0,0
205418,-144.927536231884,3,2,1,46,0,0
205461,-48.3091787439614,3,2,1,46,0,0
205503,-144.927536231884,3,2,1,46,0,0
205546,-48.3091787439614,3,2,1,46,0,0
205588,-144.927536231884,3,2,1,46,0,0
205631,-48.3091787439614,3,2,1,46,0,0
205673,-144.927536231884,3,2,1,46,0,0
205715,-48.3091787439614,3,2,1,46,0,0
205757,-144.927536231884,3,2,1,46,0,0
205800,-48.3091787439614,3,2,1,46,0,0
205842,-144.927536231884,3,2,1,46,0,0
205885,-48.3091787439614,3,2,1,46,0,0
205927,-144.927536231884,3,2,1,46,0,0
205970,-48.3091787439614,3,2,1,46,0,0
206012,-144.927536231884,3,2,1,46,0,0
206054,-48.3091787439614,3,2,1,46,0,0
206096,-144.927536231884,3,2,1,46,0,0
206139,-48.3091787439614,3,2,1,46,0,0
206181,-144.927536231884,3,2,1,46,0,0
206224,-48.3091787439614,3,2,1,46,0,0
206266,-144.927536231884,3,2,1,46,0,0
206309,-48.3091787439614,3,2,1,46,0,0
206351,-144.927536231884,3,2,1,46,0,0
206393,-48.3091787439614,3,2,1,46,0,0
206477,-144.927536231884,3,2,1,46,0,0
206562,-48.3091787439614,3,2,1,46,0,0
206604,-144.927536231884,3,2,1,46,0,0
206647,-48.3091787439614,3,2,1,46,0,0
206689,-144.927536231884,3,2,1,46,0,0
206731,-48.3091787439614,3,2,1,46,0,0
206773,-144.927536231884,3,2,1,46,0,0
206816,-48.3091787439614,3,2,1,46,0,0
206858,-144.927536231884,3,2,1,46,0,0
206901,-48.3091787439614,3,2,1,46,0,0
206943,-144.927536231884,3,2,1,46,0,0
206986,-48.3091787439614,3,2,1,46,0,0
207070,-144.927536231884,3,2,1,46,0,0
207155,-48.3091787439614,3,2,1,46,0,0
207197,-144.927536231884,3,2,1,46,0,0
207240,-48.3091787439614,3,2,1,46,0,0
207282,-144.927536231884,3,2,1,46,0,0
207325,-48.3091787439614,3,2,1,46,0,0
207367,-144.927536231884,3,2,1,46,0,0
207409,-48.3091787439614,3,2,1,46,0,0
207451,-144.927536231884,3,2,1,46,0,0
207494,-48.3091787439614,3,2,1,46,0,0
207536,-144.927536231884,3,2,1,46,0,0
207579,-48.3091787439614,3,2,1,46,0,0
207621,-144.927536231884,3,2,1,46,0,0
207664,-48.3091787439614,3,2,1,46,0,0
207706,-144.927536231884,3,2,1,46,0,0
207748,-48.3091787439614,3,2,1,46,0,0
207790,-144.927536231884,3,2,1,46,0,0
207833,-48.3091787439614,3,2,1,46,0,0
207875,-144.927536231884,3,2,1,46,0,0
207918,-48.3091787439614,3,2,1,46,0,0
207960,-144.927536231884,3,2,1,46,0,0
208003,-48.3091787439614,3,2,1,46,0,0
208045,-144.927536231884,3,2,1,46,0,0
208087,-48.3091787439614,3,2,1,46,0,0
208129,-144.927536231884,3,2,1,46,0,0
208172,-48.3091787439614,3,2,1,46,0,0
208214,-144.927536231884,3,2,1,46,0,0
208257,-48.3091787439614,3,2,1,46,0,0
208279,-144.927536231884,3,2,1,46,0,0
208299,-48.3091787439614,3,2,1,46,0,0
208321,-144.927536231884,3,2,1,46,0,0
208342,-48.3091787439614,3,2,1,46,0,0
208384,-144.927536231884,3,2,1,46,0,0
208427,-72.463768115942,3,2,1,46,0,0
216563,-72.660099,3,2,1,46,0,1
252156,-97.1193415637061,3,2,1,46,0,0
253173,-72.660099,3,2,1,46,0,1
256224,-97.1193415637061,3,2,1,46,0,0
257241,-72.660099,3,2,1,46,0,1
260292,-97.1193415637061,3,2,1,46,0,0
261309,-72.660099,3,2,1,46,0,1
265376,-72.463768115942,3,2,1,46,0,0
277834,285.714285714286,4,2,1,46,1,0
277834,-1000,4,2,1,46,0,0
281262,-889.335,4,2,1,46,0,0
281334,-787.701,4,2,1,46,0,0
281405,-695.086,4,2,1,46,0,0
281476,-611.289,4,2,1,46,0,0
281548,-535.956,4,2,1,46,0,0
281619,-468.622,4,2,1,46,0,0
281691,-408.75,4,2,1,46,0,0
281762,-355.756,4,2,1,46,0,0
281834,-309.043,4,2,1,46,0,0
281905,-268.01,4,2,1,46,0,0
281976,-232.085,4,2,1,46,0,0
282048,-200.715,4,2,1,46,0,0
282119,-173.391,4,2,1,46,0,0
282191,-149.639,4,2,1,46,0,0
282262,-129.032,4,2,1,46,0,0
282334,-129.032,4,2,1,46,0,0
282405,-1000,4,2,1,46,0,0
282534,-400,4,2,1,46,0,0
282659,-10000,4,2,1,46,0,0
282700,-400,4,2,1,46,0,0
282742,-10000,4,2,1,46,0,0
282784,-400,4,2,1,46,0,0
282909,-10000,4,2,1,46,0,0
282950,-400,4,2,1,46,0,0
282992,-10000,4,2,1,46,0,0
283034,-400,4,2,1,46,0,0
283075,-10000,4,2,1,46,0,0
283200,-400,4,2,1,46,0,0
283242,-10000,4,2,1,46,0,0
283284,-400,4,2,1,46,0,0
283409,-10000,4,2,1,46,0,0
283450,-400,4,2,1,46,0,0
283492,-10000,4,2,1,46,0,0
283534,-400,4,2,1,46,0,0
283659,-10000,4,2,1,46,0,0
283700,-400,4,2,1,46,0,0
283742,-1000,4,2,1,46,0,0
285834,-889.335,4,2,1,46,0,0
285906,-787.701,4,2,1,46,0,0
285977,-695.086,4,2,1,46,0,0
286048,-611.289,4,2,1,46,0,0
286120,-535.956,4,2,1,46,0,0
286191,-468.622,4,2,1,46,0,0
286263,-408.75,4,2,1,46,0,0
286334,-355.756,4,2,1,46,0,0
286406,-309.043,4,2,1,46,0,0
286477,-268.01,4,2,1,46,0,0
286548,-232.085,4,2,1,46,0,0
286620,-200.715,4,2,1,46,0,0
286691,-173.391,4,2,1,46,0,0
286763,-149.639,4,2,1,46,0,0
286834,-129.032,4,2,1,46,0,0
286906,-129.032,4,2,1,46,0,0
286976,-21.551724,4,2,1,46,0,0
286979,-8620.689655,4,2,1,46,0,0
287048,-21.551724,4,2,1,46,0,0
287051,-8620.689655,4,2,1,46,0,0
287119,-21.551724,4,2,1,46,0,0
287122,-8620.689655,4,2,1,46,0,0
287191,-21.551724,4,2,1,46,0,0
287194,-8620.689655,4,2,1,46,0,0
287262,-21.551724,4,2,1,46,0,0
287265,-8620.689655,4,2,1,46,0,0
287298,-21.551724,4,2,1,46,0,0
287301,-8620.689655,4,2,1,46,0,0
287334,-21.551724,4,2,1,46,0,0
287337,-8620.689655,4,2,1,46,0,0
287369,-21.551724,4,2,1,46,0,0
287372,-8620.689655,4,2,1,46,0,0
287405,-21.551724,4,2,1,46,0,0
287408,-8620.689655,4,2,1,46,0,0
287476,-21.551724,4,2,1,46,0,0
287479,-8620.689655,4,2,1,46,0,0
287548,-21.551724,4,2,1,46,0,0
287551,-8620.689655,4,2,1,46,0,0
287584,-21.551724,4,2,1,46,0,0
287587,-8620.689655,4,2,1,46,0,0
287619,-21.551724,4,2,1,46,0,0
287622,-8620.689655,4,2,1,46,0,0
287655,-21.551724,4,2,1,46,0,0
287658,-8620.689655,4,2,1,46,0,0
287691,-21.551724,4,2,1,46,0,0
287694,-8620.689655,4,2,1,46,0,0
287762,-21.551724,4,2,1,46,0,0
287765,-8620.689655,4,2,1,46,0,0
287834,-21.551724,4,2,1,46,0,0
287837,-8620.689655,4,2,1,46,0,0
287905,-21.551724,4,2,1,46,0,0
287908,-8620.689655,4,2,1,46,0,0
287976,-21.551724,4,2,1,46,0,0
287979,-8620.689655,4,2,1,46,0,0
288048,-21.551724,4,2,1,46,0,0
288051,-8620.689655,4,2,1,46,0,0
288119,-21.551724,4,2,1,46,0,0
288122,-8620.689655,4,2,1,46,0,0
288191,-21.551724,4,2,1,46,0,0
288194,-8620.689655,4,2,1,46,0,0
288262,-21.551724,4,2,1,46,0,0
288265,-8620.689655,4,2,1,46,0,0
288334,-21.551724,4,2,1,46,0,0
288337,-8620.689655,4,2,1,46,0,0
288405,-21.551724,4,2,1,46,0,0
288408,-8620.689655,4,2,1,46,0,0
288476,-21.551724,4,2,1,46,0,0
288479,-8620.689655,4,2,1,46,0,0
288548,-21.551724,4,2,1,46,0,0
288551,-8620.689655,4,2,1,46,0,0
288691,-21.551724,4,2,1,46,0,0
288694,-8620.689655,4,2,1,46,0,0
288762,-21.551724,4,2,1,46,0,0
288765,-8620.689655,4,2,1,46,0,0
288834,-21.551724,4,2,1,46,0,0
288837,-8620.689655,4,2,1,46,0,0
288905,-21.551724,4,2,1,46,0,0
288908,-8620.689655,4,2,1,46,0,0
288976,-21.551724,4,2,1,46,0,0
288979,-8620.689655,4,2,1,46,0,0
289048,-21.551724,4,2,1,46,0,0
289051,-8620.689655,4,2,1,46,0,0
289119,-21.551724,4,2,1,46,0,0
289122,-8620.689655,4,2,1,46,0,0
289262,-21.551724,4,2,1,46,0,0
289265,-8620.689655,4,2,1,46,0,0
289298,-21.551724,4,2,1,46,0,0
289301,-8620.689655,4,2,1,46,0,0
289334,-21.551724,4,2,1,46,0,0
289337,-8620.689655,4,2,1,46,0,0
289405,-21.551724,4,2,1,46,0,0
289408,-8620.689655,4,2,1,46,0,0
289476,-21.551724,4,2,1,46,0,0
289479,-8620.689655,4,2,1,46,0,0
289548,-21.551724,4,2,1,46,0,0
289551,-8620.689655,4,2,1,46,0,0
289619,-21.551724,4,2,1,46,0,0
289622,-8620.689655,4,2,1,46,0,0
289691,-21.551724,4,2,1,46,0,0
289694,-8620.689655,4,2,1,46,0,0
289726,-21.551724,4,2,1,46,0,0
289729,-8620.689655,4,2,1,46,0,0
289762,-21.551724,4,2,1,46,0,0
289765,-8620.689655,4,2,1,46,0,0
289798,-21.551724,4,2,1,46,0,0
289801,-8620.689655,4,2,1,46,0,0
289834,-21.551724,4,2,1,46,0,0
289837,-8620.689655,4,2,1,46,0,0
289869,-21.551724,4,2,1,46,0,0
289872,-8620.689655,4,2,1,46,0,0
289905,-21.551724,4,2,1,46,0,0
289908,-8620.689655,4,2,1,46,0,0
289941,-21.551724,4,2,1,46,0,0
289944,-8620.689655,4,2,1,46,0,0
289976,-21.551724,4,2,1,46,0,0
289979,-8620.689655,4,2,1,46,0,0
289994,-21.551724,4,2,1,46,0,0
289997,-8620.689655,4,2,1,46,0,0
290012,-21.551724,4,2,1,46,0,0
290015,-8620.689655,4,2,1,46,0,0
290030,-21.551724,4,2,1,46,0,0
290033,-8620.689655,4,2,1,46,0,0
290048,-21.551724,4,2,1,46,0,0
290051,-8620.689655,4,2,1,46,0,0
290066,-21.551724,4,2,1,46,0,0
290069,-8620.689655,4,2,1,46,0,0
290084,-21.551724,4,2,1,46,0,0
290087,-8620.689655,4,2,1,46,0,0
290101,-21.551724,4,2,1,46,0,0
290104,-8620.689655,4,2,1,46,0,0
290119,-21.551724,4,2,1,46,0,0
290122,-8620.689655,4,2,1,46,0,0
290191,-21.551724,4,2,1,46,0,0
290194,-8620.689655,4,2,1,46,0,0
290262,-21.551724,4,2,1,46,0,0
290265,-8620.689655,4,2,1,46,0,0
290334,-21.551724,4,2,1,46,0,0
290337,-8620.689655,4,2,1,46,0,0
290405,-21.551724,4,2,1,46,0,0
290408,-5000,4,2,1,46,0,0
290476,-21.551724,4,2,1,46,0,0
290479,-2857.14285714286,4,2,1,46,0,0
290548,-21.551724,4,2,1,46,0,0
290551,-1818.18181818182,4,2,1,46,0,0
290619,-21.551724,4,2,1,46,0,0
290622,-1250,4,2,1,46,0,0
290691,-21.551724,4,2,1,46,0,0
290694,-909.090909090909,4,2,1,46,0,0
290762,-21.551724,4,2,1,46,0,0
290765,-769.230769230769,4,2,1,46,0,0
290834,-21.551724,4,2,1,46,0,0
290837,-666.666666666667,4,2,1,46,0,0
290905,-21.551724,4,2,1,46,0,0
290908,-588.235294117647,4,2,1,46,0,0
290976,-21.551724,4,2,1,46,0,0
290979,-526.315789473684,4,2,1,46,0,0
291119,-21.551724,4,2,1,46,0,0
291122,-476.190476190476,4,2,1,46,0,0
291191,-21.551724,4,2,1,46,0,0
291194,-434.782608695652,4,2,1,46,0,0
291262,-21.551724,4,2,1,46,0,0
291265,-400,4,2,1,46,0,0
291405,-21.551724,4,2,1,46,0,0
291408,-370.37037037037,4,2,1,46,0,0
291441,-21.551724,4,2,1,46,0,0
291444,-357.142857142857,4,2,1,46,0,0
291476,-21.551724,4,2,1,46,0,0
291479,-344.827586206897,4,2,1,46,0,0
291512,-21.551724,4,2,1,46,0,0
291515,-333.333333333333,4,2,1,46,0,0
291548,-21.551724,4,2,1,46,0,0
291551,-666.666666666667,4,2,1,46,0,0
291738,-25.5754475703325,4,2,1,46,0,0
291741,-625,4,2,1,46,0,0
291929,-31.4465408805031,4,2,1,46,0,0
291932,-588.235294117647,4,2,1,46,0,0
292119,-40.8163265306122,4,2,1,46,0,0
292122,-555.555555555556,4,2,1,46,0,0
292310,-58.1395348837209,4,2,1,46,0,0
292313,-526.315789473684,4,2,1,46,0,0
292500,-101.010101010101,4,2,1,46,0,0
292503,-476.190476190476,4,2,1,46,0,0
292691,-431.034483,4,2,1,46,0,0
292834,-344.827586206897,4,2,1,46,0,0
292976,-287.356322,4,2,1,46,0,0
293119,-250,4,2,1,46,0,0
293262,-215.517241,4,2,1,46,0,0
293405,-192.307692307692,4,2,1,46,0,0
293548,-172.413793,4,2,1,46,0,0
293691,-156.25,4,2,1,46,0,0
293834,-143.678161,4,2,1,46,0,0
293976,-133.333333333333,4,2,1,46,0,0
294119,-123.152709,4,2,1,46,0,0
294262,-114.942528735632,4,2,1,46,0,0
294405,-107.758621,4,2,1,46,0,0
294548,-102.040816326531,4,2,1,46,0,0
294691,-95.785441,4,2,1,46,0,0
294834,-90.9090909090909,4,2,1,46,0,0
294976,-86.206897,4,2,1,46,0,0
296119,-86.206897,4,2,1,46,0,0
350976,-115.226337448579,4,2,1,46,0,0
357834,-108.024691358058,4,2,1,46,0,0
358119,-101.670297748773,4,2,1,46,0,0
358405,-96.021947873668,4,2,1,46,0,0
358691,-90.9681611432451,4,2,1,46,0,0
358976,-86.4197530866331,4,2,1,46,0,0
359976,-862.068966,4,2,1,46,0,0
360048,-431.034483,4,2,1,46,0,0
360119,-172.413793,4,2,1,46,0,0
360191,-108.024691358058,4,2,1,46,0,0
360262,-78.5634118965689,4,2,1,46,0,0
360334,-57.6131687244221,4,2,1,46,0,0
360406,333.333333333333,4,2,1,46,1,0
360406,-49.3827160493827,4,2,1,46,0,0
360433,-8620.689655,4,2,1,46,0,0
360468,-73.891626,4,2,1,46,0,0
360489,-8620.689655,4,2,1,46,0,0
360551,-73.891626,4,2,1,46,0,0
360572,-8620.689655,4,2,1,46,0,0
360634,-73.891626,4,2,1,46,0,0
360656,-8620.689655,4,2,1,46,0,0
360718,-73.891626,4,2,1,46,0,0
360739,-8620.689655,4,2,1,46,0,0
360801,-73.891626,4,2,1,46,0,0
360822,-8620.689655,4,2,1,46,0,0
360884,-73.891626,4,2,1,46,0,0
360906,-8620.689655,4,2,1,46,0,0
360968,-73.891626,4,2,1,46,0,0
360989,-8620.689655,4,2,1,46,0,0
361051,-73.891626,4,2,1,46,0,0
361072,-8620.689655,4,2,1,46,0,0
361134,-73.891626,4,2,1,46,0,0
361156,-8620.689655,4,2,1,46,0,0
361218,-73.891626,4,2,1,46,0,0
361239,-8620.689655,4,2,1,46,0,0
361301,-73.891626,4,2,1,46,0,0
361322,-8620.689655,4,2,1,46,0,0
361384,-73.891626,4,2,1,46,0,0
361406,-8620.689655,4,2,1,46,0,0
361468,-73.891626,4,2,1,46,0,0
361489,-8620.689655,4,2,1,46,0,0
361551,-73.891626,4,2,1,46,0,0
361572,-8620.689655,4,2,1,46,0,0
361634,-73.891626,4,2,1,46,0,0
361656,-8620.689655,4,2,1,46,0,0
361718,-73.891626,4,2,1,46,0,0
361739,-8620.689655,4,2,1,46,0,0
361801,-73.891626,4,2,1,46,0,0
361822,-8620.689655,4,2,1,46,0,0
361884,-73.891626,4,2,1,46,0,0
361905,-8620.689655,4,2,1,46,0,0
361967,-73.891626,4,2,1,46,0,0
361989,-8620.689655,4,2,1,46,0,0
362051,-73.891626,4,2,1,46,0,0
362072,-8620.689655,4,2,1,46,0,0
362134,-73.891626,4,2,1,46,0,0
362155,-8620.689655,4,2,1,46,0,0
362217,-73.891626,4,2,1,46,0,0
362239,-8620.689655,4,2,1,46,0,0
362301,-73.891626,4,2,1,46,0,0
362322,-8620.689655,4,2,1,46,0,0
362384,-73.891626,4,2,1,46,0,0
362405,-8620.689655,4,2,1,46,0,0
362467,-73.891626,4,2,1,46,0,0
362489,-8620.689655,4,2,1,46,0,0
362551,-73.891626,4,2,1,46,0,0
362572,-8620.689655,4,2,1,46,0,0
362634,-73.891626,4,2,1,46,0,0
362655,-8620.689655,4,2,1,46,0,0
362717,-73.891626,4,2,1,46,0,0
362739,-8620.689655,4,2,1,46,0,0
362801,-73.891626,4,2,1,46,0,0
362822,-8620.689655,4,2,1,46,0,0
362884,-73.891626,4,2,1,46,0,0
362905,-8620.689655,4,2,1,46,0,0
362967,-73.891626,4,2,1,46,0,0
362989,-8620.689655,4,2,1,46,0,0
363051,-73.891626,4,2,1,46,0,0
363072,-8620.689655,4,2,1,46,0,0
363134,-73.891626,4,2,1,46,0,0
363155,-8620.689655,4,2,1,46,0,0
363217,-73.891626,4,2,1,46,0,0
363238,-8620.689655,4,2,1,46,0,0
363300,-73.891626,4,2,1,46,0,0
363322,-8620.689655,4,2,1,46,0,0
363384,-73.891626,4,2,1,46,0,0
363405,-8620.689655,4,2,1,46,0,0
363467,-73.891626,4,2,1,46,0,0
363488,-8620.689655,4,2,1,46,0,0
363550,-73.891626,4,2,1,46,0,0
363572,-8620.689655,4,2,1,46,0,0
363634,-73.891626,4,2,1,46,0,0
363655,-8620.689655,4,2,1,46,0,0
363717,-73.891626,4,2,1,46,0,0
363738,-8620.689655,4,2,1,46,0,0
363800,-73.891626,4,2,1,46,0,0
363822,-8620.689655,4,2,1,46,0,0
363884,-73.891626,4,2,1,46,0,0
363905,-8620.689655,4,2,1,46,0,0
363967,-73.891626,4,2,1,46,0,0
363988,-8620.689655,4,2,1,46,0,0
364050,-73.891626,4,2,1,46,0,0
364072,-8620.689655,4,2,1,46,0,0
364134,-73.891626,4,2,1,46,0,0
364155,-8620.689655,4,2,1,46,0,0
364217,-73.891626,4,2,1,46,0,0
364238,-8620.689655,4,2,1,46,0,0
364300,-73.891626,4,2,1,46,0,0
364322,-8620.689655,4,2,1,46,0,0
364384,-73.891626,4,2,1,46,0,0
364406,-8620.689655,4,2,1,46,0,0
364468,-73.891626,4,2,1,46,0,0
364489,-8620.689655,4,2,1,46,0,0
364551,-73.891626,4,2,1,46,0,0
364572,-8620.689655,4,2,1,46,0,0
364634,-73.891626,4,2,1,46,0,0
364656,-8620.689655,4,2,1,46,0,0
364718,-73.891626,4,2,1,46,0,0
364739,-8620.689655,4,2,1,46,0,0
364801,-73.891626,4,2,1,46,0,0
364822,-8620.689655,4,2,1,46,0,0
364884,-73.891626,4,2,1,46,0,0
364906,-8620.689655,4,2,1,46,0,0
364968,-73.891626,4,2,1,46,0,0
364989,-8620.689655,4,2,1,46,0,0
365051,-73.891626,4,2,1,46,0,0
365072,-8620.689655,4,2,1,46,0,0
365134,-73.891626,4,2,1,46,0,0
365156,-8620.689655,4,2,1,46,0,0
365218,-73.891626,4,2,1,46,0,0
365239,-8620.689655,4,2,1,46,0,0
365301,-73.891626,4,2,1,46,0,0
365322,-8620.689655,4,2,1,46,0,0
365384,-73.891626,4,2,1,46,0,0
365406,-8620.689655,4,2,1,46,0,0
365468,-73.891626,4,2,1,46,0,0
365489,-8620.689655,4,2,1,46,0,0
365551,-73.891626,4,2,1,46,0,0
365572,-8620.689655,4,2,1,46,0,0
365634,-73.891626,4,2,1,46,0,0
365656,-8620.689655,4,2,1,46,0,0
365718,-73.891626,4,2,1,46,0,0
365739,-8620.689655,4,2,1,46,0,0
365801,-73.891626,4,2,1,46,0,0
365822,-8620.689655,4,2,1,46,0,0
365884,-73.891626,4,2,1,46,0,0
365905,-8620.689655,4,2,1,46,0,0
365967,-73.891626,4,2,1,46,0,0
365989,-8620.689655,4,2,1,46,0,0
366051,-73.891626,4,2,1,46,0,0
366072,-8620.689655,4,2,1,46,0,0
366134,-73.891626,4,2,1,46,0,0
366155,-8620.689655,4,2,1,46,0,0
366217,-73.891626,4,2,1,46,0,0
366239,-8620.689655,4,2,1,46,0,0
366301,-73.891626,4,2,1,46,0,0
366322,-8620.689655,4,2,1,46,0,0
366384,-73.891626,4,2,1,46,0,0
366405,-8620.689655,4,2,1,46,0,0
366467,-73.891626,4,2,1,46,0,0
366489,-8620.689655,4,2,1,46,0,0
366551,-73.891626,4,2,1,46,0,0
366572,-8620.689655,4,2,1,46,0,0
366634,-73.891626,4,2,1,46,0,0
366655,-8620.689655,4,2,1,46,0,0
366717,-73.891626,4,2,1,46,0,0
366739,-8620.689655,4,2,1,46,0,0
366801,-73.891626,4,2,1,46,0,0
366822,-8620.689655,4,2,1,46,0,0
366884,-73.891626,4,2,1,46,0,0
366905,-8620.689655,4,2,1,46,0,0
366967,-73.891626,4,2,1,46,0,0
366989,-8620.689655,4,2,1,46,0,0
367051,-73.891626,4,2,1,46,0,0
367072,-8620.689655,4,2,1,46,0,0
367134,-73.891626,4,2,1,46,0,0
367155,-8620.689655,4,2,1,46,0,0
367217,-73.891626,4,2,1,46,0,0
367238,-8620.689655,4,2,1,46,0,0
367300,-73.891626,4,2,1,46,0,0
367322,-8620.689655,4,2,1,46,0,0
367384,-73.891626,4,2,1,46,0,0
367405,-8620.689655,4,2,1,46,0,0
367467,-73.891626,4,2,1,46,0,0
367488,-8620.689655,4,2,1,46,0,0
367550,-73.891626,4,2,1,46,0,0
367572,-8620.689655,4,2,1,46,0,0
367634,-73.891626,4,2,1,46,0,0
367655,-8620.689655,4,2,1,46,0,0
367717,-73.891626,4,2,1,46,0,0
367738,-8620.689655,4,2,1,46,0,0
367800,-73.891626,4,2,1,46,0,0
367822,-8620.689655,4,2,1,46,0,0
367884,-73.891626,4,2,1,46,0,0
367905,-8620.689655,4,2,1,46,0,0
367967,-73.891626,4,2,1,46,0,0
367988,-8620.689655,4,2,1,46,0,0
368050,-73.891626,4,2,1,46,0,0
368072,-8620.689655,4,2,1,46,0,0
368134,-73.891626,4,2,1,46,0,0
368155,-8620.689655,4,2,1,46,0,0
368217,-73.891626,4,2,1,46,0,0
368238,-8620.689655,4,2,1,46,0,0
368300,-73.891626,4,2,1,46,0,0
368322,-8620.689655,4,2,1,46,0,0
368384,-73.891626,4,2,1,46,0,0
368406,-8620.689655,4,2,1,46,0,0
368468,-73.891626,4,2,1,46,0,0
368489,-8620.689655,4,2,1,46,0,0
368551,-73.891626,4,2,1,46,0,0
368572,-8620.689655,4,2,1,46,0,0
368634,-73.891626,4,2,1,46,0,0
368656,-8620.689655,4,2,1,46,0,0
368718,-73.891626,4,2,1,46,0,0
368739,-8620.689655,4,2,1,46,0,0
368801,-73.891626,4,2,1,46,0,0
368822,-8620.689655,4,2,1,46,0,0
368884,-73.891626,4,2,1,46,0,0
368906,-8620.689655,4,2,1,46,0,0
368968,-73.891626,4,2,1,46,0,0
368989,-8620.689655,4,2,1,46,0,0
369051,-73.891626,4,2,1,46,0,0
369072,-8620.689655,4,2,1,46,0,0
369134,-73.891626,4,2,1,46,0,0
369156,-8620.689655,4,2,1,46,0,0
369218,-73.891626,4,2,1,46,0,0
369239,-8620.689655,4,2,1,46,0,0
369301,-73.891626,4,2,1,46,0,0
369322,-8620.689655,4,2,1,46,0,0
369384,-73.891626,4,2,1,46,0,0
369406,-8620.689655,4,2,1,46,0,0
369468,-73.891626,4,2,1,46,0,0
369489,-8620.689655,4,2,1,46,0,0
369551,-73.891626,4,2,1,46,0,0
369572,-8620.689655,4,2,1,46,0,0
369634,-73.891626,4,2,1,46,0,0
369656,-8620.689655,4,2,1,46,0,0
369718,-73.891626,4,2,1,46,0,0
369739,-8620.689655,4,2,1,46,0,0
369801,-73.891626,4,2,1,46,0,0
369822,-8620.689655,4,2,1,46,0,0
369884,-73.891626,4,2,1,46,0,0
369905,-8620.689655,4,2,1,46,0,0
369967,-73.891626,4,2,1,46,0,0
369989,-8620.689655,4,2,1,46,0,0
370051,-73.891626,4,2,1,46,0,0
370072,-8620.689655,4,2,1,46,0,0
370134,-73.891626,4,2,1,46,0,0
370155,-8620.689655,4,2,1,46,0,0
370217,-73.891626,4,2,1,46,0,0
370239,-8620.689655,4,2,1,46,0,0
370301,-73.891626,4,2,1,46,0,0
370322,-8620.689655,4,2,1,46,0,0
370384,-73.891626,4,2,1,46,0,0
370405,-8620.689655,4,2,1,46,0,0
370467,-73.891626,4,2,1,46,0,0
370489,-8620.689655,4,2,1,46,0,0
370551,-73.891626,4,2,1,46,0,0
370572,-8620.689655,4,2,1,46,0,0
370634,-73.891626,4,2,1,46,0,0
370655,-8620.689655,4,2,1,46,0,0
370717,-73.891626,4,2,1,46,0,0
370739,-8620.689655,4,2,1,46,0,0
370801,-73.891626,4,2,1,46,0,0
370822,-8620.689655,4,2,1,46,0,0
370884,-73.891626,4,2,1,46,0,0
370905,-8620.689655,4,2,1,46,0,0
370967,-73.891626,4,2,1,46,0,0
370989,-8620.689655,4,2,1,46,0,0
371051,-73.891626,4,2,1,46,0,0
371072,-8620.689655,4,2,1,46,0,0
371134,-73.891626,4,2,1,46,0,0
371155,-8620.689655,4,2,1,46,0,0
371217,-73.891626,4,2,1,46,0,0
371238,-8620.689655,4,2,1,46,0,0
371300,-73.891626,4,2,1,46,0,0
371322,-8620.689655,4,2,1,46,0,0
371384,-73.891626,4,2,1,46,0,0
371405,-8620.689655,4,2,1,46,0,0
371467,-73.891626,4,2,1,46,0,0
371488,-8620.689655,4,2,1,46,0,0
371550,-73.891626,4,2,1,46,0,0
371572,-8620.689655,4,2,1,46,0,0
371634,-73.891626,4,2,1,46,0,0
371655,-8620.689655,4,2,1,46,0,0
371717,-73.891626,4,2,1,46,0,0
371738,-8620.689655,4,2,1,46,0,0
371800,-73.891626,4,2,1,46,0,0
371822,-8620.689655,4,2,1,46,0,0
371884,-73.891626,4,2,1,46,0,0
371905,-8620.689655,4,2,1,46,0,0
371967,-73.891626,4,2,1,46,0,0
371988,-8620.689655,4,2,1,46,0,0
372050,-73.891626,4,2,1,46,0,0
372072,-8620.689655,4,2,1,46,0,0
372134,-73.891626,4,2,1,46,0,0
372155,-8620.689655,4,2,1,46,0,0
372217,-73.891626,4,2,1,46,0,0
372238,-8620.689655,4,2,1,46,0,0
372300,-73.891626,4,2,1,46,0,0
372322,-8620.689655,4,2,1,46,0,0
372384,-73.891626,4,2,1,46,0,0
372406,-8620.689655,4,2,1,46,0,0
372468,-73.891626,4,2,1,46,0,0
372489,-8620.689655,4,2,1,46,0,0
372551,-73.891626,4,2,1,46,0,0
372572,-8620.689655,4,2,1,46,0,0
372634,-73.891626,4,2,1,46,0,0
372656,-8620.689655,4,2,1,46,0,0
372718,-73.891626,4,2,1,46,0,0
372739,-8620.689655,4,2,1,46,0,0
372801,-73.891626,4,2,1,46,0,0
372822,-8620.689655,4,2,1,46,0,0
372884,-73.891626,4,2,1,46,0,0
372906,-8620.689655,4,2,1,46,0,0
372968,-73.891626,4,2,1,46,0,0
372989,-8620.689655,4,2,1,46,0,0
373051,-73.891626,4,2,1,46,0,0
373072,-8620.689655,4,2,1,46,0,0
373134,-73.891626,4,2,1,46,0,0
373155,-8620.689655,4,2,1,46,0,0
373217,-73.891626,4,2,1,46,0,0
373238,-8620.689655,4,2,1,46,0,0
373300,-73.891626,4,2,1,46,0,0
373322,-8620.689655,4,2,1,46,0,0
373384,-73.891626,4,2,1,46,0,0
373405,-8620.689655,4,2,1,46,0,0
373467,-73.891626,4,2,1,46,0,0
373488,-8620.689655,4,2,1,46,0,0
373550,-73.891626,4,2,1,46,0,0
373572,-8620.689655,4,2,1,46,0,0
373634,-73.891626,4,2,1,46,0,0
373655,-8620.689655,4,2,1,46,0,0
373717,-73.891626,4,2,1,46,0,0
373739,-8620.689655,4,2,1,46,0,0
373801,-73.891626,4,2,1,46,0,0
373822,-8620.689655,4,2,1,46,0,0
373884,-73.891626,4,2,1,46,0,0
373905,-8620.689655,4,2,1,46,0,0
373967,-73.891626,4,2,1,46,0,0
373989,-8620.689655,4,2,1,46,0,0
374051,-73.891626,4,2,1,46,0,0
374072,-8620.689655,4,2,1,46,0,0
374134,-73.891626,4,2,1,46,0,0
374155,-8620.689655,4,2,1,46,0,0
374217,-73.891626,4,2,1,46,0,0
374239,-8620.689655,4,2,1,46,0,0
374301,-73.891626,4,2,1,46,0,0
374322,-8620.689655,4,2,1,46,0,0
374384,-73.891626,4,2,1,46,0,0
374406,-8620.689655,4,2,1,46,0,0
374468,-73.891626,4,2,1,46,0,0
374489,-8620.689655,4,2,1,46,0,0
374551,-73.891626,4,2,1,46,0,0
374572,-8620.689655,4,2,1,46,0,0
374634,-73.891626,4,2,1,46,0,0
374656,-8620.689655,4,2,1,46,0,0
374718,-73.891626,4,2,1,46,0,0
374739,-8620.689655,4,2,1,46,0,0
374801,-73.891626,4,2,1,46,0,0
374822,-8620.689655,4,2,1,46,0,0
374884,-73.891626,4,2,1,46,0,0
374906,-8620.689655,4,2,1,46,0,0
374968,-73.891626,4,2,1,46,0,0
374989,-8620.689655,4,2,1,46,0,0
375051,-73.891626,4,2,1,46,0,0
375072,-8620.689655,4,2,1,46,0,0
375134,-73.891626,4,2,1,46,0,0
375155,-8620.689655,4,2,1,46,0,0
375217,-73.891626,4,2,1,46,0,0
375238,-8620.689655,4,2,1,46,0,0
375300,-73.891626,4,2,1,46,0,0
375322,-8620.689655,4,2,1,46,0,0
375384,-73.891626,4,2,1,46,0,0
375405,-8620.689655,4,2,1,46,0,0
375467,-73.891626,4,2,1,46,0,0
375488,-8620.689655,4,2,1,46,0,0
375550,-73.891626,4,2,1,46,0,0
375572,-8620.689655,4,2,1,46,0,0
375634,-73.891626,4,2,1,46,0,0
375655,-8620.689655,4,2,1,46,0,0
375717,-73.891626,4,2,1,46,0,0
375739,-8620.689655,4,2,1,46,0,0
375801,-73.891626,4,2,1,46,0,0
375822,-8620.689655,4,2,1,46,0,0
375884,-73.891626,4,2,1,46,0,0
375905,-8620.689655,4,2,1,46,0,0
375967,-73.891626,4,2,1,46,0,0
375989,-8620.689655,4,2,1,46,0,0
376051,-73.891626,4,2,1,46,0,0
376072,-8620.689655,4,2,1,46,0,0
376134,-73.891626,4,2,1,46,0,0
376155,-8620.689655,4,2,1,46,0,0
376217,-73.891626,4,2,1,46,0,0
376239,-8620.689655,4,2,1,46,0,0
376301,-73.891626,4,2,1,46,0,0
376322,-8620.689655,4,2,1,46,0,0
376384,-73.891626,4,2,1,46,0,0
376406,-862.068966,4,2,1,46,0,0
376468,-73.891626,4,2,1,46,0,0
376489,-431.034483,4,2,1,46,0,0
376551,-73.891626,4,2,1,46,0,0
376572,-287.356322,4,2,1,46,0,0
376634,-73.891626,4,2,1,46,0,0
376656,-215.517241,4,2,1,46,0,0
376718,-73.891626,4,2,1,46,0,0
376739,-172.413793,4,2,1,46,0,0
376801,-73.891626,4,2,1,46,0,0
376822,-143.678161,4,2,1,46,0,0
376884,-73.891626,4,2,1,46,0,0
376906,-123.152709,4,2,1,46,0,0
376968,-73.891626,4,2,1,46,0,0
376989,-107.758621,4,2,1,46,0,0
377051,-73.891626,4,2,1,46,0,0
377072,-95.785441,4,2,1,46,0,0
377134,-73.891626,4,2,1,46,0,0
377156,-86.206897,4,2,1,46,0,0
377218,-73.891626,4,2,1,46,0,0
377239,-82.101806,4,2,1,46,0,0
377301,-73.681108,4,2,1,46,0,0
377322,-78.369906,4,2,1,46,0,0
377384,-73.891626,4,2,1,46,0,0
377406,-74.962519,4,2,1,46,0,0
377468,-73.891626,4,2,1,46,0,0
377489,-73.681108,4,2,1,46,0,0
377551,-73.891626,4,2,1,46,0,0
377572,-73.891626,4,2,1,46,0,0
379072,-8620.689655,4,2,1,46,0,0
379134,-73.891626,4,2,1,46,0,0
379155,-8620.689655,4,2,1,46,0,0
379217,-73.891626,4,2,1,46,0,0
379239,-8620.689655,4,2,1,46,0,0
379301,-73.891626,4,2,1,46,0,0
379322,-8620.689655,4,2,1,46,0,0
379384,-73.891626,4,2,1,46,0,0
379406,-8620.689655,4,2,1,46,0,0
379468,-73.891626,4,2,1,46,0,0
379489,-8620.689655,4,2,1,46,0,0
379551,-73.891626,4,2,1,46,0,0
379572,-8620.689655,4,2,1,46,0,0
379634,-73.891626,4,2,1,46,0,0
379656,-8620.689655,4,2,1,46,0,0
379718,-73.891626,4,2,1,46,0,0
379739,-8620.689655,4,2,1,46,0,0
379801,-73.891626,4,2,1,46,0,0
379822,-8620.689655,4,2,1,46,0,0
379884,-73.891626,4,2,1,46,0,0
379906,-8620.689655,4,2,1,46,0,0
379968,-73.891626,4,2,1,46,0,0
379989,-8620.689655,4,2,1,46,0,0
380051,-73.891626,4,2,1,46,0,0
380072,-8620.689655,4,2,1,46,0,0
380134,-73.891626,4,2,1,46,0,0
380155,-8620.689655,4,2,1,46,0,0
380217,-73.891626,4,2,1,46,0,0
380238,-8620.689655,4,2,1,46,0,0
380300,-73.891626,4,2,1,46,0,0
380322,-8620.689655,4,2,1,46,0,0
380384,-73.891626,4,2,1,46,0,0
380405,-8620.689655,4,2,1,46,0,0
380467,-73.891626,4,2,1,46,0,0
380488,-8620.689655,4,2,1,46,0,0
380550,-73.891626,4,2,1,46,0,0
380572,-8620.689655,4,2,1,46,0,0
380634,-73.891626,4,2,1,46,0,0
380655,-8620.689655,4,2,1,46,0,0
380717,-73.891626,4,2,1,46,0,0
380739,-8620.689655,4,2,1,46,0,0
380801,-73.891626,4,2,1,46,0,0
380822,-8620.689655,4,2,1,46,0,0
380884,-73.891626,4,2,1,46,0,0
380905,-8620.689655,4,2,1,46,0,0
380967,-73.891626,4,2,1,46,0,0
380989,-8620.689655,4,2,1,46,0,0
381051,-73.891626,4,2,1,46,0,0
381072,-8620.689655,4,2,1,46,0,0
381134,-73.891626,4,2,1,46,0,0
381155,-8620.689655,4,2,1,46,0,0
381217,-73.891626,4,2,1,46,0,0
381239,-8620.689655,4,2,1,46,0,0
381301,-73.891626,4,2,1,46,0,0
381322,-8620.689655,4,2,1,46,0,0
381384,-73.891626,4,2,1,46,0,0
381406,-8620.689655,4,2,1,46,0,0
381468,-73.891626,4,2,1,46,0,0
381489,-8620.689655,4,2,1,46,0,0
381551,-73.891626,4,2,1,46,0,0
381572,-8620.689655,4,2,1,46,0,0
381634,-73.891626,4,2,1,46,0,0
381656,-8620.689655,4,2,1,46,0,0
381718,-73.891626,4,2,1,46,0,0
381739,-8620.689655,4,2,1,46,0,0
381801,-73.891626,4,2,1,46,0,0
381822,-8620.689655,4,2,1,46,0,0
381884,-73.891626,4,2,1,46,0,0
381906,-8620.689655,4,2,1,46,0,0
381968,-73.891626,4,2,1,46,0,0
381989,-8620.689655,4,2,1,46,0,0
382051,-73.891626,4,2,1,46,0,0
382072,-8620.689655,4,2,1,46,0,0
382134,-73.891626,4,2,1,46,0,0
382155,-8620.689655,4,2,1,46,0,0
382217,-73.891626,4,2,1,46,0,0
382238,-8620.689655,4,2,1,46,0,0
382300,-73.891626,4,2,1,46,0,0
382322,-8620.689655,4,2,1,46,0,0
382384,-73.891626,4,2,1,46,0,0
382405,-8620.689655,4,2,1,46,0,0
382467,-73.891626,4,2,1,46,0,0
382488,-8620.689655,4,2,1,46,0,0
382550,-73.891626,4,2,1,46,0,0
382572,-8620.689655,4,2,1,46,0,0
382634,-73.891626,4,2,1,46,0,0
382655,-8620.689655,4,2,1,46,0,0
382717,-73.891626,4,2,1,46,0,0
382739,-8620.689655,4,2,1,46,0,0
382801,-73.891626,4,2,1,46,0,0
382822,-8620.689655,4,2,1,46,0,0
382884,-73.891626,4,2,1,46,0,0
382905,-8620.689655,4,2,1,46,0,0
382967,-73.891626,4,2,1,46,0,0
382989,-8620.689655,4,2,1,46,0,0
383051,-73.891626,4,2,1,46,0,0
383072,-8620.689655,4,2,1,46,0,0
383134,-73.891626,4,2,1,46,0,0
383155,-8620.689655,4,2,1,46,0,0
383217,-73.891626,4,2,1,46,0,0
383239,-8620.689655,4,2,1,46,0,0
383301,-73.891626,4,2,1,46,0,0
383322,-8620.689655,4,2,1,46,0,0
383384,-73.891626,4,2,1,46,0,0
383406,-8620.689655,4,2,1,46,0,0
383468,-73.891626,4,2,1,46,0,0
383489,-8620.689655,4,2,1,46,0,0
383551,-73.891626,4,2,1,46,0,0
383572,-8620.689655,4,2,1,46,0,0
383634,-73.891626,4,2,1,46,0,0
383656,-8620.689655,4,2,1,46,0,0
383718,-73.891626,4,2,1,46,0,0
383739,-8620.689655,4,2,1,46,0,0
383801,-73.891626,4,2,1,46,0,0
383822,-8620.689655,4,2,1,46,0,0
383884,-73.891626,4,2,1,46,0,0
383906,-8620.689655,4,2,1,46,0,0
383968,-73.891626,4,2,1,46,0,0
383989,-8620.689655,4,2,1,46,0,0
384051,-73.891626,4,2,1,46,0,0
384072,-8620.689655,4,2,1,46,0,0
384134,-73.891626,4,2,1,46,0,0
384155,-8620.689655,4,2,1,46,0,0
384217,-73.891626,4,2,1,46,0,0
384238,-8620.689655,4,2,1,46,0,0
384300,-73.891626,4,2,1,46,0,0
384322,-8620.689655,4,2,1,46,0,0
384384,-73.891626,4,2,1,46,0,0
384405,-8620.689655,4,2,1,46,0,0
384467,-73.891626,4,2,1,46,0,0
384488,-8620.689655,4,2,1,46,0,0
384550,-73.891626,4,2,1,46,0,0
384572,-8620.689655,4,2,1,46,0,0
384634,-49.3827160493827,4,2,1,46,0,0
384655,-8620.689655,4,2,1,46,0,0
384717,-49.3827160493827,4,2,1,46,0,0
384739,-8620.689655,4,2,1,46,0,0
384801,-49.3827160493827,4,2,1,46,0,0
384822,-8620.689655,4,2,1,46,0,0
384884,-49.3827160493827,4,2,1,46,0,0
384905,-8620.689655,4,2,1,46,0,0
384967,-49.3827160493827,4,2,1,46,0,0
384989,-8620.689655,4,2,1,46,0,0
385051,-49.3827160493827,4,2,1,46,0,0
385072,-8620.689655,4,2,1,46,0,0
385134,-49.3827160493827,4,2,1,46,0,0
385155,-8620.689655,4,2,1,46,0,0
385217,-49.3827160493827,4,2,1,46,0,0
385239,-8620.689655,4,2,1,46,0,0
385301,-49.3827160493827,4,2,1,46,0,0
385322,-8620.689655,4,2,1,46,0,0
385384,-49.3827160493827,4,2,1,46,0,0
385406,-8620.689655,4,2,1,46,0,0
385468,-49.3827160493827,4,2,1,46,0,0
385489,-8620.689655,4,2,1,46,0,0
385551,-49.3827160493827,4,2,1,46,0,0
385572,-8620.689655,4,2,1,46,0,0
385634,-49.3827160493827,4,2,1,46,0,0
385656,-8620.689655,4,2,1,46,0,0
385718,-49.3827160493827,4,2,1,46,0,0
385739,-8620.689655,4,2,1,46,0,0
385801,-49.3827160493827,4,2,1,46,0,0
385822,-8620.689655,4,2,1,46,0,0
385884,-49.3827160493827,4,2,1,46,0,0
385906,-8620.689655,4,2,1,46,0,0
385968,-49.3827160493827,4,2,1,46,0,0
385989,-8620.689655,4,2,1,46,0,0
386051,-49.3827160493827,4,2,1,46,0,0
386072,-8620.689655,4,2,1,46,0,0
386134,-49.3827160493827,4,2,1,46,0,0
386155,-8620.689655,4,2,1,46,0,0
386217,-49.3827160493827,4,2,1,46,0,0
386238,-8620.689655,4,2,1,46,0,0
386300,-49.3827160493827,4,2,1,46,0,0
386322,-8620.689655,4,2,1,46,0,0
386384,-49.3827160493827,4,2,1,46,0,0
386405,-8620.689655,4,2,1,46,0,0
386467,-49.3827160493827,4,2,1,46,0,0
386488,-8620.689655,4,2,1,46,0,0
386550,-49.3827160493827,4,2,1,46,0,0
386572,-8620.689655,4,2,1,46,0,0
386634,-49.3827160493827,4,2,1,46,0,0
386655,-8620.689655,4,2,1,46,0,0
386717,-49.3827160493827,4,2,1,46,0,0
386739,-8620.689655,4,2,1,46,0,0
386801,-49.3827160493827,4,2,1,46,0,0
386822,-8620.689655,4,2,1,46,0,0
386884,-49.3827160493827,4,2,1,46,0,0
386905,-8620.689655,4,2,1,46,0,0
386967,-49.3827160493827,4,2,1,46,0,0
386989,-8620.689655,4,2,1,46,0,0
387051,-49.3827160493827,4,2,1,46,0,0
387072,-8620.689655,4,2,1,46,0,0
387134,-49.3827160493827,4,2,1,46,0,0
387155,-8620.689655,4,2,1,46,0,0
387217,-49.3827160493827,4,2,1,46,0,0
387239,-8620.689655,4,2,1,46,0,0
387301,-49.3827160493827,4,2,1,46,0,0
387322,-8620.689655,4,2,1,46,0,0
387384,-49.3827160493827,4,2,1,46,0,0
387406,-8620.689655,4,2,1,46,0,0
387468,-49.3827160493827,4,2,1,46,0,0
387489,-8620.689655,4,2,1,46,0,0
387551,-49.3827160493827,4,2,1,46,0,0
387572,-8620.689655,4,2,1,46,0,0
387634,-49.3827160493827,4,2,1,46,0,0
387656,-8620.689655,4,2,1,46,0,0
387718,-49.3827160493827,4,2,1,46,0,0
387739,-8620.689655,4,2,1,46,0,0
387801,-49.3827160493827,4,2,1,46,0,0
387822,-8620.689655,4,2,1,46,0,0
387884,-49.3827160493827,4,2,1,46,0,0
387906,-8620.689655,4,2,1,46,0,0
387968,-49.3827160493827,4,2,1,46,0,0
387989,-8620.689655,4,2,1,46,0,0
388051,-49.3827160493827,4,2,1,46,0,0
388072,-8620.689655,4,2,1,46,0,0
388134,-49.3827160493827,4,2,1,46,0,0
388156,-8620.689655,4,2,1,46,0,0
388218,-49.3827160493827,4,2,1,46,0,0
388239,-8620.689655,4,2,1,46,0,0
388301,-49.3827160493827,4,2,1,46,0,0
388322,-8620.689655,4,2,1,46,0,0
388384,-49.3827160493827,4,2,1,46,0,0
388406,-8620.689655,4,2,1,46,0,0
388468,-49.3827160493827,4,2,1,46,0,0
388489,-8620.689655,4,2,1,46,0,0
388551,-49.3827160493827,4,2,1,46,0,0
388572,-8620.689655,4,2,1,46,0,0
388634,-49.3827160493827,4,2,1,46,0,0
388656,-8620.689655,4,2,1,46,0,0
388718,-49.3827160493827,4,2,1,46,0,0
388739,-8620.689655,4,2,1,46,0,0
388801,-49.3827160493827,4,2,1,46,0,0
388822,-8620.689655,4,2,1,46,0,0
388884,-49.3827160493827,4,2,1,46,0,0
388905,-8620.689655,4,2,1,46,0,0
388967,-49.3827160493827,4,2,1,46,0,0
388989,-8620.689655,4,2,1,46,0,0
389051,-49.3827160493827,4,2,1,46,0,0
389072,-8620.689655,4,2,1,46,0,0
389134,-49.3827160493827,4,2,1,46,0,0
389155,-8620.689655,4,2,1,46,0,0
389217,-49.3827160493827,4,2,1,46,0,0
389239,-8620.689655,4,2,1,46,0,0
389301,-49.3827160493827,4,2,1,46,0,0
389322,-8620.689655,4,2,1,46,0,0
389384,-49.3827160493827,4,2,1,46,0,0
389405,-8620.689655,4,2,1,46,0,0
389467,-49.3827160493827,4,2,1,46,0,0
389489,-8620.689655,4,2,1,46,0,0
389551,-49.3827160493827,4,2,1,46,0,0
389572,-8620.689655,4,2,1,46,0,0
389634,-49.3827160493827,4,2,1,46,0,0
389655,-8620.689655,4,2,1,46,0,0
389717,-49.3827160493827,4,2,1,46,0,0
389739,-8620.689655,4,2,1,46,0,0
389801,-49.3827160493827,4,2,1,46,0,0
389822,-8620.689655,4,2,1,46,0,0
389884,-49.3827160493827,4,2,1,46,0,0
389905,-8620.689655,4,2,1,46,0,0
389967,-49.3827160493827,4,2,1,46,0,0
389989,-8620.689655,4,2,1,46,0,0
390051,-49.3827160493827,4,2,1,46,0,0
390072,-8620.689655,4,2,1,46,0,0
390134,-49.3827160493827,4,2,1,46,0,0
390155,-8620.689655,4,2,1,46,0,0
390217,-49.3827160493827,4,2,1,46,0,0
390239,-8620.689655,4,2,1,46,0,0
390301,-49.3827160493827,4,2,1,46,0,0
390322,-8620.689655,4,2,1,46,0,0
390384,-49.3827160493827,4,2,1,46,0,0
390405,-8620.689655,4,2,1,46,0,0
390467,-49.3827160493827,4,2,1,46,0,0
390489,-8620.689655,4,2,1,46,0,0
390551,-49.3827160493827,4,2,1,46,0,0
390572,-8620.689655,4,2,1,46,0,0
390634,-49.3827160493827,4,2,1,46,0,0
390655,-8620.689655,4,2,1,46,0,0
390717,-49.3827160493827,4,2,1,46,0,0
390739,-8620.689655,4,2,1,46,0,0
390801,-49.3827160493827,4,2,1,46,0,0
390822,-8620.689655,4,2,1,46,0,0
390884,-49.3827160493827,4,2,1,46,0,0
390905,-8620.689655,4,2,1,46,0,0
390967,-49.3827160493827,4,2,1,46,0,0
390989,-8620.689655,4,2,1,46,0,0
391051,-49.3827160493827,4,2,1,46,0,0
391072,-8620.689655,4,2,1,46,0,0
391134,-49.3827160493827,4,2,1,46,0,0
391155,-8620.689655,4,2,1,46,0,0
391217,-49.3827160493827,4,2,1,46,0,0
391239,-8620.689655,4,2,1,46,0,0
391301,-49.3827160493827,4,2,1,46,0,0
391322,-8620.689655,4,2,1,46,0,0
391384,-49.3827160493827,4,2,1,46,0,0
391405,-8620.689655,4,2,1,46,0,0
391467,-49.3827160493827,4,2,1,46,0,0
391489,-8620.689655,4,2,1,46,0,0
391551,-49.3827160493827,4,2,1,46,0,0
391572,-10000,4,2,1,46,0,0
391635,-37.037037037037,4,2,1,46,0,0
391655,-10000,4,2,1,46,0,0
391718,-37.037037037037,4,2,1,46,0,0
391739,-10000,4,2,1,46,0,0
391802,-37.037037037037,4,2,1,46,0,0
391822,-10000,4,2,1,46,0,0
391885,-37.037037037037,4,2,1,46,0,0
391905,-10000,4,2,1,46,0,0
391968,-37.037037037037,4,2,1,46,0,0
391989,-10000,4,2,1,46,0,0
392052,-37.037037037037,4,2,1,46,0,0
392072,-10000,4,2,1,46,0,0
392135,-37.037037037037,4,2,1,46,0,0
392155,-10000,4,2,1,46,0,0
392218,-37.037037037037,4,2,1,46,0,0
392239,-10000,4,2,1,46,0,0
392302,-37.037037037037,4,2,1,46,0,0
392322,-10000,4,2,1,46,0,0
392385,-37.037037037037,4,2,1,46,0,0
392406,-10000,4,2,1,46,0,0
392469,-37.037037037037,4,2,1,46,0,0
392489,-10000,4,2,1,46,0,0
392552,-37.037037037037,4,2,1,46,0,0
392572,-10000,4,2,1,46,0,0
392635,-37.037037037037,4,2,1,46,0,0
392656,-10000,4,2,1,46,0,0
392719,-37.037037037037,4,2,1,46,0,0
392739,-10000,4,2,1,46,0,0
392802,-37.037037037037,4,2,1,46,0,0
392822,-10000,4,2,1,46,0,0
392885,-37.037037037037,4,2,1,46,0,0
392905,-10000,4,2,1,46,0,0
392968,-37.037037037037,4,2,1,46,0,0
392988,-10000,4,2,1,46,0,0
393051,-37.037037037037,4,2,1,46,0,0
393072,-10000,4,2,1,46,0,0
393135,-37.037037037037,4,2,1,46,0,0
393155,-10000,4,2,1,46,0,0
393218,-37.037037037037,4,2,1,46,0,0
393238,-10000,4,2,1,46,0,0
393301,-37.037037037037,4,2,1,46,0,0
393322,-10000,4,2,1,46,0,0
393385,-37.037037037037,4,2,1,46,0,0
393405,-10000,4,2,1,46,0,0
393468,-37.037037037037,4,2,1,46,0,0
393488,-10000,4,2,1,46,0,0
393551,-37.037037037037,4,2,1,46,0,0
393572,-10000,4,2,1,46,0,0
393635,-37.037037037037,4,2,1,46,0,0
393655,-1000,4,2,1,46,0,0
393718,-38.4615384615385,4,2,1,46,0,0
393739,-500,4,2,1,46,0,0
393802,-40,4,2,1,46,0,0
393822,-333.333333333333,4,2,1,46,0,0
393885,-41.6666666666667,4,2,1,46,0,0
393905,-250,4,2,1,46,0,0
393968,-43.4782608695652,4,2,1,46,0,0
393989,-200,4,2,1,46,0,0
394052,-45.4545454545455,4,2,1,46,0,0
394072,-166.666666666667,4,2,1,46,0,0
394135,-47.6190476190476,4,2,1,46,0,0
394155,-142.857142857143,4,2,1,46,0,0
394218,-50,4,2,1,46,0,0
394239,-125,4,2,1,46,0,0
394302,-52.6315789473684,4,2,1,46,0,0
394322,-111.111111111111,4,2,1,46,0,0
394385,-55.5555555555556,4,2,1,46,0,0
394406,-100,4,2,1,46,0,0
394469,-58.8235294117647,4,2,1,46,0,0
394489,-90.9090909090909,4,2,1,46,0,0
394552,-62.5,4,2,1,46,0,0
394572,-83.3333333333333,4,2,1,46,0,0
394635,-66.6666666666667,4,2,1,46,0,0
394656,-76.9230769230769,4,2,1,46,0,0
394719,-71.4285714285714,4,2,1,46,0,0
394739,-74.0740740740741,4,2,1,46,0,0
395072,-148.148148148148,4,2,1,46,0,0
395155,-134.680134680135,4,2,1,46,0,0
395239,-123.456790123457,4,2,1,46,0,0
395322,-113.960113960114,4,2,1,46,0,0
395405,-105.820105820106,4,2,1,46,0,0
395489,-98.7654320987654,4,2,1,46,0,0
395572,-92.5925925925926,4,2,1,46,0,0
395738,-18.5185185185185,4,2,1,46,0,0
395780,-37.037037037037,4,2,1,46,0,0
395822,-74.0740740740741,4,2,1,46,0,0
395863,-98.7654320987654,4,2,1,46,0,0
395905,-148.148148148148,4,2,1,46,0,0
395988,-134.680134680135,4,2,1,46,0,0
396072,-123.456790123457,4,2,1,46,0,0
396155,-113.960113960114,4,2,1,46,0,0
396238,-105.820105820106,4,2,1,46,0,0
396322,-98.7654320987654,4,2,1,46,0,0
396405,-92.5925925925926,4,2,1,46,0,0
397072,-18.5185185185185,4,2,1,46,0,0
397114,-37.037037037037,4,2,1,46,0,0
397156,-74.0740740740741,4,2,1,46,0,0
397197,-98.7654320987654,4,2,1,46,0,0
397239,-148.148148148148,4,2,1,46,0,0
397322,-134.680134680135,4,2,1,46,0,0
397406,-123.456790123457,4,2,1,46,0,0
397489,-113.960113960114,4,2,1,46,0,0
397572,-105.820105820106,4,2,1,46,0,0
397656,-98.7654320987654,4,2,1,46,0,0
397739,-92.5925925925926,4,2,1,46,0,0
398405,-18.5185185185185,4,2,1,46,0,0
398447,-37.037037037037,4,2,1,46,0,0
398489,-74.0740740740741,4,2,1,46,0,0
398530,-98.7654320987654,4,2,1,46,0,0
398572,-148.148148148148,4,2,1,46,0,0
398655,-134.680134680135,4,2,1,46,0,0
398739,-123.456790123457,4,2,1,46,0,0
398822,-113.960113960114,4,2,1,46,0,0
398905,-105.820105820106,4,2,1,46,0,0
398989,-98.7654320987654,4,2,1,46,0,0
399072,-92.5925925925926,4,2,1,46,0,0
399155,-75.4716,4,2,1,46,0,0
399238,-147.059,4,2,1,46,0,0
399322,-75.4716,4,2,1,46,0,0
399405,-148.148148148148,4,2,1,46,0,0
399488,-134.680134680135,4,2,1,46,0,0
399572,-123.456790123457,4,2,1,46,0,0
399655,-113.960113960114,4,2,1,46,0,0
399738,-105.820105820106,4,2,1,46,0,0
399822,-98.7654320987654,4,2,1,46,0,0
399905,-92.5925925925926,4,2,1,46,0,0
400072,-18.5185185185185,4,2,1,46,0,0
400114,-37.037037037037,4,2,1,46,0,0
400156,-74.0740740740741,4,2,1,46,0,0
400197,-98.7654320987654,4,2,1,46,0,0
400239,-148.148148148148,4,2,1,46,0,0
400322,-134.680134680135,4,2,1,46,0,0
400406,-123.456790123457,4,2,1,46,0,0
400489,-113.960113960114,4,2,1,46,0,0
400572,-105.820105820106,4,2,1,46,0,0
400656,-98.7654320987654,4,2,1,46,0,0
400739,-92.5925925925926,4,2,1,46,0,0
401405,-18.5185185185185,4,2,1,46,0,0
401447,-37.037037037037,4,2,1,46,0,0
401489,-74.0740740740741,4,2,1,46,0,0
401530,-98.7654320987654,4,2,1,46,0,0
401572,-148.148148148148,4,2,1,46,0,0
401655,-134.680134680135,4,2,1,46,0,0
401739,-123.456790123457,4,2,1,46,0,0
401822,-113.960113960114,4,2,1,46,0,0
401905,-105.820105820106,4,2,1,46,0,0
401989,-98.7654320987654,4,2,1,46,0,0
402072,-92.5925925925926,4,2,1,46,0,0
402738,-18.5185185185185,4,2,1,46,0,0
402780,-37.037037037037,4,2,1,46,0,0
402822,-74.0740740740741,4,2,1,46,0,0
402863,-98.7654320987654,4,2,1,46,0,0
402905,-148.148148148148,4,2,1,46,0,0
402988,-134.680134680135,4,2,1,46,0,0
403072,-123.456790123457,4,2,1,46,0,0
403155,-113.960113960114,4,2,1,46,0,0
403238,-105.820105820106,4,2,1,46,0,0
403322,-98.7654320987654,4,2,1,46,0,0
403405,-92.5925925925926,4,2,1,46,0,0
403488,-75.4716,4,2,1,46,0,0
403571,-147.059,4,2,1,46,0,0
403655,-75.4716,4,2,1,46,0,0
403738,-148.148148148148,4,2,1,46,0,0
403821,-134.680134680135,4,2,1,46,0,0
403905,-123.456790123457,4,2,1,46,0,0
403988,-113.960113960114,4,2,1,46,0,0
404071,-105.820105820106,4,2,1,46,0,0
404155,-98.7654320987654,4,2,1,46,0,0
404238,-92.5925925925926,4,2,1,46,0,0
404405,-18.5185185185185,4,2,1,46,0,0
404447,-37.037037037037,4,2,1,46,0,0
404489,-74.0740740740741,4,2,1,46,0,0
404530,-98.7654320987654,4,2,1,46,0,0
404572,-148.148148148148,4,2,1,46,0,0
404655,-134.680134680135,4,2,1,46,0,0
404739,-123.456790123457,4,2,1,46,0,0
404822,-113.960113960114,4,2,1,46,0,0
404905,-105.820105820106,4,2,1,46,0,0
404989,-98.7654320987654,4,2,1,46,0,0
405072,-92.5925925925926,4,2,1,46,0,0
405738,-18.5185185185185,4,2,1,46,0,0
405780,-37.037037037037,4,2,1,46,0,0
405822,-74.0740740740741,4,2,1,46,0,0
405863,-98.7654320987654,4,2,1,46,0,0
405905,-148.148148148148,4,2,1,46,0,0
405988,-134.680134680135,4,2,1,46,0,0
406072,-123.456790123457,4,2,1,46,0,0
406155,-113.960113960114,4,2,1,46,0,0
406238,-105.820105820106,4,2,1,46,0,0
406322,-98.7654320987654,4,2,1,46,0,0
406405,-92.5925925925926,4,2,1,46,0,0
407072,-18.5185185185185,4,2,1,46,0,0
407114,-37.037037037037,4,2,1,46,0,0
407156,-74.0740740740741,4,2,1,46,0,0
407197,-98.7654320987654,4,2,1,46,0,0
407239,-148.148148148148,4,2,1,46,0,0
407322,-134.680134680135,4,2,1,46,0,0
407406,-123.456790123457,4,2,1,46,0,0
407489,-113.960113960114,4,2,1,46,0,0
407572,-105.820105820106,4,2,1,46,0,0
407656,-98.7654320987654,4,2,1,46,0,0
407739,-92.5925925925926,4,2,1,46,0,0
407822,-75.4716,4,2,1,46,0,0
407905,-147.059,4,2,1,46,0,0
407989,-75.4716,4,2,1,46,0,0
408072,-148.148148148148,4,2,1,46,0,0
408155,-134.680134680135,4,2,1,46,0,0
408239,-123.456790123457,4,2,1,46,0,0
408322,-113.960113960114,4,2,1,46,0,0
408405,-105.820105820106,4,2,1,46,0,0
408489,-98.7654320987654,4,2,1,46,0,0
408572,-92.5925925925926,4,2,1,46,0,0
408738,-18.5185185185185,4,2,1,46,0,0
408780,-37.037037037037,4,2,1,46,0,0
408822,-74.0740740740741,4,2,1,46,0,0
408863,-98.7654320987654,4,2,1,46,0,0
408905,-148.148148148148,4,2,1,46,0,0
408988,-134.680134680135,4,2,1,46,0,0
409072,-123.456790123457,4,2,1,46,0,0
409155,-113.960113960114,4,2,1,46,0,0
409238,-105.820105820106,4,2,1,46,0,0
409322,-98.7654320987654,4,2,1,46,0,0
409405,-92.5925925925926,4,2,1,46,0,0
410072,-18.5185185185185,4,2,1,46,0,0
410114,-37.037037037037,4,2,1,46,0,0
410156,-74.0740740740741,4,2,1,46,0,0
410197,-98.7654320987654,4,2,1,46,0,0
410239,-148.148148148148,4,2,1,46,0,0
410322,-134.680134680135,4,2,1,46,0,0
410406,-123.456790123457,4,2,1,46,0,0
410489,-113.960113960114,4,2,1,46,0,0
410572,-105.820105820106,4,2,1,46,0,0
410656,-98.7654320987654,4,2,1,46,0,0
410739,-92.5925925925926,4,2,1,46,0,0
411405,-18.5185185185185,4,2,1,46,0,0
411447,-37.037037037037,4,2,1,46,0,0
411489,-74.0740740740741,4,2,1,46,0,0
411530,-98.7654320987654,4,2,1,46,0,0
411572,-148.148148148148,4,2,1,46,0,0
411655,-134.680134680135,4,2,1,46,0,0
411739,-123.456790123457,4,2,1,46,0,0
411822,-113.960113960114,4,2,1,46,0,0
411905,-105.820105820106,4,2,1,46,0,0
411989,-98.7654320987654,4,2,1,46,0,0
412072,-92.5925925925926,4,2,1,46,0,0
412155,-75.4716,4,2,1,46,0,0
412238,-147.059,4,2,1,46,0,0
412322,-75.4716,4,2,1,46,0,0
412405,-148.148148148148,4,2,1,46,0,0
412488,-134.680134680135,4,2,1,46,0,0
412572,-123.456790123457,4,2,1,46,0,0
412655,-113.960113960114,4,2,1,46,0,0
412738,-105.820105820106,4,2,1,46,0,0
412822,-98.7654320987654,4,2,1,46,0,0
412905,-92.5925925925926,4,2,1,46,0,0
412988,-73.8916,4,2,1,46,0,0
413072,-147.362,4,2,1,46,0,0
413155,-73.8916,4,2,1,46,0,0
413238,-147.362,4,2,1,46,0,0
413321,-73.8916,4,2,1,46,0,0
413405,-147.362,4,2,1,46,0,0
413488,-73.8916,4,2,1,46,0,0
413572,-147.362,4,2,1,46,0,0
413655,-73.8916,4,2,1,46,0,0
413738,-147.362,4,2,1,46,0,0
413821,-73.8916,4,2,1,46,0,0
413905,-147.362,4,2,1,46,0,0
413988,-73.8916,4,2,1,46,0,0
414072,-147.362,4,2,1,46,0,0
414155,-73.8916,4,2,1,46,0,0
414238,-147.362,4,2,1,46,0,0
414321,-73.8916,4,2,1,46,0,0
414405,-147.362,4,2,1,46,0,0
414488,-73.8916,4,2,1,46,0,0
414572,-147.362,4,2,1,46,0,0
414655,-73.8916,4,2,1,46,0,0
414738,-147.362,4,2,1,46,0,0
414821,-73.8916,4,2,1,46,0,0
414905,-147.362,4,2,1,46,0,0
414988,-73.8916,4,2,1,46,0,0
415072,-147.362,4,2,1,46,0,0
415155,-73.8916,4,2,1,46,0,0
415238,-147.362,4,2,1,46,0,0
415321,-73.8916,4,2,1,46,0,0
415405,-10000,4,2,1,46,0,0
415447,-49.5049504950495,4,2,1,46,0,0
415488,-10000,4,2,1,46,0,0
415530,-49.5049504950495,4,2,1,46,0,0
415572,-147.362,4,2,1,46,0,0
415655,-73.8916,4,2,1,46,0,0
415738,-147.362,4,2,1,46,0,0
415821,-73.8916,4,2,1,46,0,0
415905,-10000,4,2,1,46,0,0
415947,-49.5049504950495,4,2,1,46,0,0
415988,-10000,4,2,1,46,0,0
416030,-49.5049504950495,4,2,1,46,0,0
416072,-147.362,4,2,1,46,0,0
416155,-73.8916,4,2,1,46,0,0
416238,-147.362,4,2,1,46,0,0
416321,-73.8916,4,2,1,46,0,0
416405,-147.362,4,2,1,46,0,0
416488,-73.8916,4,2,1,46,0,0
416572,-147.362,4,2,1,46,0,0
416655,-73.8916,4,2,1,46,0,0
416738,-147.362,4,2,1,46,0,0
416821,-73.8916,4,2,1,46,0,0
416905,-147.362,4,2,1,46,0,0
416988,-73.8916,4,2,1,46,0,0
417072,-147.362,4,2,1,46,0,0
417155,-73.8916,4,2,1,46,0,0
417238,-147.362,4,2,1,46,0,0
417321,-73.8916,4,2,1,46,0,0
417405,-147.362,4,2,1,46,0,0
417488,-73.8916,4,2,1,46,0,0
417572,-147.362,4,2,1,46,0,0
417655,-73.8916,4,2,1,46,0,0
417738,-147.362,4,2,1,46,0,0
417821,-73.8916,4,2,1,46,0,0
417905,-147.362,4,2,1,46,0,0
417988,-73.8916,4,2,1,46,0,0
418072,-147.362,4,2,1,46,0,0
418155,-73.8916,4,2,1,46,0,0
418238,-147.362,4,2,1,46,0,0
418321,-73.8916,4,2,1,46,0,0
418405,-147.362,4,2,1,46,0,0
418488,-73.8916,4,2,1,46,0,0
418572,-147.362,4,2,1,46,0,0
418655,-73.8916,4,2,1,46,0,0
418738,-147.362,4,2,1,46,0,0
418821,-73.8916,4,2,1,46,0,0
418905,-147.362,4,2,1,46,0,0
418988,-73.8916,4,2,1,46,0,0
419072,-147.362,4,2,1,46,0,0
419155,-73.8916,4,2,1,46,0,0
419238,-147.362,4,2,1,46,0,0
419321,-73.8916,4,2,1,46,0,0
419405,-147.362,4,2,1,46,0,0
419488,-73.8916,4,2,1,46,0,0
419572,-294.117647058824,4,2,1,46,0,0
419655,-59.1715976331361,4,2,1,46,0,0
419738,-147.362,4,2,1,46,0,0
419821,-73.8916,4,2,1,46,0,0
419988,-147.362,4,2,1,46,0,0
420155,-73.8916,4,2,1,46,0,0
420238,-147.362,4,2,1,46,0,0
420321,-73.8916,4,2,1,46,0,0
420405,-147.362,4,2,1,46,0,0
420488,-73.8916,4,2,1,46,0,0
420572,-147.362,4,2,1,46,0,0
420655,-73.8916,4,2,1,46,0,0
420738,-147.362,4,2,1,46,0,0
420821,-73.8916,4,2,1,46,0,0
420905,-147.362,4,2,1,46,0,0
420988,-73.8916,4,2,1,46,0,0
421072,-147.362,4,2,1,46,0,0
421238,-73.8916,4,2,1,46,0,0
421405,-147.362,4,2,1,46,0,0
421488,-73.8916,4,2,1,46,0,0
421572,-147.362,4,2,1,46,0,0
421655,-73.8916,4,2,1,46,0,0
421738,-147.362,4,2,1,46,0,0
421821,-73.8916,4,2,1,46,0,0
421905,-147.362,4,2,1,46,0,0
421988,-73.8916,4,2,1,46,0,0
422072,-147.362,4,2,1,46,0,0
422155,-73.8916,4,2,1,46,0,0
422238,-147.362,4,2,1,46,0,0
422321,-73.8916,4,2,1,46,0,0
422405,-147.362,4,2,1,46,0,0
422488,-73.8916,4,2,1,46,0,0
422572,-147.362,4,2,1,46,0,0
422655,-73.8916,4,2,1,46,0,0
422738,-147.362,4,2,1,46,0,0
422821,-73.8916,4,2,1,46,0,0
422905,-147.362,4,2,1,46,0,0
422988,-73.8916,4,2,1,46,0,0
423072,-147.362,4,2,1,46,0,0
423155,-73.8916,4,2,1,46,0,0
423238,-147.362,4,2,1,46,0,0
423321,-73.8916,4,2,1,46,0,0
423405,-147.362,4,2,1,46,0,0
423488,-73.8916,4,2,1,46,0,0
423572,-147.362,4,2,1,46,0,0
423655,-73.8916,4,2,1,46,0,0
423738,-147.362,4,2,1,46,0,0
423821,-73.8916,4,2,1,46,0,0
423905,-147.362,4,2,1,46,0,0
423988,-73.8916,4,2,1,46,0,0
424072,-147.362,4,2,1,46,0,0
424155,-73.8916,4,2,1,46,0,0
424238,-147.362,4,2,1,46,0,0
424321,-73.8916,4,2,1,46,0,0
424405,-147.362,4,2,1,46,0,0
424572,-73.8916,4,2,1,46,0,0
424738,-147.362,4,2,1,46,0,0
424821,-73.8916,4,2,1,46,0,0
424905,-147.362,4,2,1,46,0,0
424988,-73.8916,4,2,1,46,0,0
425072,-147.362,4,2,1,46,0,0
425155,-73.8916,4,2,1,46,0,0
425238,-147.362,4,2,1,46,0,0
425321,-73.8916,4,2,1,46,0,0
425405,-133.333,4,2,1,46,0,0
425488,-73.8916,4,2,1,46,0,0
425571,-121.951219512195,4,2,1,46,0,0
425654,-76.9230769230769,4,2,1,46,0,0
425738,-112.359550561798,4,2,1,46,0,0
425821,-80,4,2,1,46,0,0
425905,-104.166666666667,4,2,1,46,0,0
425988,-83.3333333333333,4,2,1,46,0,0
426071,-97.0873786407767,4,2,1,46,0,0
426154,-86.9565217391304,4,2,1,46,0,0
426238,-91.743119266055,4,2,1,46,0,0
426321,-90.9090909090909,4,2,1,46,0,0
426405,-90.0900900900901,4,2,1,46,0,0
426488,-89.2857142857143,4,2,1,46,0,0
426571,-88.4955752212389,4,2,1,46,0,0
426655,-87.719298245614,4,2,1,46,0,0
426738,-86.9565217391304,4,2,1,46,0,0
426821,-86.2068965517241,4,2,1,46,0,0
426904,-85.4700854700855,4,2,1,46,0,0
426987,-84.7457627118644,4,2,1,46,0,0
427071,-84.0336134453781,4,2,1,46,0,0
427155,-83.3333333333333,4,2,1,46,0,0
427238,-82.6446280991736,4,2,1,46,0,0
427321,-81.9672131147541,4,2,1,46,0,0
427405,-81.3008130081301,4,2,1,46,0,0
427488,-80.6451612903226,4,2,1,46,0,0
427571,-80,4,2,1,46,0,0
427654,-79.3650793650794,4,2,1,46,0,0
427738,-78.7401574803149,4,2,1,46,0,0
427821,-78.125,4,2,1,46,0,0
427904,-77.5193798449612,4,2,1,46,0,0
427987,-76.9230769230769,4,2,1,46,0,0
428071,-76.3358778625954,4,2,1,46,0,0
428155,-75.7575757575758,4,2,1,46,0,0
428238,-75.187969924812,4,2,1,46,0,0
428321,-74.6268656716418,4,2,1,46,0,0
428405,-74.0740740740741,4,2,1,46,0,0
428488,-73.5294117647059,4,2,1,46,0,0
428571,-72.992700729927,4,2,1,46,0,0
428654,-72.463768115942,4,2,1,46,0,0
428738,-71.9424460431655,4,2,1,46,0,0
428821,-71.4285714285714,4,2,1,46,0,0
428904,-70.9219858156028,4,2,1,46,0,0
428987,-70.4225352112676,4,2,1,46,0,0
429071,-69.9300699300699,4,2,1,46,0,0
429155,-69.4444444444444,4,2,1,46,0,0
429238,-68.9655172413793,4,2,1,46,0,0
429321,-68.4931506849315,4,2,1,46,0,0
429405,-68.0272108843537,4,2,1,46,0,0
429488,-67.5675675675676,4,2,1,46,0,0
429571,-67.1140939597315,4,2,1,46,0,0
429654,-66.6666666666667,4,2,1,46,0,0
429738,-66.2251655629139,4,2,1,46,0,0
429821,-65.7894736842105,4,2,1,46,0,0
429904,-65.359477124183,4,2,1,46,0,0
429987,-64.9350649350649,4,2,1,46,0,0
430071,-64.5161290322581,4,2,1,46,0,0
430155,-64.1025641025641,4,2,1,46,0,0
430238,-74.074,4,2,1,46,0,0
431072,-118.519,4,2,1,46,0,0
432405,-118.519,4,2,1,46,0,0
433738,-140,4,2,1,46,0,0
435405,-161,4,2,1,46,0,0
437322,-230.858,4,2,1,46,0,0
439738,-392.156,4,2,1,46,0,0
443738,-285.714,4,2,1,46,0,0
444072,-222.222,4,2,1,46,0,0
444405,-181.818,4,2,1,46,0,0
444738,-153.846,4,2,1,46,0,0
445072,-133.333,4,2,1,46,0,0
445405,-117.647,4,2,1,46,0,0
445738,-105.263,4,2,1,46,0,0
446072,-95.238,4,2,1,46,0,0
446405,-86.9566,4,2,1,46,0,0
446738,-80,4,2,1,46,0,0
447072,-74.074,4,2,1,46,0,0
447294,246.913580246914,4,2,1,46,1,0
447294,-100,4,2,1,46,0,0
450256,246.913580246914,3,2,1,46,1,0
450256,-100,3,2,1,46,0,0
450997,246.913580246914,5,2,1,46,1,0
450997,-100,5,2,1,46,0,0
452047,246.913580246914,4,2,1,46,1,0
452047,-100,4,2,1,46,0,0
452664,246.913580246914,4,2,1,46,1,0
452664,-100,4,2,1,46,0,0
454721,246.913580246914,4,2,1,46,1,0
454721,-100,4,2,1,46,0,0
455709,246.913580246914,5,2,1,46,1,0
455709,-100,5,2,1,46,0,0
456820,246.913580246914,3,2,1,46,1,0
456820,-100,3,2,1,46,0,0
457561,246.913580246914,5,2,1,46,1,0
457561,-100,5,2,1,46,0,0
458734,246.913580246914,5,2,1,46,1,0
458734,-100,5,2,1,46,0,0
459783,246.913580246914,4,2,1,46,1,0
459783,-100,4,2,1,46,0,0
460400,246.913580246914,5,2,1,46,1,0
460400,-100,5,2,1,46,0,0
461553,246.913580246914,5,2,1,46,1,0
461553,-100,5,2,1,46,0,0
462787,246.913580246914,4,2,1,46,1,0
462787,-100,4,2,1,46,0,0
464763,246.913580246914,3,2,1,46,1,0
464763,-100,3,2,1,46,0,0
465503,246.913580246914,4,2,1,46,1,0
465503,-100,4,2,1,46,0,0
466491,246.913580246914,5,2,1,46,1,0
466491,-100,5,2,1,46,0,0
467787,246.913580246914,4,2,1,46,1,0
467787,-100,4,2,1,46,0,0
468405,246.913580246914,4,2,1,46,1,0
468405,-100,4,2,1,46,0,0
469228,246.913580246914,5,2,1,46,1,0
469228,-100,5,2,1,46,0,0
470215,246.913580246914,4,2,1,46,1,0
470215,-100,4,2,1,46,0,0
471080,246.913580246914,5,2,1,46,1,0
471080,-100,5,2,1,46,0,0
471944,246.913580246914,3,2,1,46,1,0
471944,-100,3,2,1,46,0,0
473425,246.913580246914,4,2,1,46,1,0
473425,-100,4,2,1,46,0,0
474228,246.913580246914,5,2,1,46,1,0
474228,-100,5,2,1,46,0,0
475277,246.913580246914,4,2,1,46,1,0
475277,-100,4,2,1,46,0,0
475894,246.913580246914,6,2,1,46,1,0
475894,-100,6,2,1,46,0,0
477211,246.913580246914,4,2,1,46,1,0
477211,-100,4,2,1,46,0,0
478569,246.913580246914,4,2,1,46,1,0
478569,-100,4,2,1,46,0,0
479187,246.913580246914,4,2,1,46,1,1
479187,-66.6666666666667,4,2,1,46,0,1
479269,-166.666666666667,4,2,1,46,0,1
479310,-250,4,2,1,46,0,1
479351,-100,4,2,1,46,0,1
479433,-66.6666666666667,4,2,1,46,0,1
479515,-166.666666666667,4,2,1,46,0,1
479556,-250,4,2,1,46,0,1
479597,-100,4,2,1,46,0,1
479680,-66.6666666666667,4,2,1,46,0,1
479762,-166.666666666667,4,2,1,46,0,1
479803,-250,4,2,1,46,0,1
479844,-100,4,2,1,46,0,1
479927,-66.6666666666667,4,2,1,46,0,1
480009,-166.666666666667,4,2,1,46,0,1
480050,-250,4,2,1,46,0,1
480091,-100,4,2,1,46,0,1
480174,246.913580246914,6,2,1,46,1,1
480174,-66.6666666666667,4,2,1,46,0,1
480256,-166.666666666667,4,2,1,46,0,1
480297,-250,4,2,1,46,0,1
480338,-100,4,2,1,46,0,1
480420,-66.6666666666667,4,2,1,46,0,1
480502,-166.666666666667,4,2,1,46,0,1
480543,-250,4,2,1,46,0,1
480584,-100,4,2,1,46,0,1
480667,-66.6666666666667,4,2,1,46,0,1
480749,-166.666666666667,4,2,1,46,0,1
480790,-250,4,2,1,46,0,1
480831,-100,4,2,1,46,0,1
480997,-66.6666666666667,4,2,1,46,0,1
481079,-166.666666666667,4,2,1,46,0,1
481120,-250,4,2,1,46,0,1
481161,-66.6666666666667,4,2,1,46,0,1
481202,-200,4,2,1,46,0,1
481243,-66.6666666666667,4,2,1,46,0,1
481284,-200,4,2,1,46,0,1
481326,-66.6666666666667,4,2,1,46,0,1
481367,-200,4,2,1,46,0,1
481408,-66.6666666666667,4,2,1,46,0,1
481449,-200,4,2,1,46,0,1
481490,-66.6666666666667,4,2,1,46,0,1
481531,-200,4,2,1,46,0,1
481573,-66.6666666666667,4,2,1,46,0,1
481614,-200,4,2,1,46,0,1
481656,246.913580246914,4,2,1,46,1,1
481656,-66.6666666666667,4,2,1,46,0,1
481738,-166.666666666667,4,2,1,46,0,1
481779,-250,4,2,1,46,0,1
481820,-100,4,2,1,46,0,1
481902,-66.6666666666667,4,2,1,46,0,1
481984,-166.666666666667,4,2,1,46,0,1
482025,-250,4,2,1,46,0,1
482066,-100,4,2,1,46,0,1
482149,-66.6666666666667,4,2,1,46,0,1
482231,-166.666666666667,4,2,1,46,0,1
482272,-250,4,2,1,46,0,1
482313,-100,4,2,1,46,0,1
482396,-66.6666666666667,4,2,1,46,0,1
482478,-166.666666666667,4,2,1,46,0,1
482519,-250,4,2,1,46,0,1
482560,-100,4,2,1,46,0,1
482643,246.913580246914,6,2,1,46,1,1
482643,-66.6666666666667,4,2,1,46,0,1
482724,-166.666666666667,4,2,1,46,0,1
482765,-250,4,2,1,46,0,1
482806,-100,4,2,1,46,0,1
482889,-66.6666666666667,4,2,1,46,0,1
482971,-166.666666666667,4,2,1,46,0,1
483012,-250,4,2,1,46,0,1
483053,-100,4,2,1,46,0,1
483136,-66.6666666666667,4,2,1,46,0,1
483218,-166.666666666667,4,2,1,46,0,1
483259,-250,4,2,1,46,0,1
483300,-100,4,2,1,46,0,1
483466,-66.6666666666667,4,2,1,46,0,1
483548,-166.666666666667,4,2,1,46,0,1
483589,-250,4,2,1,46,0,1
483630,-66.6666666666667,4,2,1,46,0,1
483671,-200,4,2,1,46,0,1
483712,-66.6666666666667,4,2,1,46,0,1
483754,-200,4,2,1,46,0,1
483795,-66.6666666666667,4,2,1,46,0,1
483877,-166.666666666667,4,2,1,46,0,1
483918,-250,4,2,1,46,0,1
483959,-66.6666666666667,4,2,1,46,0,1
484001,-200,4,2,1,46,0,1
484042,-66.6666666666667,4,2,1,46,0,1
484083,-200,4,2,1,46,0,1
484125,246.913580246914,4,2,1,46,1,1
484125,-66.6666666666667,4,2,1,46,0,1
484206,-166.666666666667,4,2,1,46,0,1
484247,-250,4,2,1,46,0,1
484288,-100,4,2,1,46,0,1
484371,-66.6666666666667,4,2,1,46,0,1
484453,-166.666666666667,4,2,1,46,0,1
484494,-250,4,2,1,46,0,1
484535,-100,4,2,1,46,0,1
484618,-66.6666666666667,4,2,1,46,0,1
484700,-166.666666666667,4,2,1,46,0,1
484741,-250,4,2,1,46,0,1
484782,-100,4,2,1,46,0,1
484865,-66.6666666666667,4,2,1,46,0,1
484947,-166.666666666667,4,2,1,46,0,1
484988,-250,4,2,1,46,0,1
485029,-100,4,2,1,46,0,1
485112,246.913580246914,6,2,1,46,1,1
485112,-66.6666666666667,4,2,1,46,0,1
485193,-166.666666666667,4,2,1,46,0,1
485234,-250,4,2,1,46,0,1
485275,-100,4,2,1,46,0,1
485358,-66.6666666666667,4,2,1,46,0,1
485440,-166.666666666667,4,2,1,46,0,1
485481,-250,4,2,1,46,0,1
485522,-100,4,2,1,46,0,1
485605,-66.6666666666667,4,2,1,46,0,1
485687,-166.666666666667,4,2,1,46,0,1
485728,-250,4,2,1,46,0,1
485769,-100,4,2,1,46,0,1
485935,-66.6666666666667,4,2,1,46,0,1
486017,-166.666666666667,4,2,1,46,0,1
486058,-250,4,2,1,46,0,1
486099,-66.6666666666667,4,2,1,46,0,1
486140,-200,4,2,1,46,0,1
486181,-66.6666666666667,4,2,1,46,0,1
486222,-200,4,2,1,46,0,1
486264,-66.6666666666667,4,2,1,46,0,1
486305,-200,4,2,1,46,0,1
486346,-66.6666666666667,4,2,1,46,0,1
486387,-200,4,2,1,46,0,1
486428,-66.6666666666667,4,2,1,46,0,1
486469,-200,4,2,1,46,0,1
486511,-66.6666666666667,4,2,1,46,0,1
486552,-200,4,2,1,46,0,1
486594,246.913580246914,4,2,1,46,1,1
486594,-66.6666666666667,4,2,1,46,0,1
486676,-166.666666666667,4,2,1,46,0,1
486717,-250,4,2,1,46,0,1
486758,-100,4,2,1,46,0,1
486840,-66.6666666666667,4,2,1,46,0,1
486922,-166.666666666667,4,2,1,46,0,1
486963,-250,4,2,1,46,0,1
487004,-100,4,2,1,46,0,1
487087,-66.6666666666667,4,2,1,46,0,1
487169,-166.666666666667,4,2,1,46,0,1
487210,-250,4,2,1,46,0,1
487251,-100,4,2,1,46,0,1
487334,-66.6666666666667,4,2,1,46,0,1
487416,-166.666666666667,4,2,1,46,0,1
487457,-250,4,2,1,46,0,1
487498,-100,4,2,1,46,0,1
487582,246.913580246914,6,2,1,46,1,1
487582,-66.6666666666667,4,2,1,46,0,1
487663,-166.666666666667,4,2,1,46,0,1
487704,-250,4,2,1,46,0,1
487745,-100,4,2,1,46,0,1
487828,-66.6666666666667,4,2,1,46,0,1
487910,-166.666666666667,4,2,1,46,0,1
487951,-250,4,2,1,46,0,1
487992,-100,4,2,1,46,0,1
488075,-66.6666666666667,4,2,1,46,0,1
488157,-166.666666666667,4,2,1,46,0,1
488198,-250,4,2,1,46,0,1
488239,-66.6666666666667,4,2,1,46,0,1
488281,-200,4,2,1,46,0,1
488322,-66.6666666666667,4,2,1,46,0,1
488363,-200,4,2,1,46,0,1
488405,-66.6666666666667,4,2,1,46,0,1
488446,-200,4,2,1,46,0,1
488487,-66.6666666666667,4,2,1,46,0,1
488528,-200,4,2,1,46,0,1
488569,-66.6666666666667,4,2,1,46,0,1
488610,-200,4,2,1,46,0,1
488651,-66.6666666666667,4,2,1,46,0,1
488693,-200,4,2,1,46,0,1
488734,-66.6666666666667,4,2,1,46,0,1
488775,-200,4,2,1,46,0,1
488816,-66.6666666666667,4,2,1,46,0,1
488857,-200,4,2,1,46,0,1
488898,-66.6666666666667,4,2,1,46,0,1
488940,-200,4,2,1,46,0,1
488981,-66.6666666666667,4,2,1,46,0,1
489022,-200,4,2,1,46,0,1
489063,246.913580246914,4,2,1,46,1,1
489063,-66.6666666666667,4,2,1,46,0,1
489145,-166.666666666667,4,2,1,46,0,1
489186,-250,4,2,1,46,0,1
489227,-100,4,2,1,46,0,1
489309,-66.6666666666667,4,2,1,46,0,1
489391,-166.666666666667,4,2,1,46,0,1
489432,-250,4,2,1,46,0,1
489473,-100,4,2,1,46,0,1
489556,-66.6666666666667,4,2,1,46,0,1
489638,-166.666666666667,4,2,1,46,0,1
489679,-250,4,2,1,46,0,1
489720,-100,4,2,1,46,0,1
489803,-66.6666666666667,4,2,1,46,0,1
489885,-166.666666666667,4,2,1,46,0,1
489926,-250,4,2,1,46,0,1
489967,-100,4,2,1,46,0,1
490051,246.913580246914,6,2,1,46,1,1
490051,-66.6666666666667,4,2,1,46,0,1
490133,-166.666666666667,4,2,1,46,0,1
490174,-250,4,2,1,46,0,1
490215,-100,4,2,1,46,0,1
490297,-66.6666666666667,4,2,1,46,0,1
490379,-166.666666666667,4,2,1,46,0,1
490420,-250,4,2,1,46,0,1
490461,-100,4,2,1,46,0,1
490544,-66.6666666666667,4,2,1,46,0,1
490626,-166.666666666667,4,2,1,46,0,1
490667,-250,4,2,1,46,0,1
490708,-100,4,2,1,46,0,1
490874,-66.6666666666667,4,2,1,46,0,1
490956,-166.666666666667,4,2,1,46,0,1
490997,-250,4,2,1,46,0,1
491038,-66.6666666666667,4,2,1,46,0,1
491079,-200,4,2,1,46,0,1
491120,-66.6666666666667,4,2,1,46,0,1
491161,-200,4,2,1,46,0,1
491203,-66.6666666666667,4,2,1,46,0,1
491244,-200,4,2,1,46,0,1
491285,-66.6666666666667,4,2,1,46,0,1
491326,-200,4,2,1,46,0,1
491367,-66.6666666666667,4,2,1,46,0,1
491408,-200,4,2,1,46,0,1
491450,-66.6666666666667,4,2,1,46,0,1
491491,-200,4,2,1,46,0,1
491532,246.913580246914,4,2,1,46,1,1
491532,-66.6666666666667,4,2,1,46,0,1
491614,-166.666666666667,4,2,1,46,0,1
491655,-250,4,2,1,46,0,1
491696,-100,4,2,1,46,0,1
491778,-66.6666666666667,4,2,1,46,0,1
491860,-166.666666666667,4,2,1,46,0,1
491901,-250,4,2,1,46,0,1
491942,-100,4,2,1,46,0,1
492025,-66.6666666666667,4,2,1,46,0,1
492107,-166.666666666667,4,2,1,46,0,1
492148,-250,4,2,1,46,0,1
492189,-100,4,2,1,46,0,1
492272,-66.6666666666667,4,2,1,46,0,1
492354,-166.666666666667,4,2,1,46,0,1
492395,-250,4,2,1,46,0,1
492436,-100,4,2,1,46,0,1
492520,246.913580246914,6,2,1,46,1,1
492520,-66.6666666666667,4,2,1,46,0,1
492601,-166.666666666667,4,2,1,46,0,1
492642,-250,4,2,1,46,0,1
492683,-100,4,2,1,46,0,1
492765,-66.6666666666667,4,2,1,46,0,1
492847,-166.666666666667,4,2,1,46,0,1
492888,-250,4,2,1,46,0,1
492929,-100,4,2,1,46,0,1
493012,-66.6666666666667,4,2,1,46,0,1
493094,-166.666666666667,4,2,1,46,0,1
493135,-250,4,2,1,46,0,1
493176,-100,4,2,1,46,0,1
493342,-66.6666666666667,4,2,1,46,0,1
493424,-166.666666666667,4,2,1,46,0,1
493465,-250,4,2,1,46,0,1
493507,-66.6666666666667,4,2,1,46,0,1
493548,-200,4,2,1,46,0,1
493589,-66.6666666666667,4,2,1,46,0,1
493631,-200,4,2,1,46,0,1
493672,-66.6666666666667,4,2,1,46,0,1
493754,-166.666666666667,4,2,1,46,0,1
493795,-250,4,2,1,46,0,1
493836,-66.6666666666667,4,2,1,46,0,1
493878,-200,4,2,1,46,0,1
493919,-66.6666666666667,4,2,1,46,0,1
493960,-200,4,2,1,46,0,1
494001,246.913580246914,4,2,1,46,1,1
494001,-66.6666666666667,4,2,1,46,0,1
494083,-166.666666666667,4,2,1,46,0,1
494124,-250,4,2,1,46,0,1
494165,-100,4,2,1,46,0,1
494247,-66.6666666666667,4,2,1,46,0,1
494329,-166.666666666667,4,2,1,46,0,1
494370,-250,4,2,1,46,0,1
494411,-100,4,2,1,46,0,1
494494,-66.6666666666667,4,2,1,46,0,1
494576,-166.666666666667,4,2,1,46,0,1
494617,-250,4,2,1,46,0,1
494658,-100,4,2,1,46,0,1
494741,-66.6666666666667,4,2,1,46,0,1
494823,-166.666666666667,4,2,1,46,0,1
494864,-250,4,2,1,46,0,1
494905,-100,4,2,1,46,0,1
494989,246.913580246914,6,2,1,46,1,1
494989,-66.6666666666667,4,2,1,46,0,1
495071,-166.666666666667,4,2,1,46,0,1
495112,-250,4,2,1,46,0,1
495153,-100,4,2,1,46,0,1
495235,-66.6666666666667,4,2,1,46,0,1
495317,-166.666666666667,4,2,1,46,0,1
495358,-250,4,2,1,46,0,1
495399,-100,4,2,1,46,0,1
495482,-66.6666666666667,4,2,1,46,0,1
495564,-166.666666666667,4,2,1,46,0,1
495605,-250,4,2,1,46,0,1
495646,-100,4,2,1,46,0,1
495812,-66.6666666666667,4,2,1,46,0,1
495894,-166.666666666667,4,2,1,46,0,1
495935,-250,4,2,1,46,0,1
495976,-66.6666666666667,4,2,1,46,0,1
496017,-200,4,2,1,46,0,1
496058,-66.6666666666667,4,2,1,46,0,1
496099,-200,4,2,1,46,0,1
496141,-66.6666666666667,4,2,1,46,0,1
496182,-200,4,2,1,46,0,1
496223,-66.6666666666667,4,2,1,46,0,1
496264,-200,4,2,1,46,0,1
496305,-66.6666666666667,4,2,1,46,0,1
496346,-200,4,2,1,46,0,1
496388,-66.6666666666667,4,2,1,46,0,1
496429,-200,4,2,1,46,0,1
496470,246.913580246914,4,2,1,46,1,1
496470,-66.6666666666667,4,2,1,46,0,1
496552,-166.666666666667,4,2,1,46,0,1
496593,-250,4,2,1,46,0,1
496634,-100,4,2,1,46,0,1
496716,-66.6666666666667,4,2,1,46,0,1
496798,-166.666666666667,4,2,1,46,0,1
496839,-250,4,2,1,46,0,1
496880,-100,4,2,1,46,0,1
496963,-66.6666666666667,4,2,1,46,0,1
497045,-166.666666666667,4,2,1,46,0,1
497086,-250,4,2,1,46,0,1
497127,-100,4,2,1,46,0,1
497210,-66.6666666666667,4,2,1,46,0,1
497292,-166.666666666667,4,2,1,46,0,1
497333,-250,4,2,1,46,0,1
497374,-100,4,2,1,46,0,1
497458,246.913580246914,6,2,1,46,1,1
497458,-66.6666666666667,6,2,1,46,0,1
497499,-200,6,2,1,46,0,1
497540,-66.6666666666667,6,2,1,46,0,1
497581,-200,6,2,1,46,0,1
497622,-100,6,2,1,46,0,1
497704,-66.6666666666667,6,2,1,46,0,1
497786,-166.666666666667,6,2,1,46,0,1
497827,-250,6,2,1,46,0,1
497869,-100,6,2,1,46,0,1
498034,-66.6666666666667,6,2,1,46,0,1
498075,-200,6,2,1,46,0,1
498116,-66.6666666666667,4,2,1,46,0,1
498158,-200,4,2,1,46,0,1
498199,-66.6666666666667,4,2,1,46,0,1
498240,-200,4,2,1,46,0,1
498282,-66.6666666666667,4,2,1,46,0,1
498323,-200,4,2,1,46,0,1
498364,-66.6666666666667,4,2,1,46,0,1
498405,-200,4,2,1,46,0,1
498446,-66.6666666666667,4,2,1,46,0,1
498487,-200,4,2,1,46,0,1
498528,-66.6666666666667,4,2,1,46,0,1
498570,-200,4,2,1,46,0,1
498611,-66.6666666666667,4,2,1,46,0,1
498652,-200,4,2,1,46,0,1
498693,-66.6666666666667,4,2,1,46,0,1
498734,-200,4,2,1,46,0,1
498775,-66.6666666666667,4,2,1,46,0,1
498817,-200,4,2,1,46,0,1
498858,-66.6666666666667,4,2,1,46,0,1
498899,-200,4,2,1,46,0,1
498940,246.913580246914,4,2,1,46,1,1
498940,-100,4,2,1,46,0,0
499927,246.913580246914,5,2,1,46,1,0
499927,-100,5,2,1,46,0,0
501038,246.913580246914,4,2,1,46,1,0
501038,-100,4,2,1,46,0,0
502026,246.913580246914,5,2,1,46,1,0
502026,-100,5,2,1,46,0,0
503137,246.913580246914,3,2,1,46,1,0
503137,-100,3,2,1,46,0,0
503878,246.913580246914,5,2,1,46,1,0
503878,-100,5,2,1,46,0,0
505051,246.913580246914,5,2,1,46,1,0
505051,-100,5,2,1,46,0,0
506100,246.913580246914,4,2,1,46,1,0
506100,-100,4,2,1,46,0,0
506717,246.913580246914,4,2,1,46,1,0
506717,-100,4,2,1,46,0,0
508034,246.913580246914,6,2,1,46,1,0
508034,-100,6,2,1,46,0,0
509392,246.913580246914,4,2,1,46,1,0
509392,-100,4,2,1,46,0,0
510380,246.913580246914,5,2,1,46,1,0
510380,-100,5,2,1,46,0,0
511491,246.913580246914,3,2,1,46,1,0
511491,-100,3,2,1,46,0,0
512232,246.913580246914,5,2,1,46,1,0
512232,-100,5,2,1,46,0,0
513405,246.913580246914,5,2,1,46,1,0
513405,-100,5,2,1,46,0,0
514454,246.913580246914,4,2,1,46,1,0
514454,-100,4,2,1,46,0,0
515071,246.913580246914,4,2,1,46,1,0
515071,-100,4,2,1,46,0,0
516388,246.913580246914,6,2,1,46,1,0
516388,-100,6,2,1,46,0,0
517746,246.913580246914,4,2,1,46,1,0
517746,-66.6666666666667,4,2,1,46,0,0
517807,-85.7142857142857,4,2,1,46,0,0
517869,-120,4,2,1,46,0,0
517931,-200,4,2,1,46,0,0
517992,-100,4,2,1,46,0,0
518734,246.913580246914,5,2,1,46,1,0
518734,-100,5,2,1,46,0,0
519845,246.913580246914,3,2,1,46,1,0
519845,-100,3,2,1,46,0,0
520586,246.913580246914,5,2,1,46,1,0
520586,-100,5,2,1,46,0,0
521758,246.913580246914,5,2,1,46,1,0
521758,-100,5,2,1,46,0,0
522808,246.913580246914,4,2,1,46,1,0
522808,-100,4,2,1,46,0,0
523425,246.913580246914,4,2,1,46,1,0
523425,-100,4,2,1,46,0,0
524742,246.913580246914,6,2,1,46,1,0
524742,-100,6,2,1,46,0,0
526100,246.913580246914,4,2,1,46,1,0
526100,-100,4,2,1,46,0,0
527088,246.913580246914,5,2,1,46,1,0
527088,-100,5,2,1,46,0,0
528199,246.913580246914,3,2,1,46,1,0
528199,-100,3,2,1,46,0,0
528940,246.913580246914,5,2,1,46,1,0
528940,-100,5,2,1,46,0,0
530112,246.913580246914,5,2,1,46,1,0
530112,-100,5,2,1,46,0,0
531162,246.913580246914,4,2,1,46,1,0
531162,-100,4,2,1,46,0,0
531779,246.913580246914,4,2,1,46,1,0
531779,-100,4,2,1,46,0,0
533096,246.913580246914,6,2,1,46,1,0
533096,-100,6,2,1,46,0,0
534454,246.913580246914,4,2,1,46,1,0
534454,-100,4,2,1,46,0,0
539392,246.913580246914,6,2,1,46,1,0
539392,-100,6,2,1,46,0,0
540750,246.913580246914,4,2,1,46,1,0
540750,-1000,4,2,1,46,0,0
546675,-880.626,4,2,1,46,0,0
546799,-777.5,4,2,1,46,0,0
546922,-687.982,4,2,1,46,0,0
547046,-609.952,4,2,1,46,0,0
547169,-541.688,4,2,1,46,0,0
547293,-481.778,4,2,1,46,0,0
547416,-429.053,4,2,1,46,0,0
547540,-382.536,4,2,1,46,0,0
547663,-341.409,4,2,1,46,0,0
547787,-304.978,4,2,1,46,0,0
547910,-272.651,4,2,1,46,0,0
548033,-243.923,4,2,1,46,0,0
548157,-218.359,4,2,1,46,0,0
548280,-195.583,4,2,1,46,0,0
548404,-175.271,4,2,1,46,0,0
548527,-157.138,4,2,1,46,0,0
548651,-140.937,4,2,1,46,0,0
548774,-126.451,4,2,1,46,0,0
548898,-113.49,4,2,1,46,0,0
549083,-101.887,4,2,1,46,0,0

[HitObjects]
64,192,160,5,0,0:0:0:0:
192,192,298,1,0,0:0:0:0:
448,192,437,128,0,10160:0:0:0:0:
320,192,1410,128,0,3493:0:0:0:0:
64,192,3493,1,0,0:0:0:50:Kick1.wav
192,192,3493,1,0,0:0:0:0:
320,192,3701,1,0,0:0:0:30:LR_HiHat Click2.wav
320,192,3805,1,0,0:0:0:30:LR_HiHat Click2.wav
64,192,4014,1,0,0:0:0:50:Kick1.wav
192,192,4014,1,0,0:0:0:0:
192,192,4222,1,0,0:0:0:20:Rim.wav
64,192,4326,1,0,0:0:0:50:Kick1.wav
320,192,4326,1,0,0:0:0:0:
192,192,4535,1,0,0:0:0:50:Kick1.wav
320,192,4535,1,0,0:0:0:0:
64,192,4639,1,0,0:0:0:0:
320,192,4743,1,0,0:0:0:20:Rim.wav
64,192,4951,1,0,0:0:0:50:Kick1.wav
192,192,4951,1,0,0:0:0:0:
192,192,5160,1,0,0:0:0:50:Kick1.wav
320,192,5160,1,0,0:0:0:0:
64,192,5368,1,0,0:0:0:30:LR_HiHat Click2.wav
64,192,5472,1,0,0:0:0:30:LR_HiHat Click2.wav
192,192,5680,1,0,0:0:0:50:Kick1.wav
320,192,5680,1,0,0:0:0:0:
192,192,5889,1,0,0:0:0:20:Rim.wav
320,192,5993,1,0,0:0:0:70:hat+rim.wav
64,192,6097,1,0,0:0:0:20:Rim.wav
320,192,6201,1,0,0:0:0:70:hat+rim.wav
192,192,6305,1,0,0:0:0:20:Rim.wav
64,192,6410,1,0,0:0:0:20:Rim.wav
64,192,6618,1,0,0:0:0:50:Kick1.wav
192,192,6618,1,0,0:0:0:0:
192,192,6826,1,0,0:0:0:50:Kick1.wav
320,192,6826,1,0,0:0:0:0:
64,192,7035,1,0,0:0:0:30:LR_HiHat Click2.wav
64,192,7139,1,0,0:0:0:30:LR_HiHat Click2.wav
192,192,7347,1,0,0:0:0:50:Kick1.wav
320,192,7347,1,0,0:0:0:0:
192,192,7555,1,0,0:0:0:20:Rim.wav
64,192,7660,1,0,0:0:0:50:Kick1.wav
320,192,7660,1,0,0:0:0:0:
64,192,7868,1,0,0:0:0:50:Kick1.wav
192,192,7868,1,0,0:0:0:0:
320,192,7972,1,0,0:0:0:0:
192,192,8076,1,0,0:0:0:20:Rim.wav
64,192,8285,1,0,0:0:0:50:Kick1.wav
192,192,8285,1,0,0:0:0:0:
320,192,8493,1,0,0:0:0:20:Rim.wav
64,192,8597,1,0,0:0:0:0:
192,192,8701,1,0,0:0:0:30:LR_HiHat Click2.wav
192,192,8805,1,0,0:0:0:70:hat+rim.wav
320,192,8910,1,0,0:0:0:0:
64,192,9014,1,0,0:0:0:70:hat+rim.wav
64,192,9118,1,0,0:0:0:30:LR_HiHat Click2.wav
320,192,9222,1,0,0:0:0:0:
192,192,9326,1,0,0:0:0:30:LR_HiHat Click2.wav
192,192,9430,1,0,0:0:0:70:hat+rim.wav
64,192,9535,1,0,0:0:0:0:
320,192,9639,1,0,0:0:0:30:LR_HiHat Click2.wav
192,192,9743,1,0,0:0:0:70:hat+rim.wav
320,192,9847,1,0,0:0:0:30:LR_HiHat Click2.wav
64,192,9951,1,0,0:0:0:40:clap-s.wav
192,192,9951,1,0,0:0:0:0:
320,192,9951,1,0,0:0:0:0:
192,192,10160,128,0,10785:0:0:0:50:Kick1.wav
320,192,10160,1,0,0:0:0:0:
64,192,10368,1,0,0:0:0:30:LR_HiHat Click2.wav
64,192,10472,1,0,0:0:0:30:LR_HiHat Click2.wav
320,192,10576,1,0,0:0:0:50:Kick-sub.wav
448,192,10576,1,0,0:0:0:0:
320,192,10680,1,0,0:0:0:50:Kick1.wav
448,192,10680,1,0,0:0:0:0:
64,192,10785,128,0,13493:0:0:0:0:
448,192,10889,1,0,0:0:0:20:Rim.wav
192,192,10993,1,0,0:0:0:50:Kick1.wav
320,192,10993,1,0,0:0:0:0:
192,192,11201,1,0,0:0:0:50:Kick1.wav
320,192,11201,1,0,0:0:0:0:
448,192,11305,1,0,0:0:0:0:
192,192,11410,1,0,0:0:0:50:Kick1.wav
320,192,11410,1,0,0:0:0:20:Rim.wav
192,192,11618,1,0,0:0:0:50:Kick1.wav
320,192,11618,1,0,0:0:0:0:
320,192,11826,1,0,0:0:0:50:Kick1.wav
448,192,11826,1,0,0:0:0:0:
192,192,12035,1,0,0:0:0:30:LR_HiHat Click2.wav
192,192,12139,1,0,0:0:0:30:LR_HiHat Click2.wav
320,192,12243,1,0,0:0:0:50:Kick-sub.wav
448,192,12243,1,0,0:0:0:0:
320,192,12347,1,0,0:0:0:50:Kick1.wav
448,192,12347,1,0,0:0:0:0:
192,192,12555,1,0,0:0:0:20:Rim.wav
320,192,12660,1,0,0:0:0:50:Kick1.wav
448,192,12660,1,0,0:0:0:70:hat+rim.wav
192,192,12764,1,0,0:0:0:20:Rim.wav
448,192,12868,1,0,0:0:0:70:hat+rim.wav
320,192,12972,1,0,0:0:0:20:Rim.wav
192,192,13076,1,0,0:0:0:50:Kick1.wav
448,192,13076,1,0,0:0:0:20:Rim.wav
192,192,13285,1,0,0:0:0:50:Kick1.wav
448,192,13285,1,0,0:0:0:0:
192,192,13493,1,0,0:0:0:50:Kick1.wav
320,192,13493,128,0,15160:0:0:0:0:
448,192,13701,1,0,0:0:0:30:LR_HiHat Click2.wav
448,192,13805,1,0,0:0:0:30:LR_HiHat Click2.wav
64,192,13910,1,0,0:0:0:50:Kick-sub.wav
192,192,13910,1,0,0:0:0:0:
64,192,14014,1,0,0:0:0:50:Kick1.wav
192,192,14014,1,0,0:0:0:0:
448,192,14222,1,0,0:0:0:20:Rim.wav
64,192,14326,1,0,0:0:0:50:Kick1.wav
192,192,14326,1,0,0:0:0:0:
64,192,14535,1,0,0:0:0:50:Kick1.wav
192,192,14535,1,0,0:0:0:0:
448,192,14639,1,0,0:0:0:0:
64,192,14743,1,0,0:0:0:50:Kick1.wav
192,192,14743,1,0,0:0:0:0:
64,192,14951,1,0,0:0:0:50:Kick1.wav
192,192,14951,1,0,0:0:0:0:
192,192,15160,128,0,15993:0:0:0:50:Kick1.wav
448,192,15160,1,0,0:0:0:70:hat+rim.wav
64,192,15368,1,0,0:0:0:30:LR_HiHat Click2.wav
320,192,15472,1,0,0:0:0:70:hat+rim.wav
64,192,15576,1,0,0:0:0:50:Kick1.wav
448,192,15576,1,0,0:0:0:0:
320,192,15680,1,0,0:0:0:70:hat+rim.wav
448,192,15785,1,0,0:0:0:30:LR_HiHat Click2.wav
320,192,15889,1,0,0:0:0:0:
64,192,15993,128,0,16826:0:0:0:50:Kick1.wav
448,192,15993,1,0,0:0:0:30:LR_HiHat Click2.wav
320,192,16097,1,0,0:0:0:70:hat+rim.wav
192,192,16201,1,0,0:0:0:0:
320,192,16279,1,0,0:0:0:70:hat+rim.wav
448,192,16357,1,0,0:0:0:0:
192,192,16410,1,0,0:0:0:50:Kick1.wav
320,192,16410,1,0,0:0:0:30:LR_HiHat Click2.wav
448,192,16462,1,0,0:0:0:70:hat+rim.wav
192,192,16540,1,0,0:0:0:0:
320,192,16618,1,0,0:0:0:70:hat+rim.wav
448,192,16670,1,0,0:0:0:0:
192,192,16722,1,0,0:0:0:0:
320,192,16791,1,0,0:0:0:70:hat+rim.wav
192,192,16826,1,0,0:0:0:50:Kick1.wav
448,192,16826,128,0,20160:0:0:0:0:
320,192,16878,1,0,0:0:0:50:Kick1.wav
64,192,16930,1,0,0:0:0:50:Kick1.wav
192,192,16982,1,0,0:0:0:50:Kick1.wav
320,192,17035,1,0,0:0:0:30:LR_HiHat Click2.wav
320,192,17139,1,0,0:0:0:30:LR_HiHat Click2.wav
64,192,17243,1,0,0:0:0:50:Kick-sub.wav
192,192,17243,1,0,0:0:0:0:
64,192,17347,1,0,0:0:0:50:Kick1.wav
192,192,17347,1,0,0:0:0:0:
320,192,17555,1,0,0:0:0:20:Rim.wav
64,192,17660,1,0,0:0:0:50:Kick1.wav
192,192,17660,1,0,0:0:0:0:
64,192,17868,1,0,0:0:0:50:Kick1.wav
192,192,17868,1,0,0:0:0:0:
320,192,17972,1,0,0:0:0:0:
64,192,18076,1,0,0:0:0:50:Kick1.wav
192,192,18076,1,0,0:0:0:20:Rim.wav
64,192,18285,1,0,0:0:0:50:Kick1.wav
192,192,18285,1,0,0:0:0:0:
192,192,18493,1,0,0:0:0:50:Kick1.wav
320,192,18493,1,0,0:0:0:0:
64,192,18701,1,0,0:0:0:30:LR_HiHat Click2.wav
64,192,18805,1,0,0:0:0:30:LR_HiHat Click2.wav
192,192,18910,1,0,0:0:0:50:Kick-sub.wav
320,192,18910,1,0,0:0:0:0:
192,192,19014,1,0,0:0:0:50:Kick1.wav
320,192,19014,1,0,0:0:0:0:
64,192,19222,1,0,0:0:0:20:Rim.wav
192,192,19326,1,0,0:0:0:50:Kick-sub.wav
320,192,19326,1,0,0:0:0:70:hat+rim.wav
64,192,19430,1,0,0:0:0:20:Rim.wav
320,192,19535,1,0,0:0:0:70:hat+rim.wav
192,192,19639,1,0,0:0:0:20:Rim.wav
64,192,19743,1,0,0:0:0:50:Kick-sub.wav
320,192,19743,1,0,0:0:0:20:Rim.wav
64,192,19951,1,0,0:0:0:50:Kick1.wav
320,192,19951,1,0,0:0:0:0:
192,192,20160,128,0,21826:0:0:0:50:Kick1.wav
320,192,20160,1,0,0:0:0:0:
64,192,20368,1,0,0:0:0:30:LR_HiHat Click2.wav
64,192,20472,1,0,0:0:0:30:LR_HiHat Click2.wav
320,192,20576,1,0,0:0:0:50:Kick-sub.wav
448,192,20576,1,0,0:0:0:0:
320,192,20680,1,0,0:0:0:50:Kick1.wav
448,192,20680,1,0,0:0:0:0:
64,192,20889,1,0,0:0:0:20:Rim.wav
320,192,20993,1,0,0:0:0:50:Kick1.wav
448,192,20993,1,0,0:0:0:0:
320,192,21201,1,0,0:0:0:50:Kick1.wav
448,192,21201,1,0,0:0:0:0:
64,192,21305,1,0,0:0:0:0:
320,192,21410,1,0,0:0:0:50:Kick1.wav
448,192,21410,1,0,0:0:0:20:Rim.wav
320,192,21618,1,0,0:0:0:50:Kick1.wav
448,192,21618,1,0,0:0:0:0:
64,192,21826,128,0,22139:0:0:0:50:Kick1.wav
320,192,21826,1,0,0:0:0:70:hat+rim.wav
448,192,21930,1,0,0:0:0:0:
192,192,22035,1,0,0:0:0:30:LR_HiHat Click2.wav
448,192,22139,128,0,22347:0:0:0:70:hat+rim.wav
64,192,22243,1,0,0:0:0:50:Kick1.wav
320,192,22243,1,0,0:0:0:30:LR_HiHat Click2.wav
192,192,22347,128,0,22451:0:0:0:30:LR_HiHat Click2.wav
320,192,22451,128,0,23493:0:0:0:30:LR_HiHat Click2.wav
64,192,22503,1,0,0:0:0:30:LR_HiHat Click2.wav
192,192,22555,1,0,0:0:0:30:LR_HiHat Click2.wav
64,192,22660,1,0,0:0:0:50:Kick1.wav
448,192,22660,1,0,0:0:0:30:LR_HiHat Click2.wav
192,192,22764,1,0,0:0:0:20:Rim.wav
448,192,22816,1,0,0:0:0:30:LR_HiHat Click2.wav
64,192,22868,1,0,0:0:0:30:LR_HiHat Click2.wav
192,192,22920,1,0,0:0:0:30:LR_HiHat Click2.wav
448,192,22984,1,0,0:0:0:70:hat+rim.wav
64,192,23076,1,0,0:0:0:50:Kick1.wav
192,192,23076,1,0,0:0:0:0:
448,192,23154,1,0,0:0:0:30:LR_HiHat Click2.wav
64,192,23243,1,0,0:0:0:40:kickdrum.wav
192,192,23243,1,0,0:0:0:0:
448,192,23319,1,0,0:0:0:0:
192,192,23389,1,0,0:0:0:0:
64,192,23493,128,0,26271:0:0:0:50:Kick1.wav
448,192,23493,128,0,23701:0:0:0:0:
192,192,23701,1,0,0:0:0:30:LR_HiHat Click2.wav
192,192,23805,1,0,0:0:0:30:LR_HiHat Click2.wav
320,192,23910,1,0,0:0:0:50:Kick-sub.wav
448,192,23910,1,0,0:0:0:0:
320,192,24014,1,0,0:0:0:50:Kick1.wav
448,192,24014,1,0,0:0:0:0:
192,192,24222,1,0,0:0:0:20:Rim.wav
320,192,24326,1,0,0:0:0:50:Kick1.wav
448,192,24326,1,0,0:0:0:0:
320,192,24535,1,0,0:0:0:50:Kick1.wav
448,192,24535,1,0,0:0:0:0:
192,192,24639,1,0,0:0:0:0:
320,192,24743,1,0,0:0:0:50:Kick1.wav
448,192,24743,1,0,0:0:0:20:Rim.wav
320,192,24951,1,0,0:0:0:50:Kick1.wav
448,192,24951,1,0,0:0:0:0:
192,192,25160,1,0,0:0:0:50:Kick1.wav
320,192,25160,1,0,0:0:0:0:
448,192,25368,1,0,0:0:0:30:LR_HiHat Click2.wav
448,192,25472,1,0,0:0:0:30:LR_HiHat Click2.wav
192,192,25576,1,0,0:0:0:50:Kick-sub.wav
320,192,25576,1,0,0:0:0:0:
192,192,25680,1,0,0:0:0:50:Kick1.wav
320,192,25680,1,0,0:0:0:0:
448,192,25889,1,0,0:0:0:20:Rim.wav
192,192,25993,1,0,0:0:0:50:Kick1.wav
320,192,26097,1,0,0:0:0:20:Rim.wav
448,192,26201,1,0,0:0:0:70:hat+rim.wav
192,192,26271,128,0,26340:0:0:0:0:
320,192,26340,128,0,26410:0:0:0:0:
64,192,26410,1,0,0:0:0:50:Kick1.wav
448,192,26410,128,0,26826:0:0:0:20:Rim.wav
64,192,26618,1,0,0:0:0:50:Kick1.wav
192,192,26618,1,0,0:0:0:0:
192,192,26826,128,0,27139:0:0:0:50:Kick1.wav
320,192,26826,1,0,0:0:0:0:
320,192,27035,1,0,0:0:0:30:LR_HiHat Click2.wav
448,192,27139,128,0,27451:0:0:0:30:LR_HiHat Click2.wav
64,192,27243,1,0,0:0:0:50:Kick-sub.wav
192,192,27243,1,0,0:0:0:0:
192,192,27347,1,0,0:0:0:50:Kick1.wav
320,192,27347,1,0,0:0:0:0:
64,192,27451,128,0,27764:0:0:0:0:
192,192,27555,1,0,0:0:0:20:Rim.wav
320,192,27660,1,0,0:0:0:50:Kick1.wav
448,192,27660,1,0,0:0:0:0:
192,192,27764,128,0,28076:0:0:0:0:
320,192,27868,1,0,0:0:0:50:Kick1.wav
448,192,27868,1,0,0:0:0:0:
64,192,27972,1,0,0:0:0:0:
320,192,28076,1,0,0:0:0:50:Kick1.wav
448,192,28076,128,0,28493:0:0:0:20:Rim.wav
192,192,28285,1,0,0:0:0:50:Kick1.wav
320,192,28285,1,0,0:0:0:0:
64,192,28493,1,0,0:0:0:50:Kick1.wav
320,192,28493,128,0,29118:0:0:0:0:
192,192,28597,1,0,0:0:0:70:hat+rim.wav
448,192,28701,1,0,0:0:0:0:
64,192,28805,1,0,0:0:0:50:Kick1.wav
192,192,28805,1,0,0:0:0:0:
64,192,28910,1,0,0:0:0:50:Kick-sub.wav
192,192,28910,1,0,0:0:0:0:
448,192,29014,1,0,0:0:0:20:Rim.wav
192,192,29118,128,0,30160:0:0:0:20:Rim.wav
64,192,29222,1,0,0:0:0:20:Rim.wav
448,192,29274,128,0,29326:0:0:0:0:
320,192,29326,1,0,0:0:0:30:LR_HiHat Click2.wav
64,192,29419,1,0,0:0:0:70:hat+rim.wav
448,192,29465,1,0,0:0:0:0:
320,192,29535,1,0,0:0:0:50:Kick1.wav
448,192,29639,128,0,29743:0:0:0:0:
320,192,29691,128,0,29743:0:0:0:0:
64,192,29743,1,0,0:0:0:10:snare-a.wav
320,192,29847,1,0,0:0:0:10:snare-a.wav
64,192,29951,1,0,0:0:0:10:snare-a.wav
320,192,30055,1,0,0:0:0:10:snare-a.wav
64,192,30160,1,0,0:0:0:30:waterdrop.wav
448,192,30160,128,0,30472:0:0:0:50:Kick-sub.wav
64,192,30472,1,0,0:0:0:50:Kick-sub.wav
448,192,30524,128,0,30837:0:0:0:0:
64,192,30680,1,0,0:0:0:50:Kick-sub.wav
64,192,30889,1,0,0:0:0:50:Kick-sub.wav
448,192,30889,128,0,31201:0:0:0:0:
64,192,31097,1,0,0:0:0:50:Kick-sub.wav
448,192,31253,128,0,31566:0:0:0:0:
64,192,31305,1,0,0:0:0:50:Kick-sub.wav
64,192,31618,1,0,0:0:0:50:Kick-sub.wav
448,192,31618,128,0,31930:0:0:0:0:
64,192,31930,1,0,0:0:0:50:Kick-sub.wav
448,192,31982,128,0,32295:0:0:0:0:
64,192,32139,1,0,0:0:0:50:Kick-sub.wav
64,192,32347,1,0,0:0:0:50:Kick-sub.wav
448,192,32347,128,0,32660:0:0:0:0:
64,192,32555,1,0,0:0:0:50:Kick-sub.wav
448,192,32712,128,0,33024:0:0:0:0:
64,192,32764,1,0,0:0:0:50:Kick-sub.wav
64,192,33076,1,0,0:0:0:50:Kick-sub.wav
448,192,33076,128,0,33389:0:0:0:0:
64,192,33389,1,0,0:0:0:50:Kick-sub.wav
448,192,33441,128,0,33753:0:0:0:0:
64,192,33597,1,0,0:0:0:50:Kick-sub.wav
64,192,33805,1,0,0:0:0:50:Kick-sub.wav
448,192,33805,128,0,34118:0:0:0:0:
64,192,34014,1,0,0:0:0:50:Kick-sub.wav
448,192,34170,128,0,34482:0:0:0:0:
64,192,34222,1,0,0:0:0:50:Kick-sub.wav
64,192,34535,1,0,0:0:0:50:Kick-sub.wav
448,192,34535,128,0,34847:0:0:0:0:
64,192,34847,1,0,0:0:0:50:Kick-sub.wav
448,192,34899,128,0,35264:0:0:0:0:
64,192,35055,1,0,0:0:0:50:Kick-sub.wav
64,192,35264,1,0,0:0:0:50:Kick-sub.wav
192,192,35264,128,0,35628:0:0:0:0:
64,192,35472,1,0,0:0:0:50:Kick-sub.wav
320,192,35628,128,0,35993:0:0:0:0:
64,192,35680,1,0,0:0:0:50:Kick-sub.wav
64,192,35993,1,0,0:0:0:50:Kick-sub.wav
448,192,35993,128,0,36045:0:0:0:30:LR_HiHat Click2.wav
192,192,36114,1,0,0:0:0:70:hat+rim.wav
64,192,36305,1,0,0:0:0:50:Kick-sub.wav
192,192,36357,1,0,0:0:0:0:
448,192,36410,128,0,36462:0:0:0:0:
320,192,36479,1,0,0:0:0:70:hat+rim.wav
64,192,36514,1,0,0:0:0:50:Kick-sub.wav
320,192,36722,1,0,0:0:0:50:Kick-sub.wav
448,192,36722,128,0,36774:0:0:0:0:
64,192,36826,1,0,0:0:0:20:clap-s.wav
192,192,36930,1,0,0:0:0:50:Kick-sub.wav
320,192,36965,1,0,0:0:0:20:Rim.wav
448,192,37087,128,0,37139:0:0:0:0:
320,192,37139,1,0,0:0:0:50:Kick-sub.wav
64,192,37213,1,0,0:0:0:40:clap-s.wav
192,192,37213,1,0,0:0:0:0:
64,192,37451,1,0,0:0:0:50:Kick-sub.wav
448,192,37451,128,0,37503:0:0:0:30:LR_HiHat Click2.wav
192,192,37573,1,0,0:0:0:70:hat+rim.wav
64,192,37764,1,0,0:0:0:50:Kick-sub.wav
192,192,37816,1,0,0:0:0:0:
448,192,37868,128,0,37920:0:0:0:0:
320,192,37937,1,0,0:0:0:70:hat+rim.wav
64,192,37972,1,0,0:0:0:50:Kick-sub.wav
320,192,38180,1,0,0:0:0:50:Kick-sub.wav
448,192,38180,128,0,38232:0:0:0:0:
64,192,38285,1,0,0:0:0:20:clap-s.wav
192,192,38389,1,0,0:0:0:50:Kick-sub.wav
320,192,38423,1,0,0:0:0:20:Rim.wav
448,192,38545,128,0,38597:0:0:0:0:
320,192,38597,1,0,0:0:0:50:Kick-sub.wav
64,192,38671,1,0,0:0:0:40:clap-s.wav
192,192,38671,1,0,0:0:0:0:
320,192,38731,1,0,0:0:0:20:clap-s.wav
448,192,38790,1,0,0:0:0:20:clap-s.wav
192,192,38850,1,0,0:0:0:20:clap-s.wav
64,192,38910,1,0,0:0:0:50:Kick-sub.wav
448,192,38910,128,0,38962:0:0:0:30:LR_HiHat Click2.wav
192,192,39031,1,0,0:0:0:70:hat+rim.wav
64,192,39222,1,0,0:0:0:50:Kick-sub.wav
192,192,39274,1,0,0:0:0:0:
448,192,39326,128,0,39378:0:0:0:0:
320,192,39396,1,0,0:0:0:70:hat+rim.wav
64,192,39430,1,0,0:0:0:50:Kick-sub.wav
320,192,39639,1,0,0:0:0:50:Kick-sub.wav
448,192,39639,128,0,39691:0:0:0:0:
64,192,39743,1,0,0:0:0:20:clap-s.wav
192,192,39847,1,0,0:0:0:50:Kick-sub.wav
320,192,39882,1,0,0:0:0:20:Rim.wav
448,192,40003,128,0,40055:0:0:0:0:
320,192,40055,1,0,0:0:0:50:Kick-sub.wav
64,192,40130,1,0,0:0:0:40:clap-s.wav
192,192,40130,1,0,0:0:0:0:
64,192,40368,1,0,0:0:0:50:Kick-sub.wav
448,192,40420,128,0,40472:0:0:0:0:
192,192,40524,128,0,40628:0:0:0:0:
320,192,40576,128,0,40628:0:0:0:0:
448,192,40680,1,0,0:0:0:50:Kick-sub.wav
64,192,40785,128,0,40854:0:0:0:0:
192,192,40889,1,0,0:0:0:50:Kick-sub.wav
448,192,40889,128,0,40941:0:0:0:0:
320,192,40993,128,0,41097:0:0:0:0:
192,192,41062,128,0,41097:0:0:0:0:
64,192,41097,1,0,0:0:0:50:Kick-sub.wav
64,192,41271,128,0,41340:0:0:0:0:
192,192,41305,1,0,0:0:0:50:Kick-sub.wav
448,192,41375,128,0,41444:0:0:0:0:
320,192,41410,128,0,41444:0:0:0:0:
64,192,41514,1,0,0:0:0:50:Kick-sub.wav
192,192,41540,128,0,41592:0:0:0:0:
448,192,41748,128,0,41826:0:0:0:0:
64,192,41826,128,0,41878:0:0:0:50:Kick-sub.wav
192,192,41826,1,0,0:0:0:30:LR_HiHat Click2.wav
320,192,41948,1,0,0:0:0:70:hat+rim.wav
64,192,42139,1,0,0:0:0:50:Kick-sub.wav
320,192,42191,128,0,42243:0:0:0:0:
192,192,42312,1,0,0:0:0:70:hat+rim.wav
448,192,42347,1,0,0:0:0:50:Kick-sub.wav
64,192,42555,1,0,0:0:0:50:Kick-sub.wav
192,192,42555,128,0,42607:0:0:0:0:
448,192,42660,1,0,0:0:0:20:clap-s.wav
192,192,42764,1,0,0:0:0:50:Kick-sub.wav
320,192,42798,1,0,0:0:0:20:Rim.wav
448,192,42920,128,0,42972:0:0:0:0:
192,192,42972,1,0,0:0:0:50:Kick-sub.wav
64,192,43046,1,0,0:0:0:40:clap-s.wav
320,192,43046,1,0,0:0:0:0:
192,192,43215,1,0,0:0:0:0:
64,192,43285,128,0,43337:0:0:0:50:Kick-sub.wav
448,192,43285,1,0,0:0:0:30:LR_HiHat Click2.wav
320,192,43406,1,0,0:0:0:70:hat+rim.wav
192,192,43493,1,0,0:0:0:0:
448,192,43597,1,0,0:0:0:50:Kick-sub.wav
320,192,43649,128,0,43701:0:0:0:0:
64,192,43771,1,0,0:0:0:70:hat+rim.wav
192,192,43805,1,0,0:0:0:50:Kick-sub.wav
192,192,44014,128,0,44066:0:0:0:50:Kick-sub.wav
320,192,44014,1,0,0:0:0:0:
64,192,44118,1,0,0:0:0:20:clap-s.wav
320,192,44222,1,0,0:0:0:50:Kick-sub.wav
448,192,44257,1,0,0:0:0:20:Rim.wav
64,192,44378,128,0,44430:0:0:0:0:
192,192,44430,1,0,0:0:0:50:Kick-sub.wav
320,192,44505,1,0,0:0:0:40:clap-s.wav
448,192,44505,1,0,0:0:0:0:
64,192,44564,1,0,0:0:0:20:clap-s.wav
192,192,44624,1,0,0:0:0:20:clap-s.wav
320,192,44683,1,0,0:0:0:20:clap-s.wav
64,192,44743,1,0,0:0:0:50:Kick-sub.wav
448,192,44743,128,0,44795:0:0:0:30:LR_HiHat Click2.wav
192,192,44864,1,0,0:0:0:70:hat+rim.wav
448,192,45055,1,0,0:0:0:50:Kick-sub.wav
320,192,45107,128,0,45160:0:0:0:0:
192,192,45229,1,0,0:0:0:70:hat+rim.wav
320,192,45264,1,0,0:0:0:50:Kick-sub.wav
64,192,45472,1,0,0:0:0:50:Kick-sub.wav
192,192,45472,128,0,45524:0:0:0:0:
448,192,45576,1,0,0:0:0:20:clap-s.wav
320,192,45680,1,0,0:0:0:50:Kick-sub.wav
192,192,45715,1,0,0:0:0:20:Rim.wav
320,192,45837,128,0,45889:0:0:0:0:
448,192,45889,1,0,0:0:0:50:Kick-sub.wav
64,192,45963,1,0,0:0:0:40:clap-s.wav
192,192,45963,1,0,0:0:0:0:
320,192,46132,1,0,0:0:0:0:
64,192,46201,128,0,46253:0:0:0:50:Kick-sub.wav
448,192,46201,1,0,0:0:0:30:LR_HiHat Click2.wav
320,192,46514,1,0,0:0:0:50:Kick-sub.wav
64,192,46566,1,0,0:0:0:20:clap-s.wav
192,192,46566,128,0,46618:0:0:0:0:
320,192,46687,1,0,0:0:0:20:Rim.wav
448,192,46722,1,0,0:0:0:50:Kick-sub.wav
192,192,46800,1,0,0:0:0:70:hat+rim.wav
320,192,46878,1,0,0:0:0:70:hat+rim.wav
192,192,46930,1,0,0:0:0:50:Kick-sub.wav
448,192,46930,128,0,46982:0:0:0:70:hat+rim.wav
64,192,47008,1,0,0:0:0:70:hat+rim.wav
320,192,47139,1,0,0:0:0:50:Kick-sub.wav
448,192,47165,1,0,0:0:0:20:clap-s.wav
64,192,47295,1,0,0:0:0:20:Rim.wav
192,192,47295,128,0,47347:0:0:0:0:
320,192,47347,1,0,0:0:0:50:Kick-sub.wav
64,192,47421,1,0,0:0:0:40:clap-s.wav
448,192,47421,1,0,0:0:0:0:
64,192,47660,128,0,47712:0:0:0:50:Kick-sub.wav
320,192,47660,1,0,0:0:0:30:LR_HiHat Click2.wav
448,192,47781,1,0,0:0:0:70:hat+rim.wav
64,192,47972,1,0,0:0:0:50:Kick-sub.wav
320,192,48024,128,0,48076:0:0:0:0:
192,192,48146,1,0,0:0:0:70:hat+rim.wav
448,192,48180,1,0,0:0:0:50:Kick-sub.wav
64,192,48389,1,0,0:0:0:50:Kick-sub.wav
192,192,48389,128,0,48441:0:0:0:0:
320,192,48493,1,0,0:0:0:20:clap-s.wav
64,192,48597,1,0,0:0:0:50:Kick-sub.wav
192,192,48632,1,0,0:0:0:20:Rim.wav
448,192,48753,128,0,48805:0:0:0:0:
320,192,48805,1,0,0:0:0:50:Kick-sub.wav
64,192,48880,1,0,0:0:0:40:clap-s.wav
192,192,48880,1,0,0:0:0:0:
320,192,49048,1,0,0:0:0:0:
192,192,49118,128,0,49170:0:0:0:50:Kick-sub.wav
448,192,49118,1,0,0:0:0:30:LR_HiHat Click2.wav
64,192,49239,1,0,0:0:0:70:hat+rim.wav
448,192,49326,1,0,0:0:0:0:
64,192,49430,1,0,0:0:0:50:Kick-sub.wav
320,192,49482,128,0,49535:0:0:0:0:
192,192,49604,1,0,0:0:0:70:hat+rim.wav
320,192,49639,1,0,0:0:0:50:Kick-sub.wav
64,192,49847,128,0,49899:0:0:0:50:Kick-sub.wav
448,192,49847,1,0,0:0:0:0:
192,192,49951,1,0,0:0:0:20:clap-s.wav
448,192,50055,1,0,0:0:0:50:Kick-sub.wav
320,192,50090,1,0,0:0:0:20:Rim.wav
448,192,50212,128,0,50264:0:0:0:0:
320,192,50264,1,0,0:0:0:50:Kick-sub.wav
64,192,50338,1,0,0:0:0:40:clap-s.wav
192,192,50338,1,0,0:0:0:0:
448,192,50398,1,0,0:0:0:20:clap-s.wav
320,192,50457,1,0,0:0:0:20:clap-s.wav
64,192,50517,1,0,0:0:0:20:clap-s.wav
192,192,50576,128,0,50628:0:0:0:50:Kick-sub.wav
448,192,50576,1,0,0:0:0:30:LR_HiHat Click2.wav
320,192,50698,1,0,0:0:0:70:hat+rim.wav
192,192,50889,1,0,0:0:0:50:Kick-sub.wav
64,192,50941,128,0,50993:0:0:0:0:
448,192,51062,1,0,0:0:0:70:hat+rim.wav
320,192,51097,1,0,0:0:0:50:Kick-sub.wav
64,192,51305,1,0,0:0:0:50:Kick-sub.wav
192,192,51305,128,0,51357:0:0:0:0:
448,192,51410,1,0,0:0:0:20:clap-s.wav
192,192,51514,1,0,0:0:0:50:Kick-sub.wav
320,192,51548,1,0,0:0:0:20:Rim.wav
448,192,51670,128,0,51722:0:0:0:0:
64,192,51722,1,0,0:0:0:50:Kick-sub.wav
192,192,51796,1,0,0:0:0:40:clap-s.wav
320,192,51796,1,0,0:0:0:0:
64,192,51965,1,0,0:0:0:0:
320,192,52035,128,0,52087:0:0:0:50:Kick-sub.wav
448,192,52035,1,0,0:0:0:20:Rim.wav
192,192,52156,1,0,0:0:0:30:LR_HiHat Click2.wav
448,192,52278,1,0,0:0:0:50:Kick-sub.wav
192,192,52347,1,0,0:0:0:50:Kick-sub.wav
320,192,52382,1,0,0:0:0:20:Rim.wav
64,192,52399,128,0,52451:0:0:0:0:
448,192,52555,1,0,0:0:0:50:Kick-sub.wav
320,192,52660,1,0,0:0:0:30:LR_HiHat Click2.wav
64,192,52764,1,0,0:0:0:50:Kick-sub.wav
448,192,52764,128,0,52816:0:0:0:0:
192,192,52798,1,0,0:0:0:50:Kick-sub.wav
320,192,52833,1,0,0:0:0:50:Kick-sub.wav
64,192,52885,1,0,0:0:0:30:LR_HiHat Click2.wav
320,192,52972,1,0,0:0:0:50:Kick-sub.wav
448,192,52972,1,0,0:0:0:70:hat+rim.wav
64,192,53128,128,0,53180:0:0:0:0:
192,192,53146,1,0,0:0:0:20:Rim.wav
448,192,53180,1,0,0:0:0:50:Kick-sub.wav
320,192,53250,1,0,0:0:0:20:Rim.wav
64,192,53285,1,0,0:0:0:50:Kick-sub.wav
192,192,53319,1,0,0:0:0:30:LR_HiHat Click2.wav
448,192,53389,1,0,0:0:0:50:Kick-sub.wav
320,192,53406,1,0,0:0:0:30:LR_HiHat Click2.wav
64,192,53493,1,0,0:0:0:50:Kick-sub.wav
192,192,53519,1,0,0:0:0:50:Kick-sub.wav
320,192,53545,1,0,0:0:0:50:Kick-sub.wav
448,192,53571,1,0,0:0:0:50:Kick-sub.wav
64,192,53597,1,0,0:0:0:50:Kick-sub.wav
192,192,53623,1,0,0:0:0:50:Kick-sub.wav
320,192,53649,1,0,0:0:0:50:Kick-sub.wav
64,192,53727,1,0,0:0:0:50:Kick-sub.wav
448,192,53805,1,0,0:0:0:50:Kick-sub.wav
320,192,53857,128,0,53910:0:0:0:0:
192,192,53979,1,0,0:0:0:70:hat+rim.wav
320,192,54014,1,0,0:0:0:50:Kick-sub.wav
64,192,54222,1,0,0:0:0:50:Kick-sub.wav
192,192,54222,128,0,54274:0:0:0:0:
448,192,54326,1,0,0:0:0:20:clap-s.wav
320,192,54430,1,0,0:0:0:50:Kick-sub.wav
192,192,54465,1,0,0:0:0:20:Rim.wav
448,192,54587,128,0,54639:0:0:0:0:
320,192,54639,1,0,0:0:0:50:Kick-sub.wav
64,192,54713,1,0,0:0:0:40:clap-s.wav
192,192,54713,1,0,0:0:0:0:
320,192,54882,1,0,0:0:0:0:
64,192,54951,128,0,55003:0:0:0:50:Kick-sub.wav
448,192,54951,1,0,0:0:0:30:LR_HiHat Click2.wav
320,192,55073,1,0,0:0:0:70:hat+rim.wav
192,192,55160,1,0,0:0:0:0:
448,192,55264,1,0,0:0:0:50:Kick-sub.wav
320,192,55316,128,0,55368:0:0:0:0:
192,192,55437,1,0,0:0:0:70:hat+rim.wav
320,192,55472,1,0,0:0:0:50:Kick-sub.wav
64,192,55680,1,0,0:0:0:50:Kick-sub.wav
192,192,55680,128,0,55732:0:0:0:0:
448,192,55785,1,0,0:0:0:20:clap-s.wav
192,192,55889,1,0,0:0:0:50:Kick-sub.wav
320,192,55923,1,0,0:0:0:20:Rim.wav
64,192,56045,128,0,56097:0:0:0:0:
192,192,56097,1,0,0:0:0:50:Kick-sub.wav
320,192,56171,1,0,0:0:0:40:clap-s.wav
448,192,56171,1,0,0:0:0:0:
64,192,56231,1,0,0:0:0:20:clap-s.wav
192,192,56290,1,0,0:0:0:20:clap-s.wav
448,192,56350,1,0,0:0:0:20:clap-s.wav
64,192,56410,1,0,0:0:0:50:Kick-sub.wav
320,192,56410,128,0,56462:0:0:0:30:LR_HiHat Click2.wav
448,192,56531,1,0,0:0:0:70:hat+rim.wav
320,192,56722,1,0,0:0:0:50:Kick-sub.wav
192,192,56774,128,0,56826:0:0:0:0:
64,192,56896,1,0,0:0:0:70:hat+rim.wav
448,192,56930,1,0,0:0:0:50:Kick-sub.wav
64,192,57139,128,0,57191:0:0:0:50:Kick-sub.wav
320,192,57139,1,0,0:0:0:0:
192,192,57243,1,0,0:0:0:20:clap-s.wav
448,192,57347,1,0,0:0:0:50:Kick-sub.wav
320,192,57382,1,0,0:0:0:20:Rim.wav
192,192,57503,128,0,57555:0:0:0:0:
320,192,57555,1,0,0:0:0:50:Kick-sub.wav
64,192,57630,1,0,0:0:0:40:clap-s.wav
448,192,57630,1,0,0:0:0:0:
192,192,57798,1,0,0:0:0:0:
64,192,57868,1,0,0:0:0:50:Kick-sub.wav
448,192,57868,128,0,57920:0:0:0:30:LR_HiHat Click2.wav
64,192,58180,1,0,0:0:0:50:Kick-sub.wav
192,192,58215,1,0,0:0:0:20:clap-s.wav
320,192,58232,128,0,58285:0:0:0:0:
64,192,58354,1,0,0:0:0:20:Rim.wav
448,192,58389,1,0,0:0:0:50:Kick-sub.wav
320,192,58467,1,0,0:0:0:70:hat+rim.wav
192,192,58545,1,0,0:0:0:70:hat+rim.wav
64,192,58597,1,0,0:0:0:50:Kick-sub.wav
448,192,58597,128,0,58649:0:0:0:70:hat+rim.wav
320,192,58675,1,0,0:0:0:70:hat+rim.wav
64,192,58805,1,0,0:0:0:50:Kick-sub.wav
448,192,58840,1,0,0:0:0:20:clap-s.wav
64,192,58962,1,0,0:0:0:20:Rim.wav
192,192,58962,128,0,59014:0:0:0:0:
320,192,59014,1,0,0:0:0:50:Kick-sub.wav
64,192,59088,1,0,0:0:0:40:clap-s.wav
448,192,59088,1,0,0:0:0:0:
64,192,59326,128,0,59378:0:0:0:50:Kick-sub.wav
192,192,59326,1,0,0:0:0:30:LR_HiHat Click2.wav
448,192,59448,1,0,0:0:0:70:hat+rim.wav
64,192,59639,1,0,0:0:0:50:Kick-sub.wav
320,192,59691,128,0,59743:0:0:0:0:
192,192,59812,1,0,0:0:0:70:hat+rim.wav
320,192,59847,1,0,0:0:0:50:Kick-sub.wav
64,192,60055,1,0,0:0:0:50:Kick-sub.wav
192,192,60055,128,0,60107:0:0:0:0:
448,192,60160,1,0,0:0:0:20:clap-s.wav
320,192,60264,1,0,0:0:0:50:Kick-sub.wav
192,192,60298,1,0,0:0:0:20:Rim.wav
448,192,60420,128,0,60472:0:0:0:0:
320,192,60472,1,0,0:0:0:50:Kick-sub.wav
64,192,60546,1,0,0:0:0:40:clap-s.wav
192,192,60546,1,0,0:0:0:0:
320,192,60715,1,0,0:0:0:0:
64,192,60785,128,0,60837:0:0:0:50:Kick-sub.wav
448,192,60785,1,0,0:0:0:30:LR_HiHat Click2.wav
192,192,60906,1,0,0:0:0:70:hat+rim.wav
320,192,60993,1,0,0:0:0:0:
64,192,61097,1,0,0:0:0:50:Kick-sub.wav
448,192,61149,128,0,61201:0:0:0:0:
192,192,61271,1,0,0:0:0:70:hat+rim.wav
320,192,61305,1,0,0:0:0:50:Kick-sub.wav
64,192,61514,1,0,0:0:0:50:Kick-sub.wav
192,192,61514,128,0,61566:0:0:0:0:
448,192,61618,1,0,0:0:0:20:clap-s.wav
320,192,61722,1,0,0:0:0:50:Kick-sub.wav
192,192,61757,1,0,0:0:0:20:Rim.wav
448,192,61878,128,0,61930:0:0:0:0:
320,192,61930,1,0,0:0:0:50:Kick-sub.wav
64,192,62005,1,0,0:0:0:40:clap-s.wav
192,192,62005,1,0,0:0:0:0:
320,192,62064,1,0,0:0:0:20:clap-s.wav
448,192,62124,1,0,0:0:0:20:clap-s.wav
64,192,62183,1,0,0:0:0:20:clap-s.wav
192,192,62243,128,0,62295:0:0:0:50:Kick-sub.wav
320,192,62243,1,0,0:0:0:30:LR_HiHat Click2.wav
448,192,62364,1,0,0:0:0:70:hat+rim.wav
320,192,62555,1,0,0:0:0:50:Kick-sub.wav
64,192,62607,128,0,62660:0:0:0:0:
448,192,62729,1,0,0:0:0:70:hat+rim.wav
320,192,62764,1,0,0:0:0:50:Kick-sub.wav
64,192,62972,1,0,0:0:0:50:Kick-sub.wav
192,192,62972,128,0,63024:0:0:0:0:
448,192,63076,1,0,0:0:0:20:clap-s.wav
320,192,63180,1,0,0:0:0:50:Kick-sub.wav
192,192,63215,1,0,0:0:0:20:Rim.wav
320,192,63337,128,0,63389:0:0:0:0:
448,192,63389,1,0,0:0:0:50:Kick-sub.wav
64,192,63463,1,0,0:0:0:40:clap-s.wav
192,192,63463,1,0,0:0:0:0:
320,192,63632,1,0,0:0:0:0:
64,192,63701,1,0,0:0:0:50:Kick-sub.wav
448,192,63701,128,0,63753:0:0:0:20:Rim.wav
320,192,63823,1,0,0:0:0:30:LR_HiHat Click2.wav
192,192,63944,1,0,0:0:0:50:Kick-sub.wav
448,192,64014,1,0,0:0:0:50:Kick-sub.wav
64,192,64048,1,0,0:0:0:20:Rim.wav
320,192,64066,128,0,64118:0:0:0:0:
192,192,64222,1,0,0:0:0:50:Kick-sub.wav
448,192,64326,1,0,0:0:0:30:LR_HiHat Click2.wav
64,192,64430,1,0,0:0:0:50:Kick-sub.wav
192,192,64430,128,0,64482:0:0:0:0:
448,192,64465,1,0,0:0:0:50:Kick-sub.wav
320,192,64500,1,0,0:0:0:50:Kick-sub.wav
64,192,64552,1,0,0:0:0:30:LR_HiHat Click2.wav
448,192,64639,1,0,0:0:0:50:Kick-sub.wav
64,192,64795,128,0,64847:0:0:0:0:
192,192,64812,1,0,0:0:0:20:Rim.wav
448,192,64847,1,0,0:0:0:50:Kick-sub.wav
320,192,64916,1,0,0:0:0:20:Rim.wav
192,192,64951,1,0,0:0:0:50:Kick-sub.wav
64,192,64986,1,0,0:0:0:30:LR_HiHat Click2.wav
320,192,65055,1,0,0:0:0:50:Kick-sub.wav
192,192,65073,1,0,0:0:0:30:LR_HiHat Click2.wav
64,192,65160,128,0,68065:0:0:0:40:clap-s.wav
320,192,65160,1,0,0:0:0:0:
448,192,65160,1,0,0:0:0:0:
320,192,67930,1,0,0:0:0:50:hat5.wav
192,192,67997,1,0,0:0:0:50:hat5.wav
320,192,68065,1,0,0:0:0:50:hat5.wav
192,192,68132,1,0,0:0:0:50:hat5.wav
64,192,68200,1,0,0:0:0:30:Snare-crunch.wav
320,192,68200,1,0,0:0:0:0:
448,192,68200,1,0,0:0:0:0:
64,192,68335,1,0,0:0:0:30:Snare-crunch.wav
192,192,68335,1,0,0:0:0:0:
448,192,68335,1,0,0:0:0:0:
192,192,68470,1,0,0:0:0:30:Snare-crunch.wav
320,192,68470,1,0,0:0:0:0:
448,192,68470,1,0,0:0:0:0:
64,192,68605,1,0,0:0:0:30:Snare-crunch.wav
192,192,68605,1,0,0:0:0:0:
320,192,68605,1,0,0:0:0:0:
64,192,68741,1,0,0:0:0:50:kickdrum.wav
448,192,68741,1,0,0:0:0:0:
192,192,68876,128,0,69146:0:0:0:0:
64,192,69146,1,0,0:0:0:50:kickdrum.wav
448,192,69146,1,0,0:0:0:0:
192,192,69281,128,0,69551:0:0:0:0:
64,192,69551,1,0,0:0:0:50:kickdrum.wav
448,192,69551,1,0,0:0:0:0:
192,192,69686,128,0,69957:0:0:0:0:
64,192,69957,1,0,0:0:0:50:kickdrum.wav
448,192,69957,1,0,0:0:0:0:
192,192,70092,128,0,70362:0:0:0:0:
64,192,70362,1,0,0:0:0:50:kickdrum.wav
448,192,70362,1,0,0:0:0:0:
64,192,70632,1,0,0:0:0:30:Snare-crunch.wav
320,192,70632,1,0,0:0:0:0:
448,192,70632,1,0,0:0:0:0:
64,192,70903,1,0,0:0:0:50:kickdrum.wav
448,192,70903,1,0,0:0:0:0:
320,192,71038,128,0,71308:0:0:0:0:
64,192,71308,1,0,0:0:0:50:kickdrum.wav
448,192,71308,1,0,0:0:0:0:
320,192,71443,128,0,71713:0:0:0:0:
64,192,71713,1,0,0:0:0:50:kickdrum.wav
448,192,71713,1,0,0:0:0:0:
320,192,71849,128,0,72119:0:0:0:0:
192,192,71984,1,0,0:0:0:50:hat5.wav
64,192,72119,1,0,0:0:0:50:kickdrum.wav
448,192,72119,1,0,0:0:0:0:
64,192,72254,1,0,0:0:0:50:kickdrum.wav
448,192,72254,1,0,0:0:0:0:
320,192,72389,128,0,72524:0:0:0:0:
64,192,72524,1,0,0:0:0:50:kickdrum.wav
448,192,72524,1,0,0:0:0:0:
64,192,72659,1,0,0:0:0:30:Snare-crunch.wav
192,192,72659,1,0,0:0:0:0:
320,192,72727,1,0,0:0:0:30:Snare-crunch.wav
448,192,72727,1,0,0:0:0:0:
64,192,72795,1,0,0:0:0:30:Snare-crunch.wav
192,192,72795,1,0,0:0:0:0:
320,192,73065,1,0,0:0:0:50:kickdrum.wav
448,192,73065,1,0,0:0:0:0:
320,192,73200,1,0,0:0:0:50:kickdrum.wav
448,192,73200,1,0,0:0:0:0:
64,192,73335,128,0,73470:0:0:0:20:hat5.wav
192,192,73335,1,0,0:0:0:0:
320,192,73470,1,0,0:0:0:50:kickdrum.wav
448,192,73470,1,0,0:0:0:0:
64,192,73605,128,0,73876:0:0:0:0:
192,192,73741,1,0,0:0:0:35:hat5.wav
320,192,73876,1,0,0:0:0:50:kickdrum.wav
448,192,73876,1,0,0:0:0:0:
64,192,74011,128,0,74281:0:0:0:0:
192,192,74146,1,0,0:0:0:50:hat5.wav
320,192,74281,1,0,0:0:0:50:kickdrum.wav
448,192,74281,1,0,0:0:0:0:
320,192,74416,1,0,0:0:0:50:kickdrum.wav
448,192,74416,1,0,0:0:0:0:
64,192,74551,128,0,74686:0:0:0:0:
320,192,74686,1,0,0:0:0:50:kickdrum.wav
448,192,74686,1,0,0:0:0:0:
64,192,74957,1,0,0:0:0:30:Snare-crunch.wav
192,192,74957,1,0,0:0:0:0:
448,192,74957,1,0,0:0:0:0:
192,192,75227,1,0,0:0:0:0:
320,192,75295,1,0,0:0:0:0:
192,192,75362,1,0,0:0:0:0:
320,192,75430,1,0,0:0:0:0:
64,192,75497,1,0,0:0:0:0:
64,192,75632,1,0,0:0:0:0:
448,192,75768,1,0,0:0:0:0:
448,192,75903,1,0,0:0:0:0:
192,192,76173,1,0,0:0:0:0:
320,192,76443,1,0,0:0:0:0:
320,192,76578,1,0,0:0:0:0:
64,192,76713,1,0,0:0:0:0:
320,192,76849,1,0,0:0:0:0:
192,192,76984,1,0,0:0:0:0:
448,192,77051,1,0,0:0:0:0:
64,192,77119,1,0,0:0:0:0:
448,192,77186,1,0,0:0:0:0:
64,192,77254,1,0,0:0:0:0:
64,192,77389,1,0,0:0:0:50:kickdrum.wav
192,192,77389,1,0,0:0:0:0:
320,192,77389,128,0,81646:0:0:0:0:
448,192,77659,1,0,0:0:0:50:hat5.wav
64,192,77795,1,0,0:0:0:50:kickdrum.wav
192,192,77795,1,0,0:0:0:0:
64,192,77930,1,0,0:0:0:40:Snare-crunch.wav
448,192,77930,1,0,0:0:0:0:
448,192,78200,1,0,0:0:0:50:hat5.wav
64,192,78335,1,0,0:0:0:50:kickdrum.wav
192,192,78335,1,0,0:0:0:0:
448,192,78470,1,0,0:0:0:20:hat5.wav
64,192,78605,1,0,0:0:0:40:Snare-crunch.wav
448,192,78605,1,0,0:0:0:0:
64,192,78741,1,0,0:0:0:50:kickdrum.wav
192,192,78741,1,0,0:0:0:0:
64,192,79011,1,0,0:0:0:40:Snare-crunch.wav
448,192,79011,1,0,0:0:0:0:
192,192,79281,1,0,0:0:0:50:hat5.wav
64,192,79551,1,0,0:0:0:50:kickdrum.wav
192,192,79551,1,0,0:0:0:0:
448,192,79822,1,0,0:0:0:50:hat5.wav
64,192,79957,1,0,0:0:0:50:kickdrum.wav
192,192,79957,1,0,0:0:0:0:
64,192,80092,1,0,0:0:0:40:Snare-crunch.wav
448,192,80092,1,0,0:0:0:0:
448,192,80362,1,0,0:0:0:50:hat5.wav
64,192,80497,1,0,0:0:0:50:kickdrum.wav
192,192,80497,1,0,0:0:0:0:
448,192,80632,1,0,0:0:0:20:hat5.wav
64,192,80768,1,0,0:0:0:40:Snare-crunch.wav
448,192,80768,1,0,0:0:0:0:
64,192,80903,1,0,0:0:0:50:kickdrum.wav
192,192,80903,1,0,0:0:0:0:
64,192,81038,1,0,0:0:0:50:kickdrum.wav
192,192,81038,1,0,0:0:0:0:
64,192,81173,1,0,0:0:0:40:Snare-crunch.wav
448,192,81173,1,0,0:0:0:0:
192,192,81443,1,0,0:0:0:50:hat5.wav
64,192,81578,1,0,0:0:0:15:snare6.wav
192,192,81713,1,0,0:0:0:50:kickdrum.wav
320,192,81713,128,0,82119:0:0:0:0:
448,192,81713,1,0,0:0:0:0:
64,192,81984,1,0,0:0:0:20:hat5.wav
64,192,82119,1,0,0:0:0:50:kickdrum.wav
192,192,82119,1,0,0:0:0:0:
448,192,82119,128,0,82389:0:0:0:0:
192,192,82254,1,0,0:0:0:40:Snare-crunch.wav
320,192,82254,1,0,0:0:0:0:
64,192,82389,128,0,83876:0:0:0:0:
192,192,82524,1,0,0:0:0:50:hat5.wav
320,192,82659,1,0,0:0:0:50:kickdrum.wav
448,192,82659,1,0,0:0:0:0:
192,192,82795,1,0,0:0:0:20:hat5.wav
192,192,82930,1,0,0:0:0:40:Snare-crunch.wav
448,192,82930,1,0,0:0:0:0:
320,192,83065,1,0,0:0:0:50:kickdrum.wav
448,192,83065,1,0,0:0:0:0:
192,192,83335,1,0,0:0:0:40:Snare-crunch.wav
448,192,83335,1,0,0:0:0:0:
192,192,83605,1,0,0:0:0:50:hat5.wav
192,192,83876,128,0,84822:0:0:0:50:kickdrum.wav
320,192,83876,1,0,0:0:0:0:
448,192,83876,1,0,0:0:0:0:
64,192,84146,1,0,0:0:0:50:hat5.wav
320,192,84281,1,0,0:0:0:50:kickdrum.wav
448,192,84281,1,0,0:0:0:0:
64,192,84416,1,0,0:0:0:40:Snare-crunch.wav
448,192,84416,1,0,0:0:0:0:
320,192,84686,1,0,0:0:0:50:hat5.wav
448,192,84822,1,0,0:0:0:50:hat5.wav
320,192,84889,1,0,0:0:0:50:hat5.wav
192,192,84957,128,0,85227:0:0:0:15:snare6.wav
448,192,84957,1,0,0:0:0:0:
64,192,85227,1,0,0:0:0:50:hat5.wav
320,192,85227,1,0,0:0:0:0:
192,192,85362,128,0,85632:0:0:0:15:snare6.wav
448,192,85362,1,0,0:0:0:0:
64,192,85632,1,0,0:0:0:50:hat5.wav
320,192,85632,1,0,0:0:0:0:
192,192,85768,128,0,86038:0:0:0:40:Snare-crunch.wav
320,192,85768,1,0,0:0:0:0:
448,192,85768,1,0,0:0:0:0:
64,192,85903,1,0,0:0:0:40:Snare-crunch.wav
320,192,85903,1,0,0:0:0:0:
448,192,85970,1,0,0:0:0:40:Snare-crunch.wav
64,192,86038,1,0,0:0:0:50:kickdrum.wav
320,192,86038,128,0,90295:0:0:0:0:
448,192,86308,1,0,0:0:0:50:hat5.wav
64,192,86443,1,0,0:0:0:50:kickdrum.wav
192,192,86443,1,0,0:0:0:0:
64,192,86578,1,0,0:0:0:40:Snare-crunch.wav
448,192,86578,1,0,0:0:0:0:
448,192,86849,1,0,0:0:0:50:hat5.wav
64,192,86984,1,0,0:0:0:50:kickdrum.wav
192,192,86984,1,0,0:0:0:0:
448,192,87119,1,0,0:0:0:20:hat5.wav
64,192,87254,1,0,0:0:0:40:Snare-crunch.wav
448,192,87254,1,0,0:0:0:0:
64,192,87389,1,0,0:0:0:50:kickdrum.wav
192,192,87389,1,0,0:0:0:0:
64,192,87659,1,0,0:0:0:40:Snare-crunch.wav
448,192,87659,1,0,0:0:0:0:
192,192,87930,1,0,0:0:0:50:hat5.wav
64,192,88065,1,0,0:0:0:0:
448,192,88132,1,0,0:0:0:0:
64,192,88200,1,0,0:0:0:50:kickdrum.wav
192,192,88200,1,0,0:0:0:0:
448,192,88470,1,0,0:0:0:50:hat5.wav
64,192,88605,1,0,0:0:0:50:kickdrum.wav
192,192,88605,1,0,0:0:0:0:
64,192,88741,1,0,0:0:0:40:Snare-crunch.wav
448,192,88741,1,0,0:0:0:0:
448,192,89011,1,0,0:0:0:50:hat5.wav
64,192,89146,1,0,0:0:0:50:kickdrum.wav
192,192,89146,1,0,0:0:0:0:
448,192,89281,1,0,0:0:0:20:hat5.wav
64,192,89416,1,0,0:0:0:40:Snare-crunch.wav
448,192,89416,1,0,0:0:0:0:
64,192,89551,1,0,0:0:0:50:kickdrum.wav
192,192,89551,1,0,0:0:0:0:
64,192,89686,1,0,0:0:0:50:kickdrum.wav
192,192,89686,1,0,0:0:0:0:
64,192,89822,1,0,0:0:0:40:Snare-crunch.wav
448,192,89822,1,0,0:0:0:0:
192,192,90092,1,0,0:0:0:50:hat5.wav
64,192,90227,1,0,0:0:0:15:snare6.wav
192,192,90295,1,0,0:0:0:0:
64,192,90362,1,0,0:0:0:50:kickdrum.wav
320,192,90362,128,0,90768:0:0:0:0:
448,192,90362,1,0,0:0:0:0:
64,192,90632,1,0,0:0:0:20:hat5.wav
64,192,90768,1,0,0:0:0:50:kickdrum.wav
192,192,90768,1,0,0:0:0:0:
448,192,90768,128,0,91038:0:0:0:0:
192,192,90903,1,0,0:0:0:40:Snare-crunch.wav
320,192,90903,1,0,0:0:0:0:
64,192,91038,128,0,92524:0:0:0:0:
320,192,91038,1,0,0:0:0:0:
192,192,91105,1,0,0:0:0:0:
448,192,91173,1,0,0:0:0:50:hat5.wav
320,192,91308,1,0,0:0:0:50:kickdrum.wav
448,192,91308,1,0,0:0:0:0:
192,192,91443,1,0,0:0:0:20:hat5.wav
192,192,91578,1,0,0:0:0:40:Snare-crunch.wav
448,192,91578,1,0,0:0:0:0:
320,192,91713,1,0,0:0:0:50:kickdrum.wav
448,192,91713,1,0,0:0:0:0:
192,192,91984,1,0,0:0:0:40:Snare-crunch.wav
448,192,91984,1,0,0:0:0:0:
320,192,92074,1,0,0:0:0:0:
192,192,92164,1,0,0:0:0:0:
320,192,92254,1,0,0:0:0:50:hat5.wav
448,192,92389,1,0,0:0:0:0:
320,192,92457,1,0,0:0:0:50:hat5.wav
192,192,92524,128,0,92930:0:0:0:50:kickdrum.wav
448,192,92524,1,0,0:0:0:0:
320,192,92795,1,0,0:0:0:50:hat5.wav
64,192,92930,1,0,0:0:0:50:kickdrum.wav
320,192,92930,1,0,0:0:0:0:
448,192,92930,128,0,94686:0:0:0:0:
64,192,93065,1,0,0:0:0:40:Snare-crunch.wav
192,192,93065,1,0,0:0:0:0:
64,192,93335,1,0,0:0:0:50:kickdrum.wav
320,192,93335,1,0,0:0:0:0:
64,192,93470,1,0,0:0:0:40:Snare-crunch.wav
192,192,93470,1,0,0:0:0:0:
64,192,93741,1,0,0:0:0:50:kickdrum.wav
320,192,93741,1,0,0:0:0:0:
64,192,93876,1,0,0:0:0:40:Snare-crunch.wav
192,192,93876,1,0,0:0:0:0:
64,192,94146,1,0,0:0:0:50:kickdrum.wav
320,192,94146,1,0,0:0:0:0:
64,192,94281,1,0,0:0:0:40:Snare-crunch.wav
192,192,94281,1,0,0:0:0:0:
320,192,94326,1,0,0:0:0:0:
64,192,94371,1,0,0:0:0:0:
192,192,94450,1,0,0:0:0:0:
320,192,94518,1,0,0:0:0:0:
64,192,94551,1,0,0:0:0:0:
192,192,94619,1,0,0:0:0:0:
64,192,94686,128,0,98741:0:0:0:50:kickdrum.wav
320,192,94686,1,0,0:0:0:0:
448,192,94957,1,0,0:0:0:50:hat5.wav
192,192,95092,1,0,0:0:0:50:kickdrum.wav
320,192,95092,1,0,0:0:0:0:
192,192,95227,1,0,0:0:0:40:Snare-crunch.wav
448,192,95227,1,0,0:0:0:0:
448,192,95497,1,0,0:0:0:50:hat5.wav
192,192,95632,1,0,0:0:0:50:kickdrum.wav
320,192,95632,1,0,0:0:0:0:
448,192,95768,1,0,0:0:0:20:hat5.wav
192,192,95903,1,0,0:0:0:40:Snare-crunch.wav
448,192,95903,1,0,0:0:0:0:
192,192,96038,1,0,0:0:0:50:kickdrum.wav
320,192,96038,1,0,0:0:0:0:
192,192,96308,1,0,0:0:0:40:Snare-crunch.wav
448,192,96308,1,0,0:0:0:0:
448,192,96578,1,0,0:0:0:50:hat5.wav
192,192,96849,1,0,0:0:0:50:kickdrum.wav
320,192,96849,1,0,0:0:0:0:
448,192,97119,1,0,0:0:0:50:hat5.wav
192,192,97254,1,0,0:0:0:50:kickdrum.wav
320,192,97254,1,0,0:0:0:0:
192,192,97389,1,0,0:0:0:40:Snare-crunch.wav
448,192,97389,1,0,0:0:0:0:
448,192,97659,1,0,0:0:0:50:hat5.wav
192,192,97795,1,0,0:0:0:50:kickdrum.wav
320,192,97795,1,0,0:0:0:0:
448,192,97930,1,0,0:0:0:20:hat5.wav
192,192,98065,1,0,0:0:0:40:Snare-crunch.wav
448,192,98065,1,0,0:0:0:0:
192,192,98200,1,0,0:0:0:50:kickdrum.wav
320,192,98200,1,0,0:0:0:0:
192,192,98335,1,0,0:0:0:50:kickdrum.wav
320,192,98335,1,0,0:0:0:0:
192,192,98470,1,0,0:0:0:40:Snare-crunch.wav
448,192,98470,1,0,0:0:0:0:
192,192,98741,128,0,99011:0:0:0:50:hat5.wav
448,192,98741,1,0,0:0:0:0:
320,192,98876,1,0,0:0:0:15:snare6.wav
64,192,99011,1,0,0:0:0:50:kickdrum.wav
320,192,99011,1,0,0:0:0:0:
448,192,99011,128,0,99416:0:0:0:0:
192,192,99281,1,0,0:0:0:20:hat5.wav
64,192,99416,1,0,0:0:0:50:kickdrum.wav
192,192,99416,1,0,0:0:0:0:
320,192,99416,128,0,99822:0:0:0:0:
64,192,99551,1,0,0:0:0:40:Snare-crunch.wav
448,192,99551,1,0,0:0:0:0:
64,192,99822,1,0,0:0:0:50:hat5.wav
448,192,99822,128,0,100227:0:0:0:0:
192,192,99957,1,0,0:0:0:50:kickdrum.wav
320,192,99957,1,0,0:0:0:0:
64,192,100092,1,0,0:0:0:20:hat5.wav
64,192,100227,1,0,0:0:0:40:Snare-crunch.wav
192,192,100227,128,0,101173:0:0:0:0:
320,192,100227,1,0,0:0:0:0:
320,192,100362,1,0,0:0:0:50:kickdrum.wav
448,192,100362,1,0,0:0:0:0:
64,192,100632,1,0,0:0:0:40:Snare-crunch.wav
448,192,100632,1,0,0:0:0:0:
320,192,100903,1,0,0:0:0:50:hat5.wav
64,192,101173,128,0,101511:0:0:0:50:kickdrum.wav
320,192,101173,1,0,0:0:0:0:
448,192,101173,1,0,0:0:0:0:
320,192,101443,1,0,0:0:0:50:hat5.wav
192,192,101511,128,0,101578:0:0:0:0:
64,192,101578,1,0,0:0:0:50:kickdrum.wav
320,192,101578,128,0,102119:0:0:0:0:
448,192,101578,1,0,0:0:0:0:
64,192,101713,1,0,0:0:0:40:Snare-crunch.wav
448,192,101713,1,0,0:0:0:0:
192,192,101984,1,0,0:0:0:50:hat5.wav
64,192,102119,1,0,0:0:0:50:hat5.wav
192,192,102186,1,0,0:0:0:50:hat5.wav
64,192,102254,1,0,0:0:0:15:snare6.wav
320,192,102254,128,0,102524:0:0:0:0:
192,192,102524,1,0,0:0:0:50:hat5.wav
448,192,102524,1,0,0:0:0:0:
64,192,102659,1,0,0:0:0:15:snare6.wav
320,192,102659,128,0,102930:0:0:0:0:
192,192,102930,1,0,0:0:0:50:hat5.wav
448,192,102930,1,0,0:0:0:0:
64,192,103065,1,0,0:0:0:40:Snare-crunch.wav
192,192,103065,1,0,0:0:0:0:
320,192,103065,128,0,103335:0:0:0:0:
192,192,103200,1,0,0:0:0:40:Snare-crunch.wav
448,192,103200,1,0,0:0:0:0:
64,192,103335,128,0,104146:0:0:0:50:kickdrum.wav
448,192,103335,1,0,0:0:0:0:
192,192,103605,1,0,0:0:0:50:hat5.wav
320,192,103741,1,0,0:0:0:50:kickdrum.wav
448,192,103741,1,0,0:0:0:0:
192,192,103876,1,0,0:0:0:40:Snare-crunch.wav
320,192,103876,1,0,0:0:0:0:
192,192,104146,128,0,104686:0:0:0:50:hat5.wav
448,192,104146,1,0,0:0:0:0:
64,192,104281,1,0,0:0:0:50:kickdrum.wav
320,192,104281,1,0,0:0:0:0:
64,192,104416,1,0,0:0:0:20:hat5.wav
320,192,104551,1,0,0:0:0:40:Snare-crunch.wav
448,192,104551,1,0,0:0:0:0:
64,192,104686,1,0,0:0:0:50:kickdrum.wav
320,192,104686,1,0,0:0:0:0:
448,192,104686,128,0,105768:0:0:0:0:
64,192,104957,1,0,0:0:0:40:Snare-crunch.wav
192,192,104957,1,0,0:0:0:0:
320,192,105227,1,0,0:0:0:50:hat5.wav
64,192,105362,1,0,0:0:0:0:
192,192,105430,1,0,0:0:0:0:
64,192,105497,1,0,0:0:0:50:kickdrum.wav
320,192,105497,1,0,0:0:0:0:
64,192,105768,128,0,106443:0:0:0:50:hat5.wav
192,192,105768,1,0,0:0:0:0:
320,192,105903,1,0,0:0:0:50:kickdrum.wav
448,192,105903,1,0,0:0:0:0:
192,192,106038,1,0,0:0:0:40:Snare-crunch.wav
448,192,106038,1,0,0:0:0:0:
192,192,106308,1,0,0:0:0:50:hat5.wav
192,192,106443,1,0,0:0:0:50:kickdrum.wav
320,192,106443,128,0,106849:0:0:0:0:
448,192,106443,1,0,0:0:0:0:
448,192,106578,1,0,0:0:0:20:hat5.wav
64,192,106713,1,0,0:0:0:40:Snare-crunch.wav
192,192,106713,1,0,0:0:0:0:
64,192,106849,1,0,0:0:0:50:kickdrum.wav
192,192,106849,128,0,107524:0:0:0:0:
448,192,106849,1,0,0:0:0:0:
64,192,106984,1,0,0:0:0:50:kickdrum.wav
448,192,106984,1,0,0:0:0:0:
320,192,107119,1,0,0:0:0:40:Snare-crunch.wav
448,192,107119,1,0,0:0:0:0:
64,192,107389,1,0,0:0:0:50:hat5.wav
320,192,107524,128,0,107592:0:0:0:15:snare6.wav
448,192,107524,1,0,0:0:0:0:
64,192,107592,1,0,0:0:0:0:
192,192,107592,128,0,107659:0:0:0:0:
320,192,107659,1,0,0:0:0:50:kickdrum.wav
448,192,107659,128,0,108065:0:0:0:0:
192,192,107930,1,0,0:0:0:20:hat5.wav
64,192,108065,1,0,0:0:0:50:kickdrum.wav
192,192,108065,1,0,0:0:0:0:
320,192,108065,128,0,109822:0:0:0:0:
64,192,108200,1,0,0:0:0:40:Snare-crunch.wav
448,192,108200,1,0,0:0:0:0:
448,192,108470,1,0,0:0:0:50:hat5.wav
64,192,108605,1,0,0:0:0:50:kickdrum.wav
192,192,108605,1,0,0:0:0:0:
448,192,108741,1,0,0:0:0:20:hat5.wav
64,192,108876,1,0,0:0:0:40:Snare-crunch.wav
448,192,108876,1,0,0:0:0:0:
64,192,109011,1,0,0:0:0:50:kickdrum.wav
192,192,109011,1,0,0:0:0:0:
64,192,109281,1,0,0:0:0:40:Snare-crunch.wav
448,192,109281,1,0,0:0:0:0:
448,192,109551,1,0,0:0:0:50:hat5.wav
64,192,109686,1,0,0:0:0:0:
192,192,109754,1,0,0:0:0:50:hat5.wav
64,192,109822,128,0,110227:0:0:0:50:kickdrum.wav
448,192,109822,1,0,0:0:0:0:
448,192,110092,1,0,0:0:0:50:hat5.wav
192,192,110227,128,0,111308:0:0:0:50:kickdrum.wav
320,192,110227,1,0,0:0:0:0:
320,192,110362,1,0,0:0:0:40:Snare-crunch.wav
448,192,110362,1,0,0:0:0:0:
64,192,110632,1,0,0:0:0:50:kickdrum.wav
320,192,110632,1,0,0:0:0:0:
320,192,110768,1,0,0:0:0:40:Snare-crunch.wav
448,192,110768,1,0,0:0:0:0:
64,192,111038,1,0,0:0:0:50:kickdrum.wav
320,192,111038,1,0,0:0:0:0:
320,192,111173,1,0,0:0:0:40:Snare-crunch.wav
448,192,111173,1,0,0:0:0:0:
64,192,111308,128,0,111376:0:0:0:0:
320,192,111376,128,0,111443:0:0:0:0:
448,192,111443,128,0,111511:0:0:0:70:Snare-Side.wav
192,192,111511,128,0,111578:0:0:0:0:
320,192,111578,128,0,111646:0:0:0:0:
448,192,111646,128,0,111713:0:0:0:0:
64,192,111713,128,0,111781:0:0:0:70:Snare-Side.wav
192,192,111781,128,0,111849:0:0:0:0:
320,192,111849,128,0,111916:0:0:0:0:
448,192,111916,128,0,111984:0:0:0:0:
64,192,111984,1,0,0:0:0:50:kickdrum.wav
192,192,111984,1,0,0:0:0:0:
320,192,112051,1,0,0:0:0:0:
192,192,112119,1,0,0:0:0:0:
448,192,112186,1,0,0:0:0:0:
320,192,112254,1,0,0:0:0:20:hat5.wav
192,192,112322,1,0,0:0:0:0:
64,192,112389,1,0,0:0:0:50:kickdrum.wav
448,192,112389,1,0,0:0:0:0:
320,192,112457,1,0,0:0:0:0:
64,192,112524,1,0,0:0:0:40:Snare-crunch.wav
192,192,112524,1,0,0:0:0:0:
448,192,112592,1,0,0:0:0:0:
320,192,112659,1,0,0:0:0:0:
192,192,112727,1,0,0:0:0:0:
64,192,112795,1,0,0:0:0:50:hat5.wav
448,192,112795,1,0,0:0:0:0:
320,192,112862,1,0,0:0:0:0:
64,192,112930,1,0,0:0:0:50:kickdrum.wav
192,192,112930,1,0,0:0:0:0:
448,192,112997,1,0,0:0:0:0:
320,192,113065,1,0,0:0:0:20:hat5.wav
192,192,113132,1,0,0:0:0:0:
320,192,113200,1,0,0:0:0:40:Snare-crunch.wav
448,192,113200,1,0,0:0:0:0:
64,192,113268,1,0,0:0:0:0:
320,192,113335,1,0,0:0:0:50:kickdrum.wav
448,192,113335,1,0,0:0:0:0:
64,192,113403,1,0,0:0:0:0:
320,192,113470,1,0,0:0:0:0:
192,192,113538,1,0,0:0:0:0:
64,192,113605,1,0,0:0:0:40:Snare-crunch.wav
448,192,113605,1,0,0:0:0:0:
320,192,113673,1,0,0:0:0:0:
192,192,113741,1,0,0:0:0:0:
448,192,113808,1,0,0:0:0:0:
64,192,113876,1,0,0:0:0:50:hat5.wav
192,192,113876,1,0,0:0:0:0:
320,192,113943,1,0,0:0:0:0:
448,192,114011,1,0,0:0:0:0:
192,192,114078,1,0,0:0:0:0:
64,192,114146,128,0,114281:0:0:0:50:kickdrum.wav
320,192,114146,1,0,0:0:0:0:
448,192,114281,128,0,114551:0:0:0:0:
192,192,114416,1,0,0:0:0:50:hat5.wav
64,192,114551,1,0,0:0:0:50:kickdrum.wav
320,192,114551,1,0,0:0:0:0:
192,192,114619,1,0,0:0:0:0:
64,192,114686,128,0,114889:0:0:0:40:Snare-crunch.wav
320,192,114686,1,0,0:0:0:0:
448,192,114686,1,0,0:0:0:0:
320,192,114889,128,0,115092:0:0:0:0:
448,192,114957,1,0,0:0:0:50:hat5.wav
64,192,115092,1,0,0:0:0:50:kickdrum.wav
192,192,115092,128,0,115362:0:0:0:0:
320,192,115227,1,0,0:0:0:20:hat5.wav
64,192,115362,1,0,0:0:0:40:Snare-crunch.wav
448,192,115362,1,0,0:0:0:0:
320,192,115430,1,0,0:0:0:0:
64,192,115497,1,0,0:0:0:50:kickdrum.wav
448,192,115497,1,0,0:0:0:0:
192,192,115565,1,0,0:0:0:0:
320,192,115632,1,0,0:0:0:50:kickdrum.wav
448,192,115632,1,0,0:0:0:0:
64,192,115700,1,0,0:0:0:0:
192,192,115768,1,0,0:0:0:40:Snare-crunch.wav
320,192,115768,1,0,0:0:0:0:
448,192,115835,1,0,0:0:0:0:
64,192,115903,1,0,0:0:0:0:
192,192,115970,1,0,0:0:0:0:
64,192,116038,128,0,116173:0:0:0:50:hat5.wav
320,192,116038,1,0,0:0:0:0:
192,192,116173,128,0,116308:0:0:0:15:snare6.wav
448,192,116173,1,0,0:0:0:0:
64,192,116308,1,0,0:0:0:50:kickdrum.wav
320,192,116308,128,0,116578:0:0:0:0:
64,192,116578,1,0,0:0:0:20:hat5.wav
448,192,116578,128,0,116713:0:0:0:0:
64,192,116713,1,0,0:0:0:50:kickdrum.wav
192,192,116713,128,0,116849:0:0:0:0:
320,192,116849,1,0,0:0:0:40:Snare-crunch.wav
448,192,116849,1,0,0:0:0:0:
64,192,116916,1,0,0:0:0:0:
320,192,116984,1,0,0:0:0:0:
64,192,117051,1,0,0:0:0:0:
192,192,117119,1,0,0:0:0:50:hat5.wav
320,192,117119,1,0,0:0:0:0:
448,192,117186,1,0,0:0:0:0:
64,192,117254,1,0,0:0:0:50:kickdrum.wav
192,192,117254,1,0,0:0:0:0:
448,192,117322,1,0,0:0:0:0:
320,192,117389,1,0,0:0:0:20:hat5.wav
192,192,117457,1,0,0:0:0:0:
320,192,117524,1,0,0:0:0:40:Snare-crunch.wav
448,192,117524,1,0,0:0:0:0:
192,192,117592,1,0,0:0:0:0:
64,192,117659,1,0,0:0:0:50:kickdrum.wav
448,192,117659,1,0,0:0:0:0:
320,192,117727,1,0,0:0:0:0:
64,192,117795,1,0,0:0:0:0:
320,192,117862,1,0,0:0:0:0:
64,192,117930,1,0,0:0:0:40:Snare-crunch.wav
192,192,117930,128,0,118132:0:0:0:0:
448,192,117930,1,0,0:0:0:0:
320,192,118132,128,0,118335:0:0:0:0:
64,192,118200,1,0,0:0:0:50:hat5.wav
448,192,118335,128,0,118470:0:0:0:0:
64,192,118470,1,0,0:0:0:50:kickdrum.wav
320,192,118470,128,0,118673:0:0:0:0:
192,192,118673,128,0,118876:0:0:0:0:
448,192,118741,1,0,0:0:0:50:hat5.wav
64,192,118876,128,0,119011:0:0:0:50:kickdrum.wav
320,192,118876,1,0,0:0:0:0:
192,192,119011,1,0,0:0:0:40:Snare-crunch.wav
320,192,119011,1,0,0:0:0:0:
448,192,119011,128,0,119213:0:0:0:0:
320,192,119213,128,0,119416:0:0:0:0:
64,192,119281,1,0,0:0:0:50:hat5.wav
192,192,119416,128,0,119551:0:0:0:50:hat5.wav
448,192,119416,1,0,0:0:0:0:
64,192,119484,1,0,0:0:0:50:hat5.wav
320,192,119551,1,0,0:0:0:15:snare6.wav
448,192,119551,128,0,119754:0:0:0:0:
192,192,119754,128,0,119957:0:0:0:0:
64,192,119822,1,0,0:0:0:50:hat5.wav
320,192,119957,128,0,120092:0:0:0:15:snare6.wav
448,192,119957,1,0,0:0:0:0:
64,192,120092,128,0,120295:0:0:0:0:
320,192,120227,1,0,0:0:0:50:hat5.wav
192,192,120295,128,0,120497:0:0:0:0:
320,192,120362,1,0,0:0:0:40:Snare-crunch.wav
448,192,120362,1,0,0:0:0:0:
64,192,120497,128,0,121443:0:0:0:40:Snare-crunch.wav
448,192,120497,1,0,0:0:0:0:
192,192,120632,1,0,0:0:0:50:kickdrum.wav
320,192,120632,1,0,0:0:0:0:
320,192,120903,1,0,0:0:0:50:hat5.wav
192,192,121038,1,0,0:0:0:50:kickdrum.wav
448,192,121038,1,0,0:0:0:0:
320,192,121173,1,0,0:0:0:40:Snare-crunch.wav
448,192,121173,1,0,0:0:0:0:
192,192,121443,128,0,121578:0:0:0:50:hat5.wav
448,192,121443,1,0,0:0:0:0:
64,192,121578,1,0,0:0:0:50:kickdrum.wav
320,192,121578,128,0,121849:0:0:0:0:
448,192,121713,1,0,0:0:0:20:hat5.wav
64,192,121849,1,0,0:0:0:40:Snare-crunch.wav
192,192,121849,1,0,0:0:0:0:
448,192,121916,1,0,0:0:0:0:
192,192,121984,1,0,0:0:0:50:kickdrum.wav
320,192,121984,1,0,0:0:0:0:
448,192,122051,1,0,0:0:0:0:
64,192,122119,1,0,0:0:0:0:
320,192,122186,1,0,0:0:0:0:
64,192,122254,1,0,0:0:0:40:Snare-crunch.wav
192,192,122254,1,0,0:0:0:0:
320,192,122322,1,0,0:0:0:0:
64,192,122389,128,0,122524:0:0:0:0:
192,192,122524,128,0,122659:0:0:0:50:hat5.wav
320,192,122524,1,0,0:0:0:0:
448,192,122659,128,0,122930:0:0:0:0:
64,192,122795,1,0,0:0:0:50:kickdrum.wav
320,192,122795,128,0,122930:0:0:0:0:
192,192,122930,128,0,123200:0:0:0:0:
448,192,123065,1,0,0:0:0:50:hat5.wav
64,192,123200,128,0,123335:0:0:0:50:kickdrum.wav
320,192,123200,1,0,0:0:0:0:
192,192,123335,128,0,123538:0:0:0:40:Snare-crunch.wav
320,192,123335,1,0,0:0:0:0:
448,192,123335,1,0,0:0:0:0:
64,192,123538,128,0,123741:0:0:0:0:
448,192,123605,1,0,0:0:0:50:hat5.wav
192,192,123741,1,0,0:0:0:50:kickdrum.wav
320,192,123741,128,0,124011:0:0:0:0:
64,192,123876,1,0,0:0:0:20:hat5.wav
64,192,124011,1,0,0:0:0:40:Snare-crunch.wav
192,192,124011,128,0,124281:0:0:0:0:
448,192,124011,1,0,0:0:0:0:
320,192,124146,1,0,0:0:0:50:kickdrum.wav
64,192,124281,1,0,0:0:0:50:kickdrum.wav
320,192,124326,1,0,0:0:0:0:
448,192,124371,1,0,0:0:0:0:
64,192,124416,1,0,0:0:0:40:Snare-crunch.wav
192,192,124416,1,0,0:0:0:0:
320,192,124461,1,0,0:0:0:0:
448,192,124506,1,0,0:0:0:0:
64,192,124551,128,0,124686:0:0:0:0:
192,192,124686,128,0,124822:0:0:0:50:hat5.wav
320,192,124822,128,0,125092:0:0:0:15:snare6.wav
448,192,124822,1,0,0:0:0:0:
64,192,124889,1,0,0:0:0:0:
192,192,124957,1,0,0:0:0:50:kickdrum.wav
448,192,124957,1,0,0:0:0:0:
192,192,125092,128,0,125362:0:0:0:0:
448,192,125227,1,0,0:0:0:20:hat5.wav
64,192,125362,1,0,0:0:0:50:kickdrum.wav
320,192,125362,128,0,125768:0:0:0:0:
64,192,125497,1,0,0:0:0:40:Snare-crunch.wav
448,192,125497,1,0,0:0:0:0:
64,192,125768,1,0,0:0:0:50:hat5.wav
192,192,125768,128,0,125903:0:0:0:0:
320,192,125903,1,0,0:0:0:50:kickdrum.wav
448,192,125903,128,0,126173:0:0:0:0:
64,192,126038,1,0,0:0:0:20:hat5.wav
64,192,126173,1,0,0:0:0:40:Snare-crunch.wav
192,192,126173,1,0,0:0:0:0:
320,192,126173,128,0,126443:0:0:0:0:
192,192,126308,1,0,0:0:0:50:kickdrum.wav
448,192,126308,1,0,0:0:0:0:
64,192,126443,128,0,126713:0:0:0:0:
320,192,126578,1,0,0:0:0:40:Snare-crunch.wav
448,192,126578,1,0,0:0:0:0:
192,192,126713,128,0,126849:0:0:0:0:
320,192,126849,128,0,127119:0:0:0:50:hat5.wav
448,192,126849,1,0,0:0:0:0:
64,192,126984,1,0,0:0:0:0:
192,192,127051,1,0,0:0:0:50:hat5.wav
64,192,127119,1,0,0:0:0:50:kickdrum.wav
448,192,127119,128,0,127457:0:0:0:0:
192,192,127389,1,0,0:0:0:50:hat5.wav
320,192,127524,1,0,0:0:0:50:kickdrum.wav
448,192,127524,128,0,127862:0:0:0:0:
64,192,127659,1,0,0:0:0:40:Snare-crunch.wav
192,192,127659,1,0,0:0:0:0:
64,192,127840,1,0,0:0:0:50:kickdrum.wav
320,192,127840,1,0,0:0:0:0:
448,192,127930,128,0,128741:0:0:0:0:
64,192,128020,1,0,0:0:0:40:Snare-crunch.wav
192,192,128020,1,0,0:0:0:0:
64,192,128200,1,0,0:0:0:50:kickdrum.wav
320,192,128200,1,0,0:0:0:0:
64,192,128380,1,0,0:0:0:40:Snare-crunch.wav
192,192,128380,1,0,0:0:0:0:
64,192,128560,1,0,0:0:0:50:kickdrum.wav
320,192,128560,1,0,0:0:0:0:
64,192,128741,1,0,0:0:0:40:Snare-crunch.wav
192,192,128741,1,0,0:0:0:0:
320,192,128831,1,0,0:0:0:40:Snare-crunch.wav
448,192,128831,1,0,0:0:0:0:
64,192,128921,1,0,0:0:0:40:Snare-crunch.wav
192,192,128921,1,0,0:0:0:0:
320,192,128966,1,0,0:0:0:0:
448,192,129011,1,0,0:0:0:0:
64,192,129056,1,0,0:0:0:0:
192,192,129101,1,0,0:0:0:0:
448,192,129146,1,0,0:0:0:0:
320,192,129191,1,0,0:0:0:0:
192,192,129236,1,0,0:0:0:0:
64,192,129281,1,0,0:0:0:70:cymbal-5.wav
448,192,129281,1,0,0:0:0:0:
192,192,130362,1,0,0:0:0:30:kickdrum.wav
320,192,130430,1,0,0:0:0:30:kickdrum.wav
192,192,130497,1,0,0:0:0:30:kickdrum.wav
320,192,130565,1,0,0:0:0:30:kickdrum.wav
448,192,130632,1,0,0:0:0:30:kickdrum.wav
64,192,130700,1,0,0:0:0:30:kickdrum.wav
320,192,130768,1,0,0:0:0:30:kickdrum.wav
192,192,130835,1,0,0:0:0:30:kickdrum.wav
448,192,130903,1,0,0:0:0:30:kickdrum.wav
64,192,130970,1,0,0:0:0:30:kickdrum.wav
192,192,131038,1,0,0:0:0:30:kickdrum.wav
320,192,131105,1,0,0:0:0:30:kickdrum.wav
448,192,131173,1,0,0:0:0:30:kickdrum.wav
64,192,131241,1,0,0:0:0:30:kickdrum.wav
192,192,131308,1,0,0:0:0:30:kickdrum.wav
320,192,131376,1,0,0:0:0:30:kickdrum.wav
64,192,131443,1,0,0:0:0:30:kickdrum.wav
448,192,131533,1,0,0:0:0:30:kickdrum.wav
192,192,131623,1,0,0:0:0:30:kickdrum.wav
64,192,131713,1,0,0:0:0:70:Snare-Side.wav
448,192,131713,1,0,0:0:0:0:
64,192,131871,1,0,0:0:0:70:Snare-Side.wav
448,192,131871,1,0,0:0:0:0:
64,192,132029,1,0,0:0:0:70:Snare-Side.wav
448,192,132029,1,0,0:0:0:0:
64,192,132186,1,0,0:0:0:70:Snare-Side.wav
448,192,132186,1,0,0:0:0:0:
320,192,132322,1,0,0:0:0:30:kickdrum.wav
192,192,132367,1,0,0:0:0:30:kickdrum.wav
64,192,132412,1,0,0:0:0:30:kickdrum.wav
320,192,132457,1,0,0:0:0:40:Snare-crunch.wav
448,192,132457,1,0,0:0:0:0:
320,192,132682,1,0,0:0:0:30:kickdrum.wav
192,192,132727,1,0,0:0:0:30:kickdrum.wav
64,192,132772,1,0,0:0:0:30:kickdrum.wav
320,192,132817,1,0,0:0:0:40:Snare-crunch.wav
448,192,132817,1,0,0:0:0:0:
320,192,133042,1,0,0:0:0:30:kickdrum.wav
192,192,133087,1,0,0:0:0:30:kickdrum.wav
64,192,133132,1,0,0:0:0:30:kickdrum.wav
320,192,133177,1,0,0:0:0:40:Snare-crunch.wav
448,192,133177,1,0,0:0:0:0:
320,192,133673,1,0,0:0:0:40:Snare-crunch.wav
448,192,133673,1,0,0:0:0:0:
320,192,133774,1,0,0:0:0:40:Snare-crunch.wav
448,192,133774,1,0,0:0:0:0:
64,192,133876,1,0,0:0:0:30:kickdrum.wav
448,192,134101,128,0,134552:0:0:0:70:cymbal-5.wav
192,192,134552,128,0,136603:0:0:0:0:
64,192,136603,128,0,140705:0:0:0:0:
192,192,140705,128,0,141475:0:0:0:0:
320,192,141090,128,0,141859:0:0:0:0:
448,192,141475,128,0,146859:0:0:0:0:
64,192,141859,128,0,146090:0:0:0:0:
192,192,146090,128,0,147244:0:0:0:0:
320,192,146859,128,0,147628:0:0:0:0:
64,192,147244,128,0,152244:0:0:0:0:
192,192,147628,128,0,149936:0:0:0:0:
448,192,148013,1,0,0:0:0:70:depth.wav
448,192,148398,1,0,0:0:0:70:depth.wav
448,192,149936,128,0,152628:0:0:0:0:
320,192,152244,128,0,153013:0:0:0:0:
192,192,152628,128,0,153398:0:0:0:0:
64,192,153013,128,0,153782:0:0:0:0:
320,192,153398,128,0,154167:0:0:0:0:
192,192,153782,128,0,154552:0:0:0:0:
448,192,154167,128,0,154936:0:0:0:0:
64,192,154552,128,0,155705:0:0:0:0:
320,192,154936,128,0,159552:0:0:0:0:
192,192,155705,1,0,0:0:0:70:depth.wav
448,192,155705,128,0,161475:0:0:0:0:
192,192,156090,1,0,0:0:0:70:depth.wav
64,192,159552,128,0,161475:0:0:0:0:
192,192,161475,1,0,0:0:0:0:
320,192,161667,1,0,0:0:0:0:
64,192,161859,1,0,0:0:0:0:
192,192,162052,1,0,0:0:0:0:
320,192,162244,1,0,0:0:0:0:
448,192,162436,1,0,0:0:0:0:
192,192,162628,1,0,0:0:0:0:
320,192,162821,1,0,0:0:0:0:
64,192,163013,1,0,0:0:0:0:
192,192,163205,1,0,0:0:0:0:
320,192,163398,1,0,0:0:0:0:
448,192,163590,1,0,0:0:0:0:
192,192,163782,1,0,0:0:0:0:
320,192,163975,1,0,0:0:0:0:
64,192,164167,1,0,0:0:0:0:
192,192,164359,1,0,0:0:0:0:
320,192,164552,1,0,0:0:0:0:
448,192,164744,1,0,0:0:0:0:
192,192,164936,1,0,0:0:0:0:
64,192,165128,1,0,0:0:0:0:
320,192,165321,1,0,0:0:0:0:
192,192,165513,1,0,0:0:0:0:
448,192,165705,1,0,0:0:0:0:
320,192,165898,1,0,0:0:0:0:
192,192,166090,1,0,0:0:0:0:
64,192,166282,1,0,0:0:0:0:
320,192,166475,1,0,0:0:0:0:
192,192,166667,1,0,0:0:0:0:
448,192,166859,1,0,0:0:0:0:
320,192,167052,1,0,0:0:0:0:
192,192,167244,1,0,0:0:0:0:
64,192,167436,1,0,0:0:0:0:
320,192,167628,1,0,0:0:0:0:
192,192,167821,1,0,0:0:0:0:
448,192,168013,1,0,0:0:0:0:
64,192,168205,1,0,0:0:0:0:
320,192,168398,1,0,0:0:0:0:
192,192,168590,1,0,0:0:0:0:
64,192,168782,1,0,0:0:0:0:
320,192,168975,1,0,0:0:0:0:
64,192,169167,1,0,0:0:0:40:kickdrum.wav
448,192,169167,1,0,0:0:0:0:
192,192,169263,1,0,0:0:0:0:
320,192,169359,1,0,0:0:0:30:LR_HiHat Click2.wav
64,192,169455,1,0,0:0:0:40:kickdrum.wav
448,192,169455,1,0,0:0:0:30:LR_HiHat Click2.wav
192,192,169552,1,0,0:0:0:30:LR_HiHat Click2.wav
320,192,169648,1,0,0:0:0:0:
448,192,169744,1,0,0:0:0:30:LR_HiHat Click2.wav
64,192,169840,1,0,0:0:0:30:LR_HiHat Click2.wav
192,192,169936,1,0,0:0:0:40:kickdrum.wav
320,192,169936,1,0,0:0:0:30:LR_HiHat Click2.wav
448,192,170128,1,0,0:0:0:50:Shaker01.wav
64,192,170225,1,0,0:0:0:40:kickdrum.wav
320,192,170225,1,0,0:0:0:30:LR_HiHat Click2.wav
192,192,170321,1,0,0:0:0:0:
448,192,170513,1,0,0:0:0:30:LR_HiHat Click2.wav
320,192,170609,1,0,0:0:0:30:LR_HiHat Click2.wav
64,192,170705,1,0,0:0:0:40:kickdrum.wav
448,192,170705,1,0,0:0:0:30:LR_HiHat Click2.wav
192,192,170898,1,0,0:0:0:30:LR_HiHat Click2.wav
320,192,170994,1,0,0:0:0:40:kickdrum.wav
448,192,170994,1,0,0:0:0:30:LR_HiHat Click2.wav
64,192,171090,1,0,0:0:0:30:LR_HiHat Click2.wav
192,192,171282,1,0,0:0:0:30:LR_HiHat Click2.wav
320,192,171378,1,0,0:0:0:30:LR_HiHat Click2.wav
64,192,171475,1,0,0:0:0:40:kickdrum.wav
192,192,171475,1,0,0:0:0:30:LR_HiHat Click2.wav
448,192,171667,1,0,0:0:0:50:Shaker01.wav
64,192,171763,1,0,0:0:0:40:kickdrum.wav
320,192,171763,1,0,0:0:0:30:LR_HiHat Click2.wav
192,192,171859,1,0,0:0:0:0:
320,192,172052,1,0,0:0:0:30:LR_HiHat Click2.wav
192,192,172148,1,0,0:0:0:30:LR_HiHat Click2.wav
320,192,172244,1,0,0:0:0:40:kickdrum.wav
448,192,172244,1,0,0:0:0:30:LR_HiHat Click2.wav
64,192,172436,1,0,0:0:0:30:LR_HiHat Click2.wav
192,192,172532,1,0,0:0:0:40:kickdrum.wav
448,192,172532,1,0,0:0:0:30:LR_HiHat Click2.wav
320,192,172628,1,0,0:0:0:30:LR_HiHat Click2.wav
192,192,172821,1,0,0:0:0:70:Rim-4.wav
192,192,172917,1,0,0:0:0:70:Rim-4.wav
320,192,173013,1,0,0:0:0:40:kickdrum.wav
448,192,173013,1,0,0:0:0:0:
64,192,173205,1,0,0:0:0:30:LR_HiHat Click2.wav
192,192,173302,1,0,0:0:0:40:kickdrum.wav
448,192,173302,1,0,0:0:0:30:LR_HiHat Click2.wav
320,192,173398,1,0,0:0:0:30:LR_HiHat Click2.wav
192,192,173590,1,0,0:0:0:30:LR_HiHat Click2.wav
320,192,173686,1,0,0:0:0:30:LR_HiHat Click2.wav
64,192,173782,1,0,0:0:0:40:kickdrum.wav
192,192,173782,1,0,0:0:0:30:LR_HiHat Click2.wav
448,192,173975,1,0,0:0:0:50:Shaker01.wav
64,192,174071,1,0,0:0:0:40:kickdrum.wav
320,192,174071,1,0,0:0:0:30:LR_HiHat Click2.wav
192,192,174167,1,0,0:0:0:0:
448,192,174359,1,0,0:0:0:30:LR_HiHat Click2.wav
320,192,174455,1,0,0:0:0:30:LR_HiHat Click2.wav
64,192,174552,1,0,0:0:0:40:kickdrum.wav
448,192,174552,1,0,0:0:0:30:LR_HiHat Click2.wav
192,192,174744,1,0,0:0:0:30:LR_HiHat Click2.wav
320,192,174840,1,0,0:0:0:40:kickdrum.wav
448,192,174840,1,0,0:0:0:30:LR_HiHat Click2.wav
64,192,174936,1,0,0:0:0:30:LR_HiHat Click2.wav
192,192,175128,1,0,0:0:0:50:Shaker01.wav
320,192,175321,1,0,0:0:0:40:kickdrum.wav
448,192,175321,1,0,0:0:0:0:
64,192,175513,1,0,0:0:0:30:LR_HiHat Click2.wav
192,192,175609,1,0,0:0:0:40:kickdrum.wav
320,192,175609,1,0,0:0:0:30:LR_HiHat Click2.wav
448,192,175705,1,0,0:0:0:30:LR_HiHat Click2.wav
64,192,175898,1,0,0:0:0:30:LR_HiHat Click2.wav
320,192,175994,1,0,0:0:0:30:LR_HiHat Click2.wav
64,192,176090,1,0,0:0:0:40:kickdrum.wav
192,192,176090,1,0,0:0:0:30:LR_HiHat Click2.wav
448,192,176282,1,0,0:0:0:30:LR_HiHat Click2.wav
64,192,176378,1,0,0:0:0:40:kickdrum.wav
192,192,176378,1,0,0:0:0:30:LR_HiHat Click2.wav
320,192,176475,1,0,0:0:0:30:LR_HiHat Click2.wav
448,192,176571,1,0,0:0:0:70:Rim.wav
192,192,176667,1,0,0:0:0:70:Rim-4.wav
192,192,176763,1,0,0:0:0:70:Rim-4.wav
64,192,176859,128,0,176907:0:0:0:40:kickdrum.wav
448,192,176859,128,0,176907:0:0:0:0:
192,192,177052,1,0,0:0:0:30:LR_HiHat Click2.wav
320,192,177148,1,0,0:0:0:40:kickdrum.wav
448,192,177148,1,0,0:0:0:30:LR_HiHat Click2.wav
64,192,177244,1,0,0:0:0:30:LR_HiHat Click2.wav
192,192,177340,1,0,0:0:0:70:Rim-4.wav
320,192,177436,128,0,177484:0:0:0:30:LR_HiHat Click2.wav
448,192,177436,128,0,177484:0:0:0:0:
64,192,177532,1,0,0:0:0:70:Rim-4.wav
192,192,177628,1,0,0:0:0:40:kickdrum.wav
448,192,177628,1,0,0:0:0:30:LR_HiHat Click2.wav
64,192,177821,1,0,0:0:0:50:Shaker01.wav
192,192,177917,1,0,0:0:0:40:kickdrum.wav
320,192,177917,1,0,0:0:0:30:LR_HiHat Click2.wav
448,192,178013,1,0,0:0:0:0:
192,192,178109,1,0,0:0:0:70:Rim-4.wav
320,192,178205,1,0,0:0:0:70:Rim-4.wav
320,192,178302,1,0,0:0:0:70:Rim-4.wav
64,192,178398,1,0,0:0:0:40:kickdrum.wav
448,192,178398,1,0,0:0:0:30:LR_HiHat Click2.wav
320,192,178590,1,0,0:0:0:30:LR_HiHat Click2.wav
192,192,178686,1,0,0:0:0:40:kickdrum.wav
64,192,178782,128,0,178830:0:0:0:30:LR_HiHat Click2.wav
448,192,178782,128,0,178830:0:0:0:0:
320,192,178878,1,0,0:0:0:70:Rim-4.wav
64,192,178975,128,0,179023:0:0:0:30:LR_HiHat Click2.wav
192,192,178975,128,0,179023:0:0:0:0:
320,192,179071,1,0,0:0:0:70:Rim-4.wav
192,192,179167,1,0,0:0:0:40:kickdrum.wav
448,192,179167,1,0,0:0:0:30:LR_HiHat Click2.wav
64,192,179359,128,0,179407:0:0:0:50:Shaker01.wav
320,192,179359,128,0,179407:0:0:0:0:
192,192,179455,1,0,0:0:0:40:kickdrum.wav
448,192,179455,1,0,0:0:0:30:LR_HiHat Click2.wav
320,192,179552,1,0,0:0:0:0:
448,192,179648,1,0,0:0:0:70:Rim+4.wav
64,192,179744,128,0,179792:0:0:0:70:Rim.wav
192,192,179744,128,0,179792:0:0:0:30:LR_HiHat Click2.wav
320,192,179840,1,0,0:0:0:70:Rim-4.wav
64,192,179936,1,0,0:0:0:40:kickdrum.wav
448,192,179936,1,0,0:0:0:30:LR_HiHat Click2.wav
192,192,180128,1,0,0:0:0:30:LR_HiHat Click2.wav
320,192,180225,1,0,0:0:0:40:kickdrum.wav
448,192,180225,1,0,0:0:0:30:LR_HiHat Click2.wav
64,192,180321,1,0,0:0:0:30:LR_HiHat Click2.wav
320,192,180513,1,0,0:0:0:70:Rim-4.wav
320,192,180609,1,0,0:0:0:70:Rim-4.wav
64,192,180705,1,0,0:0:0:40:kickdrum.wav
192,192,180705,1,0,0:0:0:0:
448,192,180898,1,0,0:0:0:30:LR_HiHat Click2.wav
192,192,180994,1,0,0:0:0:40:kickdrum.wav
320,192,180994,1,0,0:0:0:30:LR_HiHat Click2.wav
64,192,181090,128,0,181138:0:0:0:30:LR_HiHat Click2.wav
448,192,181090,128,0,181138:0:0:0:0:
192,192,181186,1,0,0:0:0:70:Rim-4.wav
320,192,181282,128,0,181330:0:0:0:30:LR_HiHat Click2.wav
448,192,181282,128,0,181330:0:0:0:0:
64,192,181378,1,0,0:0:0:70:Rim-4.wav
192,192,181475,1,0,0:0:0:40:kickdrum.wav
448,192,181475,1,0,0:0:0:30:LR_HiHat Click2.wav
64,192,181667,128,0,181715:0:0:0:50:Shaker01.wav
192,192,181667,128,0,181715:0:0:0:0:
320,192,181763,1,0,0:0:0:40:kickdrum.wav
448,192,181763,1,0,0:0:0:30:LR_HiHat Click2.wav
64,192,181859,1,0,0:0:0:0:
320,192,181955,1,0,0:0:0:70:Rim-4.wav
192,192,182052,1,0,0:0:0:70:Rim-4.wav
192,192,182148,1,0,0:0:0:70:Rim-4.wav
64,192,182244,1,0,0:0:0:40:kickdrum.wav
448,192,182244,1,0,0:0:0:30:LR_HiHat Click2.wav
320,192,182436,1,0,0:0:0:30:LR_HiHat Click2.wav
192,192,182532,1,0,0:0:0:40:kickdrum.wav
448,192,182532,1,0,0:0:0:30:LR_HiHat Click2.wav
64,192,182628,1,0,0:0:0:30:LR_HiHat Click2.wav
320,192,182725,1,0,0:0:0:70:Rim-4.wav
192,192,182821,1,0,0:0:0:50:Shaker01.wav
448,192,182917,1,0,0:0:0:70:Rim-4.wav
64,192,183013,128,0,183061:0:0:0:40:kickdrum.wav
320,192,183013,128,0,183061:0:0:0:30:LR_HiHat Click2.wav
320,192,183205,128,0,183253:0:0:0:50:Shaker01.wav
448,192,183205,128,0,183253:0:0:0:0:
64,192,183302,1,0,0:0:0:40:kickdrum.wav
192,192,183302,1,0,0:0:0:30:LR_HiHat Click2.wav
448,192,183398,1,0,0:0:0:0:
64,192,183494,1,0,0:0:0:70:Rim+4.wav
192,192,183590,128,0,183638:0:0:0:70:Rim.wav
320,192,183590,128,0,183638:0:0:0:30:LR_HiHat Click2.wav
448,192,183686,1,0,0:0:0:70:Rim-4.wav
64,192,183782,1,0,0:0:0:40:kickdrum.wav
192,192,183782,1,0,0:0:0:30:LR_HiHat Click2.wav
320,192,183975,1,0,0:0:0:30:LR_HiHat Click2.wav
64,192,184071,1,0,0:0:0:40:kickdrum.wav
448,192,184071,1,0,0:0:0:30:LR_HiHat Click2.wav
192,192,184167,1,0,0:0:0:30:LR_HiHat Click2.wav
320,192,184263,1,0,0:0:0:70:Rim-4.wav
192,192,184311,1,0,0:0:0:70:Rim-4.wav
448,192,184359,1,0,0:0:0:70:Rim-4.wav
320,192,184423,1,0,0:0:0:70:Rim-4.wav
192,192,184487,1,0,0:0:0:70:Rim-4.wav
64,192,184552,128,0,184600:0:0:0:40:kickdrum.wav
448,192,184552,128,0,184600:0:0:0:0:
192,192,184744,1,0,0:0:0:30:LR_HiHat Click2.wav
320,192,184840,1,0,0:0:0:40:kickdrum.wav
448,192,184840,1,0,0:0:0:30:LR_HiHat Click2.wav
64,192,184936,1,0,0:0:0:30:LR_HiHat Click2.wav
192,192,185032,1,0,0:0:0:70:Rim-4.wav
320,192,185128,128,0,185177:0:0:0:30:LR_HiHat Click2.wav
448,192,185128,128,0,185177:0:0:0:0:
192,192,185225,1,0,0:0:0:70:Rim-4.wav
64,192,185321,1,0,0:0:0:40:kickdrum.wav
448,192,185321,1,0,0:0:0:30:LR_HiHat Click2.wav
320,192,185513,1,0,0:0:0:50:Shaker01.wav
64,192,185609,1,0,0:0:0:40:kickdrum.wav
192,192,185609,1,0,0:0:0:30:LR_HiHat Click2.wav
448,192,185705,1,0,0:0:0:0:
320,192,185802,1,0,0:0:0:70:Rim-4.wav
64,192,185898,1,0,0:0:0:70:Rim-4.wav
64,192,185994,1,0,0:0:0:70:Rim-4.wav
192,192,186090,1,0,0:0:0:40:kickdrum.wav
448,192,186090,1,0,0:0:0:30:LR_HiHat Click2.wav
320,192,186282,1,0,0:0:0:30:LR_HiHat Click2.wav
64,192,186378,1,0,0:0:0:40:kickdrum.wav
192,192,186378,1,0,0:0:0:30:LR_HiHat Click2.wav
448,192,186475,1,0,0:0:0:30:LR_HiHat Click2.wav
192,192,186571,1,0,0:0:0:70:Rim-4.wav
64,192,186667,128,0,186715:0:0:0:30:LR_HiHat Click2.wav
448,192,186667,128,0,186715:0:0:0:0:
192,192,186763,1,0,0:0:0:70:Rim-4.wav
320,192,186859,128,0,186907:0:0:0:40:kickdrum.wav
448,192,186859,128,0,186907:0:0:0:30:LR_HiHat Click2.wav
64,192,187052,1,0,0:0:0:50:Shaker01.wav
320,192,187148,1,0,0:0:0:40:kickdrum.wav
64,192,187244,128,0,187292:0:0:0:0:
448,192,187244,128,0,187292:0:0:0:0:
192,192,187340,1,0,0:0:0:70:Rim+4.wav
320,192,187436,128,0,187484:0:0:0:70:Rim.wav
448,192,187436,128,0,187484:0:0:0:30:LR_HiHat Click2.wav
192,192,187532,1,0,0:0:0:70:Rim-4.wav
64,192,187628,1,0,0:0:0:40:kickdrum.wav
448,192,187628,1,0,0:0:0:30:LR_HiHat Click2.wav
320,192,187821,1,0,0:0:0:30:LR_HiHat Click2.wav
64,192,187917,1,0,0:0:0:40:kickdrum.wav
448,192,187917,1,0,0:0:0:30:LR_HiHat Click2.wav
192,192,188013,1,0,0:0:0:30:LR_HiHat Click2.wav
320,192,188205,1,0,0:0:0:70:Rim-4.wav
320,192,188302,1,0,0:0:0:70:Rim-4.wav
64,192,188398,1,0,0:0:0:40:kickdrum.wav
448,192,188398,1,0,0:0:0:0:
64,192,188590,128,0,188638:0:0:0:30:LR_HiHat Click2.wav
192,192,188590,128,0,188638:0:0:0:0:
320,192,188686,1,0,0:0:0:40:kickdrum.wav
448,192,188686,1,0,0:0:0:30:LR_HiHat Click2.wav
192,192,188782,1,0,0:0:0:30:LR_HiHat Click2.wav
64,192,188878,128,0,188927:0:0:0:70:Rim-4.wav
448,192,188878,128,0,188927:0:0:0:0:
320,192,188975,1,0,0:0:0:30:LR_HiHat Click2.wav
192,192,189071,1,0,0:0:0:70:Rim-4.wav
64,192,189167,128,0,189215:0:0:0:40:kickdrum.wav
320,192,189167,128,0,189215:0:0:0:30:LR_HiHat Click2.wav
320,192,189359,1,0,0:0:0:50:Shaker01.wav
192,192,189455,128,0,189503:0:0:0:40:kickdrum.wav
448,192,189455,128,0,189503:0:0:0:30:LR_HiHat Click2.wav
64,192,189552,1,0,0:0:0:0:
448,192,189648,1,0,0:0:0:70:Rim-4.wav
192,192,189744,128,0,189792:0:0:0:70:Rim-4.wav
320,192,189744,128,0,189792:0:0:0:30:LR_HiHat Click2.wav
64,192,189840,1,0,0:0:0:70:Rim-4.wav
320,192,189936,1,0,0:0:0:40:kickdrum.wav
448,192,189936,1,0,0:0:0:30:LR_HiHat Click2.wav
64,192,190032,128,0,190080:0:0:0:0:
192,192,190032,128,0,190080:0:0:0:0:
448,192,190128,1,0,0:0:0:30:LR_HiHat Click2.wav
64,192,190225,1,0,0:0:0:40:kickdrum.wav
192,192,190225,1,0,0:0:0:30:LR_HiHat Click2.wav
320,192,190321,128,0,190369:0:0:0:30:LR_HiHat Click2.wav
448,192,190321,128,0,190369:0:0:0:0:
64,192,190417,1,0,0:0:0:70:Rim-4.wav
320,192,190513,1,0,0:0:0:50:Shaker01.wav
64,192,190609,128,0,190657:0:0:0:70:Rim-4.wav
448,192,190609,128,0,190657:0:0:0:30:LR_HiHat Click2.wav
192,192,190705,1,0,0:0:0:40:kickdrum.wav
320,192,190705,1,0,0:0:0:0:
64,192,190898,128,0,190946:0:0:0:30:LR_HiHat Click2.wav
320,192,190898,128,0,190946:0:0:0:0:
192,192,190994,1,0,0:0:0:40:kickdrum.wav
448,192,190994,1,0,0:0:0:30:LR_HiHat Click2.wav
64,192,191090,1,0,0:0:0:30:LR_HiHat Click2.wav
320,192,191186,128,0,191234:0:0:0:70:Rim+4.wav
448,192,191186,128,0,191234:0:0:0:0:
192,192,191282,1,0,0:0:0:70:Rim.wav
192,192,191378,1,0,0:0:0:70:Rim.wav
64,192,191475,128,0,191523:0:0:0:40:kickdrum.wav
448,192,191475,128,0,191523:0:0:0:30:LR_HiHat Click2.wav
64,192,191603,1,0,0:0:0:70:Rim.wav
448,192,191667,1,0,0:0:0:30:LR_HiHat Click2.wav
64,192,191731,1,0,0:0:0:70:Rim.wav
320,192,191763,1,0,0:0:0:30:LR_HiHat Click2.wav
192,192,191859,1,0,0:0:0:40:kickdrum.wav
448,192,191859,1,0,0:0:0:30:LR_HiHat Click2.wav
448,192,191987,1,0,0:0:0:70:Rim-4.wav
64,192,192052,1,0,0:0:0:50:Shaker01.wav
448,192,192116,1,0,0:0:0:70:Rim-4.wav
192,192,192244,1,0,0:0:0:40:kickdrum.wav
320,192,192244,1,0,0:0:0:0:
64,192,192436,1,0,0:0:0:50:Shaker01.wav
320,192,192532,1,0,0:0:0:40:kickdrum.wav
448,192,192532,1,0,0:0:0:30:LR_HiHat Click2.wav
192,192,192628,1,0,0:0:0:0:
320,192,192821,1,0,0:0:0:70:Rim-4.wav
320,192,192917,1,0,0:0:0:70:Rim-4.wav
64,192,193013,1,0,0:0:0:40:kickdrum.wav
192,192,193013,1,0,0:0:0:30:LR_HiHat Click2.wav
448,192,193205,1,0,0:0:0:30:LR_HiHat Click2.wav
64,192,193302,1,0,0:0:0:40:kickdrum.wav
192,192,193302,1,0,0:0:0:30:LR_HiHat Click2.wav
320,192,193398,1,0,0:0:0:30:LR_HiHat Click2.wav
192,192,193590,1,0,0:0:0:70:Rim-4.wav
192,192,193686,1,0,0:0:0:70:Rim-4.wav
64,192,193782,1,0,0:0:0:40:kickdrum.wav
448,192,193782,1,0,0:0:0:30:LR_HiHat Click2.wav
192,192,193975,1,0,0:0:0:50:Shaker01.wav
64,192,194071,1,0,0:0:0:40:kickdrum.wav
448,192,194071,1,0,0:0:0:30:LR_HiHat Click2.wav
320,192,194263,1,0,0:0:0:70:Rim-4.wav
192,192,194359,1,0,0:0:0:30:LR_HiHat Click2.wav
320,192,194455,1,0,0:0:0:70:Rim-4.wav
64,192,194552,1,0,0:0:0:40:kickdrum.wav
448,192,194552,1,0,0:0:0:30:LR_HiHat Click2.wav
320,192,194744,1,0,0:0:0:30:LR_HiHat Click2.wav
64,192,194840,1,0,0:0:0:40:kickdrum.wav
192,192,194840,1,0,0:0:0:30:LR_HiHat Click2.wav
448,192,194936,1,0,0:0:0:30:LR_HiHat Click2.wav
320,192,195032,1,0,0:0:0:70:Rim-4.wav
64,192,195128,1,0,0:0:0:70:Rim-4.wav
64,192,195225,1,0,0:0:0:70:Rim-4.wav
192,192,195321,1,0,0:0:0:40:kickdrum.wav
448,192,195321,1,0,0:0:0:0:
320,192,195513,1,0,0:0:0:30:LR_HiHat Click2.wav
192,192,195609,1,0,0:0:0:40:kickdrum.wav
448,192,195609,1,0,0:0:0:30:LR_HiHat Click2.wav
64,192,195705,1,0,0:0:0:30:LR_HiHat Click2.wav
448,192,195802,1,0,0:0:0:70:Rim-4.wav
192,192,195898,1,0,0:0:0:30:LR_HiHat Click2.wav
448,192,195946,1,0,0:0:0:70:Rim-4.wav
64,192,195994,1,0,0:0:0:30:LR_HiHat Click2.wav
320,192,196090,1,0,0:0:0:40:kickdrum.wav
448,192,196090,1,0,0:0:0:30:LR_HiHat Click2.wav
192,192,196282,1,0,0:0:0:30:LR_HiHat Click2.wav
320,192,196378,1,0,0:0:0:40:kickdrum.wav
448,192,196378,1,0,0:0:0:30:LR_HiHat Click2.wav
64,192,196475,1,0,0:0:0:30:LR_HiHat Click2.wav
448,192,196667,1,0,0:0:0:70:Rim-4.wav
448,192,196763,1,0,0:0:0:70:Rim-4.wav
64,192,196859,1,0,0:0:0:40:kickdrum.wav
320,192,196859,1,0,0:0:0:0:
192,192,197052,1,0,0:0:0:30:LR_HiHat Click2.wav
64,192,197148,1,0,0:0:0:40:kickdrum.wav
320,192,197148,1,0,0:0:0:30:LR_HiHat Click2.wav
448,192,197244,1,0,0:0:0:30:LR_HiHat Click2.wav
192,192,197436,1,0,0:0:0:70:Rim-4.wav
192,192,197532,1,0,0:0:0:70:Rim-4.wav
64,192,197628,1,0,0:0:0:40:kickdrum.wav
448,192,197628,1,0,0:0:0:30:LR_HiHat Click2.wav
192,192,197821,1,0,0:0:0:50:Shaker01.wav
64,192,197917,1,0,0:0:0:40:kickdrum.wav
448,192,197917,1,0,0:0:0:30:LR_HiHat Click2.wav
320,192,198109,1,0,0:0:0:70:Rim-4.wav
64,192,198205,1,0,0:0:0:30:LR_HiHat Click2.wav
320,192,198302,1,0,0:0:0:70:Rim-4.wav
192,192,198398,1,0,0:0:0:40:kickdrum.wav
448,192,198398,1,0,0:0:0:30:LR_HiHat Click2.wav
64,192,198590,1,0,0:0:0:30:LR_HiHat Click2.wav
192,192,198686,1,0,0:0:0:40:kickdrum.wav
448,192,198686,1,0,0:0:0:30:LR_HiHat Click2.wav
320,192,198782,1,0,0:0:0:30:LR_HiHat Click2.wav
64,192,198878,1,0,0:0:0:70:Rim-4.wav
192,192,198975,1,0,0:0:0:70:Rim-4.wav
192,192,199071,1,0,0:0:0:70:Rim-4.wav
320,192,199167,1,0,0:0:0:40:kickdrum.wav
448,192,199167,1,0,0:0:0:30:LR_HiHat Click2.wav
64,192,199359,1,0,0:0:0:50:Shaker01.wav
320,192,199455,1,0,0:0:0:40:kickdrum.wav
448,192,199455,1,0,0:0:0:30:LR_HiHat Click2.wav
192,192,199648,1,0,0:0:0:70:Rim-4.wav
320,192,199744,1,0,0:0:0:30:LR_HiHat Click2.wav
64,192,199792,1,0,0:0:0:70:Rim-4.wav
448,192,199840,1,0,0:0:0:30:LR_HiHat Click2.wav
192,192,199864,1,0,0:0:0:70:Rim-4.wav
64,192,199936,1,0,0:0:0:40:kickdrum.wav
320,192,199936,1,0,0:0:0:30:LR_HiHat Click2.wav
448,192,200128,1,0,0:0:0:30:LR_HiHat Click2.wav
64,192,200225,1,0,0:0:0:40:kickdrum.wav
320,192,200225,1,0,0:0:0:30:LR_HiHat Click2.wav
192,192,200321,1,0,0:0:0:30:LR_HiHat Click2.wav
320,192,200513,1,0,0:0:0:50:Shaker01.wav
192,192,200898,1,0,0:0:0:30:LR_HiHat Click2.wav
320,192,200994,1,0,0:0:0:30:LR_HiHat Click2.wav
192,192,201090,1,0,0:0:0:30:LR_HiHat Click2.wav
448,192,201282,1,0,0:0:0:30:LR_HiHat Click2.wav
320,192,201378,1,0,0:0:0:30:LR_HiHat Click2.wav
192,192,201475,1,0,0:0:0:30:LR_HiHat Click2.wav
448,192,201667,1,0,0:0:0:30:LR_HiHat Click2.wav
320,192,201763,1,0,0:0:0:30:LR_HiHat Click2.wav
64,192,201859,1,0,0:0:0:40:kickdrum.wav
192,192,201859,1,0,0:0:0:30:LR_HiHat Click2.wav
448,192,202052,1,0,0:0:0:50:Shaker01.wav
64,192,202148,1,0,0:0:0:40:kickdrum.wav
192,192,202148,1,0,0:0:0:0:
448,192,202436,1,0,0:0:0:30:LR_HiHat Click2.wav
320,192,202532,1,0,0:0:0:30:LR_HiHat Click2.wav
448,192,202628,1,0,0:0:0:30:LR_HiHat Click2.wav
192,192,202821,1,0,0:0:0:50:Shaker01.wav
320,192,203205,1,0,0:0:0:30:LR_HiHat Click2.wav
192,192,203398,1,0,0:0:0:50:Shaker01.wav
448,192,203782,1,0,0:0:0:70:depth.wav
448,192,204167,1,0,0:0:0:70:depth.wav
64,192,204360,1,0,0:0:0:0:
320,192,204529,1,0,0:0:0:0:
192,192,204614,1,0,0:0:0:0:
320,192,204698,1,0,0:0:0:0:
448,192,204783,1,0,0:0:0:0:
64,192,204868,1,0,0:0:0:0:
192,192,204953,1,0,0:0:0:0:
448,192,205122,1,0,0:0:0:0:
320,192,205207,1,0,0:0:0:0:
192,192,205292,1,0,0:0:0:0:
320,192,205376,1,0,0:0:0:0:
64,192,205461,1,0,0:0:0:0:
448,192,205546,1,0,0:0:0:0:
192,192,205631,1,0,0:0:0:0:
448,192,205715,1,0,0:0:0:0:
64,192,205800,1,0,0:0:0:0:
192,192,205885,1,0,0:0:0:0:
320,192,205970,1,0,0:0:0:0:
448,192,206054,1,0,0:0:0:0:
64,192,206139,1,0,0:0:0:0:
320,192,206224,1,0,0:0:0:0:
192,192,206309,1,0,0:0:0:0:
448,192,206393,1,0,0:0:0:0:
64,192,206563,1,0,0:0:0:0:
320,192,206648,1,0,0:0:0:0:
64,192,206732,1,0,0:0:0:0:
448,192,206817,1,0,0:0:0:0:
320,192,206902,1,0,0:0:0:0:
192,192,206987,1,0,0:0:0:0:
64,192,207156,1,0,0:0:0:0:
448,192,207241,1,0,0:0:0:0:
192,192,207326,1,0,0:0:0:0:
320,192,207410,1,0,0:0:0:0:
192,192,207495,1,0,0:0:0:0:
448,192,207580,1,0,0:0:0:0:
64,192,207665,1,0,0:0:0:0:
320,192,207749,1,0,0:0:0:0:
192,192,207834,1,0,0:0:0:0:
64,192,207919,1,0,0:0:0:0:
448,192,208004,1,0,0:0:0:0:
320,192,208088,1,0,0:0:0:0:
448,192,208173,1,0,0:0:0:0:
64,192,208258,1,0,0:0:0:0:
192,192,208300,1,0,0:0:0:0:
320,192,208343,1,0,0:0:0:0:
64,192,208427,1,0,0:0:0:50:cymbal-3s.wav
192,192,208427,1,0,0:0:0:70:kickdrum.wav
448,192,208427,1,0,0:0:0:0:
320,192,208597,1,0,0:0:0:0:
192,192,208682,1,0,0:0:0:0:
320,192,208766,1,0,0:0:0:50:snare-m.wav
448,192,208766,1,0,0:0:0:0:
64,192,208851,1,0,0:0:0:0:
192,192,208936,1,0,0:0:0:0:
320,192,209021,1,0,0:0:0:50:snare-m.wav
448,192,209021,1,0,0:0:0:0:
64,192,209190,1,0,0:0:0:0:
192,192,209275,1,0,0:0:0:50:snare-m.wav
320,192,209275,1,0,0:0:0:0:
448,192,209360,1,0,0:0:0:0:
64,192,209444,1,0,0:0:0:70:kickdrum.wav
192,192,209444,1,0,0:0:0:0:
320,192,209529,1,0,0:0:0:0:
448,192,209614,1,0,0:0:0:0:
64,192,209698,1,0,0:0:0:70:kickdrum.wav
192,192,209698,1,0,0:0:0:0:
320,192,209783,1,0,0:0:0:50:snare-m.wav
448,192,209783,1,0,0:0:0:0:
64,192,209868,1,0,0:0:0:0:
320,192,209953,1,0,0:0:0:70:kickdrum.wav
448,192,209953,1,0,0:0:0:0:
192,192,210037,1,0,0:0:0:0:
64,192,210122,1,0,0:0:0:0:
320,192,210207,1,0,0:0:0:50:snare-m.wav
448,192,210207,1,0,0:0:0:0:
64,192,210292,1,0,0:0:0:70:kickdrum.wav
192,192,210292,1,0,0:0:0:0:
64,192,210376,1,0,0:0:0:70:kickdrum.wav
192,192,210376,1,0,0:0:0:0:
64,192,210461,1,0,0:0:0:50:cymbal-3s.wav
320,192,210461,1,0,0:0:0:70:kickdrum.wav
448,192,210461,1,0,0:0:0:0:
320,192,210631,1,0,0:0:0:0:
448,192,210715,1,0,0:0:0:0:
64,192,210800,1,0,0:0:0:50:snare-m.wav
192,192,210800,1,0,0:0:0:0:
320,192,210885,1,0,0:0:0:0:
448,192,210970,1,0,0:0:0:0:
64,192,211054,1,0,0:0:0:50:snare-m.wav
192,192,211054,1,0,0:0:0:0:
320,192,211224,1,0,0:0:0:0:
64,192,211309,1,0,0:0:0:50:snare-m.wav
192,192,211351,1,0,0:0:0:50:snare-m.wav
448,192,211393,1,0,0:0:0:50:snare-m.wav
320,192,211436,1,0,0:0:0:50:snare-m.wav
64,192,211478,1,0,0:0:0:70:kickdrum.wav
192,192,211478,1,0,0:0:0:0:
64,192,211563,1,0,0:0:0:70:kickdrum.wav
192,192,211563,1,0,0:0:0:0:
320,192,211648,1,0,0:0:0:50:snare-m.wav
448,192,211648,1,0,0:0:0:0:
64,192,211732,1,0,0:0:0:0:
320,192,211817,1,0,0:0:0:70:kickdrum.wav
448,192,211817,1,0,0:0:0:0:
64,192,211902,1,0,0:0:0:50:snare-m.wav
192,192,211902,1,0,0:0:0:0:
320,192,211987,1,0,0:0:0:70:kickdrum.wav
448,192,211987,1,0,0:0:0:0:
64,192,212071,1,0,0:0:0:50:snare-m.wav
192,192,212071,1,0,0:0:0:0:
320,192,212156,1,0,0:0:0:70:kickdrum.wav
448,192,212156,1,0,0:0:0:0:
64,192,212198,1,0,0:0:0:0:
192,192,212241,1,0,0:0:0:70:kickdrum.wav
320,192,212326,1,0,0:0:0:50:snare-m.wav
448,192,212368,1,0,0:0:0:0:
192,192,212410,1,0,0:0:0:0:
64,192,212495,1,0,0:0:0:50:cymbal-3s.wav
320,192,212495,1,0,0:0:0:70:kickdrum.wav
448,192,212495,1,0,0:0:0:0:
320,192,212665,1,0,0:0:0:50:snare-m.wav
448,192,212665,1,0,0:0:0:0:
64,192,212749,1,0,0:0:0:70:kickdrum.wav
192,192,212749,1,0,0:0:0:0:
320,192,212834,1,0,0:0:0:0:
64,192,212919,1,0,0:0:0:50:snare-m.wav
448,192,212919,1,0,0:0:0:0:
192,192,213004,1,0,0:0:0:70:kickdrum.wav
320,192,213004,1,0,0:0:0:0:
448,192,213088,1,0,0:0:0:0:
64,192,213173,1,0,0:0:0:50:snare-m.wav
192,192,213173,1,0,0:0:0:0:
64,192,213258,1,0,0:0:0:50:snare-m.wav
192,192,213258,1,0,0:0:0:0:
320,192,213343,1,0,0:0:0:70:kickdrum.wav
448,192,213343,1,0,0:0:0:0:
192,192,213427,1,0,0:0:0:50:snare-m.wav
64,192,213512,1,0,0:0:0:50:cymbal-3s.wav
320,192,213512,1,0,0:0:0:70:kickdrum.wav
448,192,213512,1,0,0:0:0:0:
192,192,213597,1,0,0:0:0:0:
64,192,213682,1,0,0:0:0:50:snare-m.wav
448,192,213682,1,0,0:0:0:0:
192,192,213766,1,0,0:0:0:70:kickdrum.wav
320,192,213766,1,0,0:0:0:0:
448,192,213851,1,0,0:0:0:0:
64,192,213936,1,0,0:0:0:0:
192,192,214021,1,0,0:0:0:50:cymbal-3s.wav
320,192,214021,1,0,0:0:0:70:kickdrum.wav
448,192,214021,1,0,0:0:0:0:
64,192,214105,1,0,0:0:0:0:
320,192,214190,1,0,0:0:0:50:snare-m.wav
448,192,214190,1,0,0:0:0:0:
320,192,214275,1,0,0:0:0:50:snare-m.wav
448,192,214275,1,0,0:0:0:0:
64,192,214360,1,0,0:0:0:70:kickdrum.wav
192,192,214360,1,0,0:0:0:0:
320,192,214444,1,0,0:0:0:50:snare-m.wav
64,192,214529,1,0,0:0:0:50:cymbal-3s.wav
192,192,214529,1,0,0:0:0:70:kickdrum.wav
448,192,214529,1,0,0:0:0:0:
64,192,214698,1,0,0:0:0:50:cymbal-3s.wav
192,192,214698,1,0,0:0:0:70:kickdrum.wav
448,192,214698,1,0,0:0:0:0:
320,192,214783,1,0,0:0:0:0:
64,192,214868,1,0,0:0:0:50:cymbal-3s.wav
192,192,214868,1,0,0:0:0:70:kickdrum.wav
448,192,214868,1,0,0:0:0:0:
320,192,214953,1,0,0:0:0:0:
64,192,215037,1,0,0:0:0:50:cymbal-3s.wav
192,192,215037,1,0,0:0:0:70:kickdrum.wav
448,192,215037,1,0,0:0:0:0:
320,192,215122,1,0,0:0:0:0:
64,192,215207,1,0,0:0:0:50:cymbal-3s.wav
192,192,215207,1,0,0:0:0:70:kickdrum.wav
448,192,215292,1,0,0:0:0:0:
64,192,215376,1,0,0:0:0:50:cymbal-3s.wav
192,192,215376,1,0,0:0:0:70:kickdrum.wav
320,192,215376,1,0,0:0:0:0:
448,192,215461,1,0,0:0:0:0:
64,192,215546,128,0,215715:0:0:0:70:kickdrum.wav
192,192,215546,128,0,215631:0:0:0:0:
320,192,215546,1,0,0:0:0:0:
448,192,215715,1,0,0:0:0:0:
320,192,215772,1,0,0:0:0:0:
192,192,215828,1,0,0:0:0:0:
448,192,215885,1,0,0:0:0:0:
64,192,215941,1,0,0:0:0:0:
192,192,215998,1,0,0:0:0:0:
320,192,216054,1,0,0:0:0:0:
64,192,216111,1,0,0:0:0:0:
448,192,216167,1,0,0:0:0:0:
320,192,216224,1,0,0:0:0:0:
64,192,216280,1,0,0:0:0:0:
192,192,216337,1,0,0:0:0:0:
320,192,216393,1,0,0:0:0:0:
64,192,216450,1,0,0:0:0:0:
192,192,216506,1,0,0:0:0:0:
64,192,216563,1,0,0:0:0:50:cymbal-3s.wav
320,192,216563,1,0,0:0:0:70:kickdrum.wav
448,192,216563,1,0,0:0:0:0:
192,192,216648,1,0,0:0:0:0:
320,192,216732,1,0,0:0:0:0:
64,192,216817,1,0,0:0:0:30:snare-hard.wav
192,192,216817,1,0,0:0:0:0:
448,192,216902,1,0,0:0:0:0:
64,192,216987,1,0,0:0:0:70:Kick1.wav
192,192,216987,1,0,0:0:0:0:
320,192,217071,1,0,0:0:0:70:kickdrum.wav
448,192,217071,1,0,0:0:0:0:
64,192,217156,1,0,0:0:0:0:
192,192,217156,1,0,0:0:0:0:
320,192,217241,1,0,0:0:0:30:snare-hard.wav
448,192,217241,1,0,0:0:0:0:
192,192,217326,1,0,0:0:0:0:
64,192,217410,1,0,0:0:0:0:
448,192,217410,1,0,0:0:0:0:
320,192,217495,1,0,0:0:0:0:
64,192,217580,1,0,0:0:0:70:kickdrum.wav
192,192,217580,1,0,0:0:0:0:
448,192,217665,1,0,0:0:0:0:
192,192,217749,1,0,0:0:0:0:
320,192,217834,1,0,0:0:0:30:snare-hard.wav
448,192,217834,1,0,0:0:0:0:
64,192,217919,1,0,0:0:0:0:
192,192,218004,1,0,0:0:0:70:Kick1.wav
320,192,218004,1,0,0:0:0:0:
64,192,218088,1,0,0:0:0:70:kickdrum.wav
448,192,218088,1,0,0:0:0:0:
192,192,218173,1,0,0:0:0:70:kickdrum.wav
320,192,218173,1,0,0:0:0:0:
64,192,218258,1,0,0:0:0:30:snare-hard.wav
448,192,218258,1,0,0:0:0:0:
192,192,218343,1,0,0:0:0:0:
448,192,218427,1,0,0:0:0:0:
320,192,218470,1,0,0:0:0:0:
64,192,218512,1,0,0:0:0:0:
192,192,218554,1,0,0:0:0:0:
320,192,218597,1,0,0:0:0:70:kickdrum.wav
448,192,218597,1,0,0:0:0:0:
192,192,218682,1,0,0:0:0:0:
320,192,218766,1,0,0:0:0:0:
64,192,218851,1,0,0:0:0:30:snare-hard.wav
192,192,218851,1,0,0:0:0:0:
448,192,218936,1,0,0:0:0:0:
320,192,218992,1,0,0:0:0:0:
192,192,219049,1,0,0:0:0:0:
320,192,219105,1,0,0:0:0:70:kickdrum.wav
448,192,219105,1,0,0:0:0:0:
64,192,219190,1,0,0:0:0:0:
192,192,219275,1,0,0:0:0:30:snare-hard.wav
448,192,219275,1,0,0:0:0:0:
320,192,219360,1,0,0:0:0:0:
64,192,219444,1,0,0:0:0:0:
192,192,219529,1,0,0:0:0:0:
320,192,219614,1,0,0:0:0:70:kickdrum.wav
448,192,219614,1,0,0:0:0:0:
64,192,219698,1,0,0:0:0:0:
448,192,219783,1,0,0:0:0:0:
64,192,219868,1,0,0:0:0:30:snare-hard.wav
192,192,219868,1,0,0:0:0:0:
320,192,219953,1,0,0:0:0:0:
448,192,220037,1,0,0:0:0:0:
64,192,220122,1,0,0:0:0:70:kickdrum.wav
192,192,220122,1,0,0:0:0:0:
320,192,220207,1,0,0:0:0:70:kickdrum.wav
448,192,220207,1,0,0:0:0:0:
64,192,220292,1,0,0:0:0:30:snare-hard.wav
192,192,220292,1,0,0:0:0:0:
448,192,220376,1,0,0:0:0:0:
64,192,220405,1,0,0:0:0:30:snare-hard.wav
192,192,220405,1,0,0:0:0:0:
320,192,220461,1,0,0:0:0:0:
64,192,220518,1,0,0:0:0:30:snare-hard.wav
192,192,220518,1,0,0:0:0:0:
448,192,220546,1,0,0:0:0:0:
64,192,220631,1,0,0:0:0:70:kickdrum.wav
192,192,220631,1,0,0:0:0:0:
320,192,220715,1,0,0:0:0:0:
64,192,220800,1,0,0:0:0:0:
320,192,220885,1,0,0:0:0:30:snare-hard.wav
448,192,220885,1,0,0:0:0:0:
192,192,220970,1,0,0:0:0:0:
320,192,221054,1,0,0:0:0:70:Kick1.wav
448,192,221054,1,0,0:0:0:0:
64,192,221139,1,0,0:0:0:70:kickdrum.wav
192,192,221139,1,0,0:0:0:0:
320,192,221224,1,0,0:0:0:0:
448,192,221224,1,0,0:0:0:0:
64,192,221309,1,0,0:0:0:30:snare-hard.wav
192,192,221309,1,0,0:0:0:0:
320,192,221393,1,0,0:0:0:0:
64,192,221478,1,0,0:0:0:0:
448,192,221478,1,0,0:0:0:0:
192,192,221563,1,0,0:0:0:0:
320,192,221648,1,0,0:0:0:70:kickdrum.wav
448,192,221648,1,0,0:0:0:0:
64,192,221732,1,0,0:0:0:0:
320,192,221817,1,0,0:0:0:0:
64,192,221902,1,0,0:0:0:30:snare-hard.wav
192,192,221902,1,0,0:0:0:0:
448,192,221987,1,0,0:0:0:0:
64,192,222071,1,0,0:0:0:70:Kick1.wav
192,192,222071,1,0,0:0:0:0:
320,192,222156,1,0,0:0:0:70:kickdrum.wav
448,192,222156,1,0,0:0:0:0:
64,192,222241,1,0,0:0:0:70:kickdrum.wav
192,192,222241,1,0,0:0:0:0:
320,192,222326,1,0,0:0:0:30:snare-hard.wav
448,192,222326,1,0,0:0:0:0:
192,192,222410,1,0,0:0:0:0:
448,192,222495,1,0,0:0:0:0:
320,192,222537,1,0,0:0:0:0:
64,192,222580,1,0,0:0:0:0:
192,192,222622,1,0,0:0:0:0:
320,192,222665,1,0,0:0:0:70:kickdrum.wav
448,192,222665,1,0,0:0:0:0:
64,192,222749,1,0,0:0:0:0:
320,192,222834,1,0,0:0:0:0:
64,192,222919,1,0,0:0:0:30:snare-hard.wav
192,192,222919,1,0,0:0:0:0:
448,192,223004,1,0,0:0:0:0:
192,192,223088,1,0,0:0:0:70:Kick1.wav
320,192,223088,1,0,0:0:0:0:
64,192,223173,1,0,0:0:0:70:kickdrum.wav
448,192,223173,1,0,0:0:0:0:
320,192,223258,1,0,0:0:0:0:
64,192,223343,1,0,0:0:0:30:snare-hard.wav
192,192,223343,1,0,0:0:0:0:
448,192,223427,1,0,0:0:0:0:
192,192,223512,1,0,0:0:0:0:
320,192,223512,1,0,0:0:0:0:
64,192,223597,1,0,0:0:0:0:
320,192,223682,1,0,0:0:0:70:kickdrum.wav
448,192,223682,1,0,0:0:0:0:
64,192,223738,1,0,0:0:0:70:kickdrum.wav
192,192,223738,1,0,0:0:0:0:
320,192,223795,1,0,0:0:0:70:kickdrum.wav
448,192,223795,1,0,0:0:0:0:
64,192,223851,1,0,0:0:0:30:snare-hard.wav
192,192,223851,1,0,0:0:0:0:
448,192,223936,1,0,0:0:0:70:Kick1.wav
64,192,224021,1,0,0:0:0:30:snare-hard.wav
320,192,224021,1,0,0:0:0:0:
192,192,224105,1,0,0:0:0:0:
320,192,224190,1,0,0:0:0:70:kickdrum.wav
448,192,224190,1,0,0:0:0:0:
64,192,224247,1,0,0:0:0:70:kickdrum.wav
192,192,224247,1,0,0:0:0:0:
320,192,224303,1,0,0:0:0:70:kickdrum.wav
448,192,224303,1,0,0:0:0:0:
64,192,224360,1,0,0:0:0:30:snare-hard.wav
192,192,224360,1,0,0:0:0:0:
320,192,224444,1,0,0:0:0:70:Kick1.wav
192,192,224487,1,0,0:0:0:70:Kick1.wav
64,192,224529,1,0,0:0:0:30:snare-hard.wav
448,192,224529,1,0,0:0:0:0:
320,192,224571,1,0,0:0:0:0:
192,192,224614,1,0,0:0:0:0:
64,192,224656,1,0,0:0:0:0:
320,192,224698,1,0,0:0:0:70:kickdrum.wav
448,192,224698,1,0,0:0:0:0:
64,192,224783,1,0,0:0:0:70:Kick1.wav
192,192,224783,1,0,0:0:0:0:
320,192,224868,1,0,0:0:0:70:Kick1.wav
448,192,224868,1,0,0:0:0:0:
64,192,224953,1,0,0:0:0:30:snare-hard.wav
192,192,224953,1,0,0:0:0:0:
320,192,225037,1,0,0:0:0:0:
64,192,225122,1,0,0:0:0:70:Kick1.wav
448,192,225122,1,0,0:0:0:0:
192,192,225207,1,0,0:0:0:70:kickdrum.wav
320,192,225207,1,0,0:0:0:0:
64,192,225292,1,0,0:0:0:0:
448,192,225292,1,0,0:0:0:0:
192,192,225376,1,0,0:0:0:30:snare-hard.wav
320,192,225376,1,0,0:0:0:0:
64,192,225461,1,0,0:0:0:0:
192,192,225546,1,0,0:0:0:0:
448,192,225546,1,0,0:0:0:0:
320,192,225631,1,0,0:0:0:0:
64,192,225715,1,0,0:0:0:70:kickdrum.wav
192,192,225715,1,0,0:0:0:0:
448,192,225800,1,0,0:0:0:0:
192,192,225885,1,0,0:0:0:0:
320,192,225970,1,0,0:0:0:30:snare-hard.wav
448,192,225970,1,0,0:0:0:0:
64,192,226054,1,0,0:0:0:0:
192,192,226139,1,0,0:0:0:70:Kick1.wav
320,192,226139,1,0,0:0:0:0:
64,192,226224,1,0,0:0:0:70:kickdrum.wav
448,192,226224,1,0,0:0:0:0:
192,192,226309,1,0,0:0:0:70:kickdrum.wav
320,192,226309,1,0,0:0:0:0:
64,192,226393,1,0,0:0:0:30:snare-hard.wav
448,192,226393,1,0,0:0:0:0:
320,192,226478,1,0,0:0:0:0:
64,192,226563,1,0,0:0:0:0:
448,192,226563,1,0,0:0:0:0:
192,192,226605,1,0,0:0:0:0:
320,192,226648,1,0,0:0:0:0:
64,192,226690,1,0,0:0:0:0:
192,192,226732,1,0,0:0:0:70:kickdrum.wav
448,192,226732,1,0,0:0:0:0:
320,192,226775,1,0,0:0:0:0:
64,192,226817,1,0,0:0:0:0:
192,192,226860,1,0,0:0:0:0:
320,192,226902,1,0,0:0:0:0:
448,192,226902,1,0,0:0:0:0:
64,192,226987,1,0,0:0:0:30:snare-hard.wav
192,192,226987,1,0,0:0:0:0:
320,192,227071,1,0,0:0:0:0:
64,192,227156,1,0,0:0:0:70:Kick1.wav
448,192,227156,1,0,0:0:0:0:
192,192,227241,1,0,0:0:0:70:kickdrum.wav
320,192,227241,1,0,0:0:0:0:
448,192,227326,1,0,0:0:0:0:
64,192,227410,1,0,0:0:0:30:snare-hard.wav
192,192,227410,1,0,0:0:0:0:
320,192,227495,1,0,0:0:0:0:
64,192,227580,1,0,0:0:0:0:
448,192,227580,1,0,0:0:0:0:
320,192,227665,1,0,0:0:0:0:
64,192,227749,1,0,0:0:0:70:kickdrum.wav
192,192,227749,1,0,0:0:0:0:
448,192,227806,1,0,0:0:0:0:
320,192,227862,1,0,0:0:0:0:
192,192,227919,1,0,0:0:0:0:
64,192,228004,1,0,0:0:0:30:snare-hard.wav
448,192,228004,1,0,0:0:0:0:
320,192,228088,1,0,0:0:0:0:
64,192,228173,1,0,0:0:0:70:kickdrum.wav
192,192,228215,1,0,0:0:0:70:kickdrum.wav
320,192,228258,1,0,0:0:0:70:kickdrum.wav
448,192,228258,1,0,0:0:0:0:
64,192,228343,1,0,0:0:0:70:kickdrum.wav
192,192,228343,1,0,0:0:0:0:
320,192,228427,1,0,0:0:0:30:snare-hard.wav
448,192,228427,1,0,0:0:0:0:
64,192,228484,1,0,0:0:0:30:snare-hard.wav
192,192,228484,1,0,0:0:0:0:
320,192,228540,1,0,0:0:0:30:snare-hard.wav
448,192,228540,1,0,0:0:0:0:
64,192,228597,1,0,0:0:0:30:snare-hard.wav
192,192,228597,1,0,0:0:0:0:
320,192,228653,1,0,0:0:0:30:snare-hard.wav
448,192,228653,1,0,0:0:0:0:
64,192,228710,1,0,0:0:0:30:snare-hard.wav
192,192,228710,1,0,0:0:0:0:
320,192,228766,1,0,0:0:0:70:kickdrum.wav
448,192,228766,1,0,0:0:0:0:
64,192,228851,1,0,0:0:0:0:
320,192,228936,1,0,0:0:0:0:
64,192,229021,1,0,0:0:0:30:snare-hard.wav
192,192,229021,1,0,0:0:0:0:
448,192,229105,1,0,0:0:0:0:
64,192,229190,1,0,0:0:0:70:Kick1.wav
192,192,229190,1,0,0:0:0:0:
320,192,229275,1,0,0:0:0:70:kickdrum.wav
448,192,229275,1,0,0:0:0:0:
64,192,229360,1,0,0:0:0:0:
320,192,229444,1,0,0:0:0:30:snare-hard.wav
448,192,229444,1,0,0:0:0:0:
192,192,229529,1,0,0:0:0:0:
64,192,229614,1,0,0:0:0:0:
448,192,229614,1,0,0:0:0:0:
320,192,229698,1,0,0:0:0:0:
64,192,229783,1,0,0:0:0:70:kickdrum.wav
192,192,229783,1,0,0:0:0:0:
448,192,229868,1,0,0:0:0:0:
192,192,229953,1,0,0:0:0:0:
320,192,230037,1,0,0:0:0:30:snare-hard.wav
448,192,230037,1,0,0:0:0:0:
64,192,230122,1,0,0:0:0:0:
320,192,230207,1,0,0:0:0:70:Kick1.wav
448,192,230207,1,0,0:0:0:0:
64,192,230292,1,0,0:0:0:70:kickdrum.wav
192,192,230292,1,0,0:0:0:0:
320,192,230376,1,0,0:0:0:70:kickdrum.wav
448,192,230376,1,0,0:0:0:0:
64,192,230461,1,0,0:0:0:30:snare-hard.wav
192,192,230461,1,0,0:0:0:0:
320,192,230546,1,0,0:0:0:0:
448,192,230631,1,0,0:0:0:0:
64,192,230673,1,0,0:0:0:0:
192,192,230715,1,0,0:0:0:0:
320,192,230758,1,0,0:0:0:0:
64,192,230800,1,0,0:0:0:70:kickdrum.wav
448,192,230800,1,0,0:0:0:0:
192,192,230885,1,0,0:0:0:0:
448,192,230927,1,0,0:0:0:0:
64,192,230970,1,0,0:0:0:0:
320,192,231054,1,0,0:0:0:30:snare-hard.wav
448,192,231054,1,0,0:0:0:0:
192,192,231139,1,0,0:0:0:0:
320,192,231224,1,0,0:0:0:70:Kick1.wav
448,192,231224,1,0,0:0:0:0:
64,192,231309,1,0,0:0:0:70:kickdrum.wav
192,192,231309,1,0,0:0:0:0:
320,192,231365,1,0,0:0:0:70:kickdrum.wav
448,192,231365,1,0,0:0:0:0:
64,192,231422,1,0,0:0:0:70:kickdrum.wav
192,192,231422,1,0,0:0:0:0:
320,192,231478,1,0,0:0:0:30:snare-hard.wav
448,192,231478,1,0,0:0:0:0:
192,192,231563,1,0,0:0:0:0:
448,192,231648,1,0,0:0:0:0:
64,192,231648,1,0,0:0:0:0:
320,192,231732,1,0,0:0:0:0:
64,192,231817,1,0,0:0:0:70:kickdrum.wav
192,192,231817,1,0,0:0:0:0:
320,192,231902,1,0,0:0:0:30:snare-hard.wav
448,192,231902,1,0,0:0:0:0:
320,192,231987,1,0,0:0:0:30:snare-hard.wav
448,192,231987,1,0,0:0:0:0:
64,192,232071,1,0,0:0:0:70:kickdrum.wav
192,192,232071,1,0,0:0:0:0:
320,192,232156,1,0,0:0:0:30:snare-hard.wav
448,192,232156,1,0,0:0:0:0:
64,192,232241,1,0,0:0:0:70:kickdrum.wav
192,192,232241,1,0,0:0:0:0:
320,192,232283,1,0,0:0:0:70:kickdrum.wav
448,192,232326,1,0,0:0:0:70:kickdrum.wav
64,192,232354,1,0,0:0:0:70:kickdrum.wav
192,192,232382,1,0,0:0:0:70:kickdrum.wav
320,192,232410,1,0,0:0:0:30:snare-hard.wav
448,192,232410,1,0,0:0:0:0:
64,192,232495,1,0,0:0:0:70:kickdrum.wav
192,192,232495,1,0,0:0:0:0:
320,192,232580,1,0,0:0:0:70:kickdrum.wav
448,192,232580,1,0,0:0:0:0:
64,192,232665,1,0,0:0:0:30:snare-hard.wav
192,192,232665,1,0,0:0:0:0:
320,192,232749,1,0,0:0:0:30:snare-hard.wav
64,192,232834,1,0,0:0:0:50:cymbal-3s.wav
448,192,232834,1,0,0:0:0:70:kickdrum.wav
192,192,232919,1,0,0:0:0:0:
320,192,233004,1,0,0:0:0:70:Kick1.wav
448,192,233004,1,0,0:0:0:0:
64,192,233088,1,0,0:0:0:30:snare-hard.wav
192,192,233088,1,0,0:0:0:0:
320,192,233173,1,0,0:0:0:70:Kick1.wav
448,192,233173,1,0,0:0:0:0:
64,192,233258,1,0,0:0:0:0:
192,192,233343,1,0,0:0:0:70:kickdrum.wav
320,192,233343,1,0,0:0:0:0:
64,192,233427,1,0,0:0:0:0:
448,192,233427,1,0,0:0:0:0:
192,192,233512,1,0,0:0:0:30:snare-hard.wav
320,192,233512,1,0,0:0:0:0:
448,192,233597,1,0,0:0:0:0:
64,192,233682,1,0,0:0:0:0:
320,192,233682,1,0,0:0:0:0:
192,192,233766,1,0,0:0:0:0:
64,192,233851,1,0,0:0:0:70:kickdrum.wav
448,192,233851,1,0,0:0:0:0:
320,192,233936,1,0,0:0:0:0:
64,192,234021,1,0,0:0:0:0:
192,192,234021,1,0,0:0:0:0:
320,192,234105,1,0,0:0:0:30:snare-hard.wav
448,192,234105,1,0,0:0:0:0:
64,192,234190,1,0,0:0:0:0:
192,192,234218,1,0,0:0:0:0:
448,192,234247,1,0,0:0:0:0:
320,192,234275,1,0,0:0:0:70:Kick1.wav
64,192,234317,1,0,0:0:0:0:
192,192,234360,1,0,0:0:0:70:kickdrum.wav
448,192,234360,1,0,0:0:0:0:
320,192,234416,1,0,0:0:0:0:
64,192,234472,1,0,0:0:0:0:
192,192,234529,1,0,0:0:0:30:snare-hard.wav
448,192,234529,1,0,0:0:0:0:
320,192,234585,1,0,0:0:0:0:
192,192,234642,1,0,0:0:0:0:
64,192,234698,1,0,0:0:0:0:
448,192,234698,1,0,0:0:0:0:
320,192,234755,1,0,0:0:0:0:
192,192,234811,1,0,0:0:0:0:
320,192,234868,1,0,0:0:0:70:kickdrum.wav
448,192,234868,1,0,0:0:0:0:
64,192,234924,1,0,0:0:0:0:
192,192,234981,1,0,0:0:0:0:
448,192,235037,1,0,0:0:0:0:
320,192,235094,1,0,0:0:0:0:
192,192,235150,1,0,0:0:0:0:
448,192,235207,1,0,0:0:0:0:
320,192,235263,1,0,0:0:0:0:
192,192,235320,1,0,0:0:0:0:
64,192,235376,1,0,0:0:0:70:kickdrum.wav
448,192,235376,1,0,0:0:0:0:
192,192,235433,1,0,0:0:0:0:
320,192,235489,1,0,0:0:0:0:
64,192,235546,1,0,0:0:0:30:snare-hard.wav
448,192,235546,1,0,0:0:0:0:
192,192,235631,1,0,0:0:0:0:
320,192,235715,1,0,0:0:0:0:
448,192,235715,1,0,0:0:0:0:
64,192,235800,1,0,0:0:0:0:
192,192,235885,1,0,0:0:0:70:kickdrum.wav
320,192,235885,1,0,0:0:0:0:
448,192,235970,1,0,0:0:0:0:
192,192,236054,1,0,0:0:0:0:
320,192,236139,1,0,0:0:0:30:snare-hard.wav
448,192,236139,1,0,0:0:0:0:
64,192,236224,1,0,0:0:0:0:
192,192,236309,1,0,0:0:0:0:
320,192,236393,1,0,0:0:0:70:kickdrum.wav
448,192,236393,1,0,0:0:0:0:
64,192,236478,1,0,0:0:0:70:kickdrum.wav
192,192,236478,1,0,0:0:0:0:
320,192,236563,1,0,0:0:0:30:snare-hard.wav
448,192,236563,1,0,0:0:0:0:
64,192,236648,1,0,0:0:0:0:
320,192,236676,1,0,0:0:0:30:snare-hard.wav
448,192,236676,1,0,0:0:0:0:
192,192,236732,1,0,0:0:0:0:
320,192,236789,1,0,0:0:0:30:snare-hard.wav
448,192,236789,1,0,0:0:0:0:
64,192,236817,1,0,0:0:0:0:
320,192,236902,1,0,0:0:0:70:kickdrum.wav
448,192,236902,1,0,0:0:0:0:
192,192,236987,1,0,0:0:0:0:
320,192,237071,1,0,0:0:0:0:
64,192,237156,1,0,0:0:0:30:snare-hard.wav
192,192,237156,1,0,0:0:0:0:
448,192,237241,1,0,0:0:0:0:
64,192,237326,1,0,0:0:0:70:Kick1.wav
192,192,237326,1,0,0:0:0:0:
320,192,237410,1,0,0:0:0:70:kickdrum.wav
448,192,237410,1,0,0:0:0:0:
64,192,237495,1,0,0:0:0:0:
192,192,237495,1,0,0:0:0:0:
320,192,237580,1,0,0:0:0:30:snare-hard.wav
448,192,237580,1,0,0:0:0:0:
64,192,237665,1,0,0:0:0:0:
192,192,237749,1,0,0:0:0:0:
448,192,237749,1,0,0:0:0:0:
320,192,237834,1,0,0:0:0:0:
64,192,237919,1,0,0:0:0:70:kickdrum.wav
192,192,237919,1,0,0:0:0:0:
448,192,238004,1,0,0:0:0:0:
64,192,238088,1,0,0:0:0:0:
192,192,238088,1,0,0:0:0:0:
320,192,238173,1,0,0:0:0:30:snare-hard.wav
448,192,238173,1,0,0:0:0:0:
64,192,238258,1,0,0:0:0:0:
320,192,238343,1,0,0:0:0:70:Kick1.wav
448,192,238343,1,0,0:0:0:0:
64,192,238427,1,0,0:0:0:70:kickdrum.wav
192,192,238427,1,0,0:0:0:0:
320,192,238512,1,0,0:0:0:70:kickdrum.wav
448,192,238512,1,0,0:0:0:0:
64,192,238597,1,0,0:0:0:30:snare-hard.wav
192,192,238597,1,0,0:0:0:0:
448,192,238682,1,0,0:0:0:0:
64,192,238766,1,0,0:0:0:0:
192,192,238809,1,0,0:0:0:0:
320,192,238851,1,0,0:0:0:0:
448,192,238893,1,0,0:0:0:0:
64,192,238936,1,0,0:0:0:70:kickdrum.wav
192,192,238936,1,0,0:0:0:0:
320,192,239021,1,0,0:0:0:0:
64,192,239105,1,0,0:0:0:0:
448,192,239105,1,0,0:0:0:0:
192,192,239190,1,0,0:0:0:30:snare-hard.wav
320,192,239190,1,0,0:0:0:0:
64,192,239275,1,0,0:0:0:0:
320,192,239360,1,0,0:0:0:70:Kick1.wav
448,192,239360,1,0,0:0:0:0:
64,192,239444,1,0,0:0:0:70:kickdrum.wav
192,192,239444,1,0,0:0:0:0:
448,192,239529,1,0,0:0:0:0:
64,192,239614,1,0,0:0:0:30:snare-hard.wav
192,192,239614,1,0,0:0:0:0:
320,192,239698,1,0,0:0:0:0:
64,192,239783,1,0,0:0:0:0:
448,192,239868,1,0,0:0:0:0:
64,192,239953,1,0,0:0:0:70:kickdrum.wav
192,192,239953,1,0,0:0:0:70:Kick1.wav
320,192,240009,1,0,0:0:0:70:kickdrum.wav
448,192,240009,1,0,0:0:0:0:
64,192,240066,1,0,0:0:0:70:kickdrum.wav
192,192,240066,1,0,0:0:0:0:
320,192,240122,1,0,0:0:0:30:snare-hard.wav
448,192,240122,1,0,0:0:0:0:
64,192,240207,1,0,0:0:0:70:Kick1.wav
192,192,240292,1,0,0:0:0:30:snare-hard.wav
448,192,240292,1,0,0:0:0:0:
320,192,240376,1,0,0:0:0:0:
64,192,240461,1,0,0:0:0:70:kickdrum.wav
192,192,240461,1,0,0:0:0:0:
320,192,240518,1,0,0:0:0:70:kickdrum.wav
448,192,240518,1,0,0:0:0:0:
64,192,240574,1,0,0:0:0:70:kickdrum.wav
192,192,240574,1,0,0:0:0:0:
320,192,240631,1,0,0:0:0:30:snare-hard.wav
448,192,240631,1,0,0:0:0:0:
64,192,240673,1,0,0:0:0:0:
192,192,240715,1,0,0:0:0:70:Kick1.wav
320,192,240758,1,0,0:0:0:70:Kick1.wav
64,192,240800,1,0,0:0:0:30:snare-hard.wav
448,192,240800,1,0,0:0:0:0:
192,192,240843,1,0,0:0:0:0:
320,192,240885,1,0,0:0:0:0:
448,192,240927,1,0,0:0:0:0:
64,192,240970,1,0,0:0:0:70:kickdrum.wav
192,192,240970,1,0,0:0:0:0:
320,192,241054,1,0,0:0:0:70:Kick1.wav
448,192,241054,1,0,0:0:0:0:
64,192,241139,1,0,0:0:0:70:Kick1.wav
192,192,241139,1,0,0:0:0:0:
320,192,241224,1,0,0:0:0:30:snare-hard.wav
448,192,241224,1,0,0:0:0:0:
64,192,241309,1,0,0:0:0:0:
192,192,241393,1,0,0:0:0:70:Kick1.wav
320,192,241393,1,0,0:0:0:0:
64,192,241478,1,0,0:0:0:70:kickdrum.wav
448,192,241478,1,0,0:0:0:0:
192,192,241563,1,0,0:0:0:0:
320,192,241563,1,0,0:0:0:0:
64,192,241648,1,0,0:0:0:30:snare-hard.wav
448,192,241648,1,0,0:0:0:0:
192,192,241732,1,0,0:0:0:0:
320,192,241775,1,0,0:0:0:0:
448,192,241817,1,0,0:0:0:0:
64,192,241902,1,0,0:0:0:0:
192,192,241944,1,0,0:0:0:0:
320,192,241987,1,0,0:0:0:70:kickdrum.wav
448,192,241987,1,0,0:0:0:0:
64,192,242043,1,0,0:0:0:0:
192,192,242100,1,0,0:0:0:0:
320,192,242156,1,0,0:0:0:0:
448,192,242156,1,0,0:0:0:0:
192,192,242213,1,0,0:0:0:0:
320,192,242269,1,0,0:0:0:0:
448,192,242326,1,0,0:0:0:0:
192,192,242382,1,0,0:0:0:0:
64,192,242439,1,0,0:0:0:0:
320,192,242495,1,0,0:0:0:70:kickdrum.wav
448,192,242495,1,0,0:0:0:0:
192,192,242580,1,0,0:0:0:70:kickdrum.wav
64,192,242622,1,0,0:0:0:0:
320,192,242665,1,0,0:0:0:30:snare-hard.wav
448,192,242665,1,0,0:0:0:0:
192,192,242749,1,0,0:0:0:0:
320,192,242792,1,0,0:0:0:0:
64,192,242834,1,0,0:0:0:0:
448,192,242834,1,0,0:0:0:0:
192,192,242876,1,0,0:0:0:0:
320,192,242919,1,0,0:0:0:0:
448,192,242961,1,0,0:0:0:0:
64,192,243004,128,0,243258:0:0:0:70:kickdrum.wav
192,192,243004,1,0,0:0:0:0:
320,192,243088,1,0,0:0:0:0:
192,192,243173,1,0,0:0:0:0:
320,192,243258,1,0,0:0:0:30:snare-hard.wav
448,192,243258,1,0,0:0:0:0:
192,192,243314,1,0,0:0:0:0:
448,192,243371,1,0,0:0:0:0:
64,192,243427,1,0,0:0:0:70:Kick1.wav
192,192,243427,1,0,0:0:0:0:
320,192,243512,1,0,0:0:0:70:kickdrum.wav
448,192,243512,1,0,0:0:0:0:
192,192,243597,1,0,0:0:0:0:
64,192,243682,1,0,0:0:0:30:snare-hard.wav
448,192,243682,1,0,0:0:0:0:
320,192,243766,1,0,0:0:0:0:
64,192,243851,1,0,0:0:0:0:
192,192,243851,1,0,0:0:0:0:
448,192,243936,1,0,0:0:0:0:
64,192,244021,1,0,0:0:0:70:kickdrum.wav
320,192,244021,1,0,0:0:0:0:
192,192,244105,1,0,0:0:0:0:
448,192,244190,1,0,0:0:0:0:
192,192,244275,1,0,0:0:0:30:snare-hard.wav
320,192,244275,1,0,0:0:0:0:
64,192,244360,1,0,0:0:0:0:
448,192,244444,1,0,0:0:0:70:kickdrum.wav
320,192,244487,1,0,0:0:0:70:kickdrum.wav
64,192,244529,1,0,0:0:0:70:kickdrum.wav
192,192,244529,1,0,0:0:0:0:
320,192,244614,1,0,0:0:0:70:kickdrum.wav
448,192,244614,1,0,0:0:0:0:
64,192,244698,1,0,0:0:0:30:snare-hard.wav
192,192,244698,1,0,0:0:0:0:
320,192,244755,1,0,0:0:0:30:snare-hard.wav
448,192,244755,1,0,0:0:0:0:
64,192,244811,1,0,0:0:0:30:snare-hard.wav
192,192,244811,1,0,0:0:0:0:
320,192,244868,1,0,0:0:0:30:snare-hard.wav
448,192,244868,1,0,0:0:0:0:
64,192,244924,1,0,0:0:0:30:snare-hard.wav
192,192,244924,1,0,0:0:0:0:
320,192,245037,1,0,0:0:0:70:kickdrum.wav
448,192,245037,1,0,0:0:0:0:
192,192,245122,1,0,0:0:0:0:
448,192,245207,1,0,0:0:0:0:
64,192,245292,1,0,0:0:0:30:snare-hard.wav
192,192,245292,1,0,0:0:0:0:
320,192,245376,1,0,0:0:0:0:
64,192,245461,1,0,0:0:0:70:Kick1.wav
192,192,245461,1,0,0:0:0:0:
320,192,245546,1,0,0:0:0:70:kickdrum.wav
448,192,245546,1,0,0:0:0:0:
192,192,245631,1,0,0:0:0:0:
320,192,245715,1,0,0:0:0:30:snare-hard.wav
448,192,245715,1,0,0:0:0:0:
64,192,245800,1,0,0:0:0:0:
320,192,245885,1,0,0:0:0:0:
64,192,245970,1,0,0:0:0:0:
192,192,246054,1,0,0:0:0:70:kickdrum.wav
448,192,246054,1,0,0:0:0:0:
320,192,246139,1,0,0:0:0:0:
192,192,246224,1,0,0:0:0:0:
320,192,246309,1,0,0:0:0:30:snare-hard.wav
448,192,246309,1,0,0:0:0:0:
64,192,246393,1,0,0:0:0:0:
448,192,246478,1,0,0:0:0:70:Kick1.wav
64,192,246563,1,0,0:0:0:70:kickdrum.wav
192,192,246563,1,0,0:0:0:0:
320,192,246648,1,0,0:0:0:70:kickdrum.wav
448,192,246648,1,0,0:0:0:0:
64,192,246732,1,0,0:0:0:30:snare-hard.wav
192,192,246732,1,0,0:0:0:0:
320,192,246817,1,0,0:0:0:0:
192,192,246902,1,0,0:0:0:0:
320,192,246987,1,0,0:0:0:0:
64,192,247071,1,0,0:0:0:70:kickdrum.wav
448,192,247071,1,0,0:0:0:0:
320,192,247156,1,0,0:0:0:0:
64,192,247198,1,0,0:0:0:0:
448,192,247241,1,0,0:0:0:0:
64,192,247326,1,0,0:0:0:30:snare-hard.wav
192,192,247326,1,0,0:0:0:0:
320,192,247410,1,0,0:0:0:0:
64,192,247495,1,0,0:0:0:70:Kick1.wav
192,192,247495,1,0,0:0:0:0:
320,192,247580,1,0,0:0:0:70:kickdrum.wav
448,192,247580,1,0,0:0:0:0:
64,192,247636,1,0,0:0:0:70:kickdrum.wav
192,192,247636,1,0,0:0:0:0:
320,192,247693,1,0,0:0:0:70:kickdrum.wav
448,192,247693,1,0,0:0:0:0:
64,192,247749,1,0,0:0:0:30:snare-hard.wav
192,192,247749,1,0,0:0:0:0:
320,192,247834,1,0,0:0:0:0:
64,192,247919,1,0,0:0:0:0:
448,192,247919,1,0,0:0:0:0:
192,192,248004,1,0,0:0:0:0:
320,192,248088,1,0,0:0:0:70:kickdrum.wav
448,192,248088,1,0,0:0:0:0:
64,192,248173,1,0,0:0:0:30:snare-hard.wav
192,192,248173,1,0,0:0:0:0:
64,192,248258,1,0,0:0:0:30:snare-hard.wav
192,192,248258,1,0,0:0:0:0:
320,192,248343,1,0,0:0:0:70:kickdrum.wav
448,192,248343,1,0,0:0:0:0:
64,192,248427,1,0,0:0:0:30:snare-hard.wav
192,192,248427,1,0,0:0:0:0:
320,192,248512,1,0,0:0:0:70:kickdrum.wav
448,192,248512,1,0,0:0:0:0:
192,192,248554,1,0,0:0:0:70:kickdrum.wav
64,192,248597,1,0,0:0:0:70:kickdrum.wav
448,192,248625,1,0,0:0:0:70:kickdrum.wav
320,192,248653,1,0,0:0:0:70:kickdrum.wav
64,192,248682,1,0,0:0:0:30:snare-hard.wav
192,192,248682,1,0,0:0:0:0:
320,192,248766,1,0,0:0:0:70:kickdrum.wav
448,192,248766,1,0,0:0:0:0:
64,192,248851,1,0,0:0:0:70:kickdrum.wav
192,192,248851,1,0,0:0:0:0:
320,192,248936,1,0,0:0:0:30:snare-hard.wav
448,192,248936,1,0,0:0:0:0:
192,192,249021,1,0,0:0:0:30:snare-hard.wav
320,192,249105,1,0,0:0:0:50:cymbal-3s.wav
448,192,249105,1,0,0:0:0:70:kickdrum.wav
64,192,249162,1,0,0:0:0:0:
192,192,249218,1,0,0:0:0:0:
320,192,249275,1,0,0:0:0:70:Kick1.wav
448,192,249331,1,0,0:0:0:0:
192,192,249388,1,0,0:0:0:0:
320,192,249444,1,0,0:0:0:0:
64,192,249529,1,0,0:0:0:70:Kick1.wav
192,192,249529,1,0,0:0:0:0:
320,192,249614,1,0,0:0:0:70:kickdrum.wav
448,192,249614,1,0,0:0:0:0:
64,192,249698,1,0,0:0:0:0:
192,192,249783,1,0,0:0:0:30:snare-hard.wav
320,192,249783,1,0,0:0:0:0:
448,192,249868,1,0,0:0:0:70:Kick1.wav
64,192,249953,1,0,0:0:0:70:kickdrum.wav
192,192,249953,1,0,0:0:0:0:
320,192,250037,1,0,0:0:0:70:kickdrum.wav
448,192,250037,1,0,0:0:0:0:
64,192,250122,1,0,0:0:0:70:kickdrum.wav
192,192,250122,1,0,0:0:0:0:
448,192,250179,1,0,0:0:0:0:
320,192,250235,1,0,0:0:0:0:
192,192,250292,1,0,0:0:0:70:Kick1.wav
64,192,250348,1,0,0:0:0:0:
320,192,250405,1,0,0:0:0:0:
192,192,250461,1,0,0:0:0:0:
64,192,250546,1,0,0:0:0:70:Kick1.wav
448,192,250546,1,0,0:0:0:0:
192,192,250631,1,0,0:0:0:70:kickdrum.wav
320,192,250631,1,0,0:0:0:0:
64,192,250715,1,0,0:0:0:0:
320,192,250800,1,0,0:0:0:30:snare-hard.wav
448,192,250800,1,0,0:0:0:0:
64,192,250885,1,0,0:0:0:70:kickdrum.wav
192,192,250885,1,0,0:0:0:0:
320,192,250970,1,0,0:0:0:70:kickdrum.wav
448,192,250970,1,0,0:0:0:0:
64,192,251054,1,0,0:0:0:70:kickdrum.wav
192,192,251054,1,0,0:0:0:0:
320,192,251139,1,0,0:0:0:70:kickdrum.wav
448,192,251139,1,0,0:0:0:0:
64,192,251196,1,0,0:0:0:0:
192,192,251252,1,0,0:0:0:0:
320,192,251309,1,0,0:0:0:70:Kick1.wav
448,192,251365,1,0,0:0:0:0:
192,192,251422,1,0,0:0:0:0:
320,192,251478,1,0,0:0:0:0:
64,192,251563,1,0,0:0:0:70:Kick1.wav
448,192,251563,1,0,0:0:0:0:
192,192,251648,1,0,0:0:0:70:kickdrum.wav
320,192,251648,1,0,0:0:0:0:
448,192,251732,1,0,0:0:0:0:
64,192,251817,1,0,0:0:0:30:snare-hard.wav
192,192,251817,1,0,0:0:0:0:
320,192,251902,1,0,0:0:0:70:Kick1.wav
448,192,251902,1,0,0:0:0:0:
64,192,251987,1,0,0:0:0:70:kickdrum.wav
192,192,251987,1,0,0:0:0:0:
320,192,252071,1,0,0:0:0:70:kickdrum.wav
448,192,252071,1,0,0:0:0:0:
192,192,252156,1,0,0:0:0:50:Kick_3-196.wav
192,192,252495,1,0,0:0:0:50:Kick_3-196.wav
320,192,252834,1,0,0:0:0:50:snare-m.wav
448,192,252834,1,0,0:0:0:0:
320,192,253173,1,0,0:0:0:50:cymbal-3s.wav
448,192,253173,1,0,0:0:0:70:kickdrum.wav
64,192,253230,1,0,0:0:0:0:
192,192,253286,1,0,0:0:0:0:
320,192,253343,1,0,0:0:0:70:Kick1.wav
448,192,253343,1,0,0:0:0:0:
64,192,253399,1,0,0:0:0:0:
192,192,253456,1,0,0:0:0:0:
448,192,253512,1,0,0:0:0:0:
64,192,253597,1,0,0:0:0:70:Kick1.wav
320,192,253597,1,0,0:0:0:0:
192,192,253682,1,0,0:0:0:70:kickdrum.wav
448,192,253682,1,0,0:0:0:0:
64,192,253766,1,0,0:0:0:0:
192,192,253851,1,0,0:0:0:30:snare-hard.wav
320,192,253851,1,0,0:0:0:0:
448,192,253936,1,0,0:0:0:70:Kick1.wav
64,192,254021,1,0,0:0:0:70:kickdrum.wav
192,192,254021,1,0,0:0:0:0:
320,192,254105,1,0,0:0:0:70:kickdrum.wav
448,192,254105,1,0,0:0:0:0:
64,192,254190,1,0,0:0:0:70:kickdrum.wav
192,192,254190,1,0,0:0:0:0:
448,192,254247,1,0,0:0:0:0:
320,192,254303,1,0,0:0:0:0:
64,192,254360,1,0,0:0:0:70:Kick1.wav
192,192,254360,1,0,0:0:0:0:
448,192,254416,1,0,0:0:0:0:
320,192,254472,1,0,0:0:0:0:
64,192,254529,1,0,0:0:0:0:
192,192,254614,1,0,0:0:0:70:Kick1.wav
448,192,254614,1,0,0:0:0:0:
64,192,254698,1,0,0:0:0:70:kickdrum.wav
320,192,254698,1,0,0:0:0:0:
192,192,254783,1,0,0:0:0:0:
320,192,254868,1,0,0:0:0:30:snare-hard.wav
448,192,254868,1,0,0:0:0:0:
64,192,254953,1,0,0:0:0:70:kickdrum.wav
192,192,254953,1,0,0:0:0:0:
320,192,255037,1,0,0:0:0:70:kickdrum.wav
448,192,255037,1,0,0:0:0:0:
64,192,255122,1,0,0:0:0:70:kickdrum.wav
192,192,255122,1,0,0:0:0:0:
320,192,255207,1,0,0:0:0:70:kickdrum.wav
448,192,255207,1,0,0:0:0:0:
64,192,255263,1,0,0:0:0:0:
192,192,255320,1,0,0:0:0:0:
320,192,255376,1,0,0:0:0:70:Kick1.wav
448,192,255376,1,0,0:0:0:0:
64,192,255433,1,0,0:0:0:0:
192,192,255489,1,0,0:0:0:0:
448,192,255546,1,0,0:0:0:0:
64,192,255631,1,0,0:0:0:70:Kick1.wav
320,192,255631,1,0,0:0:0:0:
192,192,255715,1,0,0:0:0:70:kickdrum.wav
448,192,255715,1,0,0:0:0:0:
320,192,255800,1,0,0:0:0:0:
64,192,255885,1,0,0:0:0:30:snare-hard.wav
192,192,255885,1,0,0:0:0:0:
320,192,255970,1,0,0:0:0:70:Kick1.wav
448,192,255970,1,0,0:0:0:0:
64,192,256054,1,0,0:0:0:70:kickdrum.wav
192,192,256054,1,0,0:0:0:0:
320,192,256139,1,0,0:0:0:70:kickdrum.wav
448,192,256139,1,0,0:0:0:0:
192,192,256224,1,0,0:0:0:50:Kick_3-196.wav
192,192,256563,1,0,0:0:0:50:Kick_3-196.wav
320,192,256732,1,0,0:0:0:50:snare-m.wav
192,192,256817,1,0,0:0:0:50:Kick_3-196.wav
320,192,256902,1,0,0:0:0:50:snare-m.wav
448,192,256902,1,0,0:0:0:0:
64,192,257241,1,0,0:0:0:50:cymbal-3s.wav
192,192,257241,1,0,0:0:0:70:kickdrum.wav
448,192,257297,1,0,0:0:0:0:
320,192,257354,1,0,0:0:0:0:
64,192,257410,1,0,0:0:0:70:kickdrum.wav
192,192,257410,1,0,0:0:0:0:
320,192,257467,1,0,0:0:0:0:
448,192,257523,1,0,0:0:0:0:
64,192,257580,1,0,0:0:0:0:
192,192,257665,1,0,0:0:0:30:snare-hard.wav
320,192,257665,1,0,0:0:0:0:
64,192,257749,1,0,0:0:0:70:kickdrum.wav
448,192,257749,1,0,0:0:0:0:
192,192,257834,1,0,0:0:0:0:
320,192,257919,1,0,0:0:0:30:snare-hard.wav
448,192,257919,1,0,0:0:0:0:
64,192,258004,1,0,0:0:0:70:Kick1.wav
320,192,258088,1,0,0:0:0:70:kickdrum.wav
448,192,258088,1,0,0:0:0:0:
64,192,258173,1,0,0:0:0:70:kickdrum.wav
192,192,258173,1,0,0:0:0:0:
320,192,258258,1,0,0:0:0:70:kickdrum.wav
448,192,258258,1,0,0:0:0:0:
64,192,258314,1,0,0:0:0:0:
192,192,258371,1,0,0:0:0:0:
320,192,258427,1,0,0:0:0:70:kickdrum.wav
448,192,258427,1,0,0:0:0:0:
192,192,258484,1,0,0:0:0:0:
64,192,258540,1,0,0:0:0:0:
448,192,258597,1,0,0:0:0:0:
192,192,258682,1,0,0:0:0:30:snare-hard.wav
320,192,258682,1,0,0:0:0:0:
64,192,258766,1,0,0:0:0:70:kickdrum.wav
448,192,258766,1,0,0:0:0:0:
320,192,258851,1,0,0:0:0:0:
64,192,258936,1,0,0:0:0:30:snare-hard.wav
192,192,258936,1,0,0:0:0:0:
320,192,259021,1,0,0:0:0:70:kickdrum.wav
448,192,259021,1,0,0:0:0:0:
64,192,259105,1,0,0:0:0:70:kickdrum.wav
192,192,259105,1,0,0:0:0:0:
320,192,259190,1,0,0:0:0:70:kickdrum.wav
448,192,259190,1,0,0:0:0:0:
64,192,259275,1,0,0:0:0:70:kickdrum.wav
192,192,259275,1,0,0:0:0:0:
448,192,259331,1,0,0:0:0:0:
320,192,259388,1,0,0:0:0:0:
64,192,259444,1,0,0:0:0:70:kickdrum.wav
192,192,259444,1,0,0:0:0:0:
320,192,259501,1,0,0:0:0:0:
448,192,259557,1,0,0:0:0:0:
64,192,259614,1,0,0:0:0:0:
192,192,259698,1,0,0:0:0:30:snare-hard.wav
320,192,259698,1,0,0:0:0:0:
64,192,259783,1,0,0:0:0:70:kickdrum.wav
448,192,259783,1,0,0:0:0:0:
320,192,259868,1,0,0:0:0:0:
64,192,259953,1,0,0:0:0:30:snare-hard.wav
192,192,259953,1,0,0:0:0:0:
320,192,260037,1,0,0:0:0:70:Kick1.wav
448,192,260037,1,0,0:0:0:0:
64,192,260122,1,0,0:0:0:70:kickdrum.wav
192,192,260122,1,0,0:0:0:0:
320,192,260207,1,0,0:0:0:70:kickdrum.wav
448,192,260207,1,0,0:0:0:0:
192,192,260292,1,0,0:0:0:50:Kick_3-196.wav
320,192,260461,1,0,0:0:0:0:
192,192,260546,1,0,0:0:0:50:Kick_3-196.wav
320,192,260715,1,0,0:0:0:50:snare-m.wav
448,192,260715,1,0,0:0:0:0:
64,192,260800,1,0,0:0:0:50:Kick_3-196.wav
192,192,260885,1,0,0:0:0:50:Kick_3-196.wav
320,192,260970,1,0,0:0:0:50:snare-m.wav
448,192,260970,1,0,0:0:0:0:
320,192,261083,1,0,0:0:0:50:snare-m.wav
448,192,261083,1,0,0:0:0:0:
320,192,261196,1,0,0:0:0:50:snare-m.wav
448,192,261196,1,0,0:0:0:0:
64,192,261309,1,0,0:0:0:50:cymbal-3s.wav
192,192,261309,1,0,0:0:0:70:kickdrum.wav
448,192,261365,1,0,0:0:0:0:
320,192,261422,1,0,0:0:0:0:
64,192,261478,1,0,0:0:0:70:kickdrum.wav
192,192,261478,1,0,0:0:0:0:
320,192,261535,1,0,0:0:0:0:
448,192,261591,1,0,0:0:0:0:
64,192,261648,1,0,0:0:0:0:
192,192,261732,1,0,0:0:0:30:snare-hard.wav
320,192,261732,1,0,0:0:0:0:
64,192,261817,1,0,0:0:0:70:kickdrum.wav
448,192,261817,1,0,0:0:0:0:
192,192,261902,1,0,0:0:0:0:
320,192,261987,1,0,0:0:0:30:snare-hard.wav
448,192,261987,1,0,0:0:0:0:
64,192,262071,1,0,0:0:0:70:kickdrum.wav
192,192,262071,1,0,0:0:0:0:
320,192,262156,1,0,0:0:0:70:kickdrum.wav
448,192,262156,1,0,0:0:0:0:
64,192,262241,1,0,0:0:0:70:kickdrum.wav
192,192,262241,1,0,0:0:0:0:
320,192,262326,1,0,0:0:0:70:kickdrum.wav
448,192,262326,1,0,0:0:0:0:
64,192,262382,1,0,0:0:0:0:
192,192,262439,1,0,0:0:0:0:
320,192,262495,1,0,0:0:0:70:kickdrum.wav
448,192,262495,1,0,0:0:0:0:
192,192,262552,1,0,0:0:0:0:
64,192,262608,1,0,0:0:0:0:
448,192,262665,1,0,0:0:0:0:
192,192,262749,1,0,0:0:0:30:snare-hard.wav
320,192,262749,1,0,0:0:0:0:
64,192,262834,1,0,0:0:0:70:kickdrum.wav
448,192,262834,1,0,0:0:0:0:
192,192,262919,1,0,0:0:0:0:
320,192,263004,1,0,0:0:0:30:snare-hard.wav
448,192,263004,1,0,0:0:0:0:
64,192,263088,1,0,0:0:0:70:kickdrum.wav
192,192,263088,1,0,0:0:0:0:
320,192,263173,1,0,0:0:0:70:kickdrum.wav
448,192,263173,1,0,0:0:0:0:
64,192,263258,1,0,0:0:0:70:kickdrum.wav
192,192,263258,1,0,0:0:0:0:
320,192,263343,1,0,0:0:0:70:kickdrum.wav
448,192,263343,1,0,0:0:0:0:
64,192,263427,1,0,0:0:0:0:
320,192,263512,1,0,0:0:0:70:kickdrum.wav
448,192,263512,1,0,0:0:0:0:
64,192,263597,1,0,0:0:0:30:snare-hard.wav
192,192,263597,1,0,0:0:0:0:
448,192,263682,1,0,0:0:0:0:
64,192,263766,1,0,0:0:0:70:kickdrum.wav
192,192,263766,1,0,0:0:0:0:
320,192,263851,1,0,0:0:0:70:Kick1.wav
448,192,263851,1,0,0:0:0:0:
64,192,263936,1,0,0:0:0:70:kickdrum.wav
192,192,263936,1,0,0:0:0:0:
320,192,264021,1,0,0:0:0:30:snare-hard.wav
448,192,264021,1,0,0:0:0:0:
64,192,264105,1,0,0:0:0:70:Kick1.wav
192,192,264105,1,0,0:0:0:0:
320,192,264190,1,0,0:0:0:70:kickdrum.wav
448,192,264190,1,0,0:0:0:0:
64,192,264275,1,0,0:0:0:70:kickdrum.wav
192,192,264275,1,0,0:0:0:0:
320,192,264360,1,0,0:0:0:30:snare-hard.wav
448,192,264360,1,0,0:0:0:0:
64,192,264444,1,0,0:0:0:70:kickdrum.wav
448,192,264444,1,0,0:0:0:0:
64,192,264529,1,0,0:0:0:70:kickdrum.wav
192,192,264529,1,0,0:0:0:0:
320,192,264614,1,0,0:0:0:30:snare-hard.wav
448,192,264614,1,0,0:0:0:0:
64,192,264698,1,0,0:0:0:70:kickdrum.wav
448,192,264698,1,0,0:0:0:0:
64,192,264783,1,0,0:0:0:70:kickdrum.wav
192,192,264783,1,0,0:0:0:0:
320,192,264868,1,0,0:0:0:30:snare-hard.wav
448,192,264868,1,0,0:0:0:0:
64,192,264953,1,0,0:0:0:70:kickdrum.wav
448,192,264953,1,0,0:0:0:0:
64,192,265037,1,0,0:0:0:70:kickdrum.wav
192,192,265037,1,0,0:0:0:0:
192,192,265122,1,0,0:0:0:70:kickdrum.wav
448,192,265122,1,0,0:0:0:0:
64,192,265207,1,0,0:0:0:70:kickdrum.wav
320,192,265207,1,0,0:0:0:0:
320,192,265292,1,0,0:0:0:70:kickdrum.wav
448,192,265292,1,0,0:0:0:0:
64,192,265376,1,0,0:0:0:50:cymbal-3s.wav
192,192,265376,1,0,0:0:0:70:kickdrum.wav
320,192,265546,1,0,0:0:0:0:
192,192,265631,1,0,0:0:0:0:
320,192,265715,1,0,0:0:0:0:
64,192,265800,1,0,0:0:0:0:
448,192,265885,1,0,0:0:0:0:
320,192,265970,1,0,0:0:0:0:
64,192,266139,1,0,0:0:0:0:
192,192,266224,1,0,0:0:0:0:
320,192,266309,1,0,0:0:0:0:
192,192,266393,1,0,0:0:0:0:
448,192,266478,1,0,0:0:0:0:
64,192,266563,1,0,0:0:0:0:
320,192,266648,1,0,0:0:0:0:
64,192,266732,1,0,0:0:0:0:
448,192,266817,1,0,0:0:0:0:
320,192,266902,1,0,0:0:0:0:
192,192,266987,1,0,0:0:0:0:
64,192,267071,1,0,0:0:0:0:
448,192,267156,1,0,0:0:0:0:
192,192,267241,1,0,0:0:0:0:
320,192,267326,1,0,0:0:0:0:
64,192,267410,1,0,0:0:0:0:
448,192,267580,1,0,0:0:0:0:
192,192,267665,1,0,0:0:0:0:
448,192,267749,1,0,0:0:0:0:
64,192,267834,1,0,0:0:0:0:
192,192,267919,1,0,0:0:0:0:
320,192,268004,1,0,0:0:0:0:
448,192,268173,1,0,0:0:0:0:
64,192,268258,1,0,0:0:0:0:
320,192,268343,1,0,0:0:0:0:
192,192,268427,1,0,0:0:0:0:
320,192,268512,1,0,0:0:0:0:
64,192,268597,1,0,0:0:0:0:
448,192,268682,1,0,0:0:0:0:
192,192,268766,1,0,0:0:0:0:
320,192,268851,1,0,0:0:0:0:
448,192,268936,1,0,0:0:0:0:
64,192,269021,1,0,0:0:0:0:
192,192,269105,1,0,0:0:0:0:
64,192,269190,1,0,0:0:0:0:
448,192,269275,1,0,0:0:0:0:
320,192,269317,1,0,0:0:0:0:
192,192,269360,1,0,0:0:0:0:
64,192,269444,1,0,0:0:0:50:cymbal-3s.wav
320,192,269444,1,0,0:0:0:70:kickdrum.wav
448,192,269444,1,0,0:0:0:0:
192,192,269614,1,0,0:0:0:0:
320,192,269698,1,0,0:0:0:0:
64,192,269783,1,0,0:0:0:50:snare-m.wav
192,192,269783,1,0,0:0:0:0:
448,192,269868,1,0,0:0:0:0:
320,192,269953,1,0,0:0:0:0:
64,192,270037,1,0,0:0:0:50:snare-m.wav
192,192,270037,1,0,0:0:0:0:
448,192,270207,1,0,0:0:0:0:
192,192,270292,1,0,0:0:0:50:snare-m.wav
320,192,270292,1,0,0:0:0:0:
64,192,270376,1,0,0:0:0:0:
320,192,270461,1,0,0:0:0:70:kickdrum.wav
448,192,270461,1,0,0:0:0:0:
192,192,270546,1,0,0:0:0:0:
64,192,270631,1,0,0:0:0:0:
320,192,270715,1,0,0:0:0:70:kickdrum.wav
448,192,270715,1,0,0:0:0:0:
64,192,270800,1,0,0:0:0:50:snare-m.wav
192,192,270800,1,0,0:0:0:0:
448,192,270885,1,0,0:0:0:0:
64,192,270970,1,0,0:0:0:70:kickdrum.wav
192,192,270970,1,0,0:0:0:0:
320,192,271054,1,0,0:0:0:0:
448,192,271139,1,0,0:0:0:0:
64,192,271224,1,0,0:0:0:50:snare-m.wav
192,192,271224,1,0,0:0:0:0:
320,192,271309,1,0,0:0:0:70:kickdrum.wav
448,192,271309,1,0,0:0:0:0:
320,192,271393,1,0,0:0:0:70:kickdrum.wav
448,192,271393,1,0,0:0:0:0:
64,192,271478,1,0,0:0:0:50:cymbal-3s.wav
192,192,271478,1,0,0:0:0:70:kickdrum.wav
448,192,271478,1,0,0:0:0:0:
192,192,271648,1,0,0:0:0:0:
64,192,271732,1,0,0:0:0:0:
320,192,271817,1,0,0:0:0:50:snare-m.wav
448,192,271817,1,0,0:0:0:0:
192,192,271902,1,0,0:0:0:0:
64,192,271987,1,0,0:0:0:0:
320,192,272071,1,0,0:0:0:50:snare-m.wav
448,192,272071,1,0,0:0:0:0:
192,192,272241,1,0,0:0:0:0:
448,192,272326,1,0,0:0:0:50:snare-m.wav
320,192,272368,1,0,0:0:0:50:snare-m.wav
64,192,272410,1,0,0:0:0:50:snare-m.wav
192,192,272453,1,0,0:0:0:50:snare-m.wav
320,192,272495,1,0,0:0:0:70:kickdrum.wav
448,192,272495,1,0,0:0:0:0:
320,192,272580,1,0,0:0:0:70:kickdrum.wav
448,192,272580,1,0,0:0:0:0:
64,192,272665,1,0,0:0:0:50:snare-m.wav
192,192,272665,1,0,0:0:0:0:
448,192,272749,1,0,0:0:0:0:
64,192,272834,1,0,0:0:0:70:kickdrum.wav
192,192,272834,1,0,0:0:0:0:
320,192,272919,1,0,0:0:0:50:snare-m.wav
448,192,272919,1,0,0:0:0:0:
64,192,273004,1,0,0:0:0:70:kickdrum.wav
192,192,273004,1,0,0:0:0:0:
320,192,273088,1,0,0:0:0:50:snare-m.wav
448,192,273088,1,0,0:0:0:0:
64,192,273173,1,0,0:0:0:70:kickdrum.wav
192,192,273173,1,0,0:0:0:0:
448,192,273215,1,0,0:0:0:0:
320,192,273258,1,0,0:0:0:70:kickdrum.wav
192,192,273343,1,0,0:0:0:50:snare-m.wav
64,192,273385,1,0,0:0:0:0:
320,192,273427,1,0,0:0:0:0:
64,192,273512,1,0,0:0:0:50:cymbal-3s.wav
192,192,273512,1,0,0:0:0:70:kickdrum.wav
448,192,273512,1,0,0:0:0:0:
64,192,273682,1,0,0:0:0:50:snare-m.wav
192,192,273682,1,0,0:0:0:0:
320,192,273766,1,0,0:0:0:70:kickdrum.wav
448,192,273766,1,0,0:0:0:0:
192,192,273851,1,0,0:0:0:0:
64,192,273936,1,0,0:0:0:50:snare-m.wav
448,192,273936,1,0,0:0:0:0:
192,192,274021,1,0,0:0:0:70:kickdrum.wav
320,192,274021,1,0,0:0:0:0:
64,192,274105,1,0,0:0:0:0:
320,192,274190,1,0,0:0:0:50:snare-m.wav
448,192,274190,1,0,0:0:0:0:
320,192,274275,1,0,0:0:0:50:snare-m.wav
448,192,274275,1,0,0:0:0:0:
64,192,274360,1,0,0:0:0:70:kickdrum.wav
192,192,274360,1,0,0:0:0:0:
320,192,274444,1,0,0:0:0:50:snare-m.wav
64,192,274529,1,0,0:0:0:50:cymbal-3s.wav
192,192,274529,1,0,0:0:0:70:kickdrum.wav
448,192,274529,1,0,0:0:0:0:
320,192,274614,1,0,0:0:0:0:
64,192,274698,1,0,0:0:0:50:snare-m.wav
448,192,274698,1,0,0:0:0:0:
192,192,274783,1,0,0:0:0:70:kickdrum.wav
320,192,274783,1,0,0:0:0:0:
64,192,274868,1,0,0:0:0:0:
448,192,274953,1,0,0:0:0:0:
64,192,275037,1,0,0:0:0:50:cymbal-3s.wav
192,192,275037,1,0,0:0:0:70:kickdrum.wav
320,192,275037,1,0,0:0:0:0:
448,192,275122,1,0,0:0:0:0:
64,192,275207,1,0,0:0:0:50:snare-m.wav
192,192,275207,1,0,0:0:0:0:
64,192,275292,1,0,0:0:0:50:snare-m.wav
192,192,275292,1,0,0:0:0:0:
320,192,275376,1,0,0:0:0:70:kickdrum.wav
448,192,275376,1,0,0:0:0:0:
192,192,275461,1,0,0:0:0:50:snare-m.wav
64,192,275546,1,0,0:0:0:50:cymbal-3s.wav
320,192,275546,1,0,0:0:0:70:kickdrum.wav
448,192,275546,1,0,0:0:0:0:
64,192,275715,1,0,0:0:0:50:cymbal-3s.wav
320,192,275715,1,0,0:0:0:70:kickdrum.wav
448,192,275715,1,0,0:0:0:0:
192,192,275800,1,0,0:0:0:0:
64,192,275885,1,0,0:0:0:50:cymbal-3s.wav
320,192,275885,1,0,0:0:0:70:kickdrum.wav
448,192,275885,1,0,0:0:0:0:
192,192,275970,1,0,0:0:0:0:
64,192,276054,1,0,0:0:0:50:cymbal-3s.wav
320,192,276054,1,0,0:0:0:70:kickdrum.wav
448,192,276054,1,0,0:0:0:0:
192,192,276139,1,0,0:0:0:0:
320,192,276224,1,0,0:0:0:50:cymbal-3s.wav
448,192,276224,1,0,0:0:0:70:kickdrum.wav
64,192,276309,1,0,0:0:0:0:
192,192,276393,1,0,0:0:0:50:cymbal-3s.wav
320,192,276393,1,0,0:0:0:70:kickdrum.wav
448,192,276393,1,0,0:0:0:0:
64,192,276478,1,0,0:0:0:0:
192,192,276563,1,0,0:0:0:70:kickdrum.wav
320,192,276563,128,0,276648:0:0:0:0:
448,192,276563,128,0,276732:0:0:0:0:
64,192,276732,1,0,0:0:0:0:
192,192,276789,1,0,0:0:0:0:
320,192,276845,1,0,0:0:0:0:
64,192,276902,1,0,0:0:0:0:
448,192,276958,1,0,0:0:0:0:
320,192,277015,1,0,0:0:0:0:
192,192,277071,1,0,0:0:0:0:
448,192,277128,1,0,0:0:0:0:
320,192,277184,1,0,0:0:0:0:
192,192,277241,128,0,277580:0:0:0:0:
448,192,277354,128,0,277580:0:0:0:0:
320,192,277580,128,0,277834:0:0:0:0:
64,192,277834,128,0,282334:0:0:0:0:
64,192,282405,128,0,286905:0:0:0:0:
64,192,286976,128,0,291476:0:0:0:0:
64,192,291548,128,0,296119:0:0:0:0:
448,192,294976,1,0,0:0:0:70:hat5.wav
192,192,295048,1,0,0:0:0:70:GM1PH_02.wav
320,192,295119,1,0,0:0:0:70:GM1PH_02.wav
192,192,295191,1,0,0:0:0:70:GM1PH_02.wav
448,192,295262,1,0,0:0:0:70:hat5.wav
192,192,295334,1,0,0:0:0:70:GM1PH_02.wav
320,192,295405,1,0,0:0:0:70:GM1PH_02.wav
192,192,295476,1,0,0:0:0:70:GM1PH_02.wav
448,192,295548,1,0,0:0:0:70:hat5.wav
192,192,295619,1,0,0:0:0:70:GM1PH_02.wav
320,192,295691,1,0,0:0:0:70:GM1PH_02.wav
192,192,295762,1,0,0:0:0:70:GM1PH_02.wav
320,192,295834,1,0,0:0:0:70:RD_Snare_9.wav
448,192,295834,1,0,0:0:0:70:hat5.wav
320,192,296119,1,0,0:0:0:70:cymbal-5.wav
448,192,296119,1,0,0:0:0:30:Kick_3-196.wav
192,192,296262,1,0,0:0:0:70:GM1PH_02.wav
64,192,296405,1,0,0:0:0:70:RD_Snare_9.wav
448,192,296405,1,0,0:0:0:70:hat5.wav
320,192,296548,1,0,0:0:0:70:GM1PH_02.wav
192,192,296691,1,0,0:0:0:70:GM1PH_02.wav
448,192,296834,1,0,0:0:0:30:Kick_3-196.wav
64,192,296976,1,0,0:0:0:70:RD_Snare_9.wav
320,192,296976,1,0,0:0:0:70:hat5.wav
192,192,297119,1,0,0:0:0:70:GM1PH_02.wav
320,192,297262,1,0,0:0:0:30:Kick_3-196.wav
64,192,297405,1,0,0:0:0:70:GM1PH_02.wav
320,192,297548,1,0,0:0:0:70:RD_Snare_9.wav
448,192,297548,1,0,0:0:0:70:hat5.wav
192,192,297691,1,0,0:0:0:70:GM1PH_02.wav
448,192,297834,1,0,0:0:0:70:GM1PH_02.wav
320,192,297976,1,0,0:0:0:30:Kick_3-196.wav
64,192,298119,1,0,0:0:0:70:RD_Snare_9.wav
192,192,298119,1,0,0:0:0:70:hat5.wav
448,192,298262,1,0,0:0:0:70:GM1PH_02.wav
64,192,298405,1,0,0:0:0:30:Kick_3-196.wav
192,192,298548,1,0,0:0:0:70:GM1PH_02.wav
320,192,298691,1,0,0:0:0:70:RD_Snare_9.wav
448,192,298691,1,0,0:0:0:70:hat5.wav
64,192,298834,1,0,0:0:0:70:GM1PH_02.wav
192,192,298976,1,0,0:0:0:70:GM1PH_02.wav
320,192,299119,1,0,0:0:0:30:Kick_3-196.wav
64,192,299262,1,0,0:0:0:70:RD_Snare_9.wav
192,192,299262,1,0,0:0:0:70:hat5.wav
448,192,299405,1,0,0:0:0:70:GM1PH_02.wav
320,192,299548,1,0,0:0:0:30:Kick_3-196.wav
192,192,299691,1,0,0:0:0:70:GM1PH_02.wav
64,192,299834,1,0,0:0:0:70:RD_Snare_9.wav
448,192,299834,1,0,0:0:0:70:hat5.wav
320,192,299976,1,0,0:0:0:70:GM1PH_02.wav
64,192,300048,1,0,0:0:0:30:Kick_3-196.wav
192,192,300119,1,0,0:0:0:70:GM1PH_02.wav
320,192,300262,1,0,0:0:0:30:Kick_3-196.wav
64,192,300405,1,0,0:0:0:70:RD_Snare_9.wav
448,192,300405,1,0,0:0:0:70:hat5.wav
192,192,300548,1,0,0:0:0:70:GM1PH_02.wav
320,192,300691,1,0,0:0:0:30:Kick_3-196.wav
448,192,300691,1,0,0:0:0:70:GM1PH_02.wav
64,192,300834,1,0,0:0:0:70:GM1PH_02.wav
192,192,300976,1,0,0:0:0:70:RD_Snare_9.wav
448,192,300976,1,0,0:0:0:70:hat5.wav
320,192,301119,1,0,0:0:0:70:GM1PH_02.wav
192,192,301262,1,0,0:0:0:70:GM1PH_02.wav
64,192,301405,1,0,0:0:0:30:Kick_3-196.wav
320,192,301548,1,0,0:0:0:70:RD_Snare_9.wav
448,192,301548,1,0,0:0:0:70:hat5.wav
192,192,301691,1,0,0:0:0:70:GM1PH_02.wav
448,192,301834,1,0,0:0:0:30:Kick_3-196.wav
320,192,301976,1,0,0:0:0:70:GM1PH_02.wav
64,192,302119,1,0,0:0:0:70:RD_Snare_9.wav
192,192,302119,1,0,0:0:0:70:hat5.wav
320,192,302262,1,0,0:0:0:70:GM1PH_02.wav
448,192,302405,1,0,0:0:0:70:GM1PH_02.wav
64,192,302548,1,0,0:0:0:30:Kick_3-196.wav
192,192,302691,1,0,0:0:0:70:RD_Snare_9.wav
320,192,302691,1,0,0:0:0:70:hat5.wav
448,192,302834,1,0,0:0:0:70:GM1PH_02.wav
64,192,302976,1,0,0:0:0:30:Kick_3-196.wav
192,192,303119,1,0,0:0:0:70:GM1PH_02.wav
64,192,303262,1,0,0:0:0:70:RD_Snare_9.wav
448,192,303262,1,0,0:0:0:70:hat5.wav
320,192,303405,1,0,0:0:0:70:GM1PH_02.wav
192,192,303548,1,0,0:0:0:70:GM1PH_02.wav
320,192,303691,1,0,0:0:0:30:Kick_3-196.wav
64,192,303834,1,0,0:0:0:70:RD_Snare_9.wav
448,192,303834,1,0,0:0:0:70:hat5.wav
192,192,303976,1,0,0:0:0:70:GM1PH_02.wav
320,192,304119,1,0,0:0:0:30:Kick_3-196.wav
448,192,304119,1,0,0:0:0:70:hat5.wav
64,192,304262,1,0,0:0:0:70:Snare-l.wav
448,192,304334,1,0,0:0:0:70:Snare-l.wav
64,192,304405,1,0,0:0:0:70:Snare-l.wav
448,192,304476,1,0,0:0:0:70:Snare-l.wav
64,192,304548,1,0,0:0:0:30:Kick_3-196.wav
192,192,304548,1,0,0:0:0:70:hat5.wav
448,192,304691,1,0,0:0:0:40:GMMidTom1_01.wav
64,192,304762,1,0,0:0:0:40:GMMidTom1_01.wav
320,192,304834,1,0,0:0:0:30:Kick_3-196.wav
448,192,304834,1,0,0:0:0:40:GMMidTom1_01.wav
64,192,304905,1,0,0:0:0:40:GMMidTom1_01.wav
320,192,304976,1,0,0:0:0:40:GMLoTom1_01.wav
192,192,305048,1,0,0:0:0:40:GMLoTom1_01.wav
320,192,305119,1,0,0:0:0:40:GMLoTom1_01.wav
192,192,305191,1,0,0:0:0:40:GMLoTom1_01.wav
64,192,305262,1,0,0:0:0:70:cymbal-5.wav
448,192,305262,1,0,0:0:0:30:Kick_3-196.wav
320,192,305405,1,0,0:0:0:70:GM1PH_02.wav
64,192,305548,1,0,0:0:0:70:RD_Snare_9.wav
192,192,305548,1,0,0:0:0:70:hat5.wav
448,192,305691,1,0,0:0:0:70:GM1PH_02.wav
64,192,305834,1,0,0:0:0:70:GM1PH_02.wav
192,192,305976,1,0,0:0:0:30:Kick_3-196.wav
320,192,306119,1,0,0:0:0:70:RD_Snare_9.wav
448,192,306119,1,0,0:0:0:70:hat5.wav
64,192,306262,1,0,0:0:0:70:GM1PH_02.wav
192,192,306405,1,0,0:0:0:30:Kick_3-196.wav
448,192,306548,1,0,0:0:0:70:GM1PH_02.wav
64,192,306691,1,0,0:0:0:70:RD_Snare_9.wav
320,192,306691,1,0,0:0:0:70:hat5.wav
192,192,306834,1,0,0:0:0:70:GM1PH_02.wav
320,192,306976,1,0,0:0:0:70:GM1PH_02.wav
448,192,307119,1,0,0:0:0:30:Kick_3-196.wav
64,192,307262,1,0,0:0:0:70:RD_Snare_9.wav
192,192,307262,1,0,0:0:0:70:hat5.wav
320,192,307405,1,0,0:0:0:70:GM1PH_02.wav
448,192,307548,1,0,0:0:0:30:Kick_3-196.wav
64,192,307691,1,0,0:0:0:70:GM1PH_02.wav
192,192,307834,1,0,0:0:0:70:RD_Snare_9.wav
320,192,307834,1,0,0:0:0:70:hat5.wav
448,192,307976,1,0,0:0:0:70:GM1PH_02.wav
64,192,308119,1,0,0:0:0:70:GM1PH_02.wav
192,192,308262,1,0,0:0:0:30:Kick_3-196.wav
320,192,308405,1,0,0:0:0:70:RD_Snare_9.wav
448,192,308405,1,0,0:0:0:70:hat5.wav
192,192,308548,1,0,0:0:0:70:GM1PH_02.wav
64,192,308691,1,0,0:0:0:30:Kick_3-196.wav
320,192,308834,1,0,0:0:0:70:GM1PH_02.wav
64,192,308976,1,0,0:0:0:70:RD_Snare_9.wav
448,192,308976,1,0,0:0:0:70:hat5.wav
320,192,309119,1,0,0:0:0:70:GM1PH_02.wav
64,192,309191,1,0,0:0:0:30:Kick_3-196.wav
192,192,309262,1,0,0:0:0:70:GM1PH_02.wav
448,192,309405,1,0,0:0:0:30:Kick_3-196.wav
64,192,309548,1,0,0:0:0:70:RD_Snare_9.wav
320,192,309548,1,0,0:0:0:70:hat5.wav
192,192,309691,1,0,0:0:0:70:GM1PH_02.wav
320,192,309762,1,0,0:0:0:70:GM1PH_02.wav
64,192,309834,1,0,0:0:0:70:cymbal-5.wav
448,192,309834,1,0,0:0:0:30:Kick_3-196.wav
320,192,309976,1,0,0:0:0:70:GM1PH_02.wav
64,192,310119,1,0,0:0:0:70:RD_Snare_9.wav
192,192,310119,1,0,0:0:0:70:hat5.wav
448,192,310262,1,0,0:0:0:70:GM1PH_02.wav
320,192,310405,1,0,0:0:0:70:GM1PH_02.wav
192,192,310548,1,0,0:0:0:30:Kick_3-196.wav
64,192,310691,1,0,0:0:0:70:RD_Snare_9.wav
448,192,310691,1,0,0:0:0:70:hat5.wav
320,192,310834,1,0,0:0:0:70:GM1PH_02.wav
192,192,310976,1,0,0:0:0:30:Kick_3-196.wav
64,192,311119,1,0,0:0:0:70:GM1PH_02.wav
320,192,311262,1,0,0:0:0:70:RD_Snare_9.wav
448,192,311262,1,0,0:0:0:70:hat5.wav
192,192,311405,1,0,0:0:0:70:GM1PH_02.wav
320,192,311548,1,0,0:0:0:70:GM1PH_02.wav
448,192,311691,1,0,0:0:0:30:Kick_3-196.wav
64,192,311834,1,0,0:0:0:70:RD_Snare_9.wav
192,192,311834,1,0,0:0:0:70:hat5.wav
320,192,311976,1,0,0:0:0:70:GM1PH_02.wav
448,192,312119,1,0,0:0:0:30:Kick_3-196.wav
64,192,312262,1,0,0:0:0:70:GM1PH_02.wav
192,192,312405,1,0,0:0:0:70:RD_Snare_9.wav
320,192,312405,1,0,0:0:0:70:hat5.wav
448,192,312548,1,0,0:0:0:70:GM1PH_02.wav
64,192,312691,1,0,0:0:0:70:GM1PH_02.wav
192,192,312834,1,0,0:0:0:30:Kick_3-196.wav
320,192,312976,1,0,0:0:0:70:RD_Snare_9.wav
448,192,312976,1,0,0:0:0:70:hat5.wav
192,192,313119,1,0,0:0:0:70:GM1PH_02.wav
64,192,313262,1,0,0:0:0:30:Kick_3-196.wav
448,192,313262,1,0,0:0:0:70:hat5.wav
320,192,313405,1,0,0:0:0:70:Snare-l.wav
192,192,313476,1,0,0:0:0:70:Snare-l.wav
320,192,313548,1,0,0:0:0:70:Snare-l.wav
192,192,313619,1,0,0:0:0:70:Snare-l.wav
64,192,313691,1,0,0:0:0:30:Kick_3-196.wav
448,192,313691,1,0,0:0:0:70:hat5.wav
192,192,313834,1,0,0:0:0:40:GMMidTom1_01.wav
320,192,313905,1,0,0:0:0:40:GMMidTom1_01.wav
64,192,313976,1,0,0:0:0:30:Kick_3-196.wav
192,192,313976,1,0,0:0:0:40:GMMidTom1_01.wav
320,192,314048,1,0,0:0:0:40:GMMidTom1_01.wav
64,192,314119,1,0,0:0:0:40:GMLoTom1_01.wav
448,192,314191,1,0,0:0:0:40:GMLoTom1_01.wav
64,192,314262,1,0,0:0:0:40:GMLoTom1_01.wav
448,192,314334,1,0,0:0:0:40:GMLoTom1_01.wav
192,192,314405,1,0,0:0:0:70:cymbal-5.wav
320,192,314405,128,0,314691:0:0:0:30:Kick_3-196.wav
64,192,314691,1,0,0:0:0:70:Snare-l.wav
192,192,314691,1,0,0:0:0:0:
64,192,314834,1,0,0:0:0:70:Snare-l.wav
448,192,314834,1,0,0:0:0:0:
320,192,314976,128,0,315262:0:0:0:30:Kick_3-196.wav
64,192,315262,1,0,0:0:0:70:Snare-l.wav
192,192,315262,1,0,0:0:0:0:
320,192,315405,128,0,315691:0:0:0:30:Kick_3-196.wav
64,192,315691,1,0,0:0:0:70:Snare-l.wav
192,192,315691,1,0,0:0:0:0:
64,192,315834,1,0,0:0:0:70:Snare-l.wav
448,192,315834,1,0,0:0:0:0:
320,192,315976,128,0,316262:0:0:0:30:Kick_3-196.wav
64,192,316262,1,0,0:0:0:70:Snare-l.wav
192,192,316262,1,0,0:0:0:0:
320,192,316405,128,0,316691:0:0:0:30:Kick_3-196.wav
448,192,316691,128,0,316976:0:0:0:30:Kick_3-196.wav
64,192,316976,1,0,0:0:0:70:Snare-l.wav
192,192,316976,1,0,0:0:0:0:
64,192,317119,1,0,0:0:0:70:Snare-l.wav
320,192,317119,1,0,0:0:0:0:
448,192,317262,128,0,317548:0:0:0:30:Kick_3-196.wav
64,192,317548,1,0,0:0:0:70:Snare-l.wav
192,192,317548,1,0,0:0:0:0:
448,192,317691,128,0,317976:0:0:0:30:Kick_3-196.wav
64,192,317976,1,0,0:0:0:70:Snare-l.wav
192,192,317976,1,0,0:0:0:0:
64,192,318119,1,0,0:0:0:70:Snare-l.wav
320,192,318119,1,0,0:0:0:0:
448,192,318262,128,0,318548:0:0:0:30:Kick_3-196.wav
320,192,318405,1,0,0:0:0:0:
64,192,318548,1,0,0:0:0:70:Snare-l.wav
192,192,318548,1,0,0:0:0:0:
448,192,318691,128,0,318976:0:0:0:30:Kick_3-196.wav
320,192,318834,1,0,0:0:0:70:Snare-l.wav
192,192,318905,1,0,0:0:0:70:Snare-l.wav
64,192,318976,128,0,319262:0:0:0:70:cymbal-5.wav
320,192,318976,1,0,0:0:0:30:Kick_3-196.wav
320,192,319262,1,0,0:0:0:70:Snare-l.wav
448,192,319262,1,0,0:0:0:0:
192,192,319405,1,0,0:0:0:70:Snare-l.wav
448,192,319405,1,0,0:0:0:0:
64,192,319548,128,0,319834:0:0:0:30:Kick_3-196.wav
320,192,319834,1,0,0:0:0:70:Snare-l.wav
448,192,319834,1,0,0:0:0:0:
64,192,319976,128,0,320262:0:0:0:30:Kick_3-196.wav
320,192,320262,1,0,0:0:0:70:Snare-l.wav
448,192,320262,1,0,0:0:0:0:
192,192,320405,1,0,0:0:0:70:Snare-l.wav
448,192,320405,1,0,0:0:0:0:
64,192,320548,128,0,320834:0:0:0:30:Kick_3-196.wav
320,192,320834,1,0,0:0:0:70:Snare-l.wav
448,192,320834,1,0,0:0:0:0:
64,192,320976,128,0,321262:0:0:0:30:Kick_3-196.wav
192,192,320976,1,0,0:0:0:70:hat5.wav
320,192,321119,1,0,0:0:0:0:
192,192,321262,128,0,321548:0:0:0:30:Kick_3-196.wav
320,192,321548,1,0,0:0:0:70:Snare-l.wav
448,192,321548,1,0,0:0:0:0:
64,192,321691,1,0,0:0:0:70:Snare-l.wav
448,192,321691,1,0,0:0:0:0:
192,192,321834,128,0,322119:0:0:0:30:Kick_3-196.wav
320,192,322119,1,0,0:0:0:70:Snare-l.wav
448,192,322119,1,0,0:0:0:0:
192,192,322262,128,0,322548:0:0:0:30:Kick_3-196.wav
320,192,322548,1,0,0:0:0:70:Snare-l.wav
448,192,322548,1,0,0:0:0:0:
64,192,322691,1,0,0:0:0:70:Snare-l.wav
448,192,322691,1,0,0:0:0:0:
192,192,322834,128,0,323119:0:0:0:30:Kick_3-196.wav
320,192,323119,1,0,0:0:0:70:Snare-l.wav
448,192,323119,1,0,0:0:0:0:
64,192,323262,1,0,0:0:0:30:Kick_3-196.wav
192,192,323334,1,0,0:0:0:30:GMMidTom1_01.wav
320,192,323405,1,0,0:0:0:70:RD_Snare_9.wav
448,192,323405,1,0,0:0:0:0:
64,192,323476,1,0,0:0:0:70:RD_Snare_9.wav
192,192,323476,1,0,0:0:0:0:
320,192,323548,128,0,323834:0:0:0:70:cymbal-5.wav
448,192,323548,1,0,0:0:0:30:Kick_3-196.wav
64,192,323834,1,0,0:0:0:70:Snare-l.wav
192,192,323834,1,0,0:0:0:0:
64,192,323976,1,0,0:0:0:70:Snare-l.wav
448,192,323976,1,0,0:0:0:0:
320,192,324119,128,0,324405:0:0:0:30:Kick_3-196.wav
64,192,324405,1,0,0:0:0:70:Snare-l.wav
192,192,324405,1,0,0:0:0:0:
320,192,324548,128,0,324834:0:0:0:30:Kick_3-196.wav
64,192,324834,1,0,0:0:0:70:Snare-l.wav
192,192,324834,1,0,0:0:0:0:
64,192,324976,1,0,0:0:0:70:Snare-l.wav
448,192,324976,1,0,0:0:0:0:
320,192,325119,128,0,325405:0:0:0:30:Kick_3-196.wav
64,192,325405,1,0,0:0:0:70:Snare-l.wav
192,192,325405,1,0,0:0:0:0:
320,192,325548,128,0,325834:0:0:0:30:Kick_3-196.wav
64,192,325834,128,0,326119:0:0:0:30:Kick_3-196.wav
320,192,326119,1,0,0:0:0:70:Snare-l.wav
448,192,326119,1,0,0:0:0:0:
192,192,326262,1,0,0:0:0:70:Snare-l.wav
448,192,326262,1,0,0:0:0:0:
64,192,326405,128,0,326691:0:0:0:30:Kick_3-196.wav
320,192,326691,1,0,0:0:0:70:Snare-l.wav
448,192,326691,1,0,0:0:0:0:
64,192,326834,128,0,327119:0:0:0:30:Kick_3-196.wav
320,192,327119,1,0,0:0:0:70:Snare-l.wav
448,192,327119,1,0,0:0:0:0:
192,192,327262,1,0,0:0:0:70:Snare-l.wav
448,192,327262,1,0,0:0:0:0:
64,192,327405,128,0,327691:0:0:0:30:Kick_3-196.wav
320,192,327405,1,0,0:0:0:70:hat5.wav
448,192,327548,1,0,0:0:0:0:
192,192,327691,1,0,0:0:0:70:Snare-l.wav
320,192,327691,1,0,0:0:0:0:
64,192,327834,128,0,328119:0:0:0:30:Kick_3-196.wav
448,192,327834,1,0,0:0:0:70:hat5.wav
192,192,327976,1,0,0:0:0:70:Snare-l.wav
320,192,328048,1,0,0:0:0:70:Snare-l.wav
192,192,328119,1,0,0:0:0:70:cymbal-5.wav
448,192,328119,128,0,328405:0:0:0:30:Kick_3-196.wav
64,192,328405,1,0,0:0:0:70:Snare-l.wav
192,192,328405,1,0,0:0:0:0:
64,192,328548,1,0,0:0:0:70:Snare-l.wav
320,192,328548,1,0,0:0:0:0:
448,192,328691,128,0,328976:0:0:0:30:Kick_3-196.wav
64,192,328976,1,0,0:0:0:70:Snare-l.wav
192,192,328976,1,0,0:0:0:0:
448,192,329119,128,0,329405:0:0:0:30:Kick_3-196.wav
64,192,329405,1,0,0:0:0:70:Snare-l.wav
192,192,329405,1,0,0:0:0:0:
64,192,329548,1,0,0:0:0:70:Snare-l.wav
320,192,329548,1,0,0:0:0:0:
448,192,329691,128,0,329976:0:0:0:30:Kick_3-196.wav
64,192,329976,1,0,0:0:0:70:Snare-l.wav
192,192,329976,1,0,0:0:0:0:
448,192,330119,128,0,330405:0:0:0:30:Kick_3-196.wav
192,192,330405,128,0,330691:0:0:0:30:Kick_3-196.wav
320,192,330691,1,0,0:0:0:70:Snare-l.wav
448,192,330691,1,0,0:0:0:0:
64,192,330834,1,0,0:0:0:70:Snare-l.wav
448,192,330834,1,0,0:0:0:0:
192,192,330976,128,0,331262:0:0:0:30:Kick_3-196.wav
320,192,331262,1,0,0:0:0:70:Snare-l.wav
448,192,331262,1,0,0:0:0:0:
192,192,331405,128,0,331691:0:0:0:30:Kick_3-196.wav
64,192,331691,1,0,0:0:0:0:
320,192,331762,1,0,0:0:0:0:
64,192,331834,1,0,0:0:0:0:
320,192,331905,1,0,0:0:0:0:
192,192,331976,1,0,0:0:0:0:
448,192,332048,1,0,0:0:0:30:Kick_3-196.wav
64,192,332119,1,0,0:0:0:70:RD_Snare_9.wav
192,192,332119,1,0,0:0:0:0:
448,192,332191,1,0,0:0:0:0:
320,192,332262,1,0,0:0:0:0:
64,192,332334,1,0,0:0:0:70:RD_Snare_9.wav
192,192,332334,1,0,0:0:0:0:
320,192,332405,1,0,0:0:0:0:
192,192,332476,1,0,0:0:0:0:
320,192,332548,1,0,0:0:0:70:RD_Snare_9.wav
448,192,332548,1,0,0:0:0:0:
64,192,332619,1,0,0:0:0:70:RD_Snare_9.wav
192,192,332619,1,0,0:0:0:0:
320,192,332691,1,0,0:0:0:70:cymbal-5.wav
448,192,332691,1,0,0:0:0:30:Kick_3-196.wav
192,192,332834,1,0,0:0:0:70:GM1PH_02.wav
448,192,332905,1,0,0:0:0:0:
64,192,332976,1,0,0:0:0:70:RD_Snare_9.wav
320,192,332976,1,0,0:0:0:70:hat5.wav
192,192,333048,1,0,0:0:0:0:
448,192,333119,1,0,0:0:0:70:GM1PH_02.wav
320,192,333191,1,0,0:0:0:0:
64,192,333262,1,0,0:0:0:70:GM1PH_02.wav
192,192,333334,1,0,0:0:0:0:
320,192,333405,1,0,0:0:0:30:Kick_3-196.wav
448,192,333476,1,0,0:0:0:0:
64,192,333548,1,0,0:0:0:70:RD_Snare_9.wav
192,192,333548,1,0,0:0:0:70:hat5.wav
320,192,333619,1,0,0:0:0:0:
448,192,333691,1,0,0:0:0:70:GM1PH_02.wav
192,192,333762,1,0,0:0:0:0:
320,192,333834,128,0,333976:0:0:0:30:Kick_3-196.wav
192,192,333976,128,0,334119:0:0:0:70:GM1PH_02.wav
64,192,334119,128,0,334262:0:0:0:70:RD_Snare_9.wav
448,192,334119,1,0,0:0:0:70:hat5.wav
320,192,334262,128,0,334405:0:0:0:70:GM1PH_02.wav
192,192,334405,128,0,334548:0:0:0:70:GM1PH_02.wav
448,192,334548,128,0,334691:0:0:0:30:Kick_3-196.wav
64,192,334691,128,0,334834:0:0:0:70:RD_Snare_9.wav
192,192,334691,1,0,0:0:0:70:hat5.wav
320,192,334834,128,0,335119:0:0:0:70:GM1PH_02.wav
448,192,334976,1,0,0:0:0:30:Kick_3-196.wav
192,192,335119,128,0,335405:0:0:0:70:GM1PH_02.wav
320,192,335262,1,0,0:0:0:70:RD_Snare_9.wav
448,192,335262,1,0,0:0:0:70:hat5.wav
64,192,335405,128,0,335691:0:0:0:70:GM1PH_02.wav
320,192,335548,1,0,0:0:0:70:GM1PH_02.wav
448,192,335691,128,0,335976:0:0:0:30:Kick_3-196.wav
64,192,335834,1,0,0:0:0:70:RD_Snare_9.wav
192,192,335834,1,0,0:0:0:70:hat5.wav
320,192,335976,128,0,336834:0:0:0:70:GM1PH_02.wav
64,192,336119,1,0,0:0:0:30:Kick_3-196.wav
192,192,336262,1,0,0:0:0:70:GM1PH_02.wav
64,192,336405,1,0,0:0:0:70:RD_Snare_9.wav
448,192,336405,1,0,0:0:0:70:hat5.wav
192,192,336548,1,0,0:0:0:70:GM1PH_02.wav
64,192,336619,1,0,0:0:0:30:Kick_3-196.wav
448,192,336691,1,0,0:0:0:70:GM1PH_02.wav
64,192,336834,128,0,336976:0:0:0:30:Kick_3-196.wav
320,192,336976,128,0,337119:0:0:0:70:RD_Snare_9.wav
448,192,336976,1,0,0:0:0:70:hat5.wav
64,192,337119,128,0,337262:0:0:0:70:GM1PH_02.wav
320,192,337262,128,0,337334:0:0:0:30:Kick_3-196.wav
320,192,337405,128,0,337548:0:0:0:70:GM1PH_02.wav
64,192,337548,1,0,0:0:0:70:RD_Snare_9.wav
192,192,337548,1,0,0:0:0:70:hat5.wav
448,192,337691,128,0,337834:0:0:0:70:GM1PH_02.wav
320,192,337834,1,0,0:0:0:70:GM1PH_02.wav
64,192,337976,128,0,338119:0:0:0:30:Kick_3-196.wav
192,192,338119,1,0,0:0:0:70:RD_Snare_9.wav
448,192,338119,1,0,0:0:0:70:hat5.wav
320,192,338262,128,0,339119:0:0:0:70:GM1PH_02.wav
448,192,338405,1,0,0:0:0:30:Kick_3-196.wav
192,192,338548,1,0,0:0:0:70:GM1PH_02.wav
64,192,338691,1,0,0:0:0:70:RD_Snare_9.wav
448,192,338691,1,0,0:0:0:70:hat5.wav
192,192,338834,1,0,0:0:0:70:GM1PH_02.wav
448,192,338976,1,0,0:0:0:70:GM1PH_02.wav
64,192,339119,128,0,339262:0:0:0:30:Kick_3-196.wav
320,192,339262,128,0,339405:0:0:0:70:RD_Snare_9.wav
448,192,339262,1,0,0:0:0:70:hat5.wav
64,192,339405,128,0,339548:0:0:0:70:GM1PH_02.wav
192,192,339548,128,0,339619:0:0:0:30:Kick_3-196.wav
192,192,339691,128,0,339834:0:0:0:70:GM1PH_02.wav
320,192,339834,1,0,0:0:0:70:RD_Snare_9.wav
448,192,339834,1,0,0:0:0:70:hat5.wav
64,192,339976,128,0,340119:0:0:0:70:GM1PH_02.wav
192,192,340119,1,0,0:0:0:70:GM1PH_02.wav
448,192,340262,128,0,340405:0:0:0:30:Kick_3-196.wav
64,192,340405,1,0,0:0:0:70:RD_Snare_9.wav
320,192,340405,1,0,0:0:0:70:hat5.wav
192,192,340548,128,0,340691:0:0:0:70:GM1PH_02.wav
320,192,340691,1,0,0:0:0:30:Kick_3-196.wav
448,192,340691,1,0,0:0:0:70:hat5.wav
64,192,340834,1,0,0:0:0:70:Snare-l.wav
448,192,340905,1,0,0:0:0:70:Snare-l.wav
64,192,340976,1,0,0:0:0:70:Snare-l.wav
448,192,341048,1,0,0:0:0:70:Snare-l.wav
64,192,341119,1,0,0:0:0:30:Kick_3-196.wav
192,192,341119,1,0,0:0:0:70:hat5.wav
320,192,341262,1,0,0:0:0:30:GMMidTom1_01.wav
192,192,341334,1,0,0:0:0:30:GMMidTom1_01.wav
320,192,341405,1,0,0:0:0:30:Kick_3-196.wav
448,192,341405,1,0,0:0:0:30:GMMidTom1_01.wav
192,192,341476,1,0,0:0:0:30:GMMidTom1_01.wav
448,192,341548,1,0,0:0:0:30:GMLoTom1_01.wav
64,192,341619,1,0,0:0:0:30:GMLoTom1_01.wav
448,192,341691,1,0,0:0:0:30:GMLoTom1_01.wav
64,192,341762,1,0,0:0:0:30:GMLoTom1_01.wav
320,192,341834,1,0,0:0:0:70:cymbal-5.wav
448,192,341834,1,0,0:0:0:30:Kick_3-196.wav
192,192,341976,1,0,0:0:0:70:GM1PH_02.wav
448,192,342048,1,0,0:0:0:0:
64,192,342119,1,0,0:0:0:70:RD_Snare_9.wav
320,192,342119,1,0,0:0:0:70:hat5.wav
192,192,342191,1,0,0:0:0:0:
448,192,342262,1,0,0:0:0:70:GM1PH_02.wav
192,192,342405,1,0,0:0:0:70:GM1PH_02.wav
64,192,342548,1,0,0:0:0:30:Kick_3-196.wav
320,192,342595,1,0,0:0:0:0:
192,192,342643,1,0,0:0:0:0:
64,192,342691,1,0,0:0:0:70:RD_Snare_9.wav
448,192,342691,1,0,0:0:0:70:hat5.wav
320,192,342834,1,0,0:0:0:70:GM1PH_02.wav
192,192,342976,1,0,0:0:0:30:Kick_3-196.wav
64,192,343048,1,0,0:0:0:0:
448,192,343119,1,0,0:0:0:70:GM1PH_02.wav
64,192,343262,1,0,0:0:0:70:RD_Snare_9.wav
192,192,343262,1,0,0:0:0:70:hat5.wav
320,192,343334,1,0,0:0:0:0:
448,192,343405,1,0,0:0:0:70:GM1PH_02.wav
64,192,343500,1,0,0:0:0:0:
192,192,343548,1,0,0:0:0:70:GM1PH_02.wav
320,192,343691,1,0,0:0:0:30:Kick_3-196.wav
64,192,343834,1,0,0:0:0:70:RD_Snare_9.wav
192,192,343834,1,0,0:0:0:70:hat5.wav
320,192,343929,1,0,0:0:0:0:
448,192,343976,128,0,344262:0:0:0:70:GM1PH_02.wav
64,192,344119,1,0,0:0:0:30:Kick_3-196.wav
320,192,344262,128,0,344548:0:0:0:70:GM1PH_02.wav
64,192,344405,1,0,0:0:0:70:RD_Snare_9.wav
448,192,344405,1,0,0:0:0:70:hat5.wav
192,192,344548,128,0,344834:0:0:0:70:GM1PH_02.wav
448,192,344691,1,0,0:0:0:70:GM1PH_02.wav
320,192,344834,128,0,345119:0:0:0:30:Kick_3-196.wav
64,192,344976,1,0,0:0:0:70:RD_Snare_9.wav
192,192,344976,1,0,0:0:0:70:hat5.wav
448,192,345119,128,0,346119:0:0:0:70:GM1PH_02.wav
64,192,345262,1,0,0:0:0:30:Kick_3-196.wav
192,192,345405,1,0,0:0:0:70:GM1PH_02.wav
64,192,345548,1,0,0:0:0:70:RD_Snare_9.wav
320,192,345548,1,0,0:0:0:70:hat5.wav
192,192,345691,1,0,0:0:0:70:GM1PH_02.wav
64,192,345762,1,0,0:0:0:30:Kick_3-196.wav
320,192,345834,1,0,0:0:0:70:GM1PH_02.wav
64,192,345976,1,0,0:0:0:30:Kick_3-196.wav
192,192,346119,1,0,0:0:0:70:RD_Snare_9.wav
320,192,346119,128,0,346262:0:0:0:70:hat5.wav
64,192,346262,128,0,347262:0:0:0:70:GM1PH_02.wav
192,192,346334,1,0,0:0:0:70:GM1PH_02.wav
320,192,346405,1,0,0:0:0:70:cymbal-5.wav
448,192,346405,1,0,0:0:0:30:Kick_3-196.wav
448,192,346548,1,0,0:0:0:70:GM1PH_02.wav
192,192,346691,1,0,0:0:0:70:RD_Snare_9.wav
320,192,346691,1,0,0:0:0:70:hat5.wav
448,192,346834,1,0,0:0:0:70:GM1PH_02.wav
320,192,346976,1,0,0:0:0:70:GM1PH_02.wav
192,192,347119,1,0,0:0:0:30:Kick_3-196.wav
320,192,347262,128,0,347405:0:0:0:70:RD_Snare_9.wav
448,192,347262,1,0,0:0:0:70:hat5.wav
192,192,347405,128,0,347834:0:0:0:70:GM1PH_02.wav
448,192,347548,1,0,0:0:0:30:Kick_3-196.wav
64,192,347691,1,0,0:0:0:70:GM1PH_02.wav
320,192,347834,1,0,0:0:0:70:RD_Snare_9.wav
448,192,347834,128,0,347976:0:0:0:70:hat5.wav
64,192,347976,128,0,348834:0:0:0:70:GM1PH_02.wav
192,192,348119,1,0,0:0:0:70:GM1PH_02.wav
320,192,348262,1,0,0:0:0:30:Kick_3-196.wav
192,192,348405,1,0,0:0:0:70:RD_Snare_9.wav
448,192,348405,1,0,0:0:0:70:hat5.wav
320,192,348548,1,0,0:0:0:70:GM1PH_02.wav
448,192,348691,1,0,0:0:0:30:Kick_3-196.wav
320,192,348834,128,0,348976:0:0:0:70:GM1PH_02.wav
64,192,348976,1,0,0:0:0:70:RD_Snare_9.wav
192,192,348976,128,0,349119:0:0:0:70:hat5.wav
320,192,349119,128,0,349405:0:0:0:70:GM1PH_02.wav
64,192,349262,1,0,0:0:0:70:GM1PH_02.wav
448,192,349405,128,0,349691:0:0:0:30:Kick_3-196.wav
192,192,349548,1,0,0:0:0:70:RD_Snare_9.wav
320,192,349548,1,0,0:0:0:70:hat5.wav
64,192,349691,128,0,349976:0:0:0:70:GM1PH_02.wav
320,192,349834,1,0,0:0:0:70:hat5.wav
448,192,349834,1,0,0:0:0:0:
192,192,349976,1,0,0:0:0:70:Snare-l.wav
320,192,350048,1,0,0:0:0:70:Snare-l.wav
192,192,350119,1,0,0:0:0:70:Snare-l.wav
320,192,350191,1,0,0:0:0:70:Snare-l.wav
64,192,350262,1,0,0:0:0:70:hat5.wav
192,192,350262,1,0,0:0:0:0:
448,192,350405,1,0,0:0:0:30:GMMidTom1_01.wav
64,192,350476,1,0,0:0:0:30:GMMidTom1_01.wav
320,192,350548,1,0,0:0:0:30:GMMidTom1_01.wav
448,192,350548,1,0,0:0:0:70:hat5.wav
64,192,350619,1,0,0:0:0:30:GMMidTom1_01.wav
320,192,350691,1,0,0:0:0:30:GMLoTom1_01.wav
192,192,350762,1,0,0:0:0:30:GMLoTom1_01.wav
320,192,350834,1,0,0:0:0:30:GMLoTom1_01.wav
192,192,350905,1,0,0:0:0:30:GMLoTom1_01.wav
64,192,350976,1,0,0:0:0:70:cymbal-5.wav
448,192,350976,1,0,0:0:0:30:Kick_3-196.wav
64,192,351262,1,0,0:0:0:0:
320,192,351405,1,0,0:0:0:0:
64,192,351691,1,0,0:0:0:0:
320,192,351834,1,0,0:0:0:0:
64,192,351976,1,0,0:0:0:0:
64,192,352262,1,0,0:0:0:0:
320,192,352405,1,0,0:0:0:0:
64,192,352548,1,0,0:0:0:0:
64,192,352834,1,0,0:0:0:0:
320,192,352976,1,0,0:0:0:0:
64,192,353119,1,0,0:0:0:0:
448,192,353262,1,0,0:0:0:0:
192,192,353548,1,0,0:0:0:0:
448,192,353691,1,0,0:0:0:0:
192,192,353976,1,0,0:0:0:0:
448,192,354119,1,0,0:0:0:0:
192,192,354262,1,0,0:0:0:0:
192,192,354548,1,0,0:0:0:0:
448,192,354691,1,0,0:0:0:0:
192,192,354834,1,0,0:0:0:0:
192,192,355119,1,0,0:0:0:0:
448,192,355262,1,0,0:0:0:0:
192,192,355405,1,0,0:0:0:0:
64,192,355476,1,0,0:0:0:0:
320,192,355548,1,0,0:0:0:0:
192,192,355834,1,0,0:0:0:0:
320,192,355976,1,0,0:0:0:0:
192,192,356262,1,0,0:0:0:0:
320,192,356405,1,0,0:0:0:0:
192,192,356548,1,0,0:0:0:0:
192,192,356834,1,0,0:0:0:0:
320,192,356976,1,0,0:0:0:0:
192,192,357119,1,0,0:0:0:0:
192,192,357405,1,0,0:0:0:0:
320,192,357548,1,0,0:0:0:0:
192,192,357691,1,0,0:0:0:0:
448,192,357834,1,0,0:0:0:0:
64,192,358119,1,0,0:0:0:0:
448,192,358262,1,0,0:0:0:0:
64,192,358548,1,0,0:0:0:0:
448,192,358691,1,0,0:0:0:0:
64,192,358834,1,0,0:0:0:0:
448,192,358976,1,0,0:0:0:70:hat5.wav
320,192,359048,1,0,0:0:0:70:GM1PH_02.wav
192,192,359119,1,0,0:0:0:70:GM1PH_02.wav
320,192,359191,1,0,0:0:0:70:GM1PH_02.wav
64,192,359262,1,0,0:0:0:70:hat5.wav
192,192,359334,1,0,0:0:0:70:GM1PH_02.wav
320,192,359405,1,0,0:0:0:70:GM1PH_02.wav
192,192,359476,1,0,0:0:0:70:GM1PH_02.wav
448,192,359548,1,0,0:0:0:70:hat5.wav
320,192,359619,1,0,0:0:0:90:GM1PH_02.wav
64,192,359691,1,0,0:0:0:90:GM1PH_02.wav
192,192,359762,1,0,0:0:0:90:GM1PH_02.wav
320,192,359834,1,0,0:0:0:70:RD_Snare_9.wav
448,192,359834,1,0,0:0:0:70:hat5.wav
64,192,359976,1,0,0:0:0:70:cymbal-5.wav
192,192,359976,1,0,0:0:0:30:Kick_3-196.wav
448,192,359976,1,0,0:0:0:0:
64,192,360433,128,0,377614:0:0:0:70:Hardstyle.wav
192,192,360433,128,0,377572:0:0:0:60:kick-distort.wav
320,192,360433,1,0,0:0:0:0:
448,192,360433,1,0,0:0:0:0:
448,192,377572,1,0,0:0:0:0:
320,192,377614,1,0,0:0:0:0:
192,192,377656,1,0,0:0:0:0:
64,192,377697,1,0,0:0:0:0:
320,192,377739,1,0,0:0:0:0:
448,192,377781,1,0,0:0:0:0:
192,192,377822,1,0,0:0:0:0:
64,192,377864,1,0,0:0:0:0:
320,192,377906,1,0,0:0:0:0:
192,192,377947,1,0,0:0:0:0:
448,192,377989,1,0,0:0:0:0:
320,192,378031,1,0,0:0:0:0:
64,192,378072,128,0,378447:0:0:0:0:
192,192,378072,128,0,378406:0:0:0:0:
448,192,378406,1,0,0:0:0:0:
320,192,378447,1,0,0:0:0:0:
192,192,378489,1,0,0:0:0:0:
64,192,378531,1,0,0:0:0:0:
448,192,378572,1,0,0:0:0:0:
320,192,378614,1,0,0:0:0:0:
192,192,378656,1,0,0:0:0:0:
64,192,378697,1,0,0:0:0:0:
320,192,378739,1,0,0:0:0:0:
448,192,378781,1,0,0:0:0:0:
64,192,378822,1,0,0:0:0:0:
192,192,378864,1,0,0:0:0:0:
320,192,378906,1,0,0:0:0:0:
448,192,378947,1,0,0:0:0:0:
64,192,378989,1,0,0:0:0:0:
192,192,379031,1,0,0:0:0:0:
320,192,379072,128,0,394683:0:0:0:0:
448,192,379072,128,0,394739:0:0:0:0:
64,192,384531,128,0,394794:0:0:0:0:
192,192,391572,128,0,394628:0:0:0:0:
192,192,394739,1,0,0:0:0:0:
320,192,394794,1,0,0:0:0:0:
448,192,394850,1,0,0:0:0:0:
64,192,394905,1,0,0:0:0:0:
192,192,394961,1,0,0:0:0:0:
320,192,395017,1,0,0:0:0:0:
64,192,395072,128,0,399072:0:0:0:50:kick-distort.wav
192,192,395072,128,0,399072:0:0:0:0:
448,192,395072,1,0,0:0:0:0:
320,192,395572,1,0,0:0:0:40:Snare-crunch.wav
448,192,395738,1,0,0:0:0:40:snare6.wav
320,192,396405,1,0,0:0:0:50:kick-distort.wav
448,192,396405,1,0,0:0:0:0:
320,192,396738,1,0,0:0:0:40:Snare-crunch.wav
448,192,397072,1,0,0:0:0:40:snare6.wav
320,192,397738,1,0,0:0:0:50:kick-distort.wav
448,192,397738,1,0,0:0:0:0:
320,192,398072,1,0,0:0:0:40:Snare-crunch.wav
448,192,398405,1,0,0:0:0:40:snare6.wav
320,192,399072,1,0,0:0:0:50:kick-distort.wav
448,192,399072,1,0,0:0:0:0:
192,192,399238,1,0,0:0:0:40:snare6.wav
320,192,399238,1,0,0:0:0:0:
64,192,399405,1,0,0:0:0:50:kick-distort.wav
192,192,399405,1,0,0:0:0:0:
320,192,399405,128,0,403405:0:0:0:0:
448,192,399405,128,0,403405:0:0:0:0:
64,192,399905,1,0,0:0:0:40:Snare-crunch.wav
192,192,400072,1,0,0:0:0:40:snare6.wav
64,192,400738,1,0,0:0:0:50:kick-distort.wav
192,192,400738,1,0,0:0:0:0:
64,192,401072,1,0,0:0:0:40:Snare-crunch.wav
192,192,401405,1,0,0:0:0:40:snare6.wav
64,192,402072,1,0,0:0:0:50:kick-distort.wav
192,192,402072,1,0,0:0:0:0:
64,192,402405,1,0,0:0:0:40:Snare-crunch.wav
192,192,402738,1,0,0:0:0:40:snare6.wav
64,192,403405,1,0,0:0:0:50:kick-distort.wav
192,192,403405,1,0,0:0:0:0:
192,192,403572,1,0,0:0:0:40:snare6.wav
320,192,403572,1,0,0:0:0:0:
64,192,403738,128,0,407738:0:0:0:50:kick-distort.wav
192,192,403738,128,0,407738:0:0:0:0:
320,192,403738,1,0,0:0:0:0:
448,192,403738,1,0,0:0:0:0:
448,192,404238,1,0,0:0:0:40:Snare-crunch.wav
320,192,404405,1,0,0:0:0:40:snare6.wav
320,192,405072,1,0,0:0:0:50:kick-distort.wav
448,192,405072,1,0,0:0:0:0:
448,192,405405,1,0,0:0:0:40:Snare-crunch.wav
320,192,405738,1,0,0:0:0:40:snare6.wav
320,192,406405,1,0,0:0:0:50:kick-distort.wav
448,192,406405,1,0,0:0:0:0:
448,192,406738,1,0,0:0:0:40:Snare-crunch.wav
320,192,407072,1,0,0:0:0:40:snare6.wav
320,192,407738,1,0,0:0:0:50:kick-distort.wav
448,192,407738,1,0,0:0:0:0:
192,192,407905,1,0,0:0:0:40:snare6.wav
320,192,407905,1,0,0:0:0:0:
64,192,408072,1,0,0:0:0:50:kick-distort.wav
192,192,408072,1,0,0:0:0:0:
320,192,408072,128,0,412072:0:0:0:0:
448,192,408072,128,0,412072:0:0:0:0:
192,192,408572,1,0,0:0:0:40:Snare-crunch.wav
64,192,408738,1,0,0:0:0:40:snare6.wav
64,192,409405,1,0,0:0:0:50:kick-distort.wav
192,192,409405,1,0,0:0:0:0:
192,192,409738,1,0,0:0:0:40:Snare-crunch.wav
64,192,410072,1,0,0:0:0:40:snare6.wav
64,192,410738,1,0,0:0:0:50:kick-distort.wav
192,192,410738,1,0,0:0:0:0:
192,192,411072,1,0,0:0:0:40:Snare-crunch.wav
64,192,411405,1,0,0:0:0:40:snare6.wav
64,192,412072,1,0,0:0:0:50:kick-distort.wav
192,192,412072,1,0,0:0:0:0:
192,192,412238,1,0,0:0:0:40:snare6.wav
320,192,412238,1,0,0:0:0:0:
64,192,412405,1,0,0:0:0:50:kick-distort.wav
192,192,412405,1,0,0:0:0:0:
320,192,412405,128,0,412905:0:0:0:0:
448,192,412405,128,0,416405:0:0:0:0:
64,192,412905,1,0,0:0:0:40:Snare-crunch.wav
64,192,413072,1,0,0:0:0:40:snare6.wav
192,192,413072,1,0,0:0:0:0:
320,192,413072,1,0,0:0:0:0:
320,192,413238,1,0,0:0:0:0:
320,192,413405,1,0,0:0:0:0:
320,192,413572,1,0,0:0:0:0:
64,192,413738,1,0,0:0:0:50:kick-distort.wav
192,192,413738,1,0,0:0:0:0:
320,192,413738,1,0,0:0:0:0:
320,192,413905,1,0,0:0:0:0:
64,192,414072,1,0,0:0:0:40:Snare-crunch.wav
320,192,414072,1,0,0:0:0:0:
320,192,414238,1,0,0:0:0:0:
192,192,414405,1,0,0:0:0:40:snare6.wav
320,192,414405,1,0,0:0:0:0:
320,192,414572,1,0,0:0:0:0:
320,192,414738,1,0,0:0:0:0:
320,192,414905,1,0,0:0:0:0:
64,192,415072,1,0,0:0:0:50:kick-distort.wav
192,192,415072,1,0,0:0:0:0:
320,192,415072,1,0,0:0:0:0:
320,192,415238,1,0,0:0:0:0:
64,192,415405,1,0,0:0:0:40:Snare-crunch.wav
192,192,415405,1,0,0:0:0:0:
320,192,415572,1,0,0:0:0:0:
192,192,415738,1,0,0:0:0:40:snare6.wav
320,192,415738,1,0,0:0:0:0:
192,192,415905,1,0,0:0:0:0:
320,192,416072,1,0,0:0:0:0:
320,192,416238,1,0,0:0:0:0:
64,192,416405,128,0,416572:0:0:0:50:kick-distort.wav
192,192,416405,1,0,0:0:0:0:
320,192,416405,1,0,0:0:0:0:
320,192,416572,128,0,416738:0:0:0:40:snare6.wav
448,192,416572,1,0,0:0:0:0:
64,192,416738,1,0,0:0:0:50:kick-distort.wav
192,192,416738,128,0,416905:0:0:0:0:
448,192,416738,1,0,0:0:0:0:
320,192,416905,128,0,417072:0:0:0:0:
64,192,417072,128,0,420738:0:0:0:0:
192,192,417072,1,0,0:0:0:0:
192,192,417238,1,0,0:0:0:40:Snare-crunch.wav
448,192,417238,1,0,0:0:0:0:
192,192,417405,1,0,0:0:0:40:snare6.wav
320,192,417405,1,0,0:0:0:0:
192,192,417572,1,0,0:0:0:0:
192,192,417738,1,0,0:0:0:0:
192,192,417905,1,0,0:0:0:0:
192,192,418072,1,0,0:0:0:50:kick-distort.wav
320,192,418072,1,0,0:0:0:0:
448,192,418072,1,0,0:0:0:0:
192,192,418238,1,0,0:0:0:0:
192,192,418405,1,0,0:0:0:40:Snare-crunch.wav
448,192,418405,1,0,0:0:0:0:
192,192,418572,1,0,0:0:0:0:
192,192,418738,1,0,0:0:0:40:snare6.wav
320,192,418738,1,0,0:0:0:0:
192,192,418905,1,0,0:0:0:0:
192,192,419072,1,0,0:0:0:0:
192,192,419238,1,0,0:0:0:0:
192,192,419405,1,0,0:0:0:50:kick-distort.wav
320,192,419405,1,0,0:0:0:0:
448,192,419405,1,0,0:0:0:0:
320,192,419572,1,0,0:0:0:0:
192,192,419738,1,0,0:0:0:40:Snare-crunch.wav
448,192,419738,1,0,0:0:0:0:
448,192,419905,1,0,0:0:0:0:
192,192,420072,1,0,0:0:0:40:snare6.wav
320,192,420072,1,0,0:0:0:0:
192,192,420238,1,0,0:0:0:0:
192,192,420405,1,0,0:0:0:0:
192,192,420572,1,0,0:0:0:0:
192,192,420738,1,0,0:0:0:50:kick-distort.wav
320,192,420738,1,0,0:0:0:0:
448,192,420738,1,0,0:0:0:0:
64,192,420905,1,0,0:0:0:40:snare6.wav
320,192,420905,128,0,421072:0:0:0:0:
64,192,421072,1,0,0:0:0:50:kick-distort.wav
192,192,421072,128,0,421405:0:0:0:0:
448,192,421072,1,0,0:0:0:0:
448,192,421405,128,0,421572:0:0:0:0:
192,192,421572,128,0,421738:0:0:0:40:Snare-crunch.wav
320,192,421572,1,0,0:0:0:0:
64,192,421738,1,0,0:0:0:40:snare6.wav
320,192,421738,128,0,425405:0:0:0:0:
448,192,421905,1,0,0:0:0:0:
448,192,422072,1,0,0:0:0:0:
448,192,422238,1,0,0:0:0:0:
64,192,422405,1,0,0:0:0:50:kick-distort.wav
192,192,422405,1,0,0:0:0:0:
448,192,422405,1,0,0:0:0:0:
448,192,422572,1,0,0:0:0:0:
64,192,422738,1,0,0:0:0:40:Snare-crunch.wav
448,192,422738,1,0,0:0:0:0:
448,192,422905,1,0,0:0:0:0:
192,192,423072,1,0,0:0:0:40:snare6.wav
448,192,423072,1,0,0:0:0:0:
448,192,423238,1,0,0:0:0:0:
448,192,423405,1,0,0:0:0:0:
448,192,423572,1,0,0:0:0:0:
64,192,423738,1,0,0:0:0:50:kick-distort.wav
192,192,423738,1,0,0:0:0:0:
448,192,423738,1,0,0:0:0:0:
448,192,423905,1,0,0:0:0:0:
64,192,424071,1,0,0:0:0:40:Snare-crunch.wav
448,192,424071,1,0,0:0:0:0:
448,192,424238,1,0,0:0:0:0:
192,192,424405,1,0,0:0:0:40:snare6.wav
448,192,424405,1,0,0:0:0:0:
448,192,424738,1,0,0:0:0:0:
448,192,424905,1,0,0:0:0:0:
64,192,425071,1,0,0:0:0:50:kick-distort.wav
192,192,425071,1,0,0:0:0:0:
448,192,425071,1,0,0:0:0:0:
64,192,425238,1,0,0:0:0:40:snare6.wav
448,192,425238,1,0,0:0:0:0:
64,192,425405,1,0,0:0:0:50:kick-distort.wav
192,192,425405,1,0,0:0:0:0:
448,192,425405,1,0,0:0:0:0:
320,192,425571,1,0,0:0:0:0:
64,192,425738,1,0,0:0:0:0:
64,192,425905,1,0,0:0:0:40:Snare-crunch.wav
192,192,425905,1,0,0:0:0:0:
192,192,426071,1,0,0:0:0:40:snare6.wav
320,192,426071,1,0,0:0:0:0:
448,192,426071,1,0,0:0:0:0:
448,192,426238,1,0,0:0:0:0:
192,192,426405,1,0,0:0:0:0:
320,192,426571,1,0,0:0:0:0:
64,192,426738,1,0,0:0:0:50:kick-distort.wav
192,192,426738,1,0,0:0:0:0:
448,192,426738,1,0,0:0:0:0:
192,192,426946,1,0,0:0:0:0:
64,192,427071,1,0,0:0:0:40:Snare-crunch.wav
448,192,427113,1,0,0:0:0:0:
320,192,427280,1,0,0:0:0:0:
64,192,427405,1,0,0:0:0:40:snare6.wav
192,192,427405,1,0,0:0:0:0:
448,192,427446,1,0,0:0:0:0:
320,192,427613,1,0,0:0:0:0:
192,192,427780,1,0,0:0:0:0:
64,192,427946,1,0,0:0:0:0:
192,192,428071,1,0,0:0:0:50:kick-distort.wav
448,192,428071,1,0,0:0:0:0:
320,192,428155,1,0,0:0:0:0:
448,192,428280,1,0,0:0:0:0:
320,192,428321,1,0,0:0:0:0:
192,192,428363,1,0,0:0:0:0:
64,192,428405,1,0,0:0:0:40:Snare-crunch.wav
448,192,428460,1,0,0:0:0:0:
192,192,428530,1,0,0:0:0:0:
64,192,428613,1,0,0:0:0:0:
320,192,428696,1,0,0:0:0:0:
64,192,428738,1,0,0:0:0:40:snare6.wav
192,192,428738,1,0,0:0:0:0:
448,192,428821,1,0,0:0:0:0:
320,192,428863,1,0,0:0:0:0:
64,192,428905,1,0,0:0:0:0:
192,192,428946,1,0,0:0:0:0:
320,192,429016,1,0,0:0:0:0:
64,192,429071,1,0,0:0:0:0:
192,192,429113,1,0,0:0:0:0:
448,192,429196,1,0,0:0:0:0:
320,192,429238,1,0,0:0:0:0:
64,192,429280,1,0,0:0:0:0:
320,192,429405,1,0,0:0:0:50:kick-distort.wav
448,192,429405,1,0,0:0:0:0:
192,192,429446,1,0,0:0:0:0:
320,192,429530,1,0,0:0:0:0:
448,192,429571,1,0,0:0:0:40:snare6.wav
192,192,429655,1,0,0:0:0:0:
320,192,429696,1,0,0:0:0:0:
64,192,429738,1,0,0:0:0:50:kick-distort.wav
448,192,429738,1,0,0:0:0:0:
192,192,429780,1,0,0:0:0:0:
320,192,429863,1,0,0:0:0:0:
64,192,429905,1,0,0:0:0:40:snare6.wav
192,192,429946,1,0,0:0:0:0:
320,192,430030,1,0,0:0:0:0:
64,192,430071,1,0,0:0:0:40:snare6.wav
448,192,430071,1,0,0:0:0:0:
192,192,430155,1,0,0:0:0:0:
64,192,430238,128,0,430988:0:0:0:50:kick-distort.wav
320,192,430238,1,0,0:0:0:0:
448,192,430238,128,0,430988:0:0:0:0:
64,192,431071,128,0,432321:0:0:0:0:
448,192,431071,128,0,432321:0:0:0:0:
64,192,432405,128,0,433655:0:0:0:0:
448,192,432405,128,0,433655:0:0:0:0:
64,192,433738,128,0,435321:0:0:0:0:
448,192,433738,128,0,435321:0:0:0:0:
64,192,435405,128,0,437238:0:0:0:0:
448,192,435405,128,0,437238:0:0:0:0:
64,192,437321,128,0,439655:0:0:0:0:
448,192,437321,128,0,439655:0:0:0:0:
64,192,439738,128,0,443738:0:0:0:0:
448,192,439739,128,0,447072:0:0:0:0:
64,192,447072,1,0,0:0:0:0:
448,192,447128,1,0,0:0:0:0:
64,192,447183,1,0,0:0:0:0:
448,192,447239,1,0,0:0:0:0:
64,192,447294,1,0,0:0:0:50:Finish.ogg
192,192,447294,1,0,0:0:0:0:
448,192,447540,1,0,0:0:0:0:
320,192,447664,1,0,0:0:0:0:
64,192,447787,1,0,0:0:0:0:
192,192,447787,1,0,0:0:0:0:
320,192,447911,1,0,0:0:0:0:
448,192,448034,1,0,0:0:0:0:
64,192,448158,1,0,0:0:0:0:
192,192,448158,1,0,0:0:0:0:
320,192,448405,1,0,0:0:0:0:
192,192,448528,1,0,0:0:0:0:
64,192,448652,1,0,0:0:0:0:
448,192,448652,1,0,0:0:0:0:
320,192,448775,1,0,0:0:0:0:
192,192,448898,1,0,0:0:0:0:
64,192,449022,128,0,449269:0:0:0:0:
320,192,449269,1,0,0:0:0:0:
448,192,449269,1,0,0:0:0:0:
448,192,449516,1,0,0:0:0:0:
448,192,449639,1,0,0:0:0:0:
192,192,449763,1,0,0:0:0:0:
320,192,449824,1,0,0:0:0:0:
192,192,449886,1,0,0:0:0:0:
64,192,450010,1,0,0:0:0:0:
448,192,450071,1,0,0:0:0:0:
320,192,450133,1,0,0:0:0:0:
192,192,450195,1,0,0:0:0:0:
64,192,450256,1,0,0:0:0:0:
448,192,450256,1,0,0:0:0:0:
320,192,450317,1,0,0:0:0:0:
192,192,450379,1,0,0:0:0:0:
320,192,450441,1,0,0:0:0:0:
192,192,450502,1,0,0:0:0:0:
64,192,450749,1,0,0:0:0:0:
192,192,450749,1,0,0:0:0:0:
192,192,450997,1,0,0:0:0:0:
320,192,450997,1,0,0:0:0:0:
64,192,451367,1,0,0:0:0:0:
448,192,451429,1,0,0:0:0:0:
192,192,451573,1,0,0:0:0:0:
320,192,451573,1,0,0:0:0:0:
320,192,451737,1,0,0:0:0:0:
448,192,451737,1,0,0:0:0:0:
64,192,451902,1,0,0:0:0:0:
448,192,451902,1,0,0:0:0:0:
192,192,452047,128,0,452170:0:0:0:0:
448,192,452170,128,0,452293:0:0:0:0:
192,192,452293,128,0,452417:0:0:0:0:
64,192,452417,1,0,0:0:0:0:
64,192,452540,1,0,0:0:0:0:
320,192,452664,1,0,0:0:0:0:
192,192,452746,1,0,0:0:0:0:
448,192,452828,1,0,0:0:0:0:
320,192,452910,1,0,0:0:0:0:
64,192,452993,1,0,0:0:0:0:
192,192,453075,1,0,0:0:0:0:
64,192,453157,1,0,0:0:0:0:
448,192,453157,1,0,0:0:0:0:
192,192,453322,1,0,0:0:0:0:
320,192,453322,1,0,0:0:0:0:
64,192,453487,128,0,453733:0:0:0:0:
192,192,453651,128,0,453733:0:0:0:0:
448,192,453733,128,0,453980:0:0:0:0:
320,192,453857,128,0,453939:0:0:0:0:
64,192,453980,128,0,454227:0:0:0:0:
192,192,453980,128,0,454063:0:0:0:0:
448,192,454227,128,0,454474:0:0:0:0:
320,192,454330,128,0,454474:0:0:0:0:
64,192,454474,128,0,454721:0:0:0:0:
192,192,454598,128,0,454721:0:0:0:0:
320,192,454721,1,0,0:0:0:0:
448,192,454721,1,0,0:0:0:0:
64,192,454844,1,0,0:0:0:0:
192,192,454906,1,0,0:0:0:0:
320,192,454967,1,0,0:0:0:0:
448,192,454967,1,0,0:0:0:0:
64,192,455091,1,0,0:0:0:0:
192,192,455091,1,0,0:0:0:0:
320,192,455214,1,0,0:0:0:0:
448,192,455214,1,0,0:0:0:0:
192,192,455276,1,0,0:0:0:0:
64,192,455338,1,0,0:0:0:0:
192,192,455461,1,0,0:0:0:0:
320,192,455523,1,0,0:0:0:0:
64,192,455585,1,0,0:0:0:0:
448,192,455585,1,0,0:0:0:0:
192,192,455646,1,0,0:0:0:0:
320,192,455709,1,0,0:0:0:0:
448,192,455832,1,0,0:0:0:0:
320,192,455873,1,0,0:0:0:0:
64,192,455914,1,0,0:0:0:0:
192,192,455955,1,0,0:0:0:0:
448,192,455997,1,0,0:0:0:0:
320,192,456038,1,0,0:0:0:0:
64,192,456079,1,0,0:0:0:0:
192,192,456120,1,0,0:0:0:0:
320,192,456161,1,0,0:0:0:0:
64,192,456202,1,0,0:0:0:0:
448,192,456202,1,0,0:0:0:0:
192,192,456264,1,0,0:0:0:0:
320,192,456326,1,0,0:0:0:0:
192,192,456388,1,0,0:0:0:0:
64,192,456449,1,0,0:0:0:0:
320,192,456480,1,0,0:0:0:0:
448,192,456480,1,0,0:0:0:0:
192,192,456573,1,0,0:0:0:0:
64,192,456634,1,0,0:0:0:0:
320,192,456665,1,0,0:0:0:0:
448,192,456665,1,0,0:0:0:0:
64,192,456820,1,0,0:0:0:0:
192,192,456820,1,0,0:0:0:0:
320,192,456881,1,0,0:0:0:0:
64,192,456943,1,0,0:0:0:0:
192,192,456943,1,0,0:0:0:0:
448,192,457005,1,0,0:0:0:0:
64,192,457066,1,0,0:0:0:0:
192,192,457066,1,0,0:0:0:0:
320,192,457128,1,0,0:0:0:0:
448,192,457190,1,0,0:0:0:0:
192,192,457252,1,0,0:0:0:0:
320,192,457313,1,0,0:0:0:0:
448,192,457313,1,0,0:0:0:0:
64,192,457375,1,0,0:0:0:0:
192,192,457375,1,0,0:0:0:0:
448,192,457437,1,0,0:0:0:0:
320,192,457499,1,0,0:0:0:0:
64,192,457560,1,0,0:0:0:0:
192,192,457561,1,0,0:0:0:0:
320,192,457653,1,0,0:0:0:0:
192,192,457746,1,0,0:0:0:0:
320,192,457807,1,0,0:0:0:0:
448,192,457807,1,0,0:0:0:0:
64,192,457869,1,0,0:0:0:0:
192,192,457900,1,0,0:0:0:0:
320,192,457931,1,0,0:0:0:0:
64,192,457993,1,0,0:0:0:0:
192,192,458054,128,0,458301:0:0:0:0:
64,192,458301,1,0,0:0:0:0:
448,192,458301,1,0,0:0:0:0:
320,192,458372,1,0,0:0:0:0:
192,192,458442,1,0,0:0:0:0:
64,192,458513,1,0,0:0:0:0:
320,192,458583,1,0,0:0:0:0:
192,192,458654,1,0,0:0:0:0:
64,192,458734,1,0,0:0:0:0:
448,192,458734,1,0,0:0:0:0:
320,192,458795,1,0,0:0:0:0:
192,192,458857,1,0,0:0:0:0:
320,192,458919,1,0,0:0:0:0:
448,192,458919,1,0,0:0:0:0:
64,192,458980,1,0,0:0:0:0:
320,192,459104,1,0,0:0:0:0:
448,192,459104,1,0,0:0:0:0:
320,192,459227,1,0,0:0:0:0:
448,192,459227,1,0,0:0:0:0:
192,192,459351,1,0,0:0:0:0:
448,192,459413,1,0,0:0:0:0:
64,192,459474,1,0,0:0:0:0:
192,192,459536,1,0,0:0:0:0:
320,192,459598,1,0,0:0:0:0:
448,192,459659,1,0,0:0:0:0:
64,192,459659,1,0,0:0:0:0:
320,192,459721,1,0,0:0:0:0:
64,192,459783,1,0,0:0:0:0:
192,192,459783,128,0,459906:0:0:0:0:
320,192,459906,1,0,0:0:0:0:
448,192,459906,128,0,460029:0:0:0:0:
64,192,460029,1,0,0:0:0:0:
192,192,460029,128,0,460153:0:0:0:0:
320,192,460153,1,0,0:0:0:0:
448,192,460215,1,0,0:0:0:0:
64,192,460276,1,0,0:0:0:0:
192,192,460276,1,0,0:0:0:0:
320,192,460338,1,0,0:0:0:0:
448,192,460400,1,0,0:0:0:0:
64,192,460482,1,0,0:0:0:0:
320,192,460482,1,0,0:0:0:0:
192,192,460564,1,0,0:0:0:0:
64,192,460646,1,0,0:0:0:0:
320,192,460646,1,0,0:0:0:0:
448,192,460729,1,0,0:0:0:0:
64,192,460811,1,0,0:0:0:0:
320,192,460811,1,0,0:0:0:0:
192,192,460893,1,0,0:0:0:0:
320,192,460976,1,0,0:0:0:0:
448,192,460976,1,0,0:0:0:0:
64,192,461058,1,0,0:0:0:0:
448,192,461223,1,0,0:0:0:0:
448,192,461305,1,0,0:0:0:0:
64,192,461428,1,0,0:0:0:0:
192,192,461428,1,0,0:0:0:0:
448,192,461490,1,0,0:0:0:0:
320,192,461553,1,0,0:0:0:0:
64,192,461614,1,0,0:0:0:0:
320,192,461676,1,0,0:0:0:0:
64,192,461738,1,0,0:0:0:0:
320,192,461799,1,0,0:0:0:0:
448,192,461799,1,0,0:0:0:0:
192,192,461923,1,0,0:0:0:0:
448,192,461923,1,0,0:0:0:0:
64,192,462046,1,0,0:0:0:0:
320,192,462046,128,0,462293:0:0:0:0:
192,192,462293,1,0,0:0:0:0:
448,192,462293,1,0,0:0:0:0:
64,192,462540,1,0,0:0:0:35:snare-a.wav
192,192,462540,1,0,0:0:0:0:
320,192,462602,1,0,0:0:0:40:snare-a.wav
448,192,462602,1,0,0:0:0:0:
64,192,462664,1,0,0:0:0:45:snare-a.wav
192,192,462664,1,0,0:0:0:0:
320,192,462725,1,0,0:0:0:50:snare-a.wav
448,192,462725,1,0,0:0:0:0:
64,192,462787,1,0,0:0:0:70:kickdrum.wav
192,192,462787,1,0,0:0:0:0:
320,192,462869,1,0,0:0:0:0:
192,192,462951,1,0,0:0:0:0:
448,192,463033,1,0,0:0:0:50:LR_HiHat Click2.wav
64,192,463116,1,0,0:0:0:0:
320,192,463157,1,0,0:0:0:70:kickdrum.wav
448,192,463157,1,0,0:0:0:0:
192,192,463198,1,0,0:0:0:0:
64,192,463280,1,0,0:0:0:50:snare-a.wav
320,192,463280,1,0,0:0:0:0:
192,192,463363,1,0,0:0:0:0:
448,192,463404,1,0,0:0:0:0:
320,192,463445,1,0,0:0:0:0:
64,192,463527,1,0,0:0:0:50:LR_HiHat Click2.wav
192,192,463610,1,0,0:0:0:0:
320,192,463651,1,0,0:0:0:70:kickdrum.wav
448,192,463651,1,0,0:0:0:0:
64,192,463692,1,0,0:0:0:0:
192,192,463774,1,0,0:0:0:0:
64,192,463856,1,0,0:0:0:0:
320,192,463898,1,0,0:0:0:70:kickdrum.wav
448,192,463898,1,0,0:0:0:0:
192,192,463939,1,0,0:0:0:0:
320,192,464021,1,0,0:0:0:50:LR_HiHat Click2.wav
448,192,464103,1,0,0:0:0:0:
64,192,464145,1,0,0:0:0:70:kickdrum.wav
192,192,464145,1,0,0:0:0:0:
320,192,464186,1,0,0:0:0:0:
64,192,464268,1,0,0:0:0:50:snare-a.wav
448,192,464268,1,0,0:0:0:0:
192,192,464350,1,0,0:0:0:0:
320,192,464391,1,0,0:0:0:0:
64,192,464433,1,0,0:0:0:0:
192,192,464515,1,0,0:0:0:70:hat5.wav
448,192,464515,128,0,464763:0:0:0:0:
320,192,464597,1,0,0:0:0:0:
64,192,464680,1,0,0:0:0:0:
192,192,464763,1,0,0:0:0:70:kickdrum.wav
320,192,464763,1,0,0:0:0:0:
448,192,464845,1,0,0:0:0:0:
192,192,464927,1,0,0:0:0:0:
448,192,465009,1,0,0:0:0:50:LR_HiHat Click2.wav
64,192,465092,1,0,0:0:0:0:
320,192,465133,1,0,0:0:0:70:kickdrum.wav
448,192,465133,1,0,0:0:0:0:
192,192,465174,1,0,0:0:0:0:
64,192,465256,1,0,0:0:0:50:snare-a.wav
320,192,465256,1,0,0:0:0:0:
192,192,465339,1,0,0:0:0:0:
448,192,465380,1,0,0:0:0:0:
320,192,465421,1,0,0:0:0:0:
64,192,465503,1,0,0:0:0:50:LR_HiHat Click2.wav
448,192,465585,1,0,0:0:0:0:
64,192,465626,1,0,0:0:0:70:kickdrum.wav
192,192,465626,1,0,0:0:0:0:
320,192,465667,1,0,0:0:0:0:
64,192,465749,1,0,0:0:0:50:snare-a.wav
448,192,465749,1,0,0:0:0:0:
192,192,465832,1,0,0:0:0:0:
320,192,465873,128,0,465996:0:0:0:70:hat5.wav
64,192,465935,1,0,0:0:0:0:
192,192,465996,1,0,0:0:0:70:kickdrum.wav
448,192,465996,1,0,0:0:0:0:
64,192,466120,1,0,0:0:0:50:snare-a.wav
192,192,466120,1,0,0:0:0:0:
320,192,466243,1,0,0:0:0:70:hat5.wav
448,192,466243,128,0,466491:0:0:0:0:
192,192,466326,1,0,0:0:0:0:
320,192,466408,1,0,0:0:0:0:
64,192,466491,1,0,0:0:0:70:kickdrum.wav
192,192,466491,1,0,0:0:0:0:
64,192,466614,1,0,0:0:0:0:
192,192,466676,1,0,0:0:0:0:
320,192,466737,1,0,0:0:0:50:LR_HiHat Click2.wav
448,192,466737,1,0,0:0:0:0:
64,192,466861,1,0,0:0:0:70:kickdrum.wav
320,192,466861,1,0,0:0:0:0:
192,192,466923,1,0,0:0:0:0:
64,192,466984,1,0,0:0:0:50:snare-a.wav
448,192,466984,1,0,0:0:0:0:
320,192,467077,1,0,0:0:0:0:
192,192,467170,1,0,0:0:0:50:LR_HiHat Click2.wav
64,192,467231,1,0,0:0:0:70:kickdrum.wav
448,192,467231,1,0,0:0:0:0:
320,192,467355,1,0,0:0:0:50:snare-a.wav
448,192,467355,1,0,0:0:0:0:
64,192,467416,1,0,0:0:0:50:snare-a.wav
192,192,467416,1,0,0:0:0:0:
320,192,467478,1,0,0:0:0:50:snare-a.wav
448,192,467478,1,0,0:0:0:0:
64,192,467540,1,0,0:0:0:70:hat5.wav
192,192,467540,128,0,467663:0:0:0:0:
320,192,467663,1,0,0:0:0:50:clap-ch.wav
448,192,467663,128,0,467787:0:0:0:0:
192,192,467787,128,0,467910:0:0:0:70:kickdrum.wav
64,192,467787,1,0,0:0:0:0:
320,192,467848,1,0,0:0:0:0:
448,192,467941,1,0,0:0:0:0:
64,192,468033,1,0,0:0:0:50:snare-a.wav
192,192,468033,1,0,0:0:0:0:
320,192,468157,1,0,0:0:0:70:kickdrum.wav
448,192,468157,1,0,0:0:0:0:
64,192,468198,1,0,0:0:0:0:
192,192,468239,1,0,0:0:0:0:
320,192,468280,1,0,0:0:0:0:
64,192,468321,1,0,0:0:0:0:
448,192,468405,1,0,0:0:0:50:LR_HiHat Click2.wav
320,192,468446,1,0,0:0:0:0:
192,192,468487,1,0,0:0:0:0:
64,192,468528,1,0,0:0:0:70:kickdrum.wav
448,192,468528,1,0,0:0:0:0:
320,192,468569,1,0,0:0:0:0:
64,192,468651,1,0,0:0:0:50:snare-a.wav
192,192,468651,1,0,0:0:0:0:
64,192,468734,1,0,0:0:0:50:snare-a.wav
192,192,468734,1,0,0:0:0:0:
320,192,468816,1,0,0:0:0:50:snare-a.wav
448,192,468816,1,0,0:0:0:0:
320,192,468898,1,0,0:0:0:50:snare-a.wav
448,192,468898,1,0,0:0:0:0:
64,192,468981,1,0,0:0:0:70:kickdrum.wav
192,192,468981,1,0,0:0:0:0:
320,192,469104,128,0,469228:0:0:0:70:hat5.wav
64,192,469228,1,0,0:0:0:50:clap-ch.wav
448,192,469228,1,0,0:0:0:0:
64,192,469351,1,0,0:0:0:50:clap-ch.wav
448,192,469351,1,0,0:0:0:0:
192,192,469474,1,0,0:0:0:70:kickdrum.wav
320,192,469474,1,0,0:0:0:0:
448,192,469536,1,0,0:0:0:0:
64,192,469598,128,0,469721:0:0:0:70:hat5.wav
320,192,469721,1,0,0:0:0:50:snare-a.wav
448,192,469721,1,0,0:0:0:0:
192,192,469845,1,0,0:0:0:0:
320,192,469907,1,0,0:0:0:0:
64,192,469968,1,0,0:0:0:50:snare-a.wav
448,192,469968,1,0,0:0:0:0:
192,192,470009,1,0,0:0:0:50:snare-a.wav
320,192,470051,1,0,0:0:0:50:snare-a.wav
64,192,470092,1,0,0:0:0:50:snare-a.wav
448,192,470092,1,0,0:0:0:0:
192,192,470153,1,0,0:0:0:50:snare-a.wav
320,192,470215,1,0,0:0:0:70:kickdrum.wav
448,192,470215,1,0,0:0:0:0:
192,192,470338,1,0,0:0:0:0:
320,192,470400,1,0,0:0:0:0:
64,192,470461,1,0,0:0:0:50:LR_HiHat Click2.wav
192,192,470461,1,0,0:0:0:0:
320,192,470585,1,0,0:0:0:70:kickdrum.wav
448,192,470585,1,0,0:0:0:0:
64,192,470708,1,0,0:0:0:50:snare-a.wav
448,192,470708,1,0,0:0:0:0:
192,192,470770,1,0,0:0:0:0:
320,192,470832,1,0,0:0:0:0:
192,192,470955,1,0,0:0:0:50:LR_HiHat Click2.wav
320,192,471017,1,0,0:0:0:0:
64,192,471080,1,0,0:0:0:70:kickdrum.wav
448,192,471080,1,0,0:0:0:0:
192,192,471141,1,0,0:0:0:0:
320,192,471203,1,0,0:0:0:0:
64,192,471326,1,0,0:0:0:70:kickdrum.wav
192,192,471326,1,0,0:0:0:0:
448,192,471368,1,0,0:0:0:0:
320,192,471409,1,0,0:0:0:0:
64,192,471450,1,0,0:0:0:50:LR_HiHat Click2.wav
192,192,471491,1,0,0:0:0:0:
320,192,471532,1,0,0:0:0:0:
64,192,471573,1,0,0:0:0:70:kickdrum.wav
448,192,471573,1,0,0:0:0:0:
192,192,471614,1,0,0:0:0:0:
320,192,471656,1,0,0:0:0:0:
64,192,471697,1,0,0:0:0:50:snare-a.wav
192,192,471697,1,0,0:0:0:0:
448,192,471759,1,0,0:0:0:0:
320,192,471820,1,0,0:0:0:0:
448,192,471882,1,0,0:0:0:0:
64,192,471944,1,0,0:0:0:50:LR_HiHat Click2.wav
192,192,471974,1,0,0:0:0:50:snare-a.wav
64,192,472046,1,0,0:0:0:50:snare-a.wav
192,192,472046,1,0,0:0:0:0:
448,192,472129,1,0,0:0:0:50:LR_HiHat Click2.wav
320,192,472160,1,0,0:0:0:50:snare-a.wav
320,192,472232,1,0,0:0:0:50:snare-a.wav
448,192,472232,1,0,0:0:0:0:
64,192,472314,1,0,0:0:0:70:kickdrum.wav
192,192,472314,1,0,0:0:0:0:
448,192,472376,1,0,0:0:0:0:
64,192,472437,1,0,0:0:0:70:hat5.wav
192,192,472437,1,0,0:0:0:0:
320,192,472499,1,0,0:0:0:0:
64,192,472561,1,0,0:0:0:0:
192,192,472561,1,0,0:0:0:0:
448,192,472623,1,0,0:0:0:0:
64,192,472684,1,0,0:0:0:70:kickdrum.wav
320,192,472684,1,0,0:0:0:0:
192,192,472746,1,0,0:0:0:0:
320,192,472808,1,0,0:0:0:50:snare-a.wav
448,192,472808,1,0,0:0:0:0:
64,192,472869,1,0,0:0:0:0:
192,192,472931,1,0,0:0:0:0:
320,192,472993,1,0,0:0:0:0:
64,192,473055,1,0,0:0:0:70:kickdrum.wav
448,192,473055,1,0,0:0:0:0:
192,192,473137,1,0,0:0:0:0:
320,192,473178,1,0,0:0:0:50:LR_HiHat Click2.wav
64,192,473240,1,0,0:0:0:50:LR_HiHat Click2.wav
320,192,473302,1,0,0:0:0:70:kickdrum.wav
448,192,473302,1,0,0:0:0:0:
192,192,473363,1,0,0:0:0:0:
64,192,473425,1,0,0:0:0:50:snare-a.wav
448,192,473425,1,0,0:0:0:0:
320,192,473486,1,0,0:0:0:0:
64,192,473548,1,0,0:0:0:50:snare-a.wav
192,192,473548,1,0,0:0:0:0:
320,192,473604,1,0,0:0:0:50:snare-a.wav
448,192,473604,1,0,0:0:0:0:
64,192,473661,1,0,0:0:0:50:snare-a.wav
192,192,473661,1,0,0:0:0:0:
320,192,473718,1,0,0:0:0:50:snare-a.wav
448,192,473718,1,0,0:0:0:0:
64,192,473774,1,0,0:0:0:50:snare-a.wav
192,192,473774,1,0,0:0:0:0:
320,192,473831,1,0,0:0:0:50:snare-a.wav
448,192,473831,1,0,0:0:0:0:
64,192,473888,1,0,0:0:0:50:snare-a.wav
192,192,473888,1,0,0:0:0:0:
320,192,473944,1,0,0:0:0:50:snare-a.wav
448,192,473944,1,0,0:0:0:0:
64,192,474001,1,0,0:0:0:50:snare-a.wav
192,192,474001,1,0,0:0:0:0:
320,192,474058,1,0,0:0:0:50:snare-a.wav
448,192,474058,1,0,0:0:0:0:
64,192,474115,1,0,0:0:0:50:snare-a.wav
192,192,474115,1,0,0:0:0:0:
320,192,474171,1,0,0:0:0:50:snare-a.wav
448,192,474171,1,0,0:0:0:0:
64,192,474228,1,0,0:0:0:70:kickdrum.wav
192,192,474228,1,0,0:0:0:0:
320,192,474351,1,0,0:0:0:0:
192,192,474413,1,0,0:0:0:70:kickdrum.wav
448,192,474413,1,0,0:0:0:0:
64,192,474474,1,0,0:0:0:50:LR_HiHat Click2.wav
320,192,474598,1,0,0:0:0:70:kickdrum.wav
448,192,474598,1,0,0:0:0:0:
64,192,474660,1,0,0:0:0:70:kickdrum.wav
192,192,474660,1,0,0:0:0:0:
320,192,474721,1,0,0:0:0:50:snare-a.wav
448,192,474721,1,0,0:0:0:0:
192,192,474845,1,0,0:0:0:0:
64,192,474907,1,0,0:0:0:0:
448,192,474968,1,0,0:0:0:50:LR_HiHat Click2.wav
320,192,475030,1,0,0:0:0:0:
192,192,475092,1,0,0:0:0:0:
192,192,475174,1,0,0:0:0:0:
64,192,475277,128,0,475400:0:0:0:70:kickdrum.wav
448,192,475277,1,0,0:0:0:0:
320,192,475400,128,0,475523:0:0:0:50:LR_HiHat Click2.wav
192,192,475462,1,0,0:0:0:50:LR_HiHat Click2.wav
64,192,475523,128,0,475647:0:0:0:70:kickdrum.wav
448,192,475523,1,0,0:0:0:0:
448,192,475647,128,0,475770:0:0:0:70:hat5.wav
192,192,475709,1,0,0:0:0:0:
64,192,475770,1,0,0:0:0:50:snare-a.wav
320,192,475770,1,0,0:0:0:0:
448,192,475832,1,0,0:0:0:0:
64,192,475894,1,0,0:0:0:70:kickdrum.wav
320,192,475894,1,0,0:0:0:0:
192,192,475976,1,0,0:0:0:50:LR_HiHat Click2.wav
448,192,475976,1,0,0:0:0:0:
64,192,476058,1,0,0:0:0:50:LR_HiHat Click2.wav
192,192,476140,1,0,0:0:0:70:kickdrum.wav
448,192,476140,1,0,0:0:0:0:
320,192,476223,1,0,0:0:0:0:
64,192,476305,1,0,0:0:0:50:snare-a.wav
192,192,476305,1,0,0:0:0:0:
320,192,476387,128,0,476552:0:0:0:50:snare-a.wav
448,192,476387,1,0,0:0:0:0:
64,192,476470,1,0,0:0:0:0:
192,192,476552,1,0,0:0:0:50:clap-ch.wav
448,192,476552,1,0,0:0:0:0:
64,192,476634,1,0,0:0:0:50:clap-ch.wav
320,192,476634,1,0,0:0:0:0:
192,192,476717,1,0,0:0:0:0:
320,192,476789,1,0,0:0:0:50:snare-a.wav
448,192,476789,1,0,0:0:0:0:
192,192,476881,1,0,0:0:0:50:clap-ch.wav
64,192,476912,1,0,0:0:0:50:snare-a.wav
320,192,476958,1,0,0:0:0:50:clap-ch.wav
448,192,476989,1,0,0:0:0:50:snare-a.wav
192,192,477035,1,0,0:0:0:50:clap-ch.wav
64,192,477066,1,0,0:0:0:50:snare-a.wav
320,192,477128,1,0,0:0:0:50:clap-ch.wav
448,192,477128,1,0,0:0:0:50:LR_HiHat Click2.wav
64,192,477211,1,0,0:0:0:70:kickdrum.wav
192,192,477211,1,0,0:0:0:0:
448,192,477272,1,0,0:0:0:0:
192,192,477334,1,0,0:0:0:50:LR_HiHat Click2.wav
448,192,477396,1,0,0:0:0:50:LR_HiHat Click2.wav
64,192,477457,1,0,0:0:0:70:kickdrum.wav
320,192,477457,1,0,0:0:0:0:
64,192,477581,1,0,0:0:0:70:kickdrum.wav
320,192,477581,1,0,0:0:0:0:
192,192,477704,128,0,477828:0:0:0:70:hat5.wav
448,192,477704,1,0,0:0:0:0:
64,192,477828,1,0,0:0:0:70:kickdrum.wav
320,192,477828,1,0,0:0:0:0:
320,192,477951,1,0,0:0:0:70:kickdrum.wav
448,192,477951,1,0,0:0:0:0:
64,192,478075,1,0,0:0:0:50:snare-a.wav
192,192,478075,1,0,0:0:0:0:
320,192,478136,1,0,0:0:0:50:snare-a.wav
448,192,478136,1,0,0:0:0:0:
64,192,478198,1,0,0:0:0:0:
192,192,478239,1,0,0:0:0:0:
320,192,478280,1,0,0:0:0:0:
448,192,478322,1,0,0:0:0:0:
192,192,478363,1,0,0:0:0:0:
320,192,478404,1,0,0:0:0:0:
64,192,478445,1,0,0:0:0:0:
192,192,478486,1,0,0:0:0:0:
320,192,478527,1,0,0:0:0:0:
64,192,478569,1,0,0:0:0:0:
448,192,478630,1,0,0:0:0:0:
320,192,478692,1,0,0:0:0:0:
192,192,478754,1,0,0:0:0:0:
64,192,478815,1,0,0:0:0:0:
320,192,478877,1,0,0:0:0:0:
192,192,478939,1,0,0:0:0:0:
448,192,479001,1,0,0:0:0:0:
320,192,479062,1,0,0:0:0:0:
192,192,479124,1,0,0:0:0:0:
64,192,479187,1,0,0:0:0:50:Hardstyle.wav
320,192,479187,1,0,0:0:0:0:
448,192,479187,1,0,0:0:0:0:
320,192,479351,1,0,0:0:0:0:
64,192,479433,1,0,0:0:0:50:Hardstyle.wav
192,192,479433,1,0,0:0:0:0:
448,192,479433,1,0,0:0:0:0:
192,192,479598,1,0,0:0:0:0:
64,192,479680,1,0,0:0:0:50:Hardstyle.wav
320,192,479680,1,0,0:0:0:0:
448,192,479680,1,0,0:0:0:0:
448,192,479845,1,0,0:0:0:0:
64,192,479927,1,0,0:0:0:50:Hardstyle.wav
192,192,479927,1,0,0:0:0:0:
320,192,479927,1,0,0:0:0:0:
64,192,480092,1,0,0:0:0:0:
192,192,480174,1,0,0:0:0:50:Hardstyle.wav
320,192,480174,1,0,0:0:0:0:
448,192,480174,1,0,0:0:0:0:
320,192,480338,1,0,0:0:0:0:
64,192,480420,1,0,0:0:0:50:Hardstyle.wav
192,192,480420,1,0,0:0:0:0:
448,192,480420,1,0,0:0:0:0:
192,192,480585,1,0,0:0:0:0:
64,192,480667,1,0,0:0:0:50:Hardstyle.wav
320,192,480667,1,0,0:0:0:0:
448,192,480667,1,0,0:0:0:0:
448,192,480832,1,0,0:0:0:0:
64,192,480914,1,0,0:0:0:60:Hardstyle-phase.wav
192,192,480914,1,0,0:0:0:0:
320,192,480914,1,0,0:0:0:0:
448,192,480997,1,0,0:0:0:0:
64,192,481161,1,0,0:0:0:50:Hardstyle.wav
320,192,481161,1,0,0:0:0:0:
448,192,481161,1,0,0:0:0:0:
192,192,481243,1,0,0:0:0:0:
320,192,481326,1,0,0:0:0:0:
64,192,481408,1,0,0:0:0:60:Hardstyle-phase.wav
192,192,481408,1,0,0:0:0:0:
448,192,481408,1,0,0:0:0:0:
320,192,481490,1,0,0:0:0:0:
192,192,481573,1,0,0:0:0:0:
64,192,481656,1,0,0:0:0:50:Hardstyle.wav
320,192,481656,1,0,0:0:0:0:
448,192,481656,1,0,0:0:0:0:
320,192,481820,1,0,0:0:0:0:
64,192,481902,1,0,0:0:0:50:Hardstyle.wav
192,192,481902,1,0,0:0:0:0:
448,192,481902,1,0,0:0:0:0:
448,192,482067,1,0,0:0:0:0:
64,192,482149,1,0,0:0:0:50:Hardstyle.wav
192,192,482149,1,0,0:0:0:0:
320,192,482149,1,0,0:0:0:0:
64,192,482314,1,0,0:0:0:0:
192,192,482396,1,0,0:0:0:50:Hardstyle.wav
320,192,482396,1,0,0:0:0:0:
448,192,482396,1,0,0:0:0:0:
320,192,482561,1,0,0:0:0:0:
64,192,482643,1,0,0:0:0:50:Hardstyle.wav
192,192,482643,1,0,0:0:0:0:
448,192,482643,1,0,0:0:0:0:
192,192,482807,1,0,0:0:0:0:
64,192,482889,1,0,0:0:0:50:Hardstyle.wav
320,192,482889,1,0,0:0:0:0:
448,192,482889,1,0,0:0:0:0:
448,192,483054,1,0,0:0:0:0:
64,192,483136,1,0,0:0:0:50:Hardstyle.wav
192,192,483136,1,0,0:0:0:0:
320,192,483136,1,0,0:0:0:0:
192,192,483301,1,0,0:0:0:0:
320,192,483383,1,0,0:0:0:60:Hardstyle-phase.wav
448,192,483383,1,0,0:0:0:0:
64,192,483466,1,0,0:0:0:50:Hardstyle.wav
192,192,483466,1,0,0:0:0:0:
320,192,483630,1,0,0:0:0:50:Hardstyle.wav
448,192,483630,1,0,0:0:0:0:
64,192,483712,1,0,0:0:0:60:Hardstyle-phase.wav
192,192,483712,1,0,0:0:0:0:
320,192,483795,1,0,0:0:0:50:Hardstyle.wav
448,192,483795,1,0,0:0:0:0:
192,192,483959,1,0,0:0:0:0:
320,192,484042,1,0,0:0:0:60:Hardstyle-phase.wav
448,192,484042,1,0,0:0:0:0:
64,192,484125,1,0,0:0:0:50:Hardstyle.wav
192,192,484125,1,0,0:0:0:0:
192,192,484289,1,0,0:0:0:0:
64,192,484371,1,0,0:0:0:50:Hardstyle.wav
320,192,484371,1,0,0:0:0:0:
448,192,484371,1,0,0:0:0:0:
448,192,484536,1,0,0:0:0:0:
64,192,484618,1,0,0:0:0:50:Hardstyle.wav
192,192,484618,1,0,0:0:0:0:
320,192,484618,1,0,0:0:0:0:
64,192,484783,1,0,0:0:0:0:
192,192,484865,1,0,0:0:0:50:Hardstyle.wav
320,192,484865,1,0,0:0:0:0:
448,192,484865,1,0,0:0:0:0:
192,192,485030,1,0,0:0:0:0:
64,192,485112,1,0,0:0:0:50:Hardstyle.wav
320,192,485112,1,0,0:0:0:0:
448,192,485112,1,0,0:0:0:0:
320,192,485276,1,0,0:0:0:0:
64,192,485358,1,0,0:0:0:50:Hardstyle.wav
192,192,485358,1,0,0:0:0:0:
448,192,485358,1,0,0:0:0:0:
448,192,485523,1,0,0:0:0:0:
64,192,485605,1,0,0:0:0:50:Hardstyle.wav
192,192,485605,1,0,0:0:0:0:
320,192,485605,1,0,0:0:0:0:
192,192,485770,1,0,0:0:0:0:
64,192,485852,1,0,0:0:0:60:Hardstyle-phase.wav
320,192,485852,1,0,0:0:0:0:
448,192,485852,1,0,0:0:0:0:
192,192,485935,1,0,0:0:0:0:
64,192,486099,1,0,0:0:0:50:Hardstyle.wav
320,192,486099,1,0,0:0:0:0:
448,192,486099,1,0,0:0:0:0:
192,192,486181,1,0,0:0:0:0:
320,192,486264,1,0,0:0:0:0:
64,192,486346,1,0,0:0:0:60:Hardstyle-phase.wav
192,192,486346,1,0,0:0:0:0:
448,192,486346,1,0,0:0:0:0:
320,192,486428,1,0,0:0:0:0:
192,192,486511,1,0,0:0:0:0:
64,192,486594,1,0,0:0:0:50:Hardstyle.wav
320,192,486594,1,0,0:0:0:0:
448,192,486594,1,0,0:0:0:0:
448,192,486758,1,0,0:0:0:0:
64,192,486840,1,0,0:0:0:50:Hardstyle.wav
192,192,486840,1,0,0:0:0:0:
320,192,486840,1,0,0:0:0:0:
64,192,487005,1,0,0:0:0:0:
192,192,487087,1,0,0:0:0:50:Hardstyle.wav
320,192,487087,1,0,0:0:0:0:
448,192,487087,1,0,0:0:0:0:
320,192,487252,1,0,0:0:0:0:
64,192,487334,1,0,0:0:0:50:Hardstyle.wav
192,192,487334,1,0,0:0:0:0:
448,192,487334,1,0,0:0:0:0:
192,192,487499,1,0,0:0:0:0:
64,192,487582,1,0,0:0:0:50:Hardstyle.wav
320,192,487582,1,0,0:0:0:0:
448,192,487582,1,0,0:0:0:0:
64,192,487746,1,0,0:0:0:0:
192,192,487828,1,0,0:0:0:50:Hardstyle.wav
320,192,487828,1,0,0:0:0:0:
448,192,487828,1,0,0:0:0:0:
192,192,487993,1,0,0:0:0:0:
64,192,488075,1,0,0:0:0:50:Hardstyle.wav
320,192,488075,1,0,0:0:0:0:
448,192,488075,1,0,0:0:0:0:
64,192,488240,1,0,0:0:0:60:Hardstyle-phase.wav
192,192,488240,1,0,0:0:0:0:
320,192,488322,1,0,0:0:0:60:Hardstyle-phase.wav
448,192,488322,1,0,0:0:0:0:
64,192,488405,1,0,0:0:0:50:Hardstyle.wav
192,192,488405,1,0,0:0:0:0:
320,192,488487,1,0,0:0:0:0:
64,192,488569,1,0,0:0:0:60:Hardstyle-phase.wav
448,192,488569,1,0,0:0:0:0:
192,192,488651,1,0,0:0:0:60:Hardstyle-phase.wav
320,192,488651,1,0,0:0:0:0:
64,192,488734,1,0,0:0:0:50:Hardstyle.wav
448,192,488734,1,0,0:0:0:0:
192,192,488816,1,0,0:0:0:0:
320,192,488898,1,0,0:0:0:60:Hardstyle-phase.wav
448,192,488898,1,0,0:0:0:0:
64,192,488981,1,0,0:0:0:60:Hardstyle-phase.wav
192,192,488981,1,0,0:0:0:0:
320,192,489063,1,0,0:0:0:50:Hardstyle.wav
448,192,489063,1,0,0:0:0:0:
192,192,489227,1,0,0:0:0:0:
64,192,489309,1,0,0:0:0:50:Hardstyle.wav
320,192,489309,1,0,0:0:0:0:
448,192,489309,1,0,0:0:0:0:
320,192,489474,1,0,0:0:0:0:
64,192,489556,1,0,0:0:0:50:Hardstyle.wav
192,192,489556,1,0,0:0:0:0:
448,192,489556,1,0,0:0:0:0:
192,192,489721,1,0,0:0:0:0:
64,192,489803,1,0,0:0:0:50:Hardstyle.wav
320,192,489803,1,0,0:0:0:0:
448,192,489803,1,0,0:0:0:0:
64,192,489968,1,0,0:0:0:0:
192,192,490051,1,0,0:0:0:50:Hardstyle.wav
320,192,490051,1,0,0:0:0:0:
448,192,490051,1,0,0:0:0:0:
448,192,490215,1,0,0:0:0:0:
64,192,490297,1,0,0:0:0:50:Hardstyle.wav
192,192,490297,1,0,0:0:0:0:
320,192,490297,1,0,0:0:0:0:
320,192,490462,1,0,0:0:0:0:
64,192,490544,1,0,0:0:0:50:Hardstyle.wav
192,192,490544,1,0,0:0:0:0:
448,192,490544,1,0,0:0:0:0:
192,192,490709,1,0,0:0:0:0:
64,192,490791,1,0,0:0:0:60:Hardstyle-phase.wav
320,192,490791,1,0,0:0:0:0:
448,192,490791,1,0,0:0:0:0:
192,192,490874,1,0,0:0:0:0:
64,192,491038,1,0,0:0:0:50:Hardstyle.wav
320,192,491038,1,0,0:0:0:0:
448,192,491038,1,0,0:0:0:0:
192,192,491120,1,0,0:0:0:0:
320,192,491203,1,0,0:0:0:0:
64,192,491285,1,0,0:0:0:60:Hardstyle-phase.wav
192,192,491285,1,0,0:0:0:0:
448,192,491285,1,0,0:0:0:0:
320,192,491367,1,0,0:0:0:0:
192,192,491450,1,0,0:0:0:0:
64,192,491532,1,0,0:0:0:50:Hardstyle.wav
320,192,491532,1,0,0:0:0:0:
448,192,491532,1,0,0:0:0:0:
320,192,491696,1,0,0:0:0:0:
64,192,491778,1,0,0:0:0:50:Hardstyle.wav
192,192,491778,1,0,0:0:0:0:
448,192,491778,1,0,0:0:0:0:
448,192,491943,1,0,0:0:0:0:
64,192,492025,1,0,0:0:0:50:Hardstyle.wav
192,192,492025,1,0,0:0:0:0:
320,192,492025,1,0,0:0:0:0:
64,192,492190,1,0,0:0:0:0:
192,192,492272,1,0,0:0:0:50:Hardstyle.wav
320,192,492272,1,0,0:0:0:0:
448,192,492272,1,0,0:0:0:0:
192,192,492437,1,0,0:0:0:0:
64,192,492520,1,0,0:0:0:50:Hardstyle.wav
320,192,492520,1,0,0:0:0:0:
448,192,492520,1,0,0:0:0:0:
448,192,492684,1,0,0:0:0:0:
64,192,492766,1,0,0:0:0:50:Hardstyle.wav
192,192,492766,1,0,0:0:0:0:
320,192,492766,1,0,0:0:0:0:
320,192,492931,1,0,0:0:0:0:
64,192,493013,1,0,0:0:0:50:Hardstyle.wav
192,192,493013,1,0,0:0:0:0:
448,192,493013,1,0,0:0:0:0:
192,192,493178,1,0,0:0:0:0:
320,192,493260,1,0,0:0:0:60:Hardstyle-phase.wav
448,192,493260,1,0,0:0:0:0:
64,192,493343,1,0,0:0:0:50:Hardstyle.wav
192,192,493343,1,0,0:0:0:0:
320,192,493507,1,0,0:0:0:50:Hardstyle.wav
448,192,493507,1,0,0:0:0:0:
64,192,493589,1,0,0:0:0:60:Hardstyle-phase.wav
192,192,493589,1,0,0:0:0:0:
320,192,493672,1,0,0:0:0:50:Hardstyle.wav
448,192,493672,1,0,0:0:0:0:
192,192,493836,1,0,0:0:0:0:
320,192,493919,1,0,0:0:0:60:Hardstyle-phase.wav
448,192,493919,1,0,0:0:0:0:
64,192,494001,1,0,0:0:0:50:Hardstyle.wav
192,192,494001,1,0,0:0:0:0:
320,192,494165,1,0,0:0:0:0:
64,192,494247,1,0,0:0:0:50:Hardstyle.wav
192,192,494247,1,0,0:0:0:0:
448,192,494247,1,0,0:0:0:0:
192,192,494412,1,0,0:0:0:0:
64,192,494494,1,0,0:0:0:50:Hardstyle.wav
320,192,494494,1,0,0:0:0:0:
448,192,494494,1,0,0:0:0:0:
320,192,494659,1,0,0:0:0:0:
64,192,494741,1,0,0:0:0:50:Hardstyle.wav
192,192,494741,1,0,0:0:0:0:
448,192,494741,1,0,0:0:0:0:
448,192,494906,1,0,0:0:0:0:
64,192,494989,1,0,0:0:0:50:Hardstyle.wav
192,192,494989,1,0,0:0:0:0:
320,192,494989,1,0,0:0:0:0:
64,192,495153,1,0,0:0:0:0:
192,192,495235,1,0,0:0:0:50:Hardstyle.wav
320,192,495235,1,0,0:0:0:0:
448,192,495235,1,0,0:0:0:0:
448,192,495400,1,0,0:0:0:0:
64,192,495482,1,0,0:0:0:50:Hardstyle.wav
192,192,495482,1,0,0:0:0:0:
320,192,495482,1,0,0:0:0:0:
192,192,495647,1,0,0:0:0:0:
64,192,495729,1,0,0:0:0:60:Hardstyle-phase.wav
320,192,495729,1,0,0:0:0:0:
448,192,495729,1,0,0:0:0:0:
192,192,495812,1,0,0:0:0:0:
64,192,495976,1,0,0:0:0:50:Hardstyle.wav
192,192,495976,1,0,0:0:0:0:
448,192,495976,1,0,0:0:0:0:
320,192,496058,1,0,0:0:0:0:
192,192,496141,1,0,0:0:0:0:
64,192,496223,1,0,0:0:0:60:Hardstyle-phase.wav
320,192,496223,1,0,0:0:0:0:
448,192,496223,1,0,0:0:0:0:
192,192,496305,1,0,0:0:0:0:
320,192,496388,1,0,0:0:0:0:
64,192,496470,1,0,0:0:0:50:Hardstyle.wav
192,192,496470,1,0,0:0:0:0:
448,192,496470,1,0,0:0:0:0:
192,192,496634,1,0,0:0:0:0:
64,192,496716,1,0,0:0:0:50:Hardstyle.wav
320,192,496716,1,0,0:0:0:0:
448,192,496716,1,0,0:0:0:0:
64,192,496881,1,0,0:0:0:0:
192,192,496963,1,0,0:0:0:50:Hardstyle.wav
320,192,496963,1,0,0:0:0:0:
448,192,496963,1,0,0:0:0:0:
448,192,497128,1,0,0:0:0:0:
64,192,497210,1,0,0:0:0:50:Hardstyle.wav
192,192,497210,1,0,0:0:0:0:
320,192,497210,1,0,0:0:0:0:
320,192,497375,1,0,0:0:0:0:
64,192,497457,1,0,0:0:0:50:Hardstyle.wav
192,192,497457,1,0,0:0:0:0:
448,192,497457,1,0,0:0:0:0:
320,192,497540,1,0,0:0:0:60:Hardstyle-phase.wav
192,192,497622,1,0,0:0:0:60:Hardstyle-phase.wav
64,192,497704,1,0,0:0:0:50:Hardstyle.wav
320,192,497704,1,0,0:0:0:0:
448,192,497704,1,0,0:0:0:0:
320,192,497869,1,0,0:0:0:60:Hardstyle-phase.wav
64,192,497951,1,0,0:0:0:50:Hardstyle.wav
192,192,497951,1,0,0:0:0:0:
448,192,497951,1,0,0:0:0:0:
320,192,498034,1,0,0:0:0:60:Hardstyle-phase.wav
64,192,498116,1,0,0:0:0:50:Hardstyle.wav
192,192,498116,1,0,0:0:0:0:
320,192,498198,1,0,0:0:0:50:Hardstyle.wav
448,192,498198,1,0,0:0:0:0:
192,192,498281,1,0,0:0:0:60:Hardstyle-phase.wav
64,192,498363,1,0,0:0:0:50:Hardstyle.wav
448,192,498363,1,0,0:0:0:0:
320,192,498445,1,0,0:0:0:60:Hardstyle-phase.wav
64,192,498527,1,0,0:0:0:50:Hardstyle.wav
448,192,498527,1,0,0:0:0:0:
192,192,498610,1,0,0:0:0:60:Hardstyle-phase.wav
320,192,498692,1,0,0:0:0:50:Hardstyle.wav
448,192,498692,1,0,0:0:0:0:
64,192,498774,1,0,0:0:0:50:Hardstyle.wav
192,192,498774,1,0,0:0:0:0:
320,192,498857,1,0,0:0:0:50:Hardstyle.wav
448,192,498857,1,0,0:0:0:0:
64,192,498940,128,0,499186:0:0:0:70:Kick-sub.wav
192,192,498940,128,0,499063:0:0:0:0:
320,192,499063,1,0,0:0:0:70:hat5.wav
192,192,499186,1,0,0:0:0:30:snare-a.wav
448,192,499186,1,0,0:0:0:0:
64,192,499310,1,0,0:0:0:70:Kick-sub.wav
192,192,499310,1,0,0:0:0:0:
320,192,499372,1,0,0:0:0:70:Kick-sub.wav
448,192,499372,1,0,0:0:0:0:
64,192,499433,1,0,0:0:0:50:LR_HiHat Click2.wav
192,192,499495,1,0,0:0:0:50:LR_HiHat Click2.wav
320,192,499557,1,0,0:0:0:30:snare-a.wav
448,192,499557,1,0,0:0:0:0:
64,192,499619,1,0,0:0:0:50:LR_HiHat Click2.wav
448,192,499680,1,0,0:0:0:50:LR_HiHat Click2.wav
64,192,499742,1,0,0:0:0:30:snare-a.wav
192,192,499742,1,0,0:0:0:0:
320,192,499804,128,0,499927:0:0:0:30:VT_CB_+4.wav
64,192,499927,1,0,0:0:0:50:clap-ch.wav
192,192,499927,1,0,0:0:0:0:
64,192,500050,1,0,0:0:0:50:clap-ch.wav
192,192,500050,1,0,0:0:0:0:
64,192,500173,1,0,0:0:0:70:Kick-sub.wav
448,192,500173,1,0,0:0:0:0:
320,192,500297,1,0,0:0:0:30:snare-a.wav
448,192,500297,1,0,0:0:0:0:
64,192,500379,1,0,0:0:0:30:snare-a.wav
192,192,500379,1,0,0:0:0:0:
320,192,500461,1,0,0:0:0:30:snare-a.wav
448,192,500461,1,0,0:0:0:0:
64,192,500544,1,0,0:0:0:30:snare-a.wav
192,192,500544,1,0,0:0:0:0:
192,192,500626,1,0,0:0:0:30:snare-a.wav
320,192,500626,1,0,0:0:0:0:
320,192,500708,1,0,0:0:0:30:snare-a.wav
448,192,500708,1,0,0:0:0:0:
64,192,500791,1,0,0:0:0:30:snare-a.wav
192,192,500791,1,0,0:0:0:0:
64,192,500873,1,0,0:0:0:30:snare-a.wav
448,192,500873,1,0,0:0:0:0:
320,192,500955,1,0,0:0:0:30:snare-a.wav
448,192,500955,1,0,0:0:0:0:
64,192,501038,1,0,0:0:0:70:kickdrum.wav
192,192,501038,1,0,0:0:0:0:
448,192,501099,1,0,0:0:0:0:
320,192,501161,1,0,0:0:0:0:
192,192,501223,1,0,0:0:0:0:
64,192,501284,1,0,0:0:0:50:snare7.wav
448,192,501284,1,0,0:0:0:0:
320,192,501346,1,0,0:0:0:0:
192,192,501408,1,0,0:0:0:0:
320,192,501470,1,0,0:0:0:0:
64,192,501531,1,0,0:0:0:70:kickdrum.wav
448,192,501531,1,0,0:0:0:0:
192,192,501593,1,0,0:0:0:0:
320,192,501655,1,0,0:0:0:50:snare7.wav
448,192,501655,1,0,0:0:0:0:
64,192,501717,1,0,0:0:0:0:
192,192,501778,1,0,0:0:0:0:
320,192,501840,1,0,0:0:0:0:
64,192,501902,1,0,0:0:0:70:kickdrum.wav
448,192,501902,1,0,0:0:0:0:
192,192,501963,1,0,0:0:0:0:
320,192,502026,1,0,0:0:0:50:snare7.wav
448,192,502026,1,0,0:0:0:0:
64,192,502087,1,0,0:0:0:0:
192,192,502149,1,0,0:0:0:0:
320,192,502211,1,0,0:0:0:70:kickdrum.wav
448,192,502211,1,0,0:0:0:0:
64,192,502272,1,0,0:0:0:50:snare7.wav
192,192,502272,1,0,0:0:0:0:
448,192,502334,1,0,0:0:0:0:
320,192,502396,1,0,0:0:0:0:
64,192,502458,1,0,0:0:0:70:kickdrum.wav
192,192,502458,1,0,0:0:0:0:
320,192,502519,1,0,0:0:0:50:snare7.wav
448,192,502519,1,0,0:0:0:0:
64,192,502581,1,0,0:0:0:0:
192,192,502643,1,0,0:0:0:50:snare7.wav
448,192,502643,1,0,0:0:0:0:
320,192,502705,1,0,0:0:0:0:
64,192,502766,1,0,0:0:0:70:kickdrum.wav
192,192,502766,1,0,0:0:0:0:
448,192,502828,1,0,0:0:0:0:
320,192,502890,1,0,0:0:0:0:
192,192,502951,1,0,0:0:0:0:
320,192,503013,1,0,0:0:0:50:snare7.wav
448,192,503013,1,0,0:0:0:0:
64,192,503075,1,0,0:0:0:0:
192,192,503137,1,0,0:0:0:70:kickdrum.wav
448,192,503137,1,0,0:0:0:0:
320,192,503198,1,0,0:0:0:0:
64,192,503260,1,0,0:0:0:0:
192,192,503322,1,0,0:0:0:0:
320,192,503383,1,0,0:0:0:50:snare7.wav
448,192,503383,1,0,0:0:0:0:
64,192,503445,1,0,0:0:0:0:
192,192,503507,1,0,0:0:0:0:
448,192,503569,1,0,0:0:0:0:
320,192,503630,1,0,0:0:0:0:
192,192,503692,1,0,0:0:0:0:
64,192,503754,1,0,0:0:0:50:snare7.wav
448,192,503754,1,0,0:0:0:0:
320,192,503816,1,0,0:0:0:0:
192,192,503878,1,0,0:0:0:0:
448,192,503939,1,0,0:0:0:0:
64,192,504001,1,0,0:0:0:70:kickdrum.wav
320,192,504001,1,0,0:0:0:0:
192,192,504063,1,0,0:0:0:0:
320,192,504124,1,0,0:0:0:50:snare7.wav
448,192,504124,1,0,0:0:0:0:
64,192,504186,1,0,0:0:0:0:
192,192,504248,1,0,0:0:0:0:
320,192,504310,1,0,0:0:0:0:
64,192,504371,1,0,0:0:0:50:snare7.wav
448,192,504371,1,0,0:0:0:0:
192,192,504433,1,0,0:0:0:0:
320,192,504495,1,0,0:0:0:50:snare7.wav
448,192,504495,1,0,0:0:0:0:
64,192,504557,1,0,0:0:0:0:
192,192,504618,1,0,0:0:0:0:
448,192,504680,1,0,0:0:0:0:
64,192,504742,1,0,0:0:0:50:snare7.wav
320,192,504742,1,0,0:0:0:0:
192,192,504803,1,0,0:0:0:0:
320,192,504865,1,0,0:0:0:50:snare7.wav
448,192,504865,1,0,0:0:0:0:
64,192,504927,1,0,0:0:0:50:snare7.wav
192,192,504927,1,0,0:0:0:0:
320,192,504989,1,0,0:0:0:50:snare7.wav
448,192,504989,1,0,0:0:0:0:
64,192,505051,1,0,0:0:0:70:kickdrum.wav
192,192,505051,1,0,0:0:0:0:
320,192,505112,1,0,0:0:0:0:
448,192,505174,1,0,0:0:0:0:
64,192,505236,1,0,0:0:0:0:
192,192,505297,1,0,0:0:0:0:
320,192,505359,1,0,0:0:0:0:
64,192,505421,1,0,0:0:0:50:snare7.wav
192,192,505421,1,0,0:0:0:0:
448,192,505483,1,0,0:0:0:0:
64,192,505544,1,0,0:0:0:70:kickdrum.wav
320,192,505544,1,0,0:0:0:0:
192,192,505606,1,0,0:0:0:0:
448,192,505668,1,0,0:0:0:0:
320,192,505730,1,0,0:0:0:0:
64,192,505791,1,0,0:0:0:50:snare7.wav
192,192,505791,1,0,0:0:0:0:
448,192,505853,1,0,0:0:0:0:
320,192,505915,1,0,0:0:0:0:
192,192,505976,1,0,0:0:0:0:
448,192,506038,1,0,0:0:0:0:
64,192,506100,1,0,0:0:0:70:kickdrum.wav
320,192,506100,1,0,0:0:0:0:
192,192,506161,1,0,0:0:0:0:
320,192,506223,1,0,0:0:0:50:snare7.wav
448,192,506223,1,0,0:0:0:0:
64,192,506285,1,0,0:0:0:50:snare7.wav
192,192,506285,1,0,0:0:0:0:
320,192,506346,1,0,0:0:0:50:snare7.wav
448,192,506346,1,0,0:0:0:0:
64,192,506408,1,0,0:0:0:50:snare7.wav
192,192,506408,1,0,0:0:0:0:
320,192,506470,1,0,0:0:0:70:kickdrum.wav
448,192,506470,1,0,0:0:0:0:
64,192,506532,1,0,0:0:0:0:
192,192,506593,1,0,0:0:0:0:
448,192,506655,1,0,0:0:0:0:
64,192,506717,1,0,0:0:0:70:kickdrum.wav
320,192,506717,1,0,0:0:0:0:
192,192,506778,1,0,0:0:0:0:
320,192,506840,1,0,0:0:0:0:
64,192,506902,1,0,0:0:0:0:
192,192,506963,1,0,0:0:0:50:snare7.wav
448,192,506963,1,0,0:0:0:0:
320,192,507025,1,0,0:0:0:0:
64,192,507087,1,0,0:0:0:70:kickdrum.wav
192,192,507087,1,0,0:0:0:0:
448,192,507149,1,0,0:0:0:0:
320,192,507210,1,0,0:0:0:0:
192,192,507272,1,0,0:0:0:0:
64,192,507334,1,0,0:0:0:50:snare7.wav
448,192,507334,1,0,0:0:0:0:
320,192,507396,1,0,0:0:0:0:
64,192,507457,1,0,0:0:0:70:kickdrum.wav
192,192,507457,1,0,0:0:0:0:
320,192,507519,1,0,0:0:0:0:
64,192,507581,1,0,0:0:0:70:kickdrum.wav
448,192,507581,1,0,0:0:0:0:
192,192,507642,1,0,0:0:0:0:
320,192,507704,1,0,0:0:0:70:kickdrum.wav
448,192,507704,1,0,0:0:0:0:
64,192,507745,1,0,0:0:0:0:
192,192,507786,1,0,0:0:0:0:
320,192,507828,1,0,0:0:0:0:
64,192,507869,1,0,0:0:0:50:snare7.wav
448,192,507869,1,0,0:0:0:0:
192,192,507910,1,0,0:0:0:0:
320,192,507951,1,0,0:0:0:0:
64,192,507992,1,0,0:0:0:0:
192,192,508034,1,0,0:0:0:70:kickdrum.wav
448,192,508034,1,0,0:0:0:0:
320,192,508095,1,0,0:0:0:0:
64,192,508157,1,0,0:0:0:50:snare7.wav
192,192,508157,1,0,0:0:0:0:
448,192,508219,1,0,0:0:0:0:
64,192,508280,1,0,0:0:0:50:snare7.wav
320,192,508280,1,0,0:0:0:0:
192,192,508342,1,0,0:0:0:0:
320,192,508404,1,0,0:0:0:50:snare7.wav
448,192,508404,1,0,0:0:0:0:
64,192,508466,1,0,0:0:0:50:snare7.wav
192,192,508466,1,0,0:0:0:0:
320,192,508527,1,0,0:0:0:70:kickdrum.wav
448,192,508527,1,0,0:0:0:0:
64,192,508589,1,0,0:0:0:0:
192,192,508651,1,0,0:0:0:0:
320,192,508713,1,0,0:0:0:0:
64,192,508774,1,0,0:0:0:70:kickdrum.wav
448,192,508774,1,0,0:0:0:0:
192,192,508836,1,0,0:0:0:0:
320,192,508898,1,0,0:0:0:0:
64,192,508959,1,0,0:0:0:0:
192,192,509021,1,0,0:0:0:50:snare7.wav
448,192,509021,1,0,0:0:0:0:
320,192,509083,1,0,0:0:0:0:
192,192,509145,1,0,0:0:0:0:
64,192,509206,1,0,0:0:0:50:snare7.wav
448,192,509206,1,0,0:0:0:0:
320,192,509268,1,0,0:0:0:0:
192,192,509330,1,0,0:0:0:0:
64,192,509392,1,0,0:0:0:70:kickdrum.wav
448,192,509392,1,0,0:0:0:0:
192,192,509453,1,0,0:0:0:0:
320,192,509515,1,0,0:0:0:0:
64,192,509577,1,0,0:0:0:0:
192,192,509638,1,0,0:0:0:50:snare7.wav
448,192,509638,1,0,0:0:0:0:
320,192,509700,1,0,0:0:0:0:
64,192,509762,1,0,0:0:0:0:
192,192,509824,1,0,0:0:0:0:
320,192,509885,1,0,0:0:0:70:kickdrum.wav
448,192,509885,1,0,0:0:0:0:
192,192,509947,1,0,0:0:0:0:
64,192,510009,1,0,0:0:0:50:snare7.wav
448,192,510009,1,0,0:0:0:0:
320,192,510071,1,0,0:0:0:0:
192,192,510132,1,0,0:0:0:0:
448,192,510194,1,0,0:0:0:0:
64,192,510256,1,0,0:0:0:70:kickdrum.wav
320,192,510256,1,0,0:0:0:0:
192,192,510317,1,0,0:0:0:0:
320,192,510380,1,0,0:0:0:50:snare7.wav
448,192,510380,1,0,0:0:0:0:
64,192,510441,1,0,0:0:0:0:
192,192,510503,1,0,0:0:0:0:
320,192,510565,1,0,0:0:0:70:kickdrum.wav
448,192,510565,1,0,0:0:0:0:
64,192,510626,1,0,0:0:0:50:snare7.wav
192,192,510626,1,0,0:0:0:0:
448,192,510688,1,0,0:0:0:0:
320,192,510750,1,0,0:0:0:0:
64,192,510812,1,0,0:0:0:70:kickdrum.wav
192,192,510812,1,0,0:0:0:0:
320,192,510873,1,0,0:0:0:50:snare7.wav
448,192,510873,1,0,0:0:0:0:
64,192,510935,1,0,0:0:0:0:
192,192,510997,1,0,0:0:0:50:snare7.wav
448,192,510997,1,0,0:0:0:0:
320,192,511059,1,0,0:0:0:0:
64,192,511120,1,0,0:0:0:70:kickdrum.wav
192,192,511120,1,0,0:0:0:0:
448,192,511182,1,0,0:0:0:0:
320,192,511244,1,0,0:0:0:0:
192,192,511305,1,0,0:0:0:0:
64,192,511367,1,0,0:0:0:50:snare7.wav
448,192,511367,1,0,0:0:0:0:
320,192,511429,1,0,0:0:0:0:
64,192,511491,1,0,0:0:0:70:kickdrum.wav
192,192,511491,1,0,0:0:0:0:
448,192,511552,1,0,0:0:0:0:
320,192,511614,1,0,0:0:0:0:
192,192,511676,1,0,0:0:0:0:
320,192,511737,1,0,0:0:0:50:snare7.wav
448,192,511737,1,0,0:0:0:0:
64,192,511799,1,0,0:0:0:0:
192,192,511861,1,0,0:0:0:0:
448,192,511923,1,0,0:0:0:0:
320,192,511984,1,0,0:0:0:0:
64,192,512046,1,0,0:0:0:0:
192,192,512108,1,0,0:0:0:50:snare7.wav
448,192,512108,1,0,0:0:0:0:
320,192,512170,1,0,0:0:0:0:
64,192,512232,1,0,0:0:0:0:
192,192,512293,1,0,0:0:0:0:
320,192,512355,1,0,0:0:0:70:kickdrum.wav
448,192,512355,1,0,0:0:0:0:
64,192,512417,1,0,0:0:0:0:
192,192,512478,1,0,0:0:0:50:snare7.wav
448,192,512478,1,0,0:0:0:0:
320,192,512602,1,0,0:0:0:0:
192,192,512664,1,0,0:0:0:0:
64,192,512725,1,0,0:0:0:50:snare7.wav
448,192,512725,1,0,0:0:0:0:
320,192,512787,1,0,0:0:0:0:
192,192,512849,1,0,0:0:0:50:snare7.wav
448,192,512849,1,0,0:0:0:0:
64,192,512911,1,0,0:0:0:0:
320,192,512972,1,0,0:0:0:0:
192,192,513034,1,0,0:0:0:0:
64,192,513096,1,0,0:0:0:50:snare7.wav
448,192,513096,1,0,0:0:0:0:
320,192,513157,1,0,0:0:0:0:
64,192,513219,1,0,0:0:0:50:snare7.wav
192,192,513219,1,0,0:0:0:0:
320,192,513281,1,0,0:0:0:50:snare7.wav
448,192,513281,1,0,0:0:0:0:
64,192,513343,1,0,0:0:0:50:snare7.wav
192,192,513343,1,0,0:0:0:0:
320,192,513405,1,0,0:0:0:70:kickdrum.wav
448,192,513405,1,0,0:0:0:0:
64,192,513466,1,0,0:0:0:0:
192,192,513528,1,0,0:0:0:0:
320,192,513590,1,0,0:0:0:0:
64,192,513651,1,0,0:0:0:0:
192,192,513713,1,0,0:0:0:0:
320,192,513775,1,0,0:0:0:50:snare7.wav
448,192,513775,1,0,0:0:0:0:
64,192,513837,1,0,0:0:0:0:
192,192,513898,1,0,0:0:0:70:kickdrum.wav
448,192,513898,1,0,0:0:0:0:
320,192,513960,1,0,0:0:0:0:
192,192,514022,1,0,0:0:0:0:
448,192,514084,1,0,0:0:0:0:
64,192,514145,1,0,0:0:0:50:snare7.wav
320,192,514145,1,0,0:0:0:0:
192,192,514207,1,0,0:0:0:0:
448,192,514269,1,0,0:0:0:0:
320,192,514330,1,0,0:0:0:0:
64,192,514392,1,0,0:0:0:0:
192,192,514454,1,0,0:0:0:70:kickdrum.wav
448,192,514454,1,0,0:0:0:0:
320,192,514515,1,0,0:0:0:0:
64,192,514577,1,0,0:0:0:50:snare7.wav
192,192,514577,1,0,0:0:0:0:
320,192,514639,1,0,0:0:0:50:snare7.wav
448,192,514639,1,0,0:0:0:0:
64,192,514700,1,0,0:0:0:50:snare7.wav
192,192,514700,1,0,0:0:0:0:
320,192,514762,1,0,0:0:0:50:snare7.wav
448,192,514762,1,0,0:0:0:0:
64,192,514824,1,0,0:0:0:70:kickdrum.wav
192,192,514824,1,0,0:0:0:0:
448,192,514886,1,0,0:0:0:0:
320,192,514947,1,0,0:0:0:0:
192,192,515009,1,0,0:0:0:0:
64,192,515071,1,0,0:0:0:70:kickdrum.wav
448,192,515071,1,0,0:0:0:0:
320,192,515132,1,0,0:0:0:0:
192,192,515194,1,0,0:0:0:0:
320,192,515256,1,0,0:0:0:0:
64,192,515317,1,0,0:0:0:50:snare7.wav
448,192,515317,1,0,0:0:0:0:
192,192,515379,1,0,0:0:0:0:
320,192,515441,1,0,0:0:0:70:kickdrum.wav
448,192,515441,1,0,0:0:0:0:
64,192,515503,1,0,0:0:0:0:
192,192,515564,1,0,0:0:0:0:
448,192,515626,1,0,0:0:0:0:
64,192,515688,1,0,0:0:0:50:snare7.wav
320,192,515688,1,0,0:0:0:0:
192,192,515750,1,0,0:0:0:0:
320,192,515811,1,0,0:0:0:70:kickdrum.wav
448,192,515811,1,0,0:0:0:0:
64,192,515873,1,0,0:0:0:0:
192,192,515935,1,0,0:0:0:70:kickdrum.wav
448,192,515935,1,0,0:0:0:0:
320,192,515996,1,0,0:0:0:0:
64,192,516058,1,0,0:0:0:70:kickdrum.wav
192,192,516058,1,0,0:0:0:0:
448,192,516099,1,0,0:0:0:0:
320,192,516140,1,0,0:0:0:0:
192,192,516182,1,0,0:0:0:0:
64,192,516223,1,0,0:0:0:50:snare7.wav
448,192,516223,1,0,0:0:0:0:
320,192,516264,1,0,0:0:0:0:
192,192,516305,1,0,0:0:0:0:
448,192,516346,1,0,0:0:0:0:
64,192,516388,1,0,0:0:0:70:kickdrum.wav
320,192,516388,1,0,0:0:0:0:
192,192,516449,1,0,0:0:0:0:
320,192,516511,1,0,0:0:0:50:snare7.wav
448,192,516511,1,0,0:0:0:0:
64,192,516573,1,0,0:0:0:0:
192,192,516634,1,0,0:0:0:50:snare7.wav
448,192,516634,1,0,0:0:0:0:
320,192,516696,1,0,0:0:0:0:
64,192,516758,1,0,0:0:0:50:snare7.wav
192,192,516758,1,0,0:0:0:0:
320,192,516820,1,0,0:0:0:50:snare7.wav
448,192,516820,1,0,0:0:0:0:
64,192,516881,1,0,0:0:0:70:kickdrum.wav
192,192,516881,1,0,0:0:0:0:
320,192,516943,1,0,0:0:0:0:
448,192,517005,1,0,0:0:0:0:
192,192,517067,1,0,0:0:0:0:
64,192,517128,1,0,0:0:0:70:kickdrum.wav
320,192,517128,1,0,0:0:0:0:
448,192,517190,1,0,0:0:0:0:
192,192,517252,1,0,0:0:0:0:
320,192,517313,1,0,0:0:0:0:
64,192,517375,1,0,0:0:0:50:snare7.wav
448,192,517375,1,0,0:0:0:0:
320,192,517437,1,0,0:0:0:0:
192,192,517499,1,0,0:0:0:0:
64,192,517560,1,0,0:0:0:50:snare7.wav
448,192,517560,1,0,0:0:0:0:
320,192,517622,1,0,0:0:0:0:
192,192,517684,1,0,0:0:0:0:
320,192,517746,1,0,0:0:0:70:kickdrum.wav
448,192,517746,128,0,517992:0:0:0:0:
64,192,517992,128,0,518034:0:0:0:50:snare7.wav
192,192,518034,128,0,518075:0:0:0:0:
448,192,518075,128,0,518116:0:0:0:0:
320,192,518116,128,0,518157:0:0:0:0:
64,192,518157,128,0,518198:0:0:0:0:
192,192,518198,128,0,518239:0:0:0:0:
448,192,518239,128,0,518289:0:0:0:70:kickdrum.wav
320,192,518289,128,0,518338:0:0:0:0:
64,192,518338,128,0,518387:0:0:0:0:
192,192,518387,128,0,518437:0:0:0:0:
320,192,518437,128,0,518486:0:0:0:0:
448,192,518486,128,0,518548:0:0:0:0:
64,192,518548,128,0,518610:0:0:0:0:
448,192,518610,128,0,518671:0:0:0:70:kickdrum.wav
64,192,518671,128,0,518733:0:0:0:0:
320,192,518734,128,0,518795:0:0:0:50:snare7.wav
192,192,518795,128,0,518857:0:0:0:0:
320,192,518857,128,0,518919:0:0:0:0:
192,192,518919,128,0,518980:0:0:0:70:kickdrum.wav
64,192,518980,1,0,0:0:0:50:snare7.wav
448,192,518980,128,0,519227:0:0:0:0:
192,192,519104,1,0,0:0:0:0:
320,192,519166,1,0,0:0:0:70:kickdrum.wav
64,192,519227,1,0,0:0:0:50:snare7.wav
192,192,519227,128,0,519351:0:0:0:0:
320,192,519351,128,0,519536:0:0:0:50:snare7.wav
448,192,519351,1,0,0:0:0:0:
64,192,519474,1,0,0:0:0:70:kickdrum.wav
448,192,519536,128,0,519721:0:0:0:0:
64,192,519659,1,0,0:0:0:0:
192,192,519721,128,0,519845:0:0:0:50:snare7.wav
320,192,519721,1,0,0:0:0:0:
64,192,519845,128,0,521079:0:0:0:70:kickdrum.wav
448,192,519845,1,0,0:0:0:0:
320,192,519968,1,0,0:0:0:0:
192,192,520091,1,0,0:0:0:50:snare7.wav
448,192,520091,1,0,0:0:0:0:
320,192,520215,1,0,0:0:0:0:
448,192,520277,1,0,0:0:0:0:
192,192,520338,1,0,0:0:0:0:
320,192,520400,1,0,0:0:0:0:
192,192,520462,1,0,0:0:0:50:snare7.wav
448,192,520462,1,0,0:0:0:0:
192,192,520586,1,0,0:0:0:0:
448,192,520647,1,0,0:0:0:0:
192,192,520709,1,0,0:0:0:70:kickdrum.wav
320,192,520709,1,0,0:0:0:0:
320,192,520832,1,0,0:0:0:50:snare7.wav
448,192,520832,1,0,0:0:0:0:
192,192,520956,1,0,0:0:0:0:
320,192,521018,1,0,0:0:0:0:
192,192,521079,128,0,521203:0:0:0:50:snare7.wav
448,192,521079,1,0,0:0:0:0:
64,192,521203,1,0,0:0:0:50:snare7.wav
320,192,521203,128,0,521326:0:0:0:0:
192,192,521326,128,0,521450:0:0:0:0:
448,192,521388,1,0,0:0:0:0:
64,192,521450,128,0,521573:0:0:0:50:snare7.wav
320,192,521450,1,0,0:0:0:0:
320,192,521573,1,0,0:0:0:50:snare7.wav
448,192,521573,1,0,0:0:0:0:
64,192,521635,1,0,0:0:0:50:snare7.wav
192,192,521635,1,0,0:0:0:0:
320,192,521697,1,0,0:0:0:50:snare7.wav
448,192,521697,1,0,0:0:0:0:
64,192,521758,1,0,0:0:0:70:kickdrum.wav
192,192,521758,128,0,522004:0:0:0:0:
448,192,521881,1,0,0:0:0:0:
64,192,521943,1,0,0:0:0:0:
320,192,522004,128,0,522128:0:0:0:0:
448,192,522066,1,0,0:0:0:0:
64,192,522128,128,0,522375:0:0:0:50:snare7.wav
192,192,522128,1,0,0:0:0:0:
320,192,522251,1,0,0:0:0:70:kickdrum.wav
448,192,522251,1,0,0:0:0:0:
192,192,522375,128,0,522622:0:0:0:0:
64,192,522498,1,0,0:0:0:50:snare7.wav
448,192,522498,1,0,0:0:0:0:
320,192,522622,128,0,522808:0:0:0:0:
64,192,522683,1,0,0:0:0:0:
192,192,522745,1,0,0:0:0:0:
64,192,522808,1,0,0:0:0:70:kickdrum.wav
448,192,522808,128,0,522931:0:0:0:0:
64,192,522931,1,0,0:0:0:50:snare7.wav
192,192,522931,1,0,0:0:0:0:
320,192,522993,1,0,0:0:0:50:snare7.wav
448,192,522993,1,0,0:0:0:0:
64,192,523054,1,0,0:0:0:50:snare7.wav
192,192,523054,1,0,0:0:0:0:
320,192,523116,1,0,0:0:0:50:snare7.wav
448,192,523116,1,0,0:0:0:0:
64,192,523178,128,0,524742:0:0:0:70:kickdrum.wav
192,192,523178,1,0,0:0:0:0:
320,192,523301,1,0,0:0:0:0:
192,192,523425,1,0,0:0:0:70:kickdrum.wav
448,192,523425,1,0,0:0:0:0:
320,192,523548,1,0,0:0:0:0:
192,192,523610,1,0,0:0:0:0:
320,192,523671,1,0,0:0:0:50:snare7.wav
448,192,523671,1,0,0:0:0:0:
192,192,523795,1,0,0:0:0:70:kickdrum.wav
448,192,523795,1,0,0:0:0:0:
320,192,523918,1,0,0:0:0:0:
448,192,523980,1,0,0:0:0:0:
192,192,524042,1,0,0:0:0:50:snare7.wav
320,192,524042,1,0,0:0:0:0:
320,192,524165,1,0,0:0:0:70:kickdrum.wav
448,192,524165,1,0,0:0:0:0:
192,192,524289,1,0,0:0:0:70:kickdrum.wav
320,192,524412,1,0,0:0:0:70:kickdrum.wav
448,192,524412,1,0,0:0:0:0:
192,192,524577,1,0,0:0:0:50:snare7.wav
320,192,524577,1,0,0:0:0:0:
448,192,524659,1,0,0:0:0:0:
192,192,524742,1,0,0:0:0:70:kickdrum.wav
320,192,524742,128,0,524988:0:0:0:0:
64,192,524865,1,0,0:0:0:50:snare7.wav
192,192,524865,1,0,0:0:0:0:
64,192,524988,1,0,0:0:0:50:snare7.wav
448,192,524988,1,0,0:0:0:0:
64,192,525112,1,0,0:0:0:50:snare7.wav
192,192,525112,1,0,0:0:0:0:
320,192,525174,1,0,0:0:0:50:snare7.wav
448,192,525174,1,0,0:0:0:0:
64,192,525235,128,0,525482:0:0:0:70:kickdrum.wav
192,192,525235,1,0,0:0:0:0:
320,192,525359,1,0,0:0:0:0:
192,192,525421,1,0,0:0:0:0:
320,192,525482,1,0,0:0:0:70:kickdrum.wav
448,192,525482,128,0,525729:0:0:0:0:
64,192,525606,1,0,0:0:0:0:
192,192,525667,1,0,0:0:0:0:
64,192,525729,1,0,0:0:0:50:snare7.wav
320,192,525729,128,0,525914:0:0:0:0:
448,192,525853,1,0,0:0:0:0:
64,192,525914,128,0,526100:0:0:0:50:snare7.wav
192,192,525914,1,0,0:0:0:0:
448,192,526038,1,0,0:0:0:0:
192,192,526100,1,0,0:0:0:70:kickdrum.wav
320,192,526100,128,0,526470:0:0:0:0:
448,192,526223,1,0,0:0:0:0:
64,192,526346,1,0,0:0:0:50:snare7.wav
192,192,526346,1,0,0:0:0:0:
448,192,526470,128,0,527828:0:0:0:0:
64,192,526593,1,0,0:0:0:70:kickdrum.wav
192,192,526593,1,0,0:0:0:0:
64,192,526717,1,0,0:0:0:50:snare7.wav
320,192,526717,1,0,0:0:0:0:
192,192,526840,1,0,0:0:0:0:
320,192,526902,1,0,0:0:0:0:
64,192,526964,1,0,0:0:0:70:kickdrum.wav
192,192,526964,1,0,0:0:0:0:
192,192,527088,1,0,0:0:0:50:snare7.wav
320,192,527088,1,0,0:0:0:0:
64,192,527211,1,0,0:0:0:0:
192,192,527273,1,0,0:0:0:70:kickdrum.wav
64,192,527334,1,0,0:0:0:50:snare7.wav
320,192,527334,1,0,0:0:0:0:
192,192,527458,1,0,0:0:0:0:
320,192,527520,1,0,0:0:0:70:kickdrum.wav
64,192,527581,1,0,0:0:0:50:snare7.wav
192,192,527581,1,0,0:0:0:0:
192,192,527705,1,0,0:0:0:50:snare7.wav
320,192,527705,1,0,0:0:0:0:
64,192,527828,128,0,528013:0:0:0:70:kickdrum.wav
320,192,527890,1,0,0:0:0:0:
192,192,528013,128,0,528199:0:0:0:0:
320,192,528075,1,0,0:0:0:50:snare7.wav
448,192,528075,1,0,0:0:0:0:
64,192,528199,1,0,0:0:0:70:kickdrum.wav
448,192,528199,128,0,528569:0:0:0:0:
320,192,528322,1,0,0:0:0:0:
192,192,528445,1,0,0:0:0:50:snare7.wav
320,192,528445,1,0,0:0:0:0:
64,192,528569,128,0,529804:0:0:0:0:
192,192,528631,1,0,0:0:0:0:
320,192,528816,1,0,0:0:0:50:snare7.wav
448,192,528816,1,0,0:0:0:0:
192,192,528940,1,0,0:0:0:0:
320,192,529001,1,0,0:0:0:0:
192,192,529063,1,0,0:0:0:70:kickdrum.wav
448,192,529063,1,0,0:0:0:0:
320,192,529186,1,0,0:0:0:50:snare7.wav
448,192,529186,1,0,0:0:0:0:
192,192,529310,1,0,0:0:0:0:
320,192,529372,1,0,0:0:0:0:
192,192,529433,1,0,0:0:0:50:snare7.wav
448,192,529433,1,0,0:0:0:0:
320,192,529557,1,0,0:0:0:50:snare7.wav
448,192,529557,1,0,0:0:0:0:
192,192,529680,1,0,0:0:0:0:
320,192,529742,1,0,0:0:0:0:
192,192,529804,128,0,529927:0:0:0:50:snare7.wav
448,192,529804,1,0,0:0:0:0:
320,192,529927,1,0,0:0:0:50:snare7.wav
448,192,529927,1,0,0:0:0:0:
64,192,529989,1,0,0:0:0:50:snare7.wav
192,192,529989,1,0,0:0:0:0:
320,192,530051,1,0,0:0:0:50:snare7.wav
448,192,530051,1,0,0:0:0:0:
64,192,530112,128,0,530482:0:0:0:70:kickdrum.wav
192,192,530112,1,0,0:0:0:0:
320,192,530235,1,0,0:0:0:0:
192,192,530297,1,0,0:0:0:0:
448,192,530358,1,0,0:0:0:0:
320,192,530420,1,0,0:0:0:0:
192,192,530482,128,0,531285:0:0:0:50:snare7.wav
448,192,530482,1,0,0:0:0:0:
64,192,530605,1,0,0:0:0:70:kickdrum.wav
320,192,530605,1,0,0:0:0:0:
448,192,530729,1,0,0:0:0:0:
320,192,530791,1,0,0:0:0:0:
64,192,530852,1,0,0:0:0:50:snare7.wav
448,192,530852,1,0,0:0:0:0:
320,192,530935,1,0,0:0:0:0:
64,192,531017,1,0,0:0:0:0:
448,192,531099,1,0,0:0:0:0:
64,192,531162,1,0,0:0:0:70:kickdrum.wav
320,192,531285,1,0,0:0:0:50:snare7.wav
448,192,531285,1,0,0:0:0:0:
64,192,531347,1,0,0:0:0:50:snare7.wav
192,192,531347,1,0,0:0:0:0:
320,192,531408,1,0,0:0:0:50:snare7.wav
448,192,531408,1,0,0:0:0:0:
64,192,531470,1,0,0:0:0:50:snare7.wav
192,192,531470,1,0,0:0:0:0:
320,192,531532,1,0,0:0:0:70:kickdrum.wav
448,192,531532,1,0,0:0:0:0:
64,192,531594,1,0,0:0:0:0:
192,192,531655,1,0,0:0:0:0:
320,192,531717,1,0,0:0:0:0:
64,192,531779,1,0,0:0:0:70:kickdrum.wav
448,192,531779,1,0,0:0:0:0:
192,192,531902,1,0,0:0:0:0:
64,192,532025,1,0,0:0:0:50:snare7.wav
320,192,532025,1,0,0:0:0:0:
448,192,532025,1,0,0:0:0:0:
192,192,532149,1,0,0:0:0:70:kickdrum.wav
448,192,532149,1,0,0:0:0:0:
320,192,532272,1,0,0:0:0:0:
192,192,532334,1,0,0:0:0:0:
64,192,532396,1,0,0:0:0:50:snare7.wav
320,192,532396,1,0,0:0:0:0:
448,192,532396,1,0,0:0:0:0:
192,192,532519,1,0,0:0:0:70:kickdrum.wav
448,192,532519,1,0,0:0:0:0:
64,192,532643,1,0,0:0:0:70:kickdrum.wav
320,192,532643,1,0,0:0:0:0:
320,192,532766,1,0,0:0:0:70:kickdrum.wav
448,192,532766,1,0,0:0:0:0:
64,192,532931,1,0,0:0:0:50:snare7.wav
192,192,532931,1,0,0:0:0:0:
448,192,532931,1,0,0:0:0:0:
320,192,533013,1,0,0:0:0:0:
192,192,533096,1,0,0:0:0:70:kickdrum.wav
448,192,533096,1,0,0:0:0:0:
64,192,533219,1,0,0:0:0:50:snare7.wav
192,192,533219,1,0,0:0:0:0:
320,192,533219,1,0,0:0:0:0:
64,192,533342,1,0,0:0:0:50:snare7.wav
320,192,533342,1,0,0:0:0:0:
448,192,533342,1,0,0:0:0:0:
64,192,533466,1,0,0:0:0:50:snare7.wav
192,192,533466,1,0,0:0:0:0:
320,192,533528,1,0,0:0:0:50:snare7.wav
448,192,533528,1,0,0:0:0:0:
64,192,533589,1,0,0:0:0:70:kickdrum.wav
192,192,533589,1,0,0:0:0:0:
320,192,533713,1,0,0:0:0:0:
192,192,533775,1,0,0:0:0:0:
64,192,533836,1,0,0:0:0:70:kickdrum.wav
320,192,533836,1,0,0:0:0:0:
192,192,533960,1,0,0:0:0:0:
320,192,534021,1,0,0:0:0:0:
64,192,534083,1,0,0:0:0:50:snare7.wav
192,192,534083,1,0,0:0:0:0:
448,192,534083,1,0,0:0:0:0:
320,192,534207,1,0,0:0:0:0:
64,192,534268,1,0,0:0:0:50:snare7.wav
192,192,534268,1,0,0:0:0:0:
448,192,534268,1,0,0:0:0:0:
320,192,534330,1,0,0:0:0:0:
192,192,534392,1,0,0:0:0:0:
64,192,534454,128,0,534824:0:0:0:70:kickdrum.wav
448,192,534454,1,0,0:0:0:0:
320,192,534546,1,0,0:0:0:0:
192,192,534639,1,0,0:0:0:50:snare7.wav
448,192,534639,1,0,0:0:0:0:
320,192,534824,1,0,0:0:0:0:
192,192,534916,1,0,0:0:0:0:
64,192,535009,1,0,0:0:0:50:snare7.wav
320,192,535009,1,0,0:0:0:0:
448,192,535009,1,0,0:0:0:0:
64,192,535102,1,0,0:0:0:70:kickdrum.wav
192,192,535102,1,0,0:0:0:0:
320,192,535194,1,0,0:0:0:0:
448,192,535287,1,0,0:0:0:0:
64,192,535379,1,0,0:0:0:50:snare7.wav
192,192,535379,1,0,0:0:0:0:
320,192,535441,1,0,0:0:0:50:snare7.wav
448,192,535441,1,0,0:0:0:0:
64,192,535503,1,0,0:0:0:50:snare7.wav
192,192,535503,1,0,0:0:0:0:
320,192,535580,1,0,0:0:0:50:snare7.wav
448,192,535580,1,0,0:0:0:0:
64,192,535647,1,0,0:0:0:50:snare7.wav
192,192,535647,1,0,0:0:0:0:
320,192,535719,1,0,0:0:0:50:snare7.wav
448,192,535719,1,0,0:0:0:0:
192,192,535812,1,0,0:0:0:50:snare7.wav
320,192,535812,1,0,0:0:0:0:
64,192,535904,1,0,0:0:0:50:snare7.wav
192,192,535904,1,0,0:0:0:0:
320,192,535997,1,0,0:0:0:50:snare7.wav
448,192,535997,1,0,0:0:0:0:
64,192,536100,1,0,0:0:0:50:snare7.wav
448,192,536100,1,0,0:0:0:0:
64,192,536202,1,0,0:0:0:50:snare7.wav
192,192,536202,1,0,0:0:0:0:
192,192,536305,1,0,0:0:0:50:snare7.wav
448,192,536305,1,0,0:0:0:0:
320,192,536429,1,0,0:0:0:50:snare7.wav
448,192,536429,1,0,0:0:0:0:
64,192,536552,1,0,0:0:0:50:snare7.wav
320,192,536552,1,0,0:0:0:0:
64,192,536696,1,0,0:0:0:50:snare7.wav
192,192,536696,1,0,0:0:0:0:
192,192,536861,1,0,0:0:0:50:snare7.wav
448,192,536861,1,0,0:0:0:0:
64,192,537046,1,0,0:0:0:50:snare7.wav
448,192,537046,1,0,0:0:0:0:
192,192,537252,1,0,0:0:0:50:snare7.wav
320,192,537252,1,0,0:0:0:0:
192,192,537478,1,0,0:0:0:50:snare7.wav
448,192,537478,1,0,0:0:0:0:
64,192,537725,1,0,0:0:0:50:snare7.wav
448,192,537725,1,0,0:0:0:0:
64,192,538013,1,0,0:0:0:50:snare7.wav
320,192,538013,1,0,0:0:0:0:
320,192,538342,1,0,0:0:0:50:snare7.wav
448,192,538342,1,0,0:0:0:0:
64,192,538692,1,0,0:0:0:70:kickdrum.wav
192,192,538692,1,0,0:0:0:0:
320,192,539037,1,0,0:0:0:50:snare7.wav
448,192,539037,1,0,0:0:0:0:
64,192,539392,128,0,540009:0:0:0:100:GM1Ride_01.wav
448,192,539392,1,0,0:0:0:0:
192,192,539885,128,0,540009:0:0:0:0:
320,192,540595,128,0,540750:0:0:0:0:
64,192,540750,128,0,549083:0:0:0:0:
448,192,540750,1,0,0:0:0:0:
192,192,549083,1,0,0:0:0:40:LR_HiHat Click2.wav
320,192,549145,1,0,0:0:0:40:LR_HiHat Click2.wav
448,192,549206,1,0,0:0:0:40:LR_HiHat Click2.wav
192,192,549268,1,0,0:0:0:40:LR_HiHat Click2.wav
320,192,549330,1,0,0:0:0:40:LR_HiHat Click2.wav
64,192,549391,1,0,0:0:0:40:LR_HiHat Click2.wav
192,192,549453,1,0,0:0:0:40:LR_HiHat Click2.wav
320,192,549515,1,0,0:0:0:40:LR_HiHat Click2.wav
