osu file format v14

[General]
AudioFilename: audio.mp3
AudioLeadIn: 0
PreviewTime: 75227
Countdown: 0
SampleSet: Soft
StackLeniency: 0.4
Mode: 0
LetterboxInBreaks: 0
WidescreenStoryboard: 0

[Editor]
Bookmarks: 65576,68741,109484,134552,146090,204360,233004,277834,360406,447294,479191,501045,539982
DistanceSpacing: 0.54
BeatDivisor: 8
GridSize: 8
TimelineZoom: 5.1

[Metadata]
Title:XNOR XNOR XNOR
TitleUnicode:XNOR XNOR XNOR
Artist:Frums
ArtistUnicode:Frums
Creator:DTM9 Nowa
Version:11-1 01-0 10-0 00-1 11-1 01-0 10-0 00-1 11-1 01-0 10-0 00-1
Source:
Tags:frums.xyz frumsdotxyz featured artist fa metacontinues Instrumental Electronic digital fusion bonus track sequence experimental Moon Fire Water Wood Metal Earth Sun
BeatmapID:2766527
BeatmapSetID:1335372

[Difficulty]
HPDrainRate:4.2
CircleSize:4
OverallDifficulty:9.4
ApproachRate:9.5
SliderMultiplier:2
SliderTickRate:0.5

[Events]
//Background and Video events
0,0,"XNOR.png",0,0
//Break Periods
2,136667,140309
2,282405,294451
//Storyboard Layer 0 (Background)
//Storyboard Layer 1 (Fail)
//Storyboard Layer 2 (Pass)
//Storyboard Layer 3 (Foreground)
//Storyboard Layer 4 (Overlay)
//Storyboard Sound Samples

[TimingPoints]
160,416.666666666667,4,2,1,15,1,0
437,-980.392156862745,4,2,1,15,0,0
10160,-1000,4,2,1,15,0,0
10785,-500,4,2,1,15,0,0
13493,-666.666666666667,4,2,1,15,0,0
15160,-1000,4,2,1,15,0,0
16826,-500,4,2,1,15,0,0
18910,-1000,4,2,1,15,0,0
20160,-500,4,2,1,15,0,0
21826,-1000,4,2,1,15,0,0
22139,-250,4,2,1,15,0,0
22347,-909.090909090909,4,2,1,15,0,0
26410,-400,4,2,1,15,0,0
27087,-400,4,2,1,15,0,0
27139,-250,4,2,1,15,0,0
27399,-400,4,2,1,15,0,0
27451,-166.666666666667,4,2,1,15,0,0
27712,-400,4,2,1,15,0,0
27764,-117.647058823529,4,2,1,15,0,0
28024,-400,4,2,1,15,0,0
28076,-285.714285714286,4,2,1,15,0,0
30160,416.666666666667,7,2,1,15,1,0
30160,-66.6666666666667,7,2,1,15,0,0
30472,-133.333333333333,7,2,1,15,0,0
40125,-155.555555555566,7,2,1,15,0,0
40576,-133.333333333333,7,2,1,15,0,0
41410,-285.714285714284,7,2,1,15,0,0
41826,-399.999999999997,7,2,1,15,0,0
42139,-285.714285714284,7,2,1,15,0,0
42555,-181.818181818181,7,2,1,15,0,0
42972,-133.333333333333,7,2,1,15,0,0
43597,-100,7,2,1,15,0,0
44014,-181.818181818181,7,2,1,15,0,0
45680,-133.333333333333,7,2,1,15,0,0
46201,-222.22222222222,7,2,1,15,0,0
46930,-100,7,2,1,15,0,0
48024,-133.333333333333,7,2,1,15,0,0
48753,-100,7,2,1,15,0,0
49118,-166.666666666667,7,2,1,15,0,0
50194,-90.9090909090909,7,2,1,15,0,0
50576,-111.111111111111,7,2,1,15,0,0
51618,-133.333333333333,7,2,1,15,0,0
52035,-166.666666666667,7,2,1,15,0,0
52399,-250.000000000001,7,2,1,15,0,0
52764,-500.000000000005,7,2,1,15,0,0
53128,-769.230769230769,7,2,1,15,0,0
53857,-181.818181818182,7,2,1,15,0,0
54708,-100,7,2,1,15,0,0
56149,-111.111111111111,7,2,1,15,0,0
56774,-222.222222222221,7,2,1,15,0,0
57503,-133.333333333333,7,2,1,15,0,0
58597,-100,7,2,1,15,0,0
59326,-133.333333333333,7,2,1,15,0,0
59587,-133.333333333333,7,2,1,5,0,0
59673,-133.333333333333,7,2,1,15,0,0
60420,-100,7,2,1,15,0,0
60785,-83.3333333333334,7,2,1,15,0,0
61826,-111.111111111111,7,2,1,15,0,0
63285,-100,7,2,1,15,0,0
64430,-111.111111111111,7,2,1,15,0,0
65029,-100,7,2,1,15,0,0
65160,416.666666666667,3,2,1,15,1,0
65368,-1000,3,2,1,15,0,0
65576,-1000,3,2,2,10,0,0
67660,540.540540540541,2,2,1,10,1,0
67930,-100,2,2,2,50,0,0
68200,-100,2,2,2,70,0,0
68741,540.540540540541,4,2,1,50,1,0
68741,-250,4,2,1,50,0,0
69078,-250,4,2,1,30,0,0
69146,-250,4,2,1,50,0,0
69484,-250,4,2,1,30,0,0
69552,-250,4,2,1,50,0,0
69889,-250,4,2,1,30,0,0
69957,-250,4,2,1,50,0,0
70295,-250,4,2,1,30,0,0
70363,-250,4,2,1,50,0,0
70632,-250,4,2,1,70,0,0
70903,-250,4,2,1,50,0,0
71241,-250,4,2,1,30,0,0
71309,-250,4,2,1,50,0,0
71646,-250,4,2,1,30,0,0
71714,-250,4,2,1,50,0,0
71984,-250,4,2,2,50,0,0
72119,-250,4,2,1,50,0,0
72659,-250,4,2,1,70,0,0
73065,-250,4,2,1,50,0,0
73741,-250,4,2,2,50,0,0
73876,-250,4,2,1,50,0,0
74146,-250,4,2,2,50,0,0
74281,-250,4,2,1,50,0,0
74957,-250,4,2,1,70,0,0
75227,-250,4,2,10,60,0,0
75768,-250,4,2,3,60,0,0
76173,-250,4,2,10,60,0,0
76578,-250,4,2,3,60,0,0
76713,-250,4,2,10,60,0,0
76849,-250,4,2,3,60,0,0
76984,-250,4,2,4,60,0,0
77389,-29.4117647058824,4,2,5,80,0,1
77659,-50,4,2,2,80,0,1
77795,-50,4,2,1,80,0,1
77930,-40,4,2,1,80,0,1
78200,-40,4,2,2,80,0,1
78335,-66.6666666666667,4,2,1,80,0,1
79011,-33.3333333333333,4,2,1,80,0,1
79281,-52.6315789473684,4,2,2,80,0,1
79551,-38.4615384615385,4,2,1,80,0,1
79822,-38.4615384615385,4,2,2,80,0,1
79957,-38.4615384615385,4,2,1,80,0,1
80092,-34.4827586206897,4,2,1,80,0,1
80362,-34.4827586206897,4,2,2,80,0,1
80497,-62.5,4,2,1,80,0,1
81173,-34.4827586206897,4,2,1,80,0,1
81443,-34.4827586206897,4,2,2,80,0,1
81713,-33.3333333333333,4,2,6,80,0,1
81984,-33.3333333333333,4,2,2,80,0,1
82119,-33.3333333333333,4,2,1,80,0,1
82389,-33.3333333333333,4,2,2,80,0,1
82659,-55.5555555555556,4,2,1,80,0,1
83335,-32.258064516129,4,2,1,80,0,1
83605,-38.4615384615385,4,2,2,80,0,1
83876,-35.7142857142857,4,2,6,80,0,1
84146,-35.7142857142857,4,2,2,80,0,1
84281,-35.7142857142857,4,2,1,80,0,1
84416,-34.4827586206897,4,2,1,80,0,1
84686,-34.4827586206897,4,2,2,80,0,1
84822,-34.4827586206897,4,2,7,56,0,1
84957,-100,4,2,1,80,0,1
85227,-100,4,2,7,56,0,1
85362,-100,4,2,1,80,0,1
85632,-100,4,2,7,56,0,1
85768,-100,4,2,1,80,0,1
86038,-35.7142857142857,4,2,6,80,0,1
86308,-35.7142857142857,4,2,2,80,0,1
86443,-35.7142857142857,4,2,1,80,0,1
86578,-35.7142857142857,4,2,1,80,0,1
86849,-35.7142857142857,4,2,2,80,0,1
86983,-66.6666666666667,4,2,1,80,0,1
87659,-31.25,4,2,1,80,0,1
87929,-52.6315789473684,4,2,2,80,0,1
88065,-52.6315789473684,4,2,4,80,0,1
88199,-38.4615384615385,4,2,1,80,0,1
88471,-38.4615384615385,4,2,2,80,0,1
88606,-38.4615384615385,4,2,1,80,0,1
88740,-31.25,4,2,1,80,0,1
89011,-31.25,4,2,2,80,0,1
89145,-62.5,4,2,1,80,0,1
89821,-30.3030303030303,4,2,1,80,0,1
90092,-30.3030303030303,4,2,2,80,0,1
90227,-30.3030303030303,4,2,4,80,0,1
90361,-66.6666666666667,4,2,1,80,0,1
90632,-66.6666666666667,4,2,2,80,0,1
90768,-66.6666666666667,4,2,6,80,0,1
90903,-47.6190476190476,4,2,2,80,0,1
91307,-40,4,2,1,80,0,1
91983,-32.258064516129,4,2,1,80,0,1
92253,-38.4615384615385,4,2,2,80,0,1
92389,-38.4615384615385,4,2,4,80,0,1
92457,-38.4615384615385,4,2,2,80,0,1
92524,-33.3333333333333,4,2,6,80,0,1
92795,-33.3333333333333,4,2,2,80,0,1
92930,-33.3333333333333,4,2,6,80,0,1
93065,-58.8235294117647,4,2,1,80,0,1
93470,-142.857142857143,4,2,1,80,0,1
93876,-333.333333333333,4,2,1,80,0,1
94281,-35.7142857142857,4,2,1,80,0,1
94416,-35.7142857142857,4,2,4,80,0,1
94686,-35.7142857142857,4,2,6,80,0,1
94956,-50,4,2,2,80,0,1
95092,-50,4,2,1,80,0,1
95227,-40,4,2,1,80,0,1
95497,-40,4,2,2,80,0,1
95632,-40,4,2,1,80,0,1
96308,-33.3333333333333,4,2,1,80,0,1
96578,-52.6315789473684,4,2,2,80,0,1
96848,-38.4615384615385,4,2,1,80,0,1
97119,-38.4615384615385,4,2,2,80,0,1
97254,-38.4615384615385,4,2,1,80,0,1
97389,-29.4117647058824,4,2,1,80,0,1
97659,-29.4117647058824,4,2,2,80,0,1
97794,-50,4,2,1,80,0,1
98470,-32.258064516129,4,2,1,80,0,1
98740,-34.4827586206897,4,2,2,80,0,1
99010,-62.5,4,2,6,80,0,1
99551,-29.4117647058824,4,2,2,80,0,1
99957,-66.6666666666667,4,2,6,80,0,1
100227,-66.6666666666667,4,2,1,80,0,1
100632,-32.258064516129,4,2,1,80,0,1
100902,-38.4615384615385,4,2,2,80,0,1
101173,-35.7142857142857,4,2,6,80,0,1
101443,-35.7142857142857,4,2,2,80,0,1
101578,-35.7142857142857,4,2,1,80,0,1
101713,-34.4827586206897,4,2,2,80,0,1
102119,-34.4827586206897,4,2,8,80,0,1
102254,-100,4,2,2,80,0,1
102524,-100,4,2,8,80,0,1
102659,-100,4,2,2,80,0,1
103335,-35.7142857142857,4,2,6,80,0,1
103605,-35.7142857142857,4,2,2,80,0,1
103740,-35.7142857142857,4,2,1,80,0,1
104146,-35.7142857142857,4,2,2,80,0,1
104280,-66.6666666666667,4,2,6,80,0,1
104551,-66.6666666666667,4,2,2,80,0,1
104687,-66.6666666666667,4,2,1,80,0,1
104956,-31.25,4,2,1,80,0,1
105226,-52.6315789473684,4,2,2,80,0,1
105362,-52.6315789473684,4,2,4,80,0,1
105496,-38.4615384615385,4,2,1,80,0,1
105768,-38.4615384615385,4,2,2,80,0,1
106037,-31.25,4,2,2,80,0,1
106442,-62.5,4,2,6,80,0,1
106714,-62.5,4,2,2,80,0,1
106849,-62.5,4,2,1,80,0,1
107118,-28.5714285714286,4,2,1,80,0,1
107389,-28.5714285714286,4,2,2,80,0,1
107524,-28.5714285714286,4,2,4,80,0,1
107658,-66.6666666666667,4,2,6,80,0,1
107929,-66.6666666666667,4,2,2,80,0,1
108065,-66.6666666666667,4,2,6,80,0,1
108200,-47.6190476190476,4,2,2,80,0,1
108604,-40,4,2,1,80,0,1
109280,-32.258064516129,4,2,1,80,0,1
109348,-32.258064516129,4,2,3,80,0,1
109550,-50,4,2,9,80,0,1
109618,-50,4,2,2,80,0,1
109686,-50,4,2,4,80,0,1
109753,-50,4,2,2,80,0,1
109821,-40,4,2,6,80,0,1
110092,-40,4,2,2,80,0,1
110227,-40,4,2,6,80,0,1
110362,-40,4,2,1,80,0,1
110903,-52.6315789473684,4,2,1,80,0,1
111308,-66.6666666666667,4,2,3,80,0,1
112254,-40,4,2,2,80,0,1
112930,-40,4,2,6,80,0,1
112997,-40,4,2,2,80,0,1
113335,-40,4,2,6,80,0,1
113470,-40,4,2,2,80,0,1
114011,-62.5,4,2,2,80,0,1
114146,-62.5,4,2,6,80,0,1
114281,-33.3333333333333,4,2,2,80,0,1
114551,-31.25,4,2,6,80,0,1
114618,-31.25,4,2,2,80,0,1
114686,-40,4,2,2,80,0,1
115092,-100,4,2,6,80,0,1
115362,-50,4,2,1,80,0,1
115497,-50,4,2,6,80,0,1
115564,-50,4,2,2,80,0,1
115632,-50,4,2,6,80,0,1
115699,-50,4,2,2,80,0,1
116308,-50,4,2,6,80,0,1
116578,-50,4,2,2,80,0,1
116713,-50,4,2,6,80,0,1
116849,-50,4,2,2,80,0,1
117254,-50,4,2,6,80,0,1
117321,-50,4,2,2,80,0,1
117389,-76.9230769230769,4,2,2,80,0,1
117659,-76.923076923077,4,2,6,80,0,1
117727,-76.923076923077,4,2,2,80,0,1
117930,-66.6666666666667,4,2,2,80,0,1
118470,-133.333333333333,4,2,6,80,0,1
118672,-133.333333333333,4,2,2,80,0,1
119011,-36.3636363636364,4,2,2,80,0,1
119416,-36.3636363636364,4,2,6,56,0,1
119551,-100,4,2,2,80,0,1
120092,-66.6666666666667,4,2,2,80,0,1
120632,-31.25,4,2,6,80,0,1
121173,-50,4,2,2,80,0,1
121443,-33.3333333333333,4,2,2,80,0,1
121578,-38.4615384615385,4,2,6,80,0,1
121849,-38.4615384615385,4,2,2,80,0,1
122254,-100,4,2,2,80,0,1
122524,-40,4,2,2,80,0,1
122659,-35.7142857142857,4,2,6,80,0,1
123065,-40,4,2,2,80,0,1
123200,-40,4,2,6,80,0,1
123335,-40,4,2,2,80,0,1
123741,-40,4,2,6,80,0,1
124011,-66.6666666666667,4,2,2,80,0,1
124281,-66.6666666666667,4,2,4,80,0,1
124349,-66.6666666666667,4,2,2,80,0,1
124821,-66.6666666666667,4,2,4,80,0,1
124957,-66.6666666666667,4,2,6,80,0,1
125092,-66.6666666666667,4,2,2,80,0,1
125362,-66.6666666666667,4,2,6,80,0,1
125497,-66.6666666666667,4,2,2,80,0,1
125768,-50,4,2,2,80,0,1
125903,-50,4,2,6,80,0,1
126173,-100,4,2,2,80,0,1
126308,-100,4,2,1,80,0,1
126443,-100,4,2,2,80,0,1
126578,-40,4,2,2,80,0,1
126984,-40,4,2,4,80,0,1
127119,-37.037037037037,4,2,6,80,0,1
127389,-37.037037037037,4,2,2,80,0,1
127524,-66.6666666666667,4,2,6,80,0,1
127659,-76.9230769230769,4,2,3,80,0,1
127930,-90.9090909090909,4,2,3,80,0,1
128065,-250,4,2,3,80,0,1
128741,-250,4,2,3,60,0,1
129281,-250,4,2,3,60,0,0
130362,-66.6666666666667,4,2,10,60,0,0
131713,606.060606060606,4,2,10,80,1,0
132299,540.540540540541,4,2,10,60,1,0
132299,-66.6666666666667,4,2,10,60,0,0
132434,-66.6666666666667,4,2,1,60,0,0
132659,-66.6666666666667,4,2,10,60,0,0
132794,-66.6666666666667,4,2,1,60,0,0
133020,-66.6666666666667,4,2,10,60,0,0
133695,-66.6666666666667,4,2,16,50,0,0
134552,769.230769230769,5,2,1,40,1,0
140834,-133.333333333333,5,2,7,40,0,0
141154,-133.333333333333,5,2,7,5,0,0
141218,-100,5,2,7,40,0,0
141475,-133.333333333333,5,2,7,5,0,0
141539,-66.6666666666667,5,2,7,40,0,0
141859,-133.333333333333,5,2,7,5,0,0
141923,-147.058823529412,5,2,7,30,0,0
146026,-133.333333333333,5,2,7,5,0,0
146090,-41.6666666666667,5,2,7,40,0,0
146859,-133.333333333333,5,2,7,5,0,0
146987,-28.5714285714286,5,2,7,50,0,0
147308,-133.333333333333,5,2,7,5,0,0
147372,-45.4545454545455,5,2,7,40,0,0
147628,-133.333333333333,5,2,7,5,0,0
147693,-100,5,2,7,30,0,0
148013,-100,5,2,1,30,0,0
148398,-117.647058823529,5,2,1,30,0,0
149936,-133.333333333333,5,2,1,5,0,0
150064,-666.666666666667,5,2,7,30,0,0
152116,-133.333333333333,5,2,7,5,0,0
152244,-32.258064516129,5,2,7,50,0,0
152628,-133.333333333333,5,2,7,5,0,0
152693,-47.6190476190476,5,2,7,40,0,0
153013,-133.333333333333,5,2,7,5,0,0
153077,-125,5,2,7,30,0,0
153462,-133.333333333333,5,2,7,5,0,0
153526,-47.6190476190476,5,2,7,40,0,0
153846,-133.333333333333,5,2,7,5,0,0
153910,-27.027027027027,5,2,7,50,0,0
154231,-133.333333333333,5,2,7,5,0,0
154295,-43.4782608695652,5,2,7,35,0,0
154616,-133.333333333333,5,2,7,5,0,0
154680,-22.2222222222222,4,2,7,55,0,0
154936,-133.333333333333,5,2,7,5,0,0
155000,-76.9230769230769,4,2,7,40,0,0
155577,-133.333333333333,5,2,7,5,0,0
155705,-37.037037037037,4,2,11,40,0,0
155898,-133.333333333333,5,2,11,5,0,0
156090,-100,4,2,11,30,0,0
159359,-133.333333333333,5,2,11,5,0,0
159552,-500,5,2,7,20,0,0
161378,-133.333333333333,5,2,7,5,0,0
161475,-100,5,2,9,30,0,0
169167,-100,5,2,12,40,0,0
169263,-100,5,2,9,40,0,0
169455,-100,5,2,12,40,0,0
169552,-100,5,2,9,40,0,0
169936,-50,5,2,1,40,0,0
170128,-50,5,2,9,40,0,0
170224,-50,5,2,1,40,0,0
170321,-50,5,2,9,40,0,0
170705,-50,5,2,12,40,0,0
170898,-50,5,2,9,40,0,0
170994,-50,5,2,1,40,0,0
171090,-50,5,2,9,40,0,0
171475,-50,5,2,12,40,0,0
171667,-50,5,2,9,40,0,0
171763,-50,5,2,1,40,0,0
171859,-50,5,2,9,40,0,0
172244,-50,5,2,12,40,0,0
172436,-50,5,2,9,40,0,0
172532,-50,5,2,1,40,0,0
172628,-50,5,2,9,40,0,0
172821,-50,5,2,13,40,0,0
173013,-50,5,2,12,40,0,0
173205,-50,5,2,9,40,0,0
173301,-50,5,2,1,40,0,0
173398,-50,5,2,9,40,0,0
173782,-50,5,2,12,40,0,0
173975,-50,5,2,9,40,0,0
174071,-50,5,2,1,40,0,0
174167,-50,5,2,9,40,0,0
174552,-50,5,2,12,40,0,0
174744,-50,5,2,9,40,0,0
174840,-50,5,2,1,40,0,0
174936,-50,5,2,9,40,0,0
175321,-50,5,2,12,40,0,0
175513,-50,5,2,9,40,0,0
175609,-50,5,2,1,40,0,0
175705,-50,5,2,9,40,0,0
176090,-50,5,2,12,40,0,0
176282,-50,5,2,9,40,0,0
176378,-50,5,2,1,40,0,0
176475,-50,5,2,9,40,0,0
176571,-50,5,2,13,40,0,0
176859,-40,5,2,12,40,0,0
177052,-40,5,2,9,40,0,0
177148,-40,5,2,1,40,0,0
177244,-35.7142857142857,5,2,13,40,0,0
177628,-35.7142857142857,5,2,12,40,0,0
177821,-35.7142857142857,5,2,9,40,0,0
177917,-35.7142857142857,5,2,1,40,0,0
178013,-66.6666666666667,5,2,13,40,0,0
178397,-66.6666666666667,5,2,12,40,0,0
178590,-66.6666666666667,5,2,9,40,0,0
178686,-66.6666666666667,5,2,1,40,0,0
178782,-66.6666666666667,5,2,13,40,0,0
179167,-50,5,2,12,40,0,0
179359,-50,5,2,9,40,0,0
179455,-50,5,2,1,40,0,0
179552,-50,5,2,14,40,0,0
179936,-50,5,2,12,40,0,0
180128,-50,5,2,9,40,0,0
180513,-50,5,2,13,40,0,0
180705,-50,5,2,12,40,0,0
180898,-50,5,2,9,40,0,0
180994,-50,5,2,1,40,0,0
181090,-50,5,2,13,40,0,0
181475,-50,5,2,12,40,0,0
181667,-50,5,2,9,40,0,0
181763,-50,5,2,1,40,0,0
181859,-50,5,2,13,40,0,0
182244,-50,5,2,12,40,0,0
182436,-50,5,2,9,40,0,0
182532,-50,5,2,1,40,0,0
182628,-50,5,2,13,40,0,0
183013,-50,5,2,12,40,0,0
183205,-50,5,2,9,40,0,0
183302,-50,5,2,1,40,0,0
183398,-50,5,2,14,40,0,0
183782,-50,5,2,12,40,0,0
183975,-50,5,2,9,40,0,0
184167,-33.3333333333333,5,2,9,40,0,0
184263,-33.3333333333333,5,2,13,40,0,0
184552,-50,5,2,12,40,0,0
184744,-50,5,2,9,40,0,0
184840,-50,5,2,1,40,0,0
184936,-40,5,2,13,40,0,0
185128,-40,5,2,13,40,0,0
185321,-40,5,2,12,40,0,0
185513,-33.3333333333333,5,2,9,40,0,0
185609,-33.3333333333333,5,2,1,40,0,0
185705,-40,5,2,13,40,0,0
186090,-40,5,2,12,40,0,0
186282,-40,5,2,9,40,0,0
186378,-40,5,2,1,40,0,0
186475,-40,5,2,13,40,0,0
186859,-40,5,2,12,40,0,0
187052,-33.3333333333333,5,2,9,40,0,0
187148,-33.3333333333333,5,2,1,40,0,0
187244,-40,5,2,14,40,0,0
187628,-40,5,2,12,40,0,0
187821,-40,5,2,9,40,0,0
187917,-40,5,2,1,40,0,0
188013,-40,5,2,9,40,0,0
188205,-40,5,2,13,40,0,0
188398,-40,5,2,12,40,0,0
188590,-40,5,2,9,40,0,0
188686,-40,5,2,1,40,0,0
188782,-40,5,2,9,40,0,0
188878,-40,5,2,13,40,0,0
189167,-40,5,2,12,40,0,0
189359,-40,5,2,9,40,0,0
189455,-40,5,2,1,40,0,0
189552,-40,5,2,13,40,0,0
189936,-40,5,2,12,40,0,0
190321,-40,5,2,13,40,0,0
190705,-40,5,2,12,40,0,0
190898,-40,5,2,9,40,0,0
190994,-40,5,2,1,40,0,0
191090,-40,5,2,14,40,0,0
191475,-40,5,2,12,40,0,0
191603,-40,5,2,13,40,0,0
191859,-40,5,2,9,40,0,0
191988,-40,5,2,13,40,0,0
192244,-66.6666666666667,5,2,12,40,0,0
192821,-66.6666666666667,5,2,13,40,0,0
193013,-58.8235294117647,5,2,1,40,0,0
193590,-58.8235294117647,5,2,13,40,0,0
193782,-52.6315789473684,5,2,1,40,0,0
194263,-66.6666666666667,5,2,13,40,0,0
194552,-47.6190476190476,5,2,1,40,0,0
195032,-47.6190476190476,5,2,13,40,0,0
195321,-43.4782608695652,5,2,1,40,0,0
195802,-66.6666666666667,5,2,13,40,0,0
196090,-40,5,2,1,40,0,0
196667,-40,5,2,13,40,0,0
196859,-37.037037037037,5,2,1,40,0,0
197436,-37.037037037037,5,2,13,40,0,0
197628,-34.4827586206897,5,2,1,40,0,0
198109,-46.5116279069767,5,2,13,40,0,0
198398,-32.258064516129,5,2,1,40,0,0
198878,-32.258064516129,5,2,13,40,0,0
199167,-30.3030303030303,5,2,1,40,0,0
199648,-30.3030303030303,5,2,13,40,0,0
199936,-28.5714285714286,5,2,1,40,0,0
203782,-66.6666666666667,5,2,13,40,0,0
204071,-66.6666666666667,5,2,13,20,0,0
204167,-25,5,2,13,40,0,0
204263,-25,5,2,13,20,0,0
204360,338.983050847458,3,2,10,50,1,0
204360,-285.714285714287,3,2,10,50,0,0
204868,-166.666666666667,3,2,10,50,0,0
205376,-166.666666666667,3,2,10,25,0,0
206393,-285.714285714287,3,2,10,50,0,0
206902,-166.666666666667,3,2,10,50,0,0
207410,-166.666666666667,3,2,10,25,0,0
208258,-50,3,2,10,50,0,0
208427,-83.3333333333333,3,2,15,60,0,0
208681,-83.3333333333333,3,2,10,60,0,0
209021,-79.9999999999999,3,2,10,60,0,0
209275,-50,3,2,10,60,0,0
209444,-83.3333333333333,3,2,1,60,0,0
210461,-74.0740740740741,3,2,15,60,0,0
210714,-74.0740740740741,3,2,10,60,0,0
211054,-57.1428571428571,3,2,10,60,0,0
211309,-74.0740740740741,3,2,10,60,0,0
211478,-74.0740740740741,3,2,1,60,0,0
212495,-57.1428571428571,3,2,15,60,0,0
212665,-57.1428571428571,3,2,1,60,0,0
212749,-74.0740740740741,3,2,15,60,0,0
212919,-74.0740740740741,3,2,1,60,0,0
213003,-74.0740740740741,3,2,15,60,0,0
213173,-74.0740740740741,3,2,10,60,0,0
213258,-60.6060606060606,3,2,10,60,0,0
213343,-60.6060606060606,3,2,16,60,0,0
213936,-74.0740740740741,3,2,16,60,0,0
214529,-105.263157894737,3,2,16,70,0,0
214783,-60.6060606060606,3,2,16,70,0,0
215207,-45.4545454545455,3,2,16,70,0,0
215546,-58.8235294117647,3,2,16,50,0,0
216224,-50,3,2,16,50,0,0
216309,-62.5,3,2,16,50,0,0
216393,-83.3333333333333,3,2,16,50,0,0
216478,-125,3,2,16,50,0,0
216563,-66.6666666666667,3,2,16,70,0,0
218258,-100,3,2,16,70,0,0
218427,-58.8235294117647,3,2,16,70,0,0
219105,-100,3,2,16,70,0,0
219953,-66.6666666666667,3,2,16,70,0,0
220122,-100,3,2,16,70,0,0
221902,-66.6666666666667,3,2,16,70,0,0
222326,-100,3,2,16,70,0,0
223173,-50,3,2,16,70,0,0
224021,-58.8235294117647,3,2,16,70,0,0
224698,-100,3,2,16,70,0,0
226393,-76.9230769230769,3,2,16,70,0,0
226563,-58.8235294117647,3,2,16,70,0,0
226987,-50,3,2,16,70,0,0
227241,-100,3,2,16,70,0,0
227749,-66.6666666666667,3,2,16,70,0,0
228427,-43.4782608695652,3,2,16,70,0,0
228540,-52.6315789473684,3,2,16,70,0,0
228653,-66.6666666666667,3,2,16,70,0,0
229021,-83.3333333333333,3,2,16,70,0,0
229190,-55.5555555555556,3,2,16,70,0,0
229614,-83.3333333333333,3,2,16,70,0,0
231987,-50,3,2,16,70,0,0
232156,-66.6666666666667,3,2,16,70,0,0
232410,-66.6666666666667,3,2,1,70,0,0
232834,-83.3333333333333,3,2,16,70,0,0
233004,-83.3333333333333,3,2,16,70,0,0
233342,-83.3333333333333,3,2,16,70,0,0
233427,-83.3333333333333,3,2,16,70,0,0
233851,-83.3333333333333,3,2,16,70,0,0
233935,-83.3333333333333,3,2,16,70,0,0
234021,-50,3,2,16,70,0,0
234190,-38.4615384615385,3,2,16,70,0,0
234529,-58.8235294117647,3,2,16,70,0,0
234698,-83.3333333333333,3,2,16,70,0,0
235376,-100,3,2,16,70,0,0
236224,-58.8235294117647,3,2,16,70,0,0
236563,-100,3,2,16,70,0,0
238766,-40,3,2,16,70,0,0
239190,-66.6666666666667,3,2,16,70,0,0
239360,-100,3,2,16,70,0,0
240292,-58.8235294117647,3,2,16,70,0,0
240631,-76.9230769230769,3,2,16,70,0,0
243004,-41.6666666666667,3,2,16,70,0,0
244360,-100,3,2,16,70,0,0
244698,-76.9230769230769,3,2,16,70,0,0
246054,-100,3,2,16,70,0,0
246309,-166.666666666667,3,2,16,70,0,0
247071,-71.4285714285714,3,2,16,70,0,0
248088,-38.4615384615385,3,2,16,70,0,0
248427,-43.4782608695652,3,2,16,70,0,0
248766,-66.6666666666667,3,2,16,70,0,0
249105,-100,3,2,16,70,0,0
252156,-100,3,2,13,50,0,0
253173,-100,3,2,16,70,0,0
256224,-100,3,2,13,50,0,0
256732,-100,3,2,17,50,0,0
256902,-100,3,2,13,50,0,0
257241,-100,3,2,16,70,0,0
260546,-166.666666666667,3,2,16,50,0,0
260715,-166.666666666667,3,2,16,50,0,0
261309,-83.3333333333334,3,2,16,70,0,0
264360,-83.3333333333334,3,2,1,60,0,0
264444,-83.3333333333334,3,2,18,60,0,0
264614,-83.3333333333334,3,2,16,60,0,0
264698,-83.3333333333334,3,2,18,60,0,0
264868,-83.3333333333334,3,2,17,70,0,0
264953,-83.3333333333334,3,2,16,70,0,0
265376,-285.714285714284,3,2,15,50,0,0
265630,-285.714285714284,3,2,10,50,0,0
265884,-200,3,2,10,50,0,0
266393,-166.666666666667,3,2,10,25,0,0
267409,-285.714285714284,3,2,10,50,0,0
267917,-166.666666666667,3,2,10,50,0,0
268427,-166.666666666667,3,2,10,25,0,0
269443,-83.3333333333333,3,2,15,60,0,0
269697,-83.3333333333333,3,2,10,60,0,0
270460,-83.3333333333333,3,2,1,60,0,0
271477,-74.0740740740741,3,2,15,60,0,0
271730,-74.0740740740741,3,2,10,60,0,0
272494,-74.0740740740741,3,2,1,60,0,0
273511,-74.0740740740741,3,2,15,60,0,0
273681,-74.0740740740741,3,2,1,60,0,0
273765,-74.0740740740741,3,2,15,60,0,0
273935,-74.0740740740741,3,2,1,60,0,0
274019,-74.0740740740741,3,2,15,60,0,0
274189,-74.0740740740741,3,2,10,60,0,0
274359,-74.0740740740741,3,2,16,60,0,0
274783,-64.5161290322581,3,2,16,60,0,0
275545,-105.263157894737,3,2,16,60,0,0
275800,-54.054054054054,3,2,16,70,0,0
276223,-43.4782608695652,3,2,16,80,0,0
276392,-43.4782608695652,3,2,16,80,0,0
276563,-100,3,2,16,60,0,0
277354,-200,3,2,16,60,0,0
277834,285.714285714286,4,2,16,40,1,0
294976,-133.333333333333,4,2,19,40,0,0
295047,-133.333333333333,4,2,8,40,0,0
295262,-133.333333333333,4,2,19,40,0,0
295333,-133.333333333333,4,2,8,40,0,0
295548,-133.333333333333,4,2,19,40,0,0
295619,-133.333333333333,4,2,8,40,0,0
295834,-133.333333333333,4,2,1,40,0,0
296119,-133.333333333333,4,2,1,60,0,0
296262,-133.333333333333,4,2,16,60,0,0
298262,-181.818181818181,4,2,16,60,0,0
298548,-133.333333333333,4,2,16,60,0,0
300691,-133.333333333333,4,2,1,60,0,0
300834,-133.333333333333,4,2,16,60,0,0
304262,-100,4,2,16,60,0,0
304691,-100,4,2,20,60,0,0
304976,-100,4,2,21,60,0,0
305262,-100,4,2,1,60,0,0
305405,-133.333333333333,4,2,16,60,0,0
307405,-181.818181818181,4,2,16,60,0,0
307691,-133.333333333333,4,2,16,60,0,0
309834,-133.333333333333,4,2,18,60,0,0
309976,-133.333333333333,4,2,16,60,0,0
313405,-100,4,2,16,60,0,0
313834,-100,4,2,20,60,0,0
314119,-100,4,2,21,60,0,0
314405,-100,4,2,18,60,0,0
314691,-250,4,2,1,60,0,0
314976,-250,4,2,5,60,0,0
315262,-250,4,2,1,60,0,0
315405,-250,4,2,5,60,0,0
315691,-250,4,2,1,60,0,0
315976,-250,4,2,5,60,0,0
316262,-250,4,2,1,60,0,0
316405,-250,4,2,5,60,0,0
316976,-250,4,2,1,60,0,0
317262,-250,4,2,5,60,0,0
317548,-250,4,2,1,60,0,0
317691,-250,4,2,5,60,0,0
317976,-250,4,2,16,60,0,0
318262,-250,4,2,22,60,0,0
318405,-250,4,2,16,60,0,0
318691,-250,4,2,22,60,0,0
318834,-250,4,2,16,60,0,0
318976,-250,4,2,22,60,0,0
319262,-250,4,2,1,60,0,0
319548,-250,4,2,5,60,0,0
319833,-250,4,2,1,60,0,0
319976,-250,4,2,5,60,0,0
320262,-250,4,2,1,60,0,0
320548,-250,4,2,5,60,0,0
320834,-250,4,2,1,60,0,0
320976,-250,4,2,22,60,0,0
321119,-250,4,2,16,60,0,0
321262,-333.333333333333,4,2,5,60,0,0
321548,-250,4,2,1,60,0,0
321834,-250,4,2,5,60,0,0
322119,-250,4,2,1,60,0,0
322262,-250,4,2,5,60,0,0
322548,-250,4,2,1,60,0,0
322834,-250,4,2,5,60,0,0
323119,-250,4,2,1,60,0,0
323262,-250,4,2,22,60,0,0
323334,-250,4,2,16,60,0,0
323548,-250,4,2,22,60,0,0
323834,-250,4,2,1,60,0,0
324119,-250,4,2,5,60,0,0
324405,-250,4,2,1,60,0,0
324548,-250,4,2,5,60,0,0
324834,-250,4,2,1,60,0,0
325119,-250,4,2,5,60,0,0
325405,-250,4,2,1,60,0,0
325548,-250,4,2,5,60,0,0
326119,-250,4,2,1,60,0,0
326405,-250,4,2,5,60,0,0
326691,-250,4,2,1,60,0,0
326834,-250,4,2,5,60,0,0
327119,-250,4,2,16,60,0,0
327405,-250,4,2,22,60,0,0
327548,-250,4,2,16,60,0,0
327834,-250,4,2,22,60,0,0
327976,-250,4,2,16,60,0,0
328119,-250,4,2,22,60,0,0
328405,-250,4,2,1,60,0,0
328691,-250,4,2,5,60,0,0
328976,-250,4,2,1,60,0,0
329119,-250,4,2,5,60,0,0
329405,-250,4,2,1,60,0,0
329691,-250,4,2,5,60,0,0
329976,-250,4,2,1,60,0,0
330119,-250,4,2,5,60,0,0
330690,-250,4,2,1,60,0,0
330976,-250,4,2,5,60,0,0
331262,-250,4,2,1,60,0,0
331405,-250,4,2,5,60,0,0
331691,-133.333333333333,4,2,23,60,0,0
332119,-100,4,2,10,60,0,0
332690,-100,4,2,18,60,0,0
332834,-100,4,2,16,60,0,0
333834,-133.333333333333,4,2,16,60,0,0
334119,-100,4,2,16,60,0,0
335405,-133.333333333333,4,2,16,60,0,0
335976,-222.222222222221,4,2,16,60,0,0
337262,-133.333333333333,4,2,16,60,0,0
340691,-133.333333333333,4,2,1,60,0,0
341262,-133.333333333333,4,2,10,60,0,0
341547,-133.333333333333,4,2,21,60,0,0
341834,-133.333333333333,4,2,18,60,0,0
341976,-133.333333333333,4,2,16,60,0,0
343976,-100,4,2,16,60,0,0
344548,-133.333333333333,4,2,16,60,0,0
345691,-153.846153846153,4,2,16,60,0,0
346405,-153.846153846153,4,2,18,60,0,0
346691,-100,4,2,16,60,0,0
347405,-200,4,2,16,60,0,0
347834,-100,4,2,16,60,0,0
347976,-117.647058823529,4,2,16,60,0,0
349119,-153.846153846153,4,2,16,60,0,0
349834,-153.846153846153,4,2,1,60,0,0
349976,-153.846153846153,4,2,17,60,0,0
350405,-153.846153846153,4,2,20,60,0,0
350691,-153.846153846153,4,2,21,60,0,0
350833,-153.846153846153,4,2,20,60,0,0
350976,-200,4,2,17,45,0,0
355548,-125,4,2,17,45,0,0
355976,-166.666666666667,4,2,17,45,0,0
357834,-111.111111111111,4,2,17,45,0,0
358262,-142.857142857143,4,2,17,45,0,0
358976,-142.857142857143,4,2,19,60,0,0
359047,-142.857142857143,4,2,24,60,0,0
359262,-142.857142857143,4,2,19,60,0,0
359333,-142.857142857143,4,2,24,60,0,0
359548,-142.857142857143,4,2,19,60,0,0
359619,-142.857142857143,4,2,24,60,0,0
359834,-100,4,2,1,60,0,0
359976,-133.333333333333,4,2,18,60,0,0
360426,333.333333333333,4,2,18,80,1,0
360426,-50,4,2,18,80,0,0
360592,-11,4,2,16,50,0,0
373759,-21.8202771376798,4,2,16,60,0,0
374926,-30.6376912798951,4,2,16,60,0,0
377592,-50,4,2,16,60,0,0
377759,-42.9184549356223,4,2,16,60,0,0
378092,-10,4,2,16,60,0,0
381092,-22.7352052614558,4,2,16,60,0,0
381426,-33.4616393111072,4,2,16,60,0,0
381926,-10,4,2,16,60,0,0
384426,-33.3333333333333,4,2,16,60,0,0
384541,304.568527918782,4,2,16,60,1,0
384541,-21.9620605873494,4,2,16,60,0,0
384842,-19.8255271670475,4,2,16,60,0,0
385150,-19.1046108389927,4,2,16,60,0,0
385454,-17.255282651052,4,2,16,60,0,0
385740,255.31914893617,4,2,16,60,1,0
385740,-18.25068750658,4,2,16,60,0,0
385995,-18.4236182392942,4,2,16,60,0,0
386250,-18.5266594944702,4,2,16,60,0,0
386505,-18.0020480517688,4,2,16,60,0,0
386717,238.095238095238,4,2,16,60,1,0
386717,-18.213431819332,4,2,16,60,0,0
386920,333.333333333333,4,2,16,60,1,0
386920,-21.7668909966142,4,2,16,60,0,0
387072,333.333333333333,4,2,16,60,1,0
387072,-21.9942398011751,4,2,16,60,0,0
387219,333.333333333333,4,2,16,60,1,0
387219,-20.7187234268366,4,2,16,60,0,0
387360,333.333333333333,4,2,16,60,1,0
387360,-21.2509212720906,4,2,16,60,0,0
387489,333.333333333333,4,2,16,60,1,0
387489,-21.1742386101112,4,2,16,60,0,0
387610,333.333333333333,4,2,16,60,1,0
387610,-19.7564233072638,4,2,16,60,0,0
387742,320.855614973262,4,2,16,60,1,0
387742,-33.3333333333333,4,2,16,60,0,0
387848,-40,4,2,16,60,0,0
387955,-47.6190476190476,4,2,16,60,0,0
388062,-55.5555555555556,4,2,16,60,0,0
388169,-62.5,4,2,16,60,0,0
388276,-66.6666666666667,4,2,16,60,0,0
388384,333.333333333333,4,2,16,60,1,0
388384,-50,4,2,16,60,0,0
391050,335.195530726257,4,2,16,55,1,0
391050,-100,4,2,16,55,0,0
394737,-33.3333333333333,4,2,16,60,0,0
395072,333.333333333333,4,2,16,60,1,0
395072,-22.4826227928531,4,2,16,70,0,0
395572,-31.3694511672302,4,2,16,70,0,0
395739,-21.3473717699529,4,2,16,70,0,0
396405,-20.7797373550816,4,2,16,70,0,0
396739,-21.9342884640157,4,2,16,70,0,0
397072,-15.8423629845748,4,2,16,70,0,0
397739,-20.8498549009941,4,2,16,70,0,0
398072,-21.4223851763817,4,2,16,70,0,0
398239,-42.5531914893617,4,2,16,70,0,0
398405,-16.129102172129,4,2,16,70,0,0
399072,-25.2035784925214,4,2,16,70,0,0
399239,-25.4796260087978,4,2,16,70,0,0
399405,-30.204937457226,4,2,16,70,0,0
399905,-21.9606257998696,4,2,16,70,0,0
400072,-18.0090690959405,4,2,16,70,0,0
400739,-20.4883089027381,4,2,16,70,0,0
401072,-19.6385262305127,4,2,16,70,0,0
401239,-33.3333333333333,4,2,16,70,0,0
401405,-15.7964697105955,4,2,16,70,0,0
402072,-21.2153672120502,4,2,16,70,0,0
402405,-21.1983521814372,4,2,16,70,0,0
402572,-33.3333333333333,4,2,16,70,0,0
402738,-25,4,2,16,70,0,0
402739,-16.188738351722,4,2,16,70,0,0
403405,-24.4118614723609,4,2,16,70,0,0
403572,-25.4638446403569,4,2,16,70,0,0
403739,-28.0870047902765,4,2,16,70,0,0
404239,-20.9770937238255,4,2,16,70,0,0
404405,-21.7246071079782,4,2,16,70,0,0
405072,-21.0809781087103,4,2,16,70,0,0
405405,-21.6542365713431,4,2,16,70,0,0
405572,-33.3333333333333,4,2,16,70,0,0
405739,-15.1419847441815,4,2,16,70,0,0
406405,-20.3269711187734,4,2,16,70,0,0
406739,-20.3961056470141,4,2,16,70,0,0
407072,-16.1496240485921,4,2,16,70,0,0
407739,-24.74916804005,4,2,16,70,0,0
407905,-26.2825558977016,4,2,16,70,0,0
408072,-28.8715746271091,4,2,16,70,0,0
408572,-22.2568797204278,4,2,16,70,0,0
408739,-16.1347926534223,4,2,16,70,0,0
409405,-21.6373601211896,4,2,16,70,0,0
409739,-19.1974904450237,4,2,16,70,0,0
409905,-40,4,2,16,70,0,0
410072,-14.2565038540021,4,2,16,70,0,0
410739,-21.2302597021168,4,2,16,70,0,0
411072,-19.9855260962893,4,2,16,70,0,0
411405,-16.0065268440928,4,2,16,70,0,0
412072,-23.8994852357538,4,2,16,70,0,0
412239,-23.8994852357539,4,2,16,70,0,0
412405,-25.0043367717702,4,2,16,70,0,0
412572,-25.5818107680989,4,2,16,70,0,0
412739,-25.4186857396087,4,2,16,70,0,0
412905,-23.5276103296689,4,2,16,70,0,0
413072,-23.5277981077959,4,2,16,70,0,0
413239,-23.2497639350213,4,2,16,70,0,0
413405,-23.5277981077959,4,2,16,70,0,0
413572,-23.5277981077959,4,2,16,70,0,0
413739,-24.0603407176469,4,2,16,70,0,0
413905,-24.0603407176469,4,2,16,70,0,0
414072,-24.510586340897,4,2,16,70,0,0
414238,-22.8064102513646,4,2,16,70,0,0
414405,-22.9240951629058,4,2,16,70,0,0
414572,-23.4363877831507,4,2,16,70,0,0
414739,-23.4536949251937,4,2,16,70,0,0
414906,-23.4536949251937,4,2,16,70,0,0
415072,-24.8969921281478,4,2,16,70,0,0
415405,-49.4679220043821,4,2,16,70,0,0
415572,-24.715607810737,4,2,16,70,0,0
415739,-24.7000317281448,4,2,16,70,0,0
416072,-24.249570413013,4,2,16,70,0,0
416239,-24.249570413013,4,2,16,70,0,0
416405,-16.7509136258016,4,2,16,70,0,0
416572,-16.7509136258016,4,2,16,70,0,0
416739,-33.4448160535117,4,2,16,70,0,0
416905,-24.5108324481824,4,2,16,70,0,0
417072,-24.0618964350659,4,2,16,70,0,0
417239,-25.7232705740056,4,2,16,70,0,0
417405,-25.7864534645977,4,2,16,70,0,0
417572,-25.3415907274043,4,2,16,70,0,0
417739,-26.3055154335344,4,2,16,70,0,0
417906,-26.0885562226343,4,2,16,70,0,0
418072,-23.6704014328489,4,2,16,70,0,0
418239,-26.040849825875,4,2,16,70,0,0
418405,-24.6780867262135,4,2,16,70,0,0
418572,-24.4274810843983,4,2,16,70,0,0
418739,-23.8518658127806,4,2,16,70,0,0
418905,-23.8634618008279,4,2,16,70,0,0
419072,-23.6712757411802,4,2,16,70,0,0
419239,-24.1280485478452,4,2,16,70,0,0
419405,-26.5491132586961,4,2,16,70,0,0
419572,-25.0848504877959,4,2,16,70,0,0
419739,-63.5418805270203,4,2,16,70,0,0
420072,-25.1934258671692,4,2,16,70,0,0
420239,-25.4534529393098,4,2,16,70,0,0
420405,-25.3945612662291,4,2,16,70,0,0
420572,-24.8228694682976,4,2,16,70,0,0
420739,-25.4534529393098,4,2,16,70,0,0
420905,-33.3333333333333,4,2,16,70,0,0
421072,-117.647058823529,4,2,16,70,0,0
421405,-153.846153846153,4,2,16,70,0,0
421739,-25.2974645288341,4,2,16,70,0,0
421905,-25.2974645288341,4,2,16,70,0,0
422072,-25.2974645288341,4,2,16,70,0,0
422239,-25.2974645288341,4,2,16,70,0,0
422405,-28.4237400392411,4,2,16,70,0,0
422572,-27.1334312505468,4,2,16,70,0,0
422739,-29.1114686244535,4,2,16,70,0,0
422906,-26.2212938888299,4,2,16,70,0,0
423072,-27.6875832293625,4,2,16,70,0,0
423239,-27.6995823061929,4,2,16,70,0,0
423405,-28.7426417753982,4,2,16,70,0,0
423572,-27.24677627119,4,2,16,70,0,0
423739,-27.250016916816,4,2,16,70,0,0
423905,-27.250016916816,4,2,16,70,0,0
424072,-27.548923566419,4,2,16,70,0,0
424405,-52.8188408299622,4,2,16,70,0,0
424739,-26.5963458428387,4,2,16,70,0,0
424905,-25.5979916997229,4,2,16,70,0,0
425072,-27.7337027125679,4,2,16,70,0,0
425239,-27.4332821477718,4,2,16,70,0,0
425405,-28.4017961017139,4,2,16,70,0,0
425572,-27.4332821477718,4,2,16,70,0,0
425905,-61.5568034389908,4,2,16,70,0,0
426072,-38.6769694838547,4,2,16,70,0,0
426239,-36.3772337420941,4,2,16,70,0,0
426405,-26.2001450290687,4,2,16,70,0,0
426572,-24.0142320520565,4,2,16,70,0,0
426739,-20.796120462917,4,2,16,70,0,0
426905,-25.2778586375155,4,2,16,70,0,0
427072,-26.4017728511313,4,2,16,70,0,0
427239,-32.9995814203637,4,2,16,70,0,0
427405,-28.1049523776159,4,2,16,70,0,0
427572,-35.3124326571261,4,2,16,70,0,0
427739,-49.5858034396845,4,2,16,70,0,0
427905,-111.111111111111,4,2,16,70,0,0
427906,-61.1485668223306,4,2,16,70,0,0
428072,-250,4,2,16,70,0,0
428739,-88.8302268144289,4,2,16,70,0,0
428905,-48.9105791011572,4,2,16,70,0,0
429072,-32.884867250741,4,2,16,70,0,0
429239,-20.0448431354786,4,2,16,70,0,0
429405,-31.4982947047712,4,2,16,70,0,0
429446,-31.4982947047712,4,2,16,70,0,0
429489,-31.4982947047712,4,2,16,70,0,0
429572,-31.4982947047712,4,2,16,70,0,0
429655,-31.4982947047712,4,2,16,70,0,0
429739,-35.6094556586154,4,2,16,70,0,0
429905,-62.0776609280033,4,2,16,70,0,0
430072,-250,4,2,16,50,0,0
430239,-250,4,2,16,50,0,0
430405,-100,4,2,16,50,0,0
430488,-100,4,2,16,20,0,0
431072,-100,4,2,16,20,0,0
432322,-100,4,2,16,5,0,0
432405,-100,4,2,16,25,0,0
440405,-500,4,2,16,5,0,0
440571,-500,4,2,17,6,0,0
440738,-500,4,2,16,7,0,0
440905,-500,4,2,17,8,0,0
441071,-500,4,2,16,9,0,0
441238,-500,4,2,17,10,0,0
441405,-500,4,2,16,11,0,0
441571,-500,4,2,17,12,0,0
441738,-500,4,2,16,13,0,0
441905,-500,4,2,17,14,0,0
442071,-500,4,2,16,15,0,0
442238,-500,4,2,17,16,0,0
442405,-500,4,2,16,17,0,0
442571,-500,4,2,17,18,0,0
442738,-500,4,2,16,19,0,0
442905,-500,4,2,17,20,0,0
443071,-500,4,2,16,21,0,0
443238,-500,4,2,17,22,0,0
443405,-500,4,2,16,23,0,0
443571,-500,4,2,17,24,0,0
443738,-500,4,2,16,25,0,0
443905,-500,4,2,17,26,0,0
444071,-500,4,2,16,27,0,0
444238,-500,4,2,17,28,0,0
444405,-500,4,2,16,29,0,0
444571,-500,4,2,17,30,0,0
444738,-500,4,2,16,31,0,0
444905,-500,4,2,17,32,0,0
445071,-500,4,2,16,33,0,0
445238,-500,4,2,17,34,0,0
445405,-500,4,2,16,35,0,0
445571,-500,4,2,17,36,0,0
445738,-500,4,2,16,37,0,0
445905,-500,4,2,17,38,0,0
446071,-500,4,2,16,39,0,0
446238,-500,4,2,17,40,0,0
446405,-500,4,2,16,41,0,0
446571,-500,4,2,17,42,0,0
446738,-500,4,2,16,43,0,0
446905,-500,4,2,17,44,0,0
447294,246.913580246914,4,2,16,80,1,0
447294,-66.6666666666667,4,2,16,80,0,0
447540,-250,4,2,16,80,0,0
448158,-66.6666666666667,4,2,16,80,0,0
448652,-100,4,2,16,80,0,0
448898,-333.333333333333,4,2,16,80,0,0
449269,-181.818181818181,4,2,16,80,0,0
449516,-66.6666666666667,4,2,16,80,0,0
449886,-100,4,2,16,80,0,0
450010,-133.333333333333,4,2,16,80,0,0
450257,246.913580246914,3,2,16,80,1,0
450999,246.913580246914,5,2,16,80,1,0
450999,-333.333333333333,5,2,16,80,0,0
451739,-100,5,2,16,80,0,0
451924,-66.6666666666667,5,2,16,80,0,0
452047,246.913580246914,4,2,16,80,1,0
452047,-40,4,2,16,80,0,0
452170,-66.6666666666667,4,2,16,80,0,0
452665,246.913580246914,4,2,16,80,1,0
452665,-285.714285714284,4,2,16,80,0,0
453158,-100,4,2,16,80,0,0
453488,246.913580246914,5,2,16,80,1,0
453488,-250,5,2,16,80,0,0
453734,-62.5,5,2,16,80,0,0
453981,-133.333333333333,5,2,16,80,0,0
454228,-666.666666666658,5,2,16,80,0,0
454723,246.913580246914,4,2,16,80,1,0
454723,-125,4,2,16,80,0,0
455711,246.913580246914,5,2,16,80,1,0
456822,246.913580246914,3,2,16,80,1,0
456822,-95.2380952380951,3,2,16,80,0,0
457563,246.913580246914,5,2,16,80,1,0
457563,-76.9230769230769,5,2,16,80,0,0
458735,246.913580246914,5,2,16,80,1,0
459785,246.913580246914,4,2,16,80,1,0
459785,-50,4,2,16,80,0,0
459908,-76.9230769230769,4,2,16,80,0,0
460403,246.913580246914,5,2,16,80,1,0
460896,-117.647058823529,5,2,16,80,0,0
461226,-133.333333333333,5,2,16,80,0,0
461556,246.913580246914,5,2,16,80,1,0
461802,-66.6666666666667,5,2,16,80,0,0
462049,-133.333333333333,5,2,16,80,0,0
462790,246.913580246914,4,2,16,80,1,0
463283,-100,4,2,16,80,0,0
463654,-71.4285714285714,4,2,16,80,0,0
463900,-71.4285714285714,4,2,16,80,0,0
464148,-100,4,2,16,80,0,0
464271,-66.6666666666667,4,2,16,80,0,0
464765,246.913580246914,3,2,16,80,1,0
464847,-100,3,2,16,80,0,0
465135,-100,3,2,16,80,0,0
465258,-66.6666666666667,3,2,16,80,0,0
465506,246.913580246914,4,2,16,80,1,0
465629,-100,4,2,16,80,0,0
465691,-100,4,2,16,80,0,0
465999,-100,4,2,16,80,0,0
466123,-100,4,2,16,80,0,0
466494,246.913580246914,5,2,16,80,1,0
466864,-133.333333333333,5,2,16,80,0,0
466987,-133.333333333333,5,2,16,80,0,0
467481,-66.6666666666667,5,2,16,80,0,0
467790,246.913580246914,4,2,16,80,1,0
468036,-100,4,2,16,80,0,0
468160,-100,4,2,16,80,0,0
468407,246.913580246914,4,2,16,80,1,0
468653,-100,4,2,16,80,0,0
468983,-100,4,2,16,80,0,0
469230,246.913580246914,5,2,16,80,1,0
469476,-100,5,2,16,80,0,0
469723,-100,5,2,16,80,0,0
469970,-66.6666666666667,5,2,16,80,0,0
470155,-66.6666666666667,5,2,16,80,0,0
470217,246.913580246914,4,2,16,80,1,0
470710,-100,4,2,16,80,0,0
471081,246.913580246914,5,2,16,80,1,0
471081,-66.6666666666667,5,2,16,80,0,0
471698,-133.333333333333,5,2,16,80,0,0
471945,246.913580246914,3,2,16,80,1,0
471945,-133.333333333333,5,2,16,80,0,0
472315,-74.0740740740741,5,2,16,80,0,0
472561,-74.0740740740741,5,2,16,80,0,0
472685,-100,5,2,16,80,0,0
472808,-100,5,2,16,80,0,0
473056,-100,5,2,16,80,0,0
473426,246.913580246914,4,2,16,80,1,0
474229,246.913580246914,5,2,16,80,1,0
474229,-133.333333333333,5,2,16,80,0,0
474352,-133.333333333333,5,2,16,80,0,0
474599,-133.333333333333,5,2,16,80,0,0
474969,-133.333333333333,5,2,16,80,0,0
475279,246.913580246914,4,2,16,80,1,0
475279,-52.6315789473684,4,2,16,80,0,0
475402,-71.4285714285714,4,2,16,80,0,0
475525,-153.846153846153,4,2,16,80,0,0
475772,-285.714285714284,4,2,16,80,0,0
475897,246.913580246914,6,2,16,80,1,0
476308,-100,6,2,16,80,0,0
476390,-90.9090909090909,6,2,16,80,0,0
476555,-133.333333333333,6,2,16,80,0,0
477214,246.913580246914,4,2,16,80,1,0
477275,-100,4,2,16,80,0,0
477460,-66.6666666666667,4,2,16,80,0,0
477584,-66.6666666666667,4,2,16,80,0,0
477707,-76.9230769230769,4,2,16,80,0,0
477830,-76.9230769230769,4,2,16,80,0,0
477954,-76.9230769230769,4,2,16,80,0,0
478201,-76.9230769230769,4,2,16,80,0,0
478573,246.913580246914,4,2,16,80,1,0
478573,-76.9230769230769,4,2,16,80,0,0
479066,-50,4,2,16,70,0,0
479191,246.913580246914,4,2,16,70,1,0
479191,-55.5555555555556,4,2,16,70,0,0
480178,246.913580246914,6,2,16,70,1,0
480178,-55.5555555555556,4,2,16,70,0,0
480918,-68.9655172413793,4,2,16,70,0,0
481661,246.913580246914,4,2,16,70,1,0
481661,-55.5555555555556,4,2,16,70,0,0
482649,246.913580246914,6,2,16,70,1,0
482649,-55.5555555555556,4,2,16,70,0,0
483142,-47.6190476190476,4,2,16,70,0,0
483389,-100,4,2,16,70,0,0
484131,246.913580246914,4,2,16,70,1,0
484131,-55.5555555555556,4,2,16,70,0,0
485119,246.913580246914,6,2,16,70,1,0
485119,-55.5555555555556,4,2,16,70,0,0
485612,-100,4,2,16,70,0,0
485859,-55.5555555555556,4,2,16,70,0,0
486601,246.913580246914,4,2,16,70,1,0
486601,-55.5555555555556,4,2,16,70,0,0
487259,-83.3333333333333,4,2,16,70,0,0
487589,246.913580246914,6,2,16,70,1,0
487589,-83.3333333333333,4,2,16,70,0,0
489071,246.913580246914,4,2,16,70,1,0
489071,-55.5555555555556,4,2,16,70,0,0
490059,246.913580246914,6,2,16,70,1,0
490059,-55.5555555555556,4,2,16,70,0,0
491541,246.913580246914,4,2,16,70,1,0
491541,-55.5555555555556,4,2,16,70,0,0
492529,246.913580246914,6,2,16,70,1,0
492529,-55.5555555555556,4,2,16,70,0,0
493598,-55.5555555555556,4,2,16,70,0,0
493681,-55.5555555555556,4,2,16,70,0,0
494010,246.913580246914,4,2,16,70,1,0
494010,-55.5555555555556,4,2,16,70,0,0
494174,-55.5555555555556,4,2,16,70,0,0
494256,-55.5555555555556,4,2,16,70,0,0
494998,246.913580246914,6,2,16,70,1,0
494998,-55.5555555555556,4,2,16,70,0,0
496479,246.913580246914,4,2,16,70,1,0
496479,-55.5555555555556,4,2,16,70,0,0
497466,246.913580246914,6,2,16,70,1,0
497466,-55.5555555555556,4,2,16,70,0,0
497877,-76.9230769230769,4,2,16,70,0,0
498865,-83.3333333333333,4,2,16,70,0,0
498947,246.913580246914,4,2,16,70,1,0
499070,-100,4,2,2,70,0,0
499301,-100,4,2,16,60,0,0
499935,246.913580246914,5,2,16,60,1,0
501045,246.913580246914,4,2,16,70,1,0
502032,246.913580246914,5,2,16,70,1,0
503143,246.913580246914,3,2,16,70,1,0
503883,246.913580246914,5,2,16,70,1,0
505055,246.913580246914,5,2,16,70,1,0
506104,246.913580246914,4,2,16,70,1,0
506722,246.913580246914,4,2,16,70,1,0
508039,246.913580246914,6,2,16,70,1,0
509397,246.913580246914,4,2,16,70,1,0
510385,246.913580246914,5,2,16,70,1,0
511496,246.913580246914,3,2,16,70,1,0
512236,246.913580246914,5,2,16,70,1,0
513408,246.913580246914,5,2,16,70,1,0
513778,-133.333333333333,5,2,16,70,0,0
514457,246.913580246914,4,2,16,70,1,0
515075,246.913580246914,4,2,16,70,1,0
516392,246.913580246914,6,2,16,70,1,0
517750,246.913580246914,4,2,16,70,1,0
517750,-62.5,4,2,16,70,0,0
517996,-52.6315789473684,4,2,16,80,0,0
518739,246.913580246914,5,2,16,80,1,0
519232,-71.4285714285714,5,2,16,80,0,0
519850,246.913580246914,3,2,16,80,1,0
520590,246.913580246914,5,2,10,80,1,0
521083,-76.9230769230769,5,2,16,80,0,0
521762,246.913580246914,5,2,16,80,1,0
521762,-75.0018750468762,5,2,16,80,0,0
522749,-66.6666666666667,4,2,16,80,0,0
522811,246.913580246914,4,2,16,80,1,0
523429,246.913580246914,4,2,16,80,1,0
524746,246.913580246914,6,2,16,80,1,0
526102,246.913580246914,4,2,16,80,1,0
526102,-66.6666666666667,4,2,16,80,0,0
526472,-100,4,2,16,80,0,0
527092,246.913580246914,5,2,16,80,1,0
528204,246.913580246914,3,2,16,80,1,0
528944,246.913580246914,5,2,16,80,1,0
530116,246.913580246914,5,2,16,80,1,0
530116,-111.111111111111,5,2,16,80,0,0
531165,246.913580246914,4,2,16,80,1,0
531165,-66.6666666666667,4,2,16,80,0,0
531535,-83.3333333333333,4,2,16,80,0,0
531783,246.913580246914,4,2,16,80,1,0
533100,246.913580246914,6,2,16,80,1,0
533100,-76.9230769230769,6,2,16,80,0,0
534087,-86.9565217391304,6,2,16,80,0,0
534458,246.913580246914,4,2,16,80,1,0
534643,-100,4,2,16,80,0,0
535383,-200,4,2,16,80,0,0
535569,324.324324324324,4,2,16,80,1,0
535813,379.746835443038,4,2,16,80,1,0
536002,428.571428571429,4,2,16,80,1,0
536430,545.454545454546,4,2,16,80,1,0
536702,705.882352941176,4,2,16,80,1,0
537054,857.142857142857,4,2,16,80,1,0
537482,983.606557377049,4,2,16,80,1,0
537727,1176.47058823529,4,2,16,80,1,0
538021,1304.34782608696,4,2,16,80,1,0
538347,1395.3488372093,4,2,16,80,1,0
538347,-33.3333333333333,4,2,16,80,0,0
538695,-200,4,2,2,80,0,0
539396,493.827160493827,3,2,2,80,1,0
539396,-250,3,2,2,80,0,0
540754,493.827160493827,4,2,2,80,1,0
540754,-347.222222222222,4,2,2,80,0,0
540960,-347.222222222222,4,2,1,79,0,0
541167,-347.222222222222,4,2,2,78,0,0
541374,-347.222222222222,4,2,1,77,0,0
541581,-347.222222222222,4,2,2,76,0,0
541787,-347.222222222222,4,2,1,75,0,0
541994,-347.222222222222,4,2,2,74,0,0
542201,-347.222222222222,4,2,1,73,0,0
542408,-347.222222222222,4,2,2,72,0,0
542614,-347.222222222222,4,2,1,71,0,0
542821,-347.222222222222,4,2,2,70,0,0
543028,-347.222222222222,4,2,1,69,0,0
543235,-347.222222222222,4,2,2,68,0,0
543442,-347.222222222222,4,2,1,67,0,0
543648,-347.222222222222,4,2,2,66,0,0
543855,-347.222222222222,4,2,1,65,0,0
544062,-347.222222222222,4,2,2,64,0,0
544269,-347.222222222222,4,2,1,63,0,0
544475,-347.222222222222,4,2,2,62,0,0
544682,-347.222222222222,4,2,1,61,0,0
544889,-347.222222222222,4,2,2,60,0,0
545096,-347.222222222222,4,2,1,59,0,0
545303,-347.222222222222,4,2,2,58,0,0
545509,-347.222222222222,4,2,1,57,0,0
545716,-347.222222222222,4,2,2,56,0,0
545923,-347.222222222222,4,2,1,55,0,0
546130,-347.222222222222,4,2,2,54,0,0
546336,-347.222222222222,4,2,1,53,0,0
546543,-347.222222222222,4,2,2,52,0,0
546750,-347.222222222222,4,2,1,51,0,0
546957,-347.222222222222,4,2,2,50,0,0
547164,-347.222222222222,4,2,1,49,0,0
547370,-347.222222222222,4,2,2,48,0,0
547577,-347.222222222222,4,2,1,47,0,0
547784,-347.222222222222,4,2,2,46,0,0
547991,-347.222222222222,4,2,1,45,0,0
548197,-347.222222222222,4,2,2,44,0,0
548404,-347.222222222222,4,2,1,43,0,0
548611,-347.222222222222,4,2,2,42,0,0
548818,-347.222222222222,4,2,1,41,0,0
549087,-347.222222222222,4,2,2,80,0,0
549118,-347.222222222222,4,2,1,40,0,0
549149,-347.222222222222,4,2,2,80,0,0
549180,-347.222222222222,4,2,1,40,0,0
549210,-347.222222222222,4,2,2,80,0,0
549241,-347.222222222222,4,2,1,40,0,0
549272,-347.222222222222,4,2,2,80,0,0
549303,-347.222222222222,4,2,1,40,0,0
549334,-347.222222222222,4,2,2,80,0,0
549365,-347.222222222222,4,2,1,40,0,0
549395,-347.222222222222,4,2,2,80,0,0
549426,-347.222222222222,4,2,1,40,0,0
549457,-347.222222222222,4,2,2,80,0,0
549488,-347.222222222222,4,2,1,40,0,0
549519,-347.222222222222,4,2,1,20,0,0

[Colours]
Combo1 : 255,28,33
Combo2 : 212,212,212
Combo3 : 126,126,126
Combo4 : 169,216,218
Combo5 : 136,217,148
Combo6 : 210,125,128
Combo7 : 74,202,251
Combo8 : 57,249,63

[HitObjects]
169,337,160,5,2,2:2:0:0:
165,323,298,1,2,2:2:0:0:
89,370,437,6,0,B|74:328|74:328|71:334|71:334|0:189|74:96|239:94|251:222|176:252|135:231,1,465.800002843018,2|0,2:2|0:0,0:0:0:0:
274,164,10160,102,0,P|278:183|278:192,1,25,2|0,2:2|0:0,0:0:0:0:
136,232,10785,2,0,P|201:203|312:308,1,240,2|0,2:2|0:0,0:0:0:0:
221,344,13493,6,0,P|240:309|301:311,1,104.999996795654,2|0,2:2|0:0,0:0:0:0:
364,363,15160,102,0,B|376:341|372:324|372:324|369:339|365:344,1,60,2|0,2:2|0:0,0:0:0:0:
478,271,16618,5,2,2:2:0:0:
478,271,16722,1,2,2:2:0:0:
478,271,16826,2,0,B|451:72,1,200,2|0,2:2|0:0,0:0:0:0:
380,30,19014,102,0,B|376:38|376:38|377:45|377:45|371:54|371:54|373:65|373:65|369:75,1,45,2|0,2:2|0:0,0:0:0:0:
365,149,20160,2,0,B|322:147|305:117|305:117|284:85|242:82,1,140,2|0,2:2|0:0,0:0:0:0:
195,152,21826,6,0,L|195:163,1,10,2|0,2:2|0:0,0:0:0:0:
118,155,22139,102,0,L|122:178,1,20,2|0,2:2|0:0,0:0:0:0:
27,168,22347,5,2,2:2:0:0:
35,164,22399,2,0,B|43:182|43:182|46:207,1,46.7500014266968,2|0,2:2|0:0,0:0:0:0:
2,284,23493,102,0,P|61:290|97:336,1,121.000003692627,2|0,2:2|0:0,0:0:0:0:
19,384,26201,1,2,2:2:0:0:
19,384,26305,1,2,2:2:0:0:
19,384,26410,2,0,L|22:359,1,25,2|0,2:2|0:0,0:0:0:0:
179,329,26826,6,0,P|191:341|207:348,1,31.25,2|0,3:2|0:0,0:0:0:0:
213,356,27139,102,0,P|245:354|267:343,1,50,2|0,2:2|0:0,0:0:0:0:
275,348,27451,6,0,P|287:307|308:284,1,74.9999977111817,2|0,2:2|0:0,0:0:0:0:
309,272,27764,102,0,P|357:254|423:282,1,106.250002026558,2|0,2:2|0:0,0:0:0:0:
418,281,28076,6,0,L|420:319,1,34.9999989318848,2|0,2:2|0:0,0:0:0:0:
309,272,28493,102,0,L|304:185,1,87.499997329712,2|0,2:2|0:0,0:0:0:0:
365,117,29118,6,0,L|387:113,4,17.4999994659424,2|0|0|0|0,2:2|0:0|0:0|0:0|0:0,0:0:0:0:
309,188,29639,101,0,0:0:0:0:
319,196,29743,2,0,L|336:199,3,17.4999994659424,2|0|2|0,2:2|0:0|2:2|0:0,0:0:0:0:
457,221,30160,6,0,B|413:209|454:226|409:214,2,37.5000014305115,2|2|2,3:2|2:2|2:2,0:0:0:0:
143,225,30472,101,2,3:2:0:0:
143,225,30680,2,0,L|218:234,2,75.0000028610231,0|0|0,3:3|3:3|3:3,0:0:0:0:
143,225,31305,2,0,L|265:239,1,112.500004291535,0|0,3:3|3:3,0:0:0:0:
254,237,31930,6,0,L|263:312,1,75.0000028610231,0|0,3:3|3:3,0:0:0:0:
254,237,32347,2,0,L|264:312,1,75.0000028610231,0|0,3:3|3:3,0:0:0:0:
263,311,32764,2,0,L|275:199,1,112.500004291535,0|0,3:3|3:3,0:0:0:0:
275,199,33389,102,0,L|363:188,1,75.0000028610231,0|0,3:3|3:3,0:0:0:0:
275,199,33805,2,0,L|363:188,1,75.0000028610231,0|0,3:3|3:3,0:0:0:0:
350,190,34222,2,0,L|364:67,1,112.500004291535,0|0,3:3|3:3,0:0:0:0:
363,78,34847,6,0,L|288:87,1,75.0000028610231,0|0,3:3|3:3,0:0:0:0:
188,172,35264,2,0,L|113:162,1,75.0000028610231,2|0,3:2|3:3,0:0:0:0:
11,149,35680,1,2,3:2:0:0:
86,348,35993,102,0,L|101:230,1,112.500004291535,2|0,3:2|3:3,0:0:0:0:
100,236,36514,2,0,L|181:246,2,75.0000028610231,0|0|0,3:3|3:3|3:3,0:0:0:0:
275,324,37208,5,8,3:2:0:0:
348,260,37451,2,0,L|471:243,1,112.500004291535,0|0,3:3|3:3,0:0:0:0:
459,244,37972,2,0,L|470:159,2,75.0000028610231,0|0|0,3:3|3:3|3:3,0:0:0:0:
437,369,38597,102,0,L|431:331,1,37.5000014305115,0|8,3:3|2:2,0:0:0:0:
392,165,38910,1,0,3:3:0:0:
236,256,39222,6,0,L|247:171,1,75.0000028610231,0|0,3:3|3:3,0:0:0:0:
236,256,39639,2,0,L|247:171,1,75.0000028610231,0|0,3:3|3:3,0:0:0:0:
121,313,40055,101,0,0:0:0:0:
121,313,40125,2,0,L|110:229,1,74.9999991825649,8|0,3:2|3:3,0:0:0:0:
121,313,40576,2,0,L|110:228,1,75.0000028610231,0|0,3:3|3:3,0:0:0:0:
29,156,40993,6,0,L|26:120,1,25.0000009536744
29,156,41097,2,0,L|18:241,1,75.0000028610231,2|0,3:2|3:3,0:0:0:0:
110,237,41410,2,0,L|117:181,1,52.4999983978272,2|0,3:2|0:0,0:0:0:0:
162,122,41826,102,0,P|169:125|190:153,1,43.75,2|2,3:2|2:2,0:0:0:0:
276,130,42555,2,0,P|282:157|271:189,1,55.0000016784668,2|2,3:2|3:2,0:0:0:0:
230,340,42920,5,2,2:2:0:0:
230,340,43024,2,0,P|206:298|146:282,1,112.500004291535,8|2,2:2|0:0,0:0:0:0:
131,377,43649,102,0,L|118:182,1,175,2|2,3:2|2:2,0:0:0:0:
12,225,44378,5,2,2:2:0:0:
12,225,44482,1,8,2:2:0:0:
26,115,44743,2,0,L|37:14,2,96.250002937317,2|2|2,3:2|2:2|3:2,0:0:0:0:
159,111,45837,2,0,L|162:65,1,37.5000014305115,2|8,3:2|3:2,0:0:0:0:
264,217,46201,102,0,L|329:204,2,67.4999979400635,2|2|0,3:2|3:2|3:3,0:0:0:0:
262,299,46930,6,0,L|365:280,1,100,2|0,3:2|0:0,0:0:0:0:
321,194,47295,2,0,L|271:203,1,50,2|8,3:2|2:2,0:0:0:0:
88,360,47660,101,2,3:2:0:0:
128,181,48024,2,0,L|-2:203,1,131.25000500679,2|2,2:2|3:2,0:0:0:0:
352,198,48753,5,2,3:2:0:0:
346,211,48857,2,0,L|214:233,1,125,8|2,2:2|3:2,0:0:0:0:
396,105,49482,102,0,L|410:1,1,104.999996795654,2|2,3:2|3:2,0:0:0:0:
491,222,50194,6,0,L|500:142,2,73.3333355712891,2|8|0,3:2|2:2|0:0,0:0:0:0:
367,248,50576,2,0,L|389:77,2,157.499995193482,2|2|2,3:2|3:2|3:2,0:0:0:0:
245,139,51670,2,0,L|240:176,1,37.5000014305115,2|8,3:2|2:2,0:0:0:0:
71,323,52035,102,0,L|87:229,1,89.9999972534181,2|0,3:2|0:0,0:0:0:0:
96,233,52399,6,0,L|85:169,1,60,2|0,3:2|0:0,0:0:0:0:
76,166,52764,102,0,B|76:153|76:153|81:146|81:146|81:134,1,30,2|0,3:2|0:0,0:0:0:0:
88,132,53128,6,0,B|85:127|85:127|86:122|86:122|84:119|84:119|86:114|86:114|84:110,1,22.749999861145,2|2,3:2|0:0,0:0:0:0:
41,11,53857,102,0,L|143:27,1,96.250002937317,2|2,3:2|2:2,0:0:0:0:
260,113,54569,5,2,2:2:0:0:
246,126,54708,2,0,L|230:7,1,116.666666666667,8|2,2:2|3:2,0:0:0:0:
362,244,55316,102,0,L|386:63,1,175,2|2,2:2|2:2,0:0:0:0:
492,152,56045,1,2,2:2:0:0:
492,152,56149,2,0,L|472:270,1,112.499996566773,8|2,2:2|2:2,0:0:0:0:
374,249,56774,2,0,L|387:161,1,78.7499975967408,2|2,3:2|3:2,0:0:0:0:
256,103,57503,5,2,3:2:0:0:
256,103,57607,2,0,L|271:3,1,93.7500035762788,8|2,2:2|3:2,0:0:0:0:
147,162,58215,2,0,L|134:89,1,50.0000019073487,2|0,3:2|3:3,0:0:0:0:
43,75,58597,102,0,L|77:262,1,175,2|2,3:2|3:2,0:0:0:0:
6,290,59066,1,8,2:2:0:0:
230,331,59326,6,0,L|331:349,1,93.7500035762788,0|0,3:3|0:0,0:0:0:0:
340,329,59673,2,0,L|208:351,1,125.000004768372,2|2,3:2|3:2,0:0:0:0:
321,185,60419,101,2,3:2:0:0:
316,210,60524,2,0,L|169:235,1,125,8|2,2:2|3:2,0:0:0:0:
124,84,61149,2,0,L|332:48,1,209.999993591309,2|2,2:2|3:2,0:0:0:0:
457,162,61878,6,0,L|463:115,2,44.999998626709,2|8|0,3:2|2:2|0:0,0:0:0:0:
324,195,62242,2,0,L|347:30,2,157.499995193482,2|2|2,3:2|2:2|3:2,0:0:0:0:
306,330,63337,102,0,L|312:278,1,50,2|8,2:2|2:2,0:0:0:0:
197,136,63701,6,0,L|4:94,1,175,2|2,3:2|2:2,0:0:0:0:
314,282,64430,1,2,3:2:0:0:
314,282,64639,2,0,L|248:296,2,67.4999979400635,2|0|0,3:2|3:3|3:2,0:0:0:0:
497,244,65055,102,0,L|501:219,1,25
420,190,65160,2,0,L|414:240,1,50,10|8,2:2|2:2,0:0:0:0:
440,366,65368,6,0,L|425:254,1,110
426,257,67930,101,0,3:3:0:0:
438,254,67997,1,0,3:3:0:0:
450,251,68065,1,0,3:3:0:0:
462,248,68132,1,0,3:3:0:0:
474,245,68200,21,8,2:2:0:0:
346,217,68335,1,8,2:2:0:0:
488,257,68470,1,8,2:2:0:0:
329,223,68605,1,8,2:2:0:0:
160,370,68741,86,0,L|148:318,1,50,0|0,3:3|0:0,0:0:0:0:
243,299,69146,6,0,L|231:247,1,50,0|0,3:3|0:0,0:0:0:0:
329,223,69551,102,0,L|317:171,1,50,0|0,3:3|0:0,0:0:0:0:
406,148,69957,6,0,L|394:96,1,50,0|0,3:3|0:0,0:0:0:0:
482,168,70362,101,0,3:3:0:0:
26,65,70632,69,8,2:2:0:0:
73,1,70903,38,0,B|92:15|92:15|104:40,1,50,0|0,3:3|0:0,0:0:0:0:
197,86,71308,6,0,B|200:110|200:110|191:135,1,50,0|0,3:3|0:0,0:0:0:0:
210,236,71713,102,0,B|200:255|200:255|177:264,1,40,0|0,3:3|3:3,0:0:0:0:
41,233,72119,5,0,3:3:0:0:
41,233,72254,2,0,B|51:217|51:217|74:205,1,40,0|0,3:3|3:3,0:0:0:0:
101,305,72659,53,8,2:2:0:0:
99,314,72726,1,8,2:2:0:0:
98,324,72794,1,8,2:2:0:0:
380,229,73065,37,0,3:3:0:0:
403,357,73200,1,0,3:3:0:0:
408,348,73470,6,0,B|424:349|424:349|431:352|431:352|447:353,1,40,0|0,3:3|3:3,0:0:0:0:
272,268,73876,102,0,B|286:264|286:264|294:266|294:266|312:263,1,40,0|0,3:3|3:3,0:0:0:0:
457,189,74281,5,0,3:3:0:0:
338,148,74416,1,0,3:3:0:0:
512,102,74686,101,0,3:3:0:0:
115,347,74957,69,8,2:2:0:0:
27,221,75227,69,0,3:3:0:0:
24,209,75294,1,0,3:3:0:0:
22,197,75362,1,0,3:3:0:0:
19,185,75429,1,0,3:3:0:0:
17,172,75497,1,0,3:3:0:0:
156,238,75632,1,0,3:3:0:0:
53,306,75768,1,0,3:3:0:0:
115,347,75903,1,0,3:3:0:0:
110,352,76173,85,0,3:3:0:0:
290,206,76443,1,0,3:3:0:0:
358,244,76578,1,0,3:3:0:0:
444,192,76713,1,0,3:3:0:0:
512,230,76848,1,0,3:3:0:0:
290,206,76984,21,0,3:3:0:0:
285,230,77051,1,0,3:3:0:0:
280,254,77119,1,0,3:3:0:0:
267,250,77186,85,0,3:3:0:0:
273,291,77254,1,0,3:3:0:0:
281,330,77322,1,0,3:3:0:0:
270,374,77389,70,0,B|285:260|285:260|291:253|291:253|311:112,1,255.000004863739,6|0,3:2|0:0,0:0:0:0:
390,63,77659,1,0,3:3:0:0:
436,197,77795,1,0,3:3:0:0:
212,78,77930,70,0,B|190:31|151:15|151:15|145:18|145:18|96:-4|30:29,1,187.5,8|0,2:2|0:0,0:0:0:0:
2,142,78200,1,0,3:3:0:0:
2,142,78335,2,0,B|28:115|28:115|71:107,1,75.0000028610231,0|0,3:3|0:0,0:0:0:0:
178,295,78605,85,8,2:2:0:0:
71,115,78741,1,0,3:3:0:0:
178,295,79011,70,0,B|237:311|283:270|283:270|285:273|285:273|331:229|419:253,1,225.000008583069,8|0,2:2|0:0,0:0:0:0:
455,346,79281,2,0,B|415:369|415:369|343:348,1,94.9999974632264,0|0,3:3|0:0,0:0:0:0:
202,199,79551,70,0,B|217:111|217:111|220:109|220:109|237:6,1,194.999991073609,0|0,3:3|0:0,0:0:0:0:
380,35,79822,1,0,3:3:0:0:
304,78,79957,1,0,3:3:0:0:
51,264,80092,86,0,B|35:163|35:163|38:159|38:159|13:13,1,217.500006637573,8|0,2:2|0:0,0:0:0:0:
136,2,80362,1,0,3:3:0:0:
136,2,80497,2,0,B|141:41|141:41|119:97,1,80,0|0,3:3|0:0,0:0:0:0:
42,272,80768,69,8,2:2:0:0:
251,322,80903,1,0,3:3:0:0:
42,272,81173,70,0,B|137:291|137:291|157:304|157:304|260:324,1,217.500006637573,8|0,2:2|0:0,0:0:0:0:
317,384,81443,1,0,3:3:0:0:
512,258,81578,1,0,3:3:0:0:
450,368,81713,86,0,B|393:311|398:217|398:217|432:186|435:135,1,225.000008583069,6|0,3:2|0:0,0:0:0:0:
439,18,81984,1,0,3:3:0:0:
343,149,82119,1,0,3:3:0:0:
168,43,82254,69,8,2:2:0:0:
238,0,82389,1,2,2:2:0:0:
246,9,82457,1,2,2:2:0:0:
250,19,82524,1,2,3:2:0:0:
180,126,82659,2,0,B|131:127|131:127|85:87,1,89.9999972534181,0|0,3:3|0:0,0:0:0:0:
238,0,82930,69,8,2:2:0:0:
278,227,83065,1,0,3:3:0:0:
238,0,83335,86,0,B|237:17|237:17|263:129|263:129|260:145|260:145|284:254,1,232.500001773834,8|0,2:2|0:0,0:0:0:0:
365,294,83605,2,0,B|424:273|424:273|427:266|427:266|367:285,1,129.999994049073,0|0,3:3|0:0,0:0:0:0:
478,162,83876,70,0,L|278:227,1,209.999993591309,2|0,3:2|0:0,0:0:0:0:
128,276,84146,1,0,3:3:0:0:
230,330,84281,1,0,3:3:0:0:
79,180,84416,70,0,B|147:156|201:201|201:201|199:203|199:203|249:244|323:215,1,217.500006637573,8|0,2:2|0:0,0:0:0:0:
366,172,84686,1,0,3:3:0:0:
293,84,84822,85,0,3:3:0:0:
279,99,84890,1,0,3:3:0:0:
271,125,84957,2,0,P|275:102|295:67,1,50,4|0,2:2|0:0,0:0:0:0:
438,129,85227,69,0,3:3:0:0:
366,172,85362,2,0,P|353:139|353:107,2,50,4|0|0,2:2|0:0|3:3,0:0:0:0:
438,129,85768,69,8,2:2:0:0:
376,384,85903,1,8,2:2:0:0:
417,306,86038,86,0,B|366:289|318:320|318:320|316:319|316:319|272:347|209:325,1,209.999993591309,2|0,3:2|0:0,0:0:0:0:
148,251,86308,1,0,3:3:0:0:
81,384,86443,1,0,3:3:0:0:
252,206,86578,70,0,B|238:108|238:108|247:99|247:99|231:-12,1,209.999993591309,8|0,2:2|0:0,0:0:0:0:
156,0,86849,1,0,3:3:0:0:
144,2,86984,2,0,B|147:40|147:40|173:80,1,75.0000028610231,0|0,3:3|0:0,0:0:0:0:
234,1,87254,69,8,2:2:0:0:
0,54,87390,1,0,3:3:0:0:
234,1,87659,86,0,B|329:39|329:39|346:87|346:87|457:128,1,240,8|0,2:2|0:0,0:0:0:0:
504,57,87930,1,0,3:3:0:0:
467,215,88065,69,0,3:3:0:0:
467,215,88132,1,0,3:3:0:0:
467,215,88200,2,0,B|537:147|537:147|503:53,1,194.999991073609,0|0,3:3|0:0,0:0:0:0:
429,123,88471,1,0,3:3:0:0:
338,94,88606,1,0,3:3:0:0:
225,248,88741,70,0,B|166:228|166:228|50:274|50:274|46:281|46:281|0:256,1,240,8|0,2:2|0:0,0:0:0:0:
46,197,89011,1,0,3:3:0:0:
168,308,89146,2,0,L|84:343,1,80,0|0,3:3|0:0,0:0:0:0:
200,87,89417,85,8,2:2:0:0:
247,324,89552,1,0,3:3:0:0:
200,87,89822,70,0,B|264:68|306:128|306:128|309:124|309:124|344:178|425:167,1,247.500002360344,8|0,2:2|0:0,0:0:0:0:
512,106,90092,1,0,3:3:0:0:
407,49,90227,1,0,3:3:0:0:
407,49,90295,1,0,3:3:0:0:
407,49,90362,1,0,3:3:0:0:
460,323,90632,69,0,3:3:0:0:
492,216,90768,1,2,3:2:0:0:
267,309,90903,2,0,B|312:292|312:292|316:286|316:286|377:263,2,104.999996795654,10|0|0,2:2|0:0|0:0,0:0:0:0:
189,183,91308,2,0,B|173:246|173:246|182:243|182:243|198:185,1,125,0|0,3:3|0:0,0:0:0:0:
267,309,91578,85,8,2:2:0:0:
216,87,91713,1,0,3:3:0:0:
346,352,91984,69,8,2:2:0:0:
352,333,92051,1,8,2:2:0:0:
354,314,92119,1,8,2:2:0:0:
352,295,92186,1,8,2:2:0:0:
346,277,92254,2,0,B|331:247|331:247|291:229,1,64.9999970245363,0|0,3:3|0:0,0:0:0:0:
197,342,92389,2,0,B|212:372|212:372|252:390,1,64.9999970245363,0|0,3:3|3:3,0:0:0:0:
437,301,92524,70,0,B|442:238|406:201|406:201|405:195|405:195|367:150|374:85,1,225.000008583069,2|0,3:2|0:0,0:0:0:0:
469,117,92795,1,0,3:3:0:0:
346,277,92930,1,2,3:2:0:0:
280,98,93065,86,0,P|303:33|399:4,1,170.000003242493,8|0,2:2|0:0,0:0:0:0:
398,152,93470,70,0,P|374:127|374:93,1,69.9999978637696,8|0,2:2|0:0,0:0:0:0:
505,117,93876,70,0,P|491:128|475:128,1,29.9999990844727,8|0,2:2|0:0,0:0:0:0:
374,93,94281,86,0,P|397:117|397:151,1,69.9999978637696,8|0,2:2|0:0,0:0:0:0:
322,212,94416,1,0,3:3:0:0:
316,211,94484,1,0,3:3:0:0:
310,210,94551,1,0,3:3:0:0:
304,209,94619,1,0,3:3:0:0:
298,208,94686,70,0,B|196:189|196:189|191:192|191:192|26:160,1,209.999993591309,6|0,3:2|0:0,0:0:0:0:
48,89,94956,1,0,3:3:0:0:
20,233,95092,1,0,3:3:0:0:
44,0,95227,70,0,B|94:1|126:31|126:31|132:30|132:30|163:59|179:109,1,187.5,8|0,2:2|0:0,0:0:0:0:
223,170,95497,1,0,3:3:0:0:
223,170,95632,2,0,B|232:163|232:163|239:132|283:134|283:134|259:140|229:181,1,125,0|0,3:3|0:0,0:0:0:0:
501,321,95902,85,8,2:2:0:0:
303,212,96038,1,0,3:3:0:0:
501,321,96308,70,0,B|445:303|399:347|399:347|397:344|397:344|351:385|292:369,1,225.000008583069,8|0,2:2|0:0,0:0:0:0:
232,321,96578,2,0,B|259:281|259:281|320:293,1,94.9999974632264,0|0,3:3|0:0,0:0:0:0:
141,347,96848,70,0,B|127:240|127:240|123:238|123:238|113:156,1,194.999991073609,0|0,3:3|0:0,0:0:0:0:
166,97,97119,1,0,3:3:0:0:
45,216,97254,1,0,3:3:0:0:
294,369,97389,86,0,B|298:311|298:311|310:298|310:298|322:154|322:154|352:114,1,255.000004863739,8|0,2:2|0:0,0:0:0:0:
428,84,97659,1,0,3:3:0:0:
428,84,97794,2,0,B|436:136|436:136|410:175,1,100,0|0,3:3|0:0,0:0:0:0:
254,26,98065,69,8,2:2:0:0:
411,176,98200,1,0,3:3:0:0:
254,26,98470,70,0,B|259:22|259:22|353:94|353:94|360:134|360:134|412:177,1,232.500001773834,8|0,2:2|0:0,0:0:0:0:
401,271,98740,85,2,3:2:0:0:
436,92,98875,1,6,2:2:0:0:
394,278,99011,2,0,B|386:310|386:310|388:315|388:315|374:384,2,80,6|0|0,3:2|0:0|0:0,0:0:0:0:
492,152,99416,69,2,3:2:0:0:
270,216,99551,2,0,B|255:231|255:231|156:209|156:209|151:201|151:201|52:176|52:176|30:195,1,255.000004863739,10|0,2:2|0:0,0:0:0:0:
0,267,99822,69,2,3:2:0:0:
75,336,99957,2,0,B|100:305|100:305|99:256,1,75.0000028610231,2|0,3:2|0:0,0:0:0:0:
406,199,100227,85,8,2:2:0:0:
199,142,100362,1,0,3:3:0:0:
406,199,100632,70,0,B|391:201|391:201|300:173|300:173|307:165|307:165|214:140|214:140|192:142,1,232.500001773834,8|0,2:2|0:0,0:0:0:0:
159,229,100902,2,0,B|219:243|219:243|226:239|226:239|165:222,1,129.999994049073,0|0,3:3|0:0,0:0:0:0:
86,349,101173,70,0,B|186:335|186:335|189:338|189:338|323:320,1,209.999993591309,2|0,3:2|0:0,0:0:0:0:
400,381,101443,1,0,3:3:0:0:
489,312,101578,1,0,3:3:0:0:
292,324,101713,86,0,B|267:252|267:252|295:188,1,145.000004425049,10|0,2:2|0:0,0:0:0:0:
375,48,101984,1,0,3:3:0:0:
288,0,102119,69,0,3:3:0:0:
278,16,102186,1,0,3:3:0:0:
275,35,102254,2,0,P|276:67|292:97,1,50,6|0,2:2|0:0,0:0:0:0:
138,102,102524,69,2,3:2:0:0:
138,102,102659,2,0,P|148:124|171:146,2,50,6|0|0,2:2|0:0|0:0,0:0:0:0:
128,237,103065,85,8,2:2:0:0:
179,2,103200,1,8,2:2:0:0:
128,237,103335,70,0,B|179:254|227:223|227:223|229:224|229:224|273:196|336:218,1,209.999993591309,2|0,3:2|0:0,0:0:0:0:
449,275,103605,1,0,3:3:0:0:
289,327,103740,1,0,3:3:0:0:
478,80,103876,70,0,B|467:171|467:171|471:177|471:177|450:313,1,209.999993591309,8|0,2:2|0:0,0:0:0:0:
380,355,104146,1,2,3:2:0:0:
380,355,104281,2,0,B|384:314|384:314|362:274,1,75.0000028610231,2|0,3:2|0:0,0:0:0:0:
135,365,104551,85,10,2:2:0:0:
329,215,104687,1,0,3:3:0:0:
135,365,104957,70,0,B|142:296|82:260|82:260|83:257|83:257|23:221|32:144,1,240,8|0,2:2|0:0,0:0:0:0:
78,82,105227,1,0,3:3:0:0:
201,146,105362,69,0,3:3:0:0:
201,146,105429,1,0,3:3:0:0:
201,146,105497,2,0,B|200:175|167:202|167:202|132:190|116:151,1,129.999994049073,0|0,3:3|0:0,0:0:0:0:
136,27,105768,2,0,B|148:0|187:-11|187:-11|214:10|213:52,1,129.999994049073,2|0,3:2|0:0,0:0:0:0:
228,246,106038,86,0,B|259:217|269:189|269:189|451:225,1,240,8|0,2:2|0:0,0:0:0:0:
512,268,106308,1,0,3:3:0:0:
512,268,106443,2,0,B|506:236|506:236|510:231|510:231|501:186,1,80,2|0,3:2|0:0,0:0:0:0:
432,46,106714,69,10,2:2:0:0:
358,298,106849,1,0,3:3:0:0:
432,46,107119,70,0,B|424:56|424:56|300:73|300:73|290:68|290:68|220:79|220:79|187:158,1,262.500002503395,8|0,2:2|0:0,0:0:0:0:
275,151,107389,1,0,3:3:0:0:
140,71,107524,1,0,3:3:0:0:
136,81,107592,1,0,3:3:0:0:
132,91,107659,1,2,3:2:0:0:
68,336,107929,85,0,3:3:0:0:
282,283,108065,1,2,3:2:0:0:
121,235,108200,2,0,B|133:281|133:281|138:286|138:286|155:349,2,104.999996795654,8|0|0,2:2|0:0|3:3,0:0:0:0:
53,132,108605,70,0,B|46:117|46:117|-2:102|-2:102|-12:109|-12:109|40:127|40:127,1,125,0|0,3:3|0:0,0:0:0:0:
241,223,108875,69,8,2:2:0:0:
9,293,109010,1,0,3:3:0:0:
302,295,109281,85,8,2:2:0:0:
307,286,109348,1,0,3:3:0:0:
311,277,109416,1,0,3:3:0:0:
315,268,109483,1,0,3:3:0:0:
319,259,109551,2,0,B|327:236|327:236|322:209,1,50,0|0,3:3|3:3,0:0:0:0:
293,75,109686,2,0,B|301:97|301:97|324:112,1,50,0|0,3:3|3:3,0:0:0:0:
475,233,109822,70,0,B|390:196|390:196|299:279,1,187.5,2|0,3:2|0:0,0:0:0:0:
349,361,110092,1,0,3:3:0:0:
232,225,110227,1,2,3:2:0:0:
412,287,110362,69,8,2:2:0:0:
156,21,110768,85,8,2:2:0:0:
71,380,111173,69,8,2:2:0:0:
152,317,111308,69,2,2:2:0:0:
149,309,111376,1,2,2:2:0:0:
146,298,111443,1,10,2:2:0:0:
143,280,111511,1,2,2:2:0:0:
143,253,111578,1,2,2:2:0:0:
149,219,111646,1,2,2:2:0:0:
165,181,111713,1,10,2:2:0:0:
197,143,111781,1,10,2:2:0:0:
245,114,111849,1,10,2:2:0:0:
309,103,111916,1,10,2:2:0:0:
377,127,111984,2,0,L|384:182,4,37.5000014305115,6|2|2|2|2,2:2|2:2|2:2|2:2|2:2,0:0:0:0:
289,331,112389,85,2,2:2:0:0:
276,323,112456,1,2,2:2:0:0:
265,312,112524,1,10,2:2:0:0:
256,299,112591,1,2,2:2:0:0:
250,285,112659,2,0,P|245:249|263:198,1,62.5,2|0,2:2|0:0,0:0:0:0:
448,233,112795,69,2,3:2:0:0:
437,244,112862,1,2,2:2:0:0:
425,252,112930,1,2,3:2:0:0:
410,259,112997,1,2,2:2:0:0:
395,262,113065,2,0,P|364:261|331:250,1,62.5,2|0,2:2|0:0,0:0:0:0:
243,92,113200,69,10,2:2:0:0:
139,161,113335,1,2,3:2:0:0:
249,223,113470,1,2,2:2:0:0:
150,72,113605,85,10,2:2:0:0:
154,76,113673,1,2,2:2:0:0:
167,242,113808,69,2,2:2:0:0:
167,242,113876,1,2,3:2:0:0:
306,155,114011,70,0,P|345:160|379:181,1,80,2|2,2:2|3:2,0:0:0:0:
412,364,114281,86,0,B|393:303|436:258|436:258|488:207|464:145,1,225.000008583069,2|0,2:2|0:0,0:0:0:0:
452,63,114551,1,2,3:2:0:0:
438,113,114619,1,2,2:2:0:0:
468,158,114686,70,0,P|510:212|487:348,1,187.5,10|2,2:2|2:2,0:0:0:0:
323,378,115092,2,0,P|289:362|269:331,1,75,2|0,3:2|0:0,0:0:0:0:
242,255,115362,70,0,P|220:265|200:292,1,50,8|0,2:2|0:0,0:0:0:0:
120,362,115497,1,2,3:2:0:0:
127,347,115565,1,2,2:2:0:0:
128,331,115632,1,2,3:2:0:0:
125,315,115700,1,2,2:2:0:0:
117,301,115768,86,0,P|120:251|169:203,1,100,10|0,2:2|0:0,0:0:0:0:
385,252,116038,1,2,3:2:0:0:
207,288,116173,1,6,2:2:0:0:
151,48,116308,1,6,3:2:0:0:
3,79,116578,69,2,2:2:0:0:
158,41,116713,1,2,3:2:0:0:
92,154,116849,69,10,2:2:0:0:
93,143,116916,1,2,2:2:0:0:
94,134,116984,1,2,2:2:0:0:
95,124,117051,1,2,2:2:0:0:
97,115,117119,2,0,P|121:120|147:143,5,50,2|2|2|2|2|2,3:2|2:2|3:2|2:2|2:2|2:2,0:0:0:0:
230,104,117524,85,8,2:2:0:0:
230,104,117592,1,2,2:2:0:0:
230,104,117659,2,0,P|238:122|245:154,3,32.4999985122681,2|2|2|2,3:2|2:2|2:2|0:0,0:0:0:0:
325,198,117930,70,0,P|331:140|360:62,2,112.500004291535,10|2|2,2:2|2:2|2:2,0:0:0:0:
454,224,118470,69,2,3:2:0:0:
417,163,118673,1,2,0:0:0:0:
427,93,118876,1,2,0:0:0:0:
512,146,119011,86,0,P|439:183|361:300,1,206.250001966953,10|2,2:2|2:2,0:0:0:0:
336,378,119281,1,0,3:3:0:0:
455,320,119416,69,0,3:3:0:0:
452,313,119484,1,0,3:3:0:0:
448,308,119551,2,0,P|442:352|464:392,2,75,6|2|6,2:2|2:2|2:2,0:0:0:0:
414,221,120092,70,0,P|381:241|357:289,1,75.0000028610231,2|0,2:2|3:3,0:0:0:0:
349,368,120362,1,8,2:2:0:0:
292,186,120497,1,10,2:2:0:0:
0,269,120632,86,0,B|82:285|133:226|133:226|187:164|295:186,1,320,6|0,3:2|0:0,0:0:0:0:
233,300,121038,1,0,3:3:0:0:
42,144,121173,2,0,P|75:103|138:82,1,100,8|0,2:2|0:0,0:0:0:0:
256,0,121443,70,0,P|293:17|319:70,1,75.0000028610231,6|0,3:2|0:0,0:0:0:0:
222,95,121578,70,0,L|455:62,1,194.999991073609,2|0,3:2|0:0,0:0:0:0:
462,129,121849,1,10,2:2:0:0:
472,123,121917,1,2,2:2:0:0:
472,133,121984,1,2,2:2:0:0:
482,127,122052,1,2,2:2:0:0:
482,137,122119,1,2,2:2:0:0:
492,131,122187,1,2,2:2:0:0:
494,140,122254,86,0,L|502:210,1,50,8|0,2:2|0:0,0:0:0:0:
277,304,122524,1,0,3:3:0:0:
407,361,122659,70,0,B|432:295|432:295|407:230,1,139.999995727539,2|0,3:2|0:0,0:0:0:0:
189,119,122930,1,2,3:2:0:0:
102,181,123065,1,2,3:2:0:0:
0,148,123200,1,2,3:2:0:0:
225,13,123335,70,0,P|278:51|289:126,1,125,10|0,2:2|0:0,0:0:0:0:
208,247,123605,1,0,3:3:0:0:
94,172,123741,2,0,P|130:123|190:107,1,125,2|0,3:2|0:0,0:0:0:0:
374,130,124011,86,0,P|399:183|452:207,1,112.500004291535,10|0,2:2|0:0,0:0:0:0:
480,93,124281,1,2,3:2:0:0:
463,98,124349,1,2,2:2:0:0:
463,115,124416,1,10,2:2:0:0:
480,120,124484,1,2,2:2:0:0:
489,106,124551,1,10,2:2:0:0:
265,77,124686,70,0,P|261:55|260:39,3,37.5000014305115,2|2|2|2,3:2|2:2|3:2|3:2,0:0:0:0:
149,148,124957,69,6,3:2:0:0:
96,73,125092,2,0,P|90:24|99:-14,1,75.0000028610231,2|0,2:2|0:0,0:0:0:0:
267,196,125362,85,2,3:2:0:0:
124,262,125497,2,0,P|64:236|37:185,1,112.500004291535,10|0,2:2|0:0,0:0:0:0:
14,83,125768,2,0,P|3:106|0:131,1,50,2|0,3:2|0:0,0:0:0:0:
149,148,125903,70,0,P|205:100|282:86,1,150,2|0,3:2|0:0,0:0:0:0:
396,60,126173,2,0,P|376:45|352:41,1,50,10|0,2:2|3:3,0:0:0:0:
265,224,126443,69,10,2:2:0:0:
258,213,126578,2,0,P|310:212|376:286,1,125,8|2,2:2|2:2,0:0:0:0:
243,362,126849,86,0,P|255:333|294:310,1,62.5,2|0,3:2|0:0,0:0:0:0:
365,254,126984,2,0,P|395:260|428:290,1,62.5,2|0,3:2|3:3,0:0:0:0:
315,384,127119,70,0,L|269:108,1,270.000001029968,2|0,3:2|3:3,0:0:0:0:
201,26,127524,70,0,L|192:89,1,37.5000014305115,2|0,3:2|0:0,0:0:0:0:
360,144,127659,2,0,L|322:32,1,97.4999955368044,10|0,2:2|0:0,0:0:0:0:
261,113,127930,86,0,L|266:145,1,27.5000008392334,10|8,2:2|2:2,0:0:0:0:
418,62,128065,2,0,L|396:16,2,46.6666666666667,10|8|0,2:2|2:2|0:0,0:0:0:0:
360,144,128741,69,8,2:2:0:0:
367,150,128831,69,8,2:2:0:0:
364,161,128921,85,8,2:2:0:0:
372,167,129011,69,8,2:2:0:0:
369,178,129101,69,8,2:2:0:0:
376,184,129191,85,8,2:2:0:0:
374,195,129281,69,14,2:2:0:0:
440,145,130362,69,0,3:3:0:0:
433,93,130430,1,0,3:3:0:0:
401,65,130498,1,0,3:3:0:0:
368,56,130565,1,0,3:3:0:0:
342,59,130633,1,0,3:3:0:0:
325,67,130700,1,0,3:3:0:0:
314,75,130768,37,0,3:3:0:0:
312,85,130835,1,0,3:3:0:0:
309,94,130903,2,0,L|296:150,1,37.5000014305115,0|0,3:3|3:3,0:0:0:0:
223,173,131038,69,0,3:3:0:0:
203,166,131105,1,0,3:3:0:0:
221,155,131173,1,0,3:3:0:0:
201,148,131241,1,0,3:3:0:0:
219,137,131308,1,0,3:3:0:0:
199,130,131376,1,0,3:3:0:0:
31,71,131578,38,0,L|21:128,1,37.5000014305115,0|0,3:3|3:3,0:0:0:0:
124,26,131713,69,8,2:2:0:0:
85,272,131864,1,8,2:2:0:0:
133,37,132016,1,8,2:2:0:0:
75,262,132167,1,8,2:2:0:0:
107,106,132299,37,0,3:3:0:0:
109,115,132344,2,0,L|116:161,2,25.0000009536744,0|0|8,3:3|3:3|3:2,0:0:0:0:
239,122,132659,69,0,3:3:0:0:
236,131,132704,2,0,L|226:176,2,25.0000009536744,0|0|8,3:3|3:3|3:2,0:0:0:0:
355,191,133020,37,0,3:3:0:0:
349,197,133065,69,0,3:3:0:0:
344,203,133110,37,0,3:3:0:0:
340,211,133155,70,0,L|310:247,1,25.0000009536744,0|8,3:3|3:2,0:0:0:0:
424,285,133695,37,8,3:2:0:0:
396,305,133786,69,8,3:2:0:0:
491,359,134089,85,4,2:2:0:0:
411,389,134552,5,4,2:2:0:0:
39,276,140834,22,0,P|35:305|60:328,1,62.5000023841859,2|0,2:2|0:0,0:0:0:0:
108,277,141218,70,0,P|82:256|48:259,1,66.6666666666667,2|0,2:2|0:0,0:0:0:0:
55,343,141539,38,0,P|99:346|123:275,1,125.000004768372,2|0,2:2|0:0,0:0:0:0:
116,176,141923,70,0,B|118:153|140:131|140:131|71:165|82:249|145:287|198:251|209:205|209:205|237:134|332:127|359:231|293:263|293:263|232:307|281:378|355:368|279:351|276:312|294:271,1,725.333337760417,2|0,2:2|0:0,0:0:0:0:
362,304,146090,38,0,B|416:276|441:121|349:151|346:68|346:68|348:-7|475:-4|451:112|384:117,1,479.999985351563,2|0,2:2|0:0,0:0:0:0:
307,195,146987,70,0,B|296:149|262:159|241:72|239:32|296:39|294:-26|190:9|254:136,1,291.666669448217,2|0,2:2|0:0,0:0:0:0:
175,183,147372,2,0,B|155:195|165:210|128:235|110:242|103:214|73:226|107:269|156:217,1,146.666671142578,2|0,2:2|0:0,0:0:0:0:
218,257,147693,2,0,B|235:252|261:265|271:273|257:286|274:299|278:267|257:257,1,83.3333333333333,2|0,2:2|3:3,0:0:0:0:
139,142,148398,38,0,B|66:144|37:248|107:303|107:303|145:343|112:378|55:376|72:303,1,340.000006484985,0|0,3:3|0:0,0:0:0:0:
0,299,150064,70,0,B|8:277|23:268|23:268|37:262|32:250|17:245|13:265,1,79.9999975585938,2|0,2:2|0:0,0:0:0:0:
18,270,152244,38,0,B|64:296|117:248|50:206|108:155|124:134|164:140|164:140|214:154|195:205|170:214,1,310.000002365112,2|0,2:2|0:0,0:0:0:0:
201,278,152693,2,0,B|222:298|258:279|227:247|265:228|276:218|297:227|297:227|323:242|305:266|291:268,1,174.999994659424,2|0,2:2|0:0,0:0:0:0:
284,339,153077,2,0,B|289:351|307:350|301:332|320:331|326:330|333:337|333:337|340:348|329:354|322:352,1,80,2|0,2:2|0:0,0:0:0:0:
298,265,153526,70,0,B|305:266|323:242|297:227|297:227|276:218|265:228|227:247|258:279|222:298|201:278,1,174.999994659424,2|0,2:2|0:0,0:0:0:0:
184,203,153910,2,0,B|195:205|214:154|164:140|164:140|124:134|108:155|50:206|117:248|64:296|18:270,1,308.333332157135,2|0,2:2|0:0,0:0:0:0:
18,287,154295,2,0,B|13:292|-15:277|1:250|1:250|17:232|32:235|78:234|61:271|108:281|136:255,1,191.666670322418,2|0,2:2|0:0,0:0:0:0:
184,203,154680,38,0,B|222:177|233:134|122:116|185:56|199:56|217:45|295:41|236:135|264:162|324:145,1,300.000011444092,2|0,2:2|0:0,0:0:0:0:
405,192,155000,2,0,B|372:173|371:149|440:134|403:101|391:97|384:92|330:90|370:147|347:161|318:156,1,194.999991073609,2|0,2:2|0:0,0:0:0:0:
206,71,155705,70,0,B|177:48|214:23|258:24|284:62|279:88,1,135.000000514984,2|0,3:2|0:0,0:0:0:0:
177,271,156090,38,0,B|81:275|-183:217|-28:-110|207:-112|308:140|253:313|116:376,1,850,2|0,3:2|0:0,0:0:0:0:
8,334,159552,70,0,B|-8:309|16:297|45:304|57:333|50:350,1,95,2|0,2:2|0:0,0:0:0:0:
42,347,161475,37,2,2:2:0:0:
37,340,161667,1,2,2:2:0:0:
25,295,161859,1,2,2:2:0:0:
61,222,162052,1,2,2:2:0:0:
159,202,162244,1,2,2:2:0:0:
254,277,162436,1,2,2:2:0:0:
99,130,162628,69,2,2:2:0:0:
96,118,162820,1,2,2:2:0:0:
124,88,163012,1,2,2:2:0:0:
205,83,163205,1,2,2:2:0:0:
271,158,163397,1,2,2:2:0:0:
254,277,163589,1,2,2:2:0:0:
299,60,163782,37,2,2:2:0:0:
308,59,163974,1,2,2:2:0:0:
352,70,164166,1,2,2:2:0:0:
397,138,164359,1,2,2:2:0:0:
365,232,164551,1,2,2:2:0:0:
254,277,164743,1,2,2:2:0:0:
108,170,164936,1,2,2:2:0:0:
26,213,165128,1,2,2:2:0:0:
9,300,165321,69,2,2:2:0:0:
7,283,165513,1,2,2:2:0:0:
26,213,165705,1,2,2:2:0:0:
121,181,165898,1,2,2:2:0:0:
241,226,166090,1,2,2:2:0:0:
277,374,166282,1,2,2:2:0:0:
215,115,166475,37,2,2:2:0:0:
228,104,166667,1,2,2:2:0:0:
298,86,166859,1,2,2:2:0:0:
374,152,167052,1,2,2:2:0:0:
395,278,167244,1,2,2:2:0:0:
277,374,167436,1,2,2:2:0:0:
458,215,167628,69,2,2:2:0:0:
477,221,167820,1,2,2:2:0:0:
502,313,168012,1,2,2:2:0:0:
288,373,168205,37,2,2:2:0:0:
159,216,168397,1,2,2:2:0:0:
41,227,168589,1,2,2:2:0:0:
0,289,168782,1,2,2:2:0:0:
24,360,168975,1,2,2:2:0:0:
0,289,169167,37,2,3:2:0:0:
15,262,169263,1,2,2:2:0:0:
37,239,169359,1,2,2:2:0:0:
64,223,169455,1,2,3:2:0:0:
94,215,169552,2,0,L|99:250,3,25,2|2|2|2,2:2|2:2|2:2|2:2,0:0:0:0:
162,318,169936,1,0,3:3:0:0:
325,358,170128,1,2,2:2:0:0:
410,335,170321,69,2,2:2:0:0:
416,328,170513,1,2,2:2:0:0:
460,270,170705,1,2,3:2:0:0:
456,159,170898,1,2,2:2:0:0:
317,65,171090,1,2,2:2:0:0:
144,147,171282,1,2,2:2:0:0:
136,221,171475,69,2,3:2:0:0:
147,223,171667,1,2,2:2:0:0:
222,185,171859,1,2,2:2:0:0:
200,81,172052,1,2,2:2:0:0:
70,78,172244,1,2,3:2:0:0:
26,274,172436,1,2,2:2:0:0:
250,377,172628,1,2,2:2:0:0:
411,199,172821,1,2,3:2:0:0:
402,207,172917,1,0,3:3:0:0:
398,218,173013,85,2,3:2:0:0:
411,294,173205,1,2,2:2:0:0:
330,356,173398,1,2,2:2:0:0:
181,336,173590,1,2,2:2:0:0:
114,173,173782,1,2,3:2:0:0:
254,0,173975,1,2,2:2:0:0:
354,0,174167,69,2,2:2:0:0:
367,6,174359,1,2,2:2:0:0:
431,78,174552,1,2,3:2:0:0:
391,207,174744,1,2,2:2:0:0:
207,257,174936,1,2,2:2:0:0:
31,100,175128,1,2,2:2:0:0:
110,299,175321,69,2,3:2:0:0:
218,53,175513,1,2,2:2:0:0:
393,17,175705,1,2,2:2:0:0:
512,44,175898,1,2,2:2:0:0:
386,131,176090,85,2,3:2:0:0:
304,55,176282,2,0,P|294:31|291:7,1,50,2|0,2:2|3:3,0:0:0:0:
386,131,176475,1,2,2:2:0:0:
379,142,176571,1,0,3:3:0:0:
371,151,176667,1,2,3:2:0:0:
362,159,176763,1,0,3:3:0:0:
351,164,176859,70,0,P|253:156|146:125,1,187.5,2|0,3:2|3:3,0:0:0:0:
129,69,177244,1,2,3:2:0:0:
110,59,177340,1,0,3:3:0:0:
72,53,177436,1,2,3:2:0:0:
20,77,177532,1,0,3:3:0:0:
0,136,177628,1,2,3:2:0:0:
96,329,177821,1,2,2:2:0:0:
207,350,178013,69,2,3:2:0:0:
243,343,178109,1,0,3:3:0:0:
279,320,178205,1,2,3:2:0:0:
301,281,178301,1,0,3:3:0:0:
302,230,178397,1,2,3:2:0:0:
199,242,178590,1,2,2:2:0:0:
368,335,178782,85,2,3:2:0:0:
421,322,178878,1,0,3:3:0:0:
464,286,178975,1,2,3:2:0:0:
478,225,179071,1,0,3:3:0:0:
451,166,179167,1,2,3:2:0:0:
344,94,179359,1,2,2:2:0:0:
426,45,179552,69,2,3:2:0:0:
434,60,179648,1,0,3:3:0:0:
431,95,179744,1,2,3:2:0:0:
389,120,179840,1,0,3:3:0:0:
344,94,179936,1,2,3:2:0:0:
229,14,180128,1,2,2:2:0:0:
37,71,180321,1,2,2:2:0:0:
12,332,180513,1,2,3:2:0:0:
26,318,180609,1,0,3:3:0:0:
29,300,180705,69,2,3:2:0:0:
117,235,180898,1,2,2:2:0:0:
209,294,181090,1,2,3:2:0:0:
201,319,181186,1,0,3:3:0:0:
177,342,181282,1,2,3:2:0:0:
144,355,181378,1,0,3:3:0:0:
96,358,181475,2,0,P|52:341|20:280,1,100,2|2,3:2|2:2,0:0:0:0:
7,150,181859,85,2,3:2:0:0:
18,128,181955,1,0,3:3:0:0:
44,106,182052,1,2,3:2:0:0:
79,97,182148,1,0,3:3:0:0:
121,99,182244,2,0,P|167:112|206:153,1,100,2|2,3:2|2:2,0:0:0:0:
270,315,182628,69,2,3:2:0:0:
222,322,182725,1,0,3:3:0:0:
172,309,182821,1,2,3:2:0:0:
134,273,182918,1,0,3:3:0:0:
117,211,183013,1,2,3:2:0:0:
205,36,183205,1,2,2:2:0:0:
195,160,183398,69,2,3:2:0:0:
194,194,183494,1,0,3:3:0:0:
219,224,183590,1,2,3:2:0:0:
267,237,183686,1,0,3:3:0:0:
314,209,183782,1,2,3:2:0:0:
449,184,183975,1,2,2:2:0:0:
512,321,184167,1,2,2:2:0:0:
512,321,184263,2,0,L|518:365,5,37.5000014305115,0|0|2|0|0|0,3:3|3:3|3:2|3:3|3:3|3:3,0:0:0:0:
493,299,184552,86,0,P|416:294|349:339,1,150,2|0,3:2|3:3,0:0:0:0:
265,368,184936,1,2,3:2:0:0:
253,375,185032,1,0,3:3:0:0:
224,384,185128,1,2,3:2:0:0:
184,383,185225,1,0,3:3:0:0:
133,367,185321,1,2,3:2:0:0:
46,214,185513,1,2,2:2:0:0:
146,103,185705,69,2,3:2:0:0:
165,98,185802,1,0,3:3:0:0:
193,99,185898,1,2,3:2:0:0:
222,109,185995,1,0,3:3:0:0:
253,137,186090,1,2,3:2:0:0:
171,196,186282,1,2,2:2:0:0:
362,27,186475,69,2,3:2:0:0:
398,55,186571,1,0,3:3:0:0:
419,91,186667,1,2,3:2:0:0:
424,143,186763,1,0,3:3:0:0:
405,199,186859,1,2,3:2:0:0:
308,255,187052,1,2,2:2:0:0:
253,161,187244,85,2,3:2:0:0:
273,134,187340,1,0,3:3:0:0:
320,123,187436,1,2,3:2:0:0:
373,143,187532,1,0,3:3:0:0:
400,207,187628,1,2,3:2:0:0:
272,347,187821,1,2,2:2:0:0:
46,264,188013,1,2,2:2:0:0:
21,29,188205,1,2,3:2:0:0:
35,33,188301,1,2,3:2:0:0:
43,41,188398,69,2,3:2:0:0:
106,134,188590,1,2,2:2:0:0:
236,146,188782,1,2,2:2:0:0:
259,128,188878,1,0,3:3:0:0:
275,90,188974,1,2,3:2:0:0:
272,44,189070,1,0,3:3:0:0:
233,0,189166,1,2,3:2:0:0:
106,134,189359,1,2,2:2:0:0:
187,212,189552,69,2,3:2:0:0:
200,222,189648,1,0,3:3:0:0:
229,229,189744,1,2,3:2:0:0:
265,222,189840,1,0,3:3:0:0:
295,203,189936,1,2,3:2:0:0:
355,79,190128,1,2,3:2:0:0:
108,20,190321,85,2,3:2:0:0:
64,30,190417,1,0,3:3:0:0:
25,65,190513,1,2,3:2:0:0:
0,120,190609,1,0,3:3:0:0:
10,179,190705,1,2,3:2:0:0:
131,334,190898,1,2,2:2:0:0:
298,260,191090,69,2,3:2:0:0:
335,210,191186,1,0,3:3:0:0:
328,151,191282,1,2,3:2:0:0:
278,115,191378,1,0,3:3:0:0:
218,118,191475,69,2,3:2:0:0:
165,188,191603,86,0,P|164:210|173:242,2,41.6666666666667,0|2|0,3:3|3:2|3:3,0:0:0:0:
175,40,191859,69,2,2:2:0:0:
98,135,191988,70,0,P|87:155|80:187,2,41.6666666666667,0|2|0,3:3|3:2|3:3,0:0:0:0:
254,200,192244,6,0,P|307:222|373:215,1,112.500004291535,2|0,3:2|3:3,0:0:0:0:
254,200,192821,101,0,3:3:0:0:
254,200,192917,1,0,3:3:0:0:
254,200,193013,2,0,P|316:216|391:203,1,127.50000243187,0|0,3:3|3:3,0:0:0:0:
244,191,193590,5,0,3:3:0:0:
247,197,193686,1,0,3:3:0:0:
254,200,193782,2,0,P|317:207|402:190,1,142.49999619484,0|0,3:3|3:3,0:0:0:0:
184,71,194263,102,0,P|184:133|203:165,1,75.0000028610231,0|0,3:3|3:3,0:0:0:0:
254,200,194552,2,0,P|318:198|410:177,1,157.499995193482,0|0,3:3|3:3,0:0:0:0:
144,249,195032,5,0,3:3:0:0:
174,223,195128,1,0,3:3:0:0:
220,228,195224,1,0,3:3:0:0:
254,200,195321,2,0,L|424:171,1,172.500003290176,0|0,3:3|3:3,0:0:0:0:
183,80,195802,102,0,P|176:117|182:139,1,56.2500021457673,0|0,3:3|3:3,0:0:0:0:
254,200,196090,2,0,B|304:193|341:166|341:166|375:179|435:168,1,187.5,0|0,3:3|3:3,0:0:0:0:
177,145,196667,5,0,3:3:0:0:
207,185,196763,1,0,3:3:0:0:
254,200,196859,2,0,B|309:197|337:153|337:153|387:180|450:157,1,202.500000772476,0|0,3:3|3:3,0:0:0:0:
141,185,197436,101,0,3:3:0:0:
198,218,197532,1,0,3:3:0:0:
254,200,197628,2,0,B|311:193|327:135|327:135|370:174|450:157,1,217.500006637573,0|0,3:3|3:3,0:0:0:0:
116,84,198109,6,0,P|109:136|132:183,1,107.50000164032,0|0,3:3|3:3,0:0:0:0:
254,200,198398,2,0,B|308:182|321:114|321:114|360:171|454:154,1,232.500001773834,0|0,3:3|3:3,0:0:0:0:
103,143,198878,101,0,3:3:0:0:
128,193,198974,1,0,3:3:0:0:
183,214,199070,1,0,3:3:0:0:
254,200,199167,2,0,B|308:182|306:98|306:98|343:161|433:151,1,247.500002360344,0|0,3:3|3:3,0:0:0:0:
192,77,199648,5,0,3:3:0:0:
192,77,199792,2,0,P|190:98|210:140,1,41.2500003933907,0|0,3:3|3:3,0:0:0:0:
254,200,199936,2,0,B|308:154|290:82|290:82|327:153|433:151,1,262.500002503395,0|0,3:3|3:3,0:0:0:0:
254,200,201859,102,0,B|308:154|290:82|290:82|327:153|433:151,1,262.500002503395,0|0,3:3|3:3,0:0:0:0:
453,228,203782,102,0,B|463:245|458:281|458:281|478:251|511:244,1,112.500004291535,0|0,3:3|0:0,0:0:0:0:
506,137,204167,2,0,B|483:126|475:98|475:98|477:128|455:152,1,100,0|0,3:3|0:0,0:0:0:0:
358,265,204360,70,0,P|351:291|351:316,1,52.4999983978272,2|2,2:2|2:2,0:0:0:0:
278,346,204868,2,0,P|266:298|234:248,2,89.9999972534181,2|2|0,2:2|2:2|0:0,0:0:0:0:
19,139,206393,54,0,P|25:164|23:194,1,52.4999983978272,2|2,2:2|2:2,0:0:0:0:
99,225,206902,2,0,P|110:177|142:127,2,89.9999972534181,2|2|0,2:2|2:2|0:0,0:0:0:0:
243,157,208427,102,0,P|299:148|352:200,1,119.999996337891,6|0,3:2|0:0,0:0:0:0:
298,280,208682,1,2,2:2:0:0:
298,280,208766,2,0,P|284:259|285:218,2,59.9999981689454,8|0|2,2:2|0:0|2:2,0:0:0:0:
425,256,209021,2,0,B|451:271|458:307|458:307|476:274|509:268,1,125,8|2,2:2|2:2,0:0:0:0:
507,192,209275,2,0,B|487:180|483:152|483:152|468:177|443:181,1,100,8|0,2:2|0:0,0:0:0:0:
384,351,209444,69,0,3:3:0:0:
372,323,209528,1,0,0:0:0:0:
352,302,209613,1,0,0:0:0:0:
324,290,209698,1,0,3:3:0:0:
294,290,209783,2,0,L|288:353,1,59.9999981689454,8|0,2:2|0:0,0:0:0:0:
176,229,209953,1,0,3:3:0:0:
176,229,210037,1,0,0:0:0:0:
176,229,210122,2,0,L|182:291,1,59.9999981689454,0|8,0:0|2:2,0:0:0:0:
110,378,210292,53,0,3:3:0:0:
38,367,210376,1,0,3:3:0:0:
9,302,210461,2,0,B|15:262|48:249|48:249|14:223|18:168,1,135.000000514984,2|0,3:2|0:0,0:0:0:0:
81,114,210715,101,2,2:2:0:0:
81,114,210800,2,0,P|110:143|114:190,2,67.5000002574921,8|0|2,2:2|0:0|2:2,0:0:0:0:
176,229,211054,2,0,B|216:201|210:154|210:154|232:199|307:199,1,175.00000166893,8|2,2:2|2:2,0:0:0:0:
311,82,211309,2,0,P|302:96|296:112,2,33.750000128746,8|8|8,2:2|2:2|2:2,0:0:0:0:
364,176,211478,69,0,3:3:0:0:
402,159,211562,1,0,3:3:0:0:
444,160,211647,1,8,2:2:0:0:
481,180,211732,1,0,0:0:0:0:
506,214,211817,1,0,3:3:0:0:
512,267,211902,1,8,2:2:0:0:
502,273,211987,1,0,0:0:0:0:
481,318,212071,1,8,2:2:0:0:
471,324,212156,1,0,3:3:0:0:
461,330,212241,2,0,L|468:363,2,33.750000128746,0|0|8,3:3|0:0|2:2,0:0:0:0:
304,108,212409,53,0,0:0:0:0:
308,114,212495,2,0,B|274:146|275:190|275:190|265:140|209:133,1,175.00000166893,6|8,3:2|2:2,0:0:0:0:
146,251,212749,2,0,P|175:238|194:207,1,67.5000002574921,2|0,3:2|0:0,0:0:0:0:
26,176,212919,1,8,2:2:0:0:
23,193,213004,2,0,P|38:222|65:241,1,67.5000002574921,2|0,3:2|0:0,0:0:0:0:
194,210,213173,101,8,2:2:0:0:
194,210,213258,2,0,P|194:169|227:125,1,82.5000007867813,10|0,2:2|3:3,0:0:0:0:
439,166,213427,1,8,2:2:0:0:
380,216,213512,70,0,B|339:193|300:199|300:199|339:192|362:150,1,165.000001573563,6|8,3:2|2:2,0:0:0:0:
444,149,213766,2,0,B|464:160|483:157|483:157|464:161|453:182,1,82.5000007867813,2|0,3:2|0:0,0:0:0:0:
327,292,213936,53,8,2:2:0:0:
307,213,214021,2,0,P|343:213|384:244,1,67.5000002574921,6|0,3:2|0:0,0:0:0:0:
176,326,214190,101,8,2:2:0:0:
102,308,214275,1,10,2:2:0:0:
75,243,214360,2,0,P|70:217|83:172,1,67.5000002574921,0|8,3:3|2:2,0:0:0:0:
267,21,214529,70,0,P|259:45|237:64,1,47.4999987316132,6|0,3:2|0:0,0:0:0:0:
153,85,214698,1,0,3:3:0:0:
144,75,214783,2,0,P|207:76|281:167,1,165.000001573563,10|0,2:2|0:0,0:0:0:0:
161,246,215037,2,0,P|157:205|173:167,1,82.5000007867813,10|0,3:2|0:0,0:0:0:0:
276,144,215207,1,2,3:2:0:0:
270,161,215292,2,0,P|316:187|389:173,2,110.000003356934,10|0|0,2:2|3:3|0:0,0:0:0:0:
136,60,215546,54,0,L|125:-17,11,56.6666677474976,0|0|0|0|0|0|0|0|0|0|0|0,3:3|0:0|0:0|0:0|0:0|0:0|0:0|0:0|0:0|0:0|0:0|0:0,0:0:0:0:
54,33,216224,102,0,L|60:82,1,50
41,47,216309,2,0,L|60:81,1,40
37,62,216393,2,0,L|60:81,1,29.9999990844727
41,75,216478,2,0,L|59:81,1,20
12,154,216563,69,6,3:2:0:0:
23,160,216647,1,0,0:0:0:0:
36,161,216732,1,0,0:0:0:0:
46,236,216817,53,8,2:2:0:0:
59,235,216902,1,0,0:0:0:0:
70,229,216986,1,0,0:0:0:0:
135,264,217071,101,0,3:3:0:0:
139,251,217156,1,0,0:0:0:0:
217,204,217241,69,8,0:0:0:0:
247,204,217325,1,0,0:0:0:0:
275,216,217410,1,0,0:0:0:0:
296,238,217495,1,0,0:0:0:0:
298,325,217580,53,0,3:3:0:0:
323,306,217665,1,0,0:0:0:0:
353,299,217750,1,0,0:0:0:0:
414,352,217834,102,0,B|427:341|431:320|431:320|443:333|468:336,1,75.0000028610231,8|0,2:2|0:0,0:0:0:0:
492,244,218004,69,0,0:0:0:0:
482,253,218088,1,0,3:3:0:0:
442,210,218172,1,0,3:3:0:0:
460,155,218258,2,0,P|457:126|447:95,1,50,8|0,2:2|0:0,0:0:0:0:
304,56,218427,54,0,P|296:77|297:107,1,42.5000008106232
278,57,218512,2,0,P|283:76|294:94,1,42.5000008106232
219,119,218597,101,0,3:3:0:0:
248,164,218681,1,0,0:0:0:0:
301,178,218766,1,0,0:0:0:0:
374,115,218851,69,8,2:2:0:0:
372,100,218936,2,0,P|385:61|412:40,2,56.6666677474976
482,126,219105,53,0,3:3:0:0:
479,139,219190,1,0,0:0:0:0:
473,148,219275,2,0,P|455:125|451:100,1,50,8|0,2:2|0:0,0:0:0:0:
397,214,219444,101,0,0:0:0:0:
393,201,219529,1,0,0:0:0:0:
428,232,219614,69,0,3:3:0:0:
398,225,219699,1,0,0:0:0:0:
370,217,219783,1,0,0:0:0:0:
311,285,219868,53,8,2:2:0:0:
298,304,219953,2,0,B|315:309|327:328|327:328|324:305|333:281,1,75.0000028610231
273,182,220122,101,0,3:3:0:0:
217,215,220207,1,0,3:3:0:0:
195,281,220292,69,8,2:2:0:0:
120,232,220405,53,8,2:2:0:0:
87,311,220518,101,8,2:2:0:0:
11,266,220631,70,0,P|1:231|4:197,2,50,4|0|0,3:2|0:0|0:0,0:0:0:0:
161,356,220885,1,8,2:2:0:0:
172,314,220969,1,0,0:0:0:0:
201,282,221054,1,0,0:0:0:0:
249,353,221139,53,0,3:3:0:0:
250,362,221224,1,0,0:0:0:0:
285,282,221309,101,8,2:2:0:0:
324,268,221393,1,0,0:0:0:0:
367,274,221478,1,0,0:0:0:0:
397,298,221563,1,0,0:0:0:0:
461,356,221648,69,0,3:3:0:0:
479,309,221732,1,0,0:0:0:0:
475,261,221817,1,0,0:0:0:0:
461,189,221902,54,0,B|443:189|427:201|427:201|441:188|449:164,1,75.0000028610231,8|0,2:2|0:0,0:0:0:0:
383,113,222071,101,0,0:0:0:0:
386,98,222156,1,0,3:3:0:0:
315,94,222240,1,0,3:3:0:0:
249,132,222326,2,0,P|241:171|245:197,1,50,8|0,2:2|0:0,0:0:0:0:
179,323,222495,70,0,P|182:335|188:346,2,25
103,192,222665,53,0,3:3:0:0:
61,165,222749,1,0,0:0:0:0:
12,164,222834,1,0,0:0:0:0:
13,256,222919,101,8,2:2:0:0:
24,249,223004,1,0,0:0:0:0:
36,246,223088,1,0,3:3:0:0:
103,299,223173,70,0,B|116:313|121:343|121:343|139:323|170:318,1,100,0|0,3:3|0:0,0:0:0:0:
183,229,223343,2,0,B|170:215|165:185|165:185|147:205|120:209,1,100,8|0,2:2|0:0,0:0:0:0:
356,379,223512,53,0,0:0:0:0:
370,372,223596,1,0,0:0:0:0:
442,380,223682,101,0,3:3:0:0:
456,370,223766,1,0,3:3:0:0:
491,308,223851,1,8,2:2:0:0:
486,235,223936,1,0,0:0:0:0:
422,179,224021,70,0,P|383:173|334:192,1,85.0000016212464,8|0,2:2|0:0,0:0:0:0:
245,293,224190,53,0,3:3:0:0:
243,303,224246,101,0,3:3:0:0:
242,314,224302,69,0,3:3:0:0:
241,324,224360,54,0,P|202:330|153:311,1,85.0000016212464,8|8,2:2|2:2,0:0:0:0:
12,220,224529,101,8,3:2:0:0:
3,194,224585,69,0,3:3:0:0:
0,168,224641,53,0,3:3:0:0:
4,142,224698,102,0,P|10:115|22:88,2,50,4|0|0,3:2|0:0|0:0,0:0:0:0:
117,177,224953,69,8,2:2:0:0:
107,153,225037,1,0,0:0:0:0:
107,128,225122,1,0,0:0:0:0:
88,39,225207,53,0,3:3:0:0:
135,0,225291,1,0,0:0:0:0:
215,35,225376,101,8,2:2:0:0:
242,31,225460,1,0,0:0:0:0:
270,36,225545,1,0,0:0:0:0:
294,50,225630,1,0,0:0:0:0:
304,144,225715,69,0,3:3:0:0:
341,112,225799,1,0,0:0:0:0:
390,108,225884,1,0,0:0:0:0:
460,165,225970,53,8,2:2:0:0:
465,172,226054,1,0,0:0:0:0:
452,183,226139,1,0,3:3:0:0:
461,212,226224,1,0,3:3:0:0:
422,239,226309,1,0,3:3:0:0:
438,309,226393,102,0,P|426:335|386:358,1,64.9999970245363,8|0,2:2|0:0,0:0:0:0:
320,371,226563,70,0,P|316:347|322:325,1,42.5000008106232
291,362,226648,2,0,P|298:342|312:326,1,42.5000008106232
216,344,226732,54,0,P|206:317|208:289,3,56.6666677474976,0|0|0|0,3:3|0:0|0:0|0:0,0:0:0:0:
212,196,226987,101,8,2:2:0:0:
212,196,227071,2,0,B|193:200|163:186|163:186|156:211|125:232,1,100
29,252,227241,69,0,3:3:0:0:
0,181,227326,1,0,0:0:0:0:
52,121,227410,1,8,2:2:0:0:
52,121,227495,2,0,P|72:141|78:177,1,50
84,347,227665,53,0,0:0:0:0:
84,347,227750,2,0,P|91:320|113:298,3,50.0000019073487,0|0|0|0,3:3|0:0|0:0|0:0,0:0:0:0:
225,311,228003,101,8,2:2:0:0:
286,305,228088,1,0,0:0:0:0:
333,344,228173,2,0,L|337:387,4,37.5000014305115,0|0|0|0|0,3:3|3:3|3:3|0:0|3:3,0:0:0:0:
430,294,228427,70,0,P|459:269|476:234,1,76.6666681289673,8|0,2:2|3:3,0:0:0:0:
383,220,228540,54,0,P|392:189|391:158,1,63.3333316421509,8|0,2:2|3:3,0:0:0:0:
309,186,228653,102,0,P|303:162|290:142,1,50.0000019073487,8|0,2:2|3:3,0:0:0:0:
225,197,228766,70,0,L|221:240,4,37.5000014305115,4|0|0|0|0,3:2|0:0|0:0|0:0|0:0,0:0:0:0:
195,87,229021,2,0,P|162:54|137:44,1,59.9999981689454,8|0,2:2|0:0,0:0:0:0:
17,153,229190,53,0,0:0:0:0:
17,153,229275,2,0,B|8:132|-11:117|-11:117|13:116|32:105,1,89.9999972534181,0|0,3:3|0:0,0:0:0:0:
120,130,229444,2,0,B|129:151|148:166|148:166|124:167|105:178,1,89.9999972534181,8|0,2:2|0:0,0:0:0:0:
23,312,229614,101,0,0:0:0:0:
16,304,229698,1,0,0:0:0:0:
67,246,229783,1,0,3:3:0:0:
142,263,229868,2,0,P|148:295|141:327,1,59.9999981689454
229,190,230037,69,8,2:2:0:0:
253,308,230122,2,0,P|245:338|226:365,1,59.9999981689454
287,109,230292,53,0,3:3:0:0:
302,101,230376,1,0,3:3:0:0:
337,93,230461,1,8,2:2:0:0:
392,105,230546,1,0,0:0:0:0:
433,156,230631,1,0,0:0:0:0:
424,233,230715,1,0,0:0:0:0:
344,278,230800,102,0,P|330:235|341:192,1,89.9999972534181,0|0,3:3|0:0,0:0:0:0:
510,207,231054,2,0,P|513:239|507:272,2,59.9999981689454,8|0|0,2:2|0:0|0:0,0:0:0:0:
324,238,231309,69,0,3:3:0:0:
322,252,231365,53,0,3:3:0:0:
326,267,231421,101,0,3:3:0:0:
337,279,231478,69,8,2:2:0:0:
356,318,231562,1,0,0:0:0:0:
343,359,231647,1,0,0:0:0:0:
304,379,231732,1,0,0:0:0:0:
247,310,231816,53,0,3:3:0:0:
176,296,231902,1,8,2:2:0:0:
106,330,231987,2,0,B|91:350|93:377|93:377|86:356|52:353,1,100,8|0,2:2|3:3,0:0:0:0:
0,280,232156,102,0,L|2:261,12,18.7500007152558,8|0|0|0|0|0|0|0|0|0|0|0|0,2:2|0:0|0:0|0:0|3:3|0:0|3:3|0:0|3:3|0:0|0:0|0:0|3:2,0:0:0:0:
77,204,232495,69,0,3:3:0:0:
63,191,232580,1,0,3:3:0:0:
77,169,232665,1,0,3:3:0:0:
52,126,232749,1,0,0:0:0:0:
86,75,232834,2,0,P|85:40|78:12,1,59.9999981689454,6|0,3:2|0:0,0:0:0:0:
183,153,233004,53,2,2:2:0:0:
206,109,233088,1,8,2:2:0:0:
248,96,233173,1,2,2:2:0:0:
302,140,233257,1,2,2:2:0:0:
372,129,233342,1,2,3:2:0:0:
407,60,233427,1,2,2:2:0:0:
407,60,233512,2,0,P|430:76|443:104,1,59.9999981689454,10|2,2:2|2:2,0:0:0:0:
429,255,233682,101,2,2:2:0:0:
431,181,233766,1,2,2:2:0:0:
502,153,233851,2,0,P|509:181|502:210,1,59.9999981689454,2|2,3:2|2:2,0:0:0:0:
273,261,234021,70,0,B|286:236|285:212|285:212|296:233|323:239,1,100,2|8,2:2|2:2,0:0:0:0:
355,314,234190,2,0,B|337:347|339:378|339:378|321:348|282:340,1,129.999994049073,2|0,2:2|0:0,0:0:0:0:
168,222,234360,53,2,3:2:0:0:
112,275,234444,1,2,3:2:0:0:
108,353,234529,2,0,P|135:351|173:322,2,56.6666677474976,10|2|2,2:2|2:2|2:2,0:0:0:0:
42,241,234698,101,2,2:2:0:0:
45,230,234755,69,2,2:2:0:0:
51,220,234811,53,2,2:2:0:0:
61,213,234868,101,2,3:2:0:0:
100,176,234952,1,2,2:2:0:0:
110,127,235037,1,2,2:2:0:0:
92,95,235122,1,10,2:2:0:0:
3,92,235207,69,2,2:2:0:0:
0,107,235263,53,2,2:2:0:0:
3,123,235319,101,2,2:2:0:0:
13,137,235376,70,0,P|17:110|-3:89,1,50,2|2,3:2|2:2,0:0:0:0:
147,39,235546,2,0,P|117:18|84:16,1,50,10|0,2:2|0:0,0:0:0:0:
246,170,235715,53,2,2:2:0:0:
284,176,235799,1,2,2:2:0:0:
315,152,235885,2,0,P|309:116|286:91,2,50,2|0|2,3:2|0:0|2:2,0:0:0:0:
422,184,236139,101,8,2:2:0:0:
422,184,236224,2,0,B|433:207|434:225|434:225|445:210|486:191,1,85.0000016212464,2|0,2:2|0:0,0:0:0:0:
484,107,236393,2,0,B|478:94|479:85|479:85|473:92|451:99,2,42.5000008106232,2|0|0,3:2|0:0|3:3,0:0:0:0:
292,297,236563,69,10,2:2:0:0:
374,359,236676,53,8,2:2:0:0:
454,346,236789,101,8,2:2:0:0:
479,322,236902,70,0,P|491:292|483:250,2,50,6|0|2,3:2|0:0|2:2,0:0:0:0:
299,279,237156,53,8,2:2:0:0:
275,235,237240,1,2,2:2:0:0:
228,221,237325,1,0,0:0:0:0:
161,268,237410,101,2,3:2:0:0:
158,295,237495,1,0,0:0:0:0:
107,351,237580,69,10,2:2:0:0:
91,356,237665,1,2,2:2:0:0:
77,359,237749,1,2,2:2:0:0:
61,356,237834,1,0,0:0:0:0:
41,277,237919,53,0,3:3:0:0:
59,276,238003,1,2,2:2:0:0:
76,280,238088,1,2,2:2:0:0:
114,353,238173,101,10,2:2:0:0:
136,335,238257,1,2,2:2:0:0:
152,307,238342,1,2,2:2:0:0:
191,224,238427,69,2,3:2:0:0:
175,191,238511,1,2,3:2:0:0:
139,179,238597,2,0,P|118:181|84:197,1,50,10|2,2:2|2:2,0:0:0:0:
231,353,238766,54,0,B|232:332|230:321|230:321|235:333|252:347,3,62.5,2|0|2|0,2:2|0:0|2:2|0:0,0:0:0:0:
293,273,238936,101,2,3:2:0:0:
348,264,239020,1,0,0:0:0:0:
397,311,239105,1,2,2:2:0:0:
391,380,239190,70,0,P|379:336|398:296,1,75.0000028610231,10|0,2:2|0:0,0:0:0:0:
488,193,239360,53,2,3:2:0:0:
472,225,239444,1,2,3:2:0:0:
438,237,239529,1,2,2:2:0:0:
412,156,239614,101,10,2:2:0:0:
403,130,239699,1,2,2:2:0:0:
376,114,239784,1,2,2:2:0:0:
331,187,239868,69,2,2:2:0:0:
304,208,239953,1,2,3:2:0:0:
262,192,240037,1,2,3:2:0:0:
221,230,240122,1,10,2:2:0:0:
151,206,240207,1,2,2:2:0:0:
63,246,240292,54,0,P|51:289|53:333,1,85.0000016212464,10|0,2:2|0:0,0:0:0:0:
215,372,240461,101,2,3:2:0:0:
214,353,240517,69,2,3:2:0:0:
208,335,240573,53,2,3:2:0:0:
197,319,240631,102,0,L|146:311,2,43.3333313496908,10|2|2,2:2|2:2|2:2,0:0:0:0:
55,231,240800,69,10,3:2:0:0:
49,216,240857,54,0,P|45:188|50:158,1,43.3333313496908,2|2,3:2|3:2,0:0:0:0:
136,10,240970,101,6,3:2:0:0:
102,16,241054,1,0,0:0:0:0:
79,40,241139,1,0,0:0:0:0:
106,117,241224,69,10,2:2:0:0:
158,114,241309,1,0,0:0:0:0:
192,75,241393,1,0,0:0:0:0:
246,8,241478,53,2,3:2:0:0:
248,19,241563,1,0,0:0:0:0:
312,81,241648,101,8,2:2:0:0:
322,104,241732,1,2,2:2:0:0:
367,130,241817,1,2,2:2:0:0:
437,115,241902,1,2,2:2:0:0:
426,14,241987,69,2,3:2:0:0:
381,0,242071,1,2,2:2:0:0:
392,46,242156,1,2,2:2:0:0:
437,115,242241,53,10,2:2:0:0:
475,163,242326,1,2,2:2:0:0:
453,224,242410,1,2,3:2:0:0:
395,237,242495,1,2,3:2:0:0:
347,197,242580,1,2,3:2:0:0:
281,243,242665,101,8,2:2:0:0:
273,258,242749,2,0,L|311:268,1,32.4999985122681,2|2,2:2|2:2,0:0:0:0:
272,272,242834,2,0,L|311:263,1,32.4999985122681,2|2,2:2|2:2,0:0:0:0:
276,287,242919,2,0,L|308:263,1,32.4999985122681,2|2,2:2|2:2,0:0:0:0:
327,341,243004,70,0,B|365:307|386:344|436:314|436:314|405:382|312:358,1,239.999992675781,2|0,3:2|0:0,0:0:0:0:
219,384,243258,53,10,2:2:0:0:
183,374,243343,1,2,2:2:0:0:
158,347,243427,1,0,0:0:0:0:
150,300,243512,1,2,3:2:0:0:
174,257,243597,1,0,0:0:0:0:
186,202,243682,1,10,2:2:0:0:
150,143,243766,1,2,2:2:0:0:
86,121,243851,1,2,2:2:0:0:
19,144,243936,1,2,2:2:0:0:
6,194,244021,101,2,3:2:0:0:
67,201,244105,1,2,2:2:0:0:
100,162,244190,1,2,2:2:0:0:
93,135,244275,1,10,2:2:0:0:
80,127,244360,1,2,2:2:0:0:
70,125,244444,2,0,L|46:131,4,25,2|0|0|0|2,3:2|3:3|3:3|0:0|3:2,0:0:0:0:
21,57,244698,70,0,L|2:12,1,43.3333313496908,10|0,2:2|3:3,0:0:0:0:
88,43,244811,54,0,L|85:-6,1,43.3333313496908,10|0,2:2|3:3,0:0:0:0:
156,56,244924,102,0,L|170:9,1,43.3333313496908,10|0,2:2|3:3,0:0:0:0:
259,128,245037,69,6,3:2:0:0:
284,75,245121,1,2,2:2:0:0:
339,55,245206,1,2,2:2:0:0:
431,141,245292,53,10,2:2:0:0:
389,121,245377,1,2,2:2:0:0:
345,137,245461,1,2,2:2:0:0:
387,207,245546,101,2,3:2:0:0:
413,217,245630,1,2,2:2:0:0:
433,240,245715,1,10,2:2:0:0:
378,310,245800,69,2,2:2:0:0:
374,292,245885,1,2,2:2:0:0:
368,279,245970,1,2,2:2:0:0:
299,319,246054,53,0,3:2:0:0:
297,326,246139,1,2,2:2:0:0:
293,331,246224,1,2,2:2:0:0:
207,303,246309,102,0,P|218:298|233:287,2,29.9999990844727,10|2|2,2:2|2:2|2:2,0:0:0:0:
128,306,246563,69,2,3:2:0:0:
113,304,246648,1,2,3:2:0:0:
92,293,246732,1,10,2:2:0:0:
66,264,246817,1,2,2:2:0:0:
60,208,246902,1,2,2:2:0:0:
100,148,246987,1,2,2:2:0:0:
186,129,247071,54,0,P|197:169|144:213,1,104.999996795654,2|0,3:2|0:0,0:0:0:0:
43,89,247326,2,0,P|75:64|113:66,2,69.9999978637696,10|0|2,2:2|0:0|2:2,0:0:0:0:
212,167,247580,101,2,3:2:0:0:
215,146,247636,69,2,3:2:0:0:
208,124,247692,53,2,3:2:0:0:
197,109,247749,101,10,2:2:0:0:
190,75,247833,1,2,2:2:0:0:
215,40,247918,1,2,2:2:0:0:
263,30,248003,1,2,2:2:0:0:
335,66,248088,69,2,3:2:0:0:
345,139,248173,1,10,2:2:0:0:
419,176,248258,2,0,B|433:141|426:112|426:112|435:143|467:159,1,129.999994049073,10|2,2:2|3:2,0:0:0:0:
454,249,248427,2,0,B|466:255|471:269|471:269|467:256|473:239,6,57.5000010967255,10|2|0|0|0|0|0,2:2|2:2|3:3|3:3|3:3|0:0|3:3,0:0:0:0:
368,294,248766,54,0,P|347:264|294:245,1,75.0000028610231,2|0,3:2|3:3,0:0:0:0:
258,150,248936,2,0,P|221:149|174:181,1,75.0000028610231,10|0,2:2|0:0,0:0:0:0:
36,281,249105,101,6,3:2:0:0:
37,290,249161,69,2,2:2:0:0:
38,300,249217,53,2,2:2:0:0:
39,310,249275,102,0,L|44:363,1,50,2|8,2:2|2:2,0:0:0:0:
132,375,249444,69,2,2:2:0:0:
142,364,249528,1,2,2:2:0:0:
155,364,249614,1,0,3:3:0:0:
212,306,249698,53,2,2:2:0:0:
265,317,249783,1,10,2:2:0:0:
301,360,249868,1,0,0:0:0:0:
382,384,249952,101,2,2:2:0:0:
385,368,250037,1,2,2:2:0:0:
452,307,250122,69,6,3:2:0:0:
438,298,250178,53,2,2:2:0:0:
424,288,250234,101,2,2:2:0:0:
415,274,250292,70,0,P|399:245|394:209,1,50,2|8,2:2|2:2,0:0:0:0:
439,128,250461,53,2,2:2:0:0:
419,145,250545,1,2,2:2:0:0:
394,155,250630,1,0,3:3:0:0:
317,194,250715,101,2,2:2:0:0:
260,170,250799,1,10,2:2:0:0:
236,117,250884,1,0,3:3:0:0:
332,80,250970,69,2,3:2:0:0:
324,107,251054,1,2,3:2:0:0:
261,42,251139,53,6,3:2:0:0:
242,36,251195,101,2,2:2:0:0:
225,36,251251,69,2,2:2:0:0:
208,40,251309,54,0,P|182:59|171:79,1,50,2|10,2:2|2:2,0:0:0:0:
99,120,251478,101,2,2:2:0:0:
108,142,251562,1,2,2:2:0:0:
111,167,251647,1,0,3:3:0:0:
166,238,251732,69,2,2:2:0:0:
127,287,251817,1,10,2:2:0:0:
67,294,251901,1,0,0:0:0:0:
10,217,251986,53,2,3:2:0:0:
14,195,252071,1,2,3:2:0:0:
18,177,252156,1,0,3:3:0:0:
111,167,252495,1,0,3:3:0:0:
166,238,252834,1,8,3:2:0:0:
403,303,253173,101,6,3:2:0:0:
404,312,253229,69,2,2:2:0:0:
405,322,253285,53,2,2:2:0:0:
406,332,253343,102,0,P|408:355|399:382,1,50,2|10,2:2|2:2,0:0:0:0:
291,359,253512,69,0,0:0:0:0:
289,334,253596,1,2,2:2:0:0:
294,309,253681,1,2,3:2:0:0:
265,234,253767,53,0,0:0:0:0:
306,195,253851,1,10,2:2:0:0:
363,192,253936,1,2,2:2:0:0:
441,213,254021,101,0,0:0:0:0:
446,243,254105,1,2,2:2:0:0:
511,168,254190,69,6,3:2:0:0:
507,148,254246,53,2,2:2:0:0:
505,129,254302,101,2,2:2:0:0:
501,110,254360,70,0,L|492:40,1,50,2|10,2:2|2:2,0:0:0:0:
429,0,254529,53,0,0:0:0:0:
410,18,254614,1,2,2:2:0:0:
409,43,254699,1,2,3:2:0:0:
365,116,254783,101,0,0:0:0:0:
332,72,254867,1,10,2:2:0:0:
280,54,254952,1,2,3:2:0:0:
207,101,255037,69,0,3:3:0:0:
202,133,255122,1,2,3:2:0:0:
143,193,255207,53,6,3:2:0:0:
130,182,255263,101,2,2:2:0:0:
122,168,255319,69,2,2:2:0:0:
117,152,255376,54,0,P|107:190|93:211,1,50,2|10,2:2|2:2,0:0:0:0:
17,153,255546,101,0,0:0:0:0:
35,133,255631,1,2,2:2:0:0:
47,113,255715,1,2,3:2:0:0:
125,58,255801,69,0,0:0:0:0:
179,82,255885,1,10,2:2:0:0:
202,133,255970,1,2,2:2:0:0:
272,188,256054,53,0,3:3:0:0:
268,246,256138,1,2,3:2:0:0:
229,286,256223,1,0,3:3:0:0:
123,266,256563,1,0,3:3:0:0:
164,364,256732,101,0,3:3:0:0:
173,352,256817,1,0,3:3:0:0:
158,347,256902,1,8,3:2:0:0:
28,365,257241,69,6,3:2:0:0:
30,349,257297,53,2,2:2:0:0:
33,333,257353,101,2,2:2:0:0:
36,317,257410,70,0,L|45:250,1,50,2|10,2:2|2:2,0:0:0:0:
11,174,257580,53,2,2:2:0:0:
63,146,257665,1,2,2:2:0:0:
117,147,257749,1,2,3:2:0:0:
152,172,257834,1,2,2:2:0:0:
171,205,257919,1,10,2:2:0:0:
193,223,258004,1,2,2:2:0:0:
211,225,258088,1,2,2:2:0:0:
219,220,258173,1,2,2:2:0:0:
279,161,258258,101,6,3:2:0:0:
295,179,258314,69,2,2:2:0:0:
305,202,258370,53,2,2:2:0:0:
306,227,258427,102,0,P|301:261|281:286,1,50,2|8,2:2|2:2,0:0:0:0:
211,103,258597,69,2,2:2:0:0:
266,68,258682,1,2,2:2:0:0:
315,73,258766,1,2,3:2:0:0:
342,89,258851,1,2,2:2:0:0:
353,108,258936,1,10,2:2:0:0:
364,127,259021,1,2,3:2:0:0:
391,143,259106,1,2,3:2:0:0:
440,148,259190,1,2,3:2:0:0:
510,107,259275,53,6,3:2:0:0:
502,90,259331,101,2,2:2:0:0:
489,76,259387,69,2,2:2:0:0:
472,68,259444,54,0,P|446:62|410:73,1,50,2|8,2:2|2:2,0:0:0:0:
275,152,259614,101,2,2:2:0:0:
260,210,259698,1,2,2:2:0:0:
272,253,259783,1,2,3:2:0:0:
289,270,259868,1,2,2:2:0:0:
361,282,259953,1,10,2:2:0:0:
404,259,260037,1,2,2:2:0:0:
453,267,260122,1,2,3:2:0:0:
488,302,260207,1,2,3:2:0:0:
419,336,260291,69,0,3:2:0:0:
343,203,260546,54,0,P|372:180|401:174,1,59.9999981689454,0|8,3:3|2:2,0:0:0:0:
258,146,260885,101,8,2:2:0:0:
258,146,260970,2,0,P|269:117|290:94,2,39.9999987792969,8|8|8,2:2|2:2|2:2,0:0:0:0:
81,218,261309,69,6,3:2:0:0:
74,204,261365,53,2,2:2:0:0:
69,190,261421,101,2,2:2:0:0:
65,175,261478,70,0,P|60:141|69:98,2,59.9999981689454,2|10|2,3:2|2:2|2:2,0:0:0:0:
141,303,261732,53,10,2:2:0:0:
193,268,261817,1,2,3:2:0:0:
247,267,261902,1,2,2:2:0:0:
274,276,261987,1,10,2:2:0:0:
323,334,262071,1,2,3:2:0:0:
381,306,262156,1,2,2:2:0:0:
432,345,262241,1,2,3:2:0:0:
503,299,262326,101,6,3:2:0:0:
500,284,262382,69,2,2:2:0:0:
498,269,262438,53,2,2:2:0:0:
495,254,262495,102,0,L|482:171,2,59.9999981689454,2|10|2,3:2|2:2|2:2,0:0:0:0:
415,105,262749,69,10,2:2:0:0:
469,83,262834,1,2,3:2:0:0:
512,124,262919,1,2,2:2:0:0:
485,194,263004,1,10,2:2:0:0:
427,181,263088,1,2,3:2:0:0:
376,212,263173,1,2,2:2:0:0:
377,274,263258,1,2,3:2:0:0:
421,343,263343,53,6,3:2:0:0:
361,353,263427,1,2,2:2:0:0:
309,323,263512,1,2,3:2:0:0:
222,325,263597,101,10,2:2:0:0:
197,267,263681,1,2,2:2:0:0:
216,210,263766,1,2,3:2:0:0:
193,124,263851,69,2,3:2:0:0:
169,130,263935,1,2,3:2:0:0:
150,148,264020,1,10,2:2:0:0:
73,108,264105,53,2,3:2:0:0:
42,157,264189,1,2,3:2:0:0:
45,215,264274,1,2,3:2:0:0:
6,283,264360,101,8,2:2:0:0:
14,288,264444,1,2,3:2:0:0:
19,297,264529,1,2,3:2:0:0:
11,339,264614,69,10,2:2:0:0:
22,312,264698,1,2,3:2:0:0:
49,300,264783,1,2,3:2:0:0:
132,328,264868,53,10,2:2:0:0:
170,305,264953,1,10,3:2:0:0:
218,320,265037,1,10,3:2:0:0:
278,287,265122,1,10,3:2:0:0:
347,315,265207,1,10,3:2:0:0:
416,268,265292,1,10,3:2:0:0:
499,325,265376,54,0,P|485:345|475:372,1,52.4999983978272,6|2,3:2|2:2,0:0:0:0:
383,377,265885,2,0,P|369:343|346:314,2,75,2|2|0,2:2|2:2|0:0,0:0:0:0:
79,230,267410,38,0,P|66:207|64:180,1,52.4999983978272,2|2,2:2|2:2,0:0:0:0:
43,103,267919,2,0,P|67:62|108:42,2,89.9999972534181,2|2|0,2:2|2:2|0:0,0:0:0:0:
125,121,269444,70,0,P|166:90|240:97,1,119.999996337891,6|0,3:2|0:0,0:0:0:0:
279,173,269698,1,2,2:2:0:0:
279,173,269783,2,0,P|263:191|256:232,2,59.9999981689454,8|0|2,2:2|0:0|2:2,0:0:0:0:
361,117,270037,2,0,P|388:166|478:177,1,119.999996337891,8|2,2:2|2:2,0:0:0:0:
505,119,270292,2,0,P|476:95|439:97,1,59.9999981689454,8|0,2:2|0:0,0:0:0:0:
336,234,270461,53,0,3:3:0:0:
344,267,270546,1,0,0:0:0:0:
328,298,270631,1,0,0:0:0:0:
337,334,270715,1,0,3:3:0:0:
296,368,270800,2,0,P|260:374|233:360,1,59.9999981689454,8|0,2:2|0:0,0:0:0:0:
143,293,270970,1,0,3:3:0:0:
140,263,271054,1,0,0:0:0:0:
154,236,271139,2,0,P|153:267|137:300,1,59.9999981689454,0|8,0:0|2:2,0:0:0:0:
0,362,271309,101,0,3:3:0:0:
72,341,271393,1,0,3:3:0:0:
140,378,271478,2,0,P|196:357|228:270,1,135.000000514984,6|0,3:2|0:0,0:0:0:0:
165,153,271732,1,2,2:2:0:0:
97,185,271817,2,0,P|123:217|170:226,2,67.5000002574921,8|0|2,2:2|0:0|2:2,0:0:0:0:
227,210,272071,2,0,P|251:145|325:116,1,135.000000514984,8|2,2:2|2:2,0:0:0:0:
411,141,272326,2,0,P|431:146|446:154,2,33.750000128746,8|8|8,2:2|2:2|2:2,0:0:0:0:
306,116,272495,69,0,3:3:0:0:
359,114,272580,1,0,3:3:0:0:
398,150,272664,1,8,2:2:0:0:
403,205,272749,1,0,0:0:0:0:
367,246,272833,1,0,3:3:0:0:
315,254,272918,1,8,2:2:0:0:
295,244,273003,1,0,0:0:0:0:
254,244,273088,1,8,2:2:0:0:
234,234,273173,1,0,3:3:0:0:
185,243,273258,2,0,L|193:279,2,33.750000128746,0|0|8,3:3|0:0|2:2,0:0:0:0:
97,161,273427,1,0,0:0:0:0:
97,161,273512,54,0,P|25:193|1:249,1,135.000000514984,6|8,3:2|2:2,0:0:0:0:
105,319,273766,2,0,P|89:279|90:246,1,67.5000002574921,2|0,3:2|0:0,0:0:0:0:
159,103,273936,1,8,2:2:0:0:
227,120,274021,2,0,P|243:160|242:193,1,67.5000002574921,2|0,3:2|0:0,0:0:0:0:
222,360,274190,1,8,2:2:0:0:
145,376,274275,1,10,2:2:0:0:
89,320,274360,2,0,P|91:286|105:256,1,67.5000002574921,0|8,3:3|2:2,0:0:0:0:
300,139,274529,102,0,L|450:166,1,135.000000514984,6|8,3:2|2:2,0:0:0:0:
500,195,274783,2,0,P|482:223|432:241,1,77.5000005912781,2|0,3:2|0:0,0:0:0:0:
300,139,274953,1,8,2:2:0:0:
329,67,275037,2,0,P|357:84|375:135,1,77.5000005912781,6|0,3:2|0:0,0:0:0:0:
221,351,275206,69,8,2:2:0:0:
167,301,275291,1,10,2:2:0:0:
173,227,275376,2,0,P|194:191|235:169,1,77.5000005912781,0|8,3:3|2:2,0:0:0:0:
368,268,275546,54,0,P|379:291|401:313,1,47.4999987316132,6|0,3:2|0:0,0:0:0:0:
493,343,275715,1,0,3:3:0:0:
502,355,275800,2,0,P|439:354|349:267,1,184.999999294281,10|0,2:2|0:0,0:0:0:0:
512,146,276054,2,0,P|515:191|471:242,1,92.4999996471405,10|0,3:2|0:0,0:0:0:0:
368,268,276224,1,2,3:2:0:0:
368,268,276309,2,0,P|319:236|248:258,2,115.000002193451,10|0|0,2:2|3:3|0:0,0:0:0:0:
501,353,276563,102,0,L|496:320,11,33.3333333333333,0|0|0|0|0|0|0|0|0|0|0|0,3:3|0:0|0:0|0:0|0:0|0:0|0:0|0:0|0:0|0:0|0:0|0:0,0:0:0:0:
372,260,277354,6,0,L|385:185,1,66.6666666666667
420,10,277834,37,2,2:2:0:0:
94,228,294976,38,0,L|85:173,3,37.5000014305115,0|0|0|0,3:3|3:3|3:3|3:3,0:0:0:0:
170,208,295262,2,0,L|161:153,3,37.5000014305115,0|0|0|0,3:3|3:3|3:3|3:3,0:0:0:0:
247,190,295548,2,0,L|238:135,3,37.5000014305115,0|0|0|0,3:3|3:3|3:3|3:3,0:0:0:0:
299,303,295834,21,8,2:2:0:0:
476,64,296119,37,4,3:2:0:0:
409,120,296262,2,0,P|370:116|329:91,1,75.0000028610231,2|8,2:2|2:2,0:0:0:0:
264,12,296548,2,0,P|225:15|184:41,1,75.0000028610231,2|0,2:2|0:0,0:0:0:0:
162,114,296834,1,2,3:2:0:0:
20,71,296976,37,8,2:2:0:0:
81,131,297119,2,0,L|72:220,1,75.0000028610231,2|0,2:2|3:3,0:0:0:0:
195,33,297405,21,2,2:2:0:0:
250,107,297548,2,0,L|232:284,1,150.000005722046,10|0,2:2|0:0,0:0:0:0:
204,364,297976,37,2,3:2:0:0:
70,291,298119,1,10,2:2:0:0:
48,364,298262,2,0,P|89:366|140:320,1,110.000003356934,2|0,2:2|0:0,0:0:0:0:
234,256,298691,38,0,P|243:226|283:197,1,75.0000028610231,8|0,2:2|0:0,0:0:0:0:
351,257,298976,2,0,P|342:287|302:316,1,75.0000028610231,0|0,3:3|3:3,0:0:0:0:
140,243,299262,22,0,P|132:212|152:167,1,75.0000028610231,8|0,2:2|0:0,0:0:0:0:
241,185,299548,2,0,P|248:215|228:260,1,75.0000028610231,0|0,3:3|0:0,0:0:0:0:
52,278,299834,38,0,P|29:255|24:206,1,75.0000028610231,8|0,2:2|3:3,0:0:0:0:
110,178,300119,2,0,P|131:200|136:249,1,75.0000028610231,0|0,0:0|3:3,0:0:0:0:
52,278,300405,2,0,P|29:255|24:206,1,75.0000028610231,8|0,2:2|0:0,0:0:0:0:
117,60,300691,37,4,3:2:0:0:
191,104,300834,2,0,P|222:102|262:78,1,75.0000028610231,2|8,2:2|2:2,0:0:0:0:
380,161,301119,2,0,P|355:142|334:100,1,75.0000028610231,2|0,2:2|0:0,0:0:0:0:
321,4,301406,1,2,2:2:0:0:
496,57,301548,21,8,2:2:0:0:
416,82,301691,2,0,P|411:51|426:7,1,75.0000028610231,2|0,2:2|3:3,0:0:0:0:
423,247,301976,37,2,2:2:0:0:
332,222,302119,2,0,P|343:193|378:162,1,75.0000028610231,10|0,2:2|0:0,0:0:0:0:
446,366,302405,37,2,2:2:0:0:
317,314,302548,1,2,3:2:0:0:
423,242,302691,1,10,2:2:0:0:
361,384,302834,1,2,2:2:0:0:
212,248,302976,22,0,L|236:343,1,75.0000028610231,2|0,3:2|0:0,0:0:0:0:
24,278,303262,1,10,2:2:0:0:
84,226,303405,2,0,L|126:395,1,150.000005722046,2|0,2:2|3:3,0:0:0:0:
202,164,303834,2,0,L|244:333,1,150.000005722046,10|10,2:2|2:2,0:0:0:0:
414,354,304262,38,0,P|432:326|435:289,4,50,10|8|8|8|10,2:2|2:2|2:2|2:2|2:2,0:0:0:0:
318,246,304691,2,0,P|332:275|363:296,3,50,2|0|0|0,3:2|3:3|3:3|3:3,0:0:0:0:
394,221,304976,37,2,3:2:0:0:
423,210,305047,1,0,3:3:0:0:
454,210,305118,1,0,3:3:0:0:
483,221,305190,1,0,3:3:0:0:
505,243,305262,21,4,3:2:0:0:
447,384,305405,2,0,P|437:346|440:282,1,75.0000028610231,2|8,2:2|2:2,0:0:0:0:
313,239,305691,2,0,P|315:202|333:168,1,75.0000028610231,2|0,2:2|0:0,0:0:0:0:
409,119,305977,1,2,3:2:0:0:
317,247,306119,37,8,2:2:0:0:
233,212,306262,2,0,P|215:179|213:141,1,75.0000028610231,2|0,2:2|3:3,0:0:0:0:
322,254,306548,37,2,2:2:0:0:
209,135,306690,2,0,P|144:132|73:189,1,150.000005722046,10|0,2:2|0:0,0:0:0:0:
135,376,307119,21,2,3:2:0:0:
167,223,307262,1,10,2:2:0:0:
28,359,307405,2,0,L|2:240,1,110.000003356934,2|0,2:2|0:0,0:0:0:0:
36,77,307834,38,0,P|73:80|114:117,1,75.0000028610231,10|0,2:2|0:0,0:0:0:0:
77,180,308119,2,0,P|40:177|-1:140,1,75.0000028610231,0|0,3:3|3:3,0:0:0:0:
275,32,308405,38,0,P|290:65|279:119,1,75.0000028610231,8|0,2:2|0:0,0:0:0:0:
206,119,308691,2,0,P|190:85|201:31,1,75.0000028610231,0|0,3:3|0:0,0:0:0:0:
435,216,308977,22,0,P|413:246|361:263,1,75.0000028610231,8|0,2:2|0:0,0:0:0:0:
323,200,309262,2,0,P|344:169|396:152,1,75.0000028610231,0|0,3:3|3:3,0:0:0:0:
435,216,309548,2,0,P|413:246|361:263,1,75.0000028610231,8|0,2:2|0:0,0:0:0:0:
323,200,309762,1,0,3:3:0:0:
323,200,309834,1,6,3:2:0:0:
265,357,309977,38,0,P|287:317|289:283,1,75.0000028610231,2|8,2:2|2:2,0:0:0:0:
124,226,310262,2,0,P|102:266|100:300,1,75.0000028610231,2|0,2:2|0:0,0:0:0:0:
169,368,310549,1,2,3:2:0:0:
227,210,310691,37,8,2:2:0:0:
146,141,310834,2,0,P|100:141|69:157,1,75.0000028610231,2|0,2:2|3:3,0:0:0:0:
227,210,311119,21,0,0:0:0:0:
205,80,311262,2,0,P|165:57|130:55,1,75.0000028610231,10|0,2:2|0:0,0:0:0:0:
340,179,311548,37,2,2:2:0:0:
424,64,311691,1,2,3:2:0:0:
438,153,311833,1,10,2:2:0:0:
322,74,311976,1,2,2:2:0:0:
229,213,312119,38,0,P|220:246|213:312,1,75.0000028610231,2|0,2:2|0:0,0:0:0:0:
345,375,312405,1,8,2:2:0:0:
367,254,312548,2,0,P|275:269|191:311,1,150.000005722046,2|2,2:2|3:2,0:0:0:0:
35,318,312976,2,0,P|127:333|185:365,1,150.000005722046,10|2,2:2|3:2,0:0:0:0:
223,291,313405,22,0,P|248:311|260:337,4,50,10|8|8|8|8,2:2|2:2|2:2|2:2|2:2,0:0:0:0:
35,319,313834,37,2,3:2:0:0:
50,328,313905,1,0,3:3:0:0:
67,337,313976,1,0,3:3:0:0:
84,344,314048,1,0,3:3:0:0:
102,350,314119,1,2,3:2:0:0:
120,355,314191,1,0,3:3:0:0:
139,358,314262,1,0,3:3:0:0:
157,359,314334,1,0,3:3:0:0:
176,359,314405,1,6,3:2:0:0:
466,302,314691,37,8,3:2:0:0:
409,366,314834,1,8,2:2:0:0:
382,285,314976,2,0,L|365:232,1,40,0|0,3:3|0:0,0:0:0:0:
466,302,315262,21,8,2:2:0:0:
318,347,315405,2,0,L|301:294,1,40,0|0,3:3|0:0,0:0:0:0:
203,268,315691,37,8,2:2:0:0:
221,199,315834,1,8,2:2:0:0:
243,131,315976,2,0,L|259:80,1,40,0|0,3:3|0:0,0:0:0:0:
203,268,316262,37,8,2:2:0:0:
158,148,316405,2,0,L|149:107,1,40,0|0,3:3|0:0,0:0:0:0:
158,148,316691,2,0,L|149:107,1,40,0|0,3:3|0:0,0:0:0:0:
20,234,316976,21,8,2:2:0:0:
60,102,317119,1,8,2:2:0:0:
20,234,317262,2,0,L|31:189,1,40,0|0,3:3|0:0,0:0:0:0:
176,254,317548,37,8,2:2:0:0:
150,109,317691,2,0,L|143:69,1,40,0|0,3:3|0:0,0:0:0:0:
317,167,317976,37,10,2:2:0:0:
432,128,318119,1,10,2:2:0:0:
458,62,318262,1,2,3:2:0:0:
396,29,318405,21,2,2:2:0:0:
317,167,318548,1,10,2:2:0:0:
398,267,318691,1,2,3:2:0:0:
336,332,318834,1,10,2:2:0:0:
336,332,318905,1,8,2:2:0:0:
336,332,318976,38,0,L|344:381,1,40,2|0,3:2|0:0,0:0:0:0:
235,192,319262,37,8,2:2:0:0:
219,262,319405,1,8,2:2:0:0:
204,332,319548,2,0,L|196:381,1,40,0|0,3:3|0:0,0:0:0:0:
94,210,319833,21,8,2:2:0:0:
109,301,319976,2,0,L|115:340,1,40,0|0,3:3|0:0,0:0:0:0:
254,186,320262,37,8,2:2:0:0:
204,258,320405,1,8,2:2:0:0:
214,344,320548,2,0,L|206:393,1,40,0|0,3:3|0:0,0:0:0:0:
340,193,320834,37,8,2:2:0:0:
210,101,320976,1,2,3:2:0:0:
204,258,321119,1,2,2:2:0:0:
255,194,321262,2,0,L|242:166,1,29.9999990844727,0|0,3:3|0:0,0:0:0:0:
385,339,321547,21,8,2:2:0:0:
498,276,321690,1,8,2:2:0:0:
385,339,321834,2,0,L|391:291,1,40,0|0,3:3|0:0,0:0:0:0:
453,130,322119,37,8,2:2:0:0:
340,193,322263,2,0,L|346:145,1,40,0|0,3:3|0:0,0:0:0:0:
226,96,322548,37,8,2:2:0:0:
273,249,322691,1,8,2:2:0:0:
351,189,322834,2,0,L|355:149,1,40,0|0,3:3|0:0,0:0:0:0:
203,303,323119,21,8,2:2:0:0:
151,226,323262,1,2,3:2:0:0:
145,219,323334,1,0,3:3:0:0:
138,213,323405,1,10,2:2:0:0:
96,206,323476,1,8,2:2:0:0:
59,225,323548,2,0,P|51:241|44:266,1,40,4|0,3:2|0:0,0:0:0:0:
275,345,323834,37,8,2:2:0:0:
354,333,323977,1,8,2:2:0:0:
403,270,324119,2,0,L|410:216,1,40,0|0,3:3|0:0,0:0:0:0:
509,373,324405,37,8,2:2:0:0:
497,268,324548,2,0,L|490:214,1,40,0|0,3:3|0:0,0:0:0:0:
394,93,324834,21,8,2:2:0:0:
308,153,324977,1,8,2:2:0:0:
240,62,325119,2,0,P|258:73|273:95,1,40,0|0,3:3|0:0,0:0:0:0:
183,252,325405,37,8,2:2:0:0:
197,138,325548,2,0,L|192:191,1,40,0|0,3:3|0:0,0:0:0:0:
197,138,325834,2,0,L|192:191,1,40,0|0,3:3|0:0,0:0:0:0:
114,339,326119,37,8,2:2:0:0:
92,210,326262,1,8,2:2:0:0:
114,339,326405,2,0,L|123:394,1,40,0|0,3:3|0:0,0:0:0:0:
255,220,326691,21,8,2:2:0:0:
270,297,326834,2,0,L|279:340,1,40,0|0,3:3|0:0,0:0:0:0:
424,354,327119,37,10,2:2:0:0:
503,332,327262,1,10,2:2:0:0:
483,251,327405,1,2,3:2:0:0:
403,271,327548,1,2,2:2:0:0:
427,363,327691,37,10,2:2:0:0:
492,248,327834,1,2,3:2:0:0:
385,197,327976,1,10,2:2:0:0:
385,197,328048,1,8,2:2:0:0:
385,197,328119,2,0,P|362:204|346:222,1,40,2|0,3:2|0:0,0:0:0:0:
277,341,328405,21,8,2:2:0:0:
214,295,328548,1,8,2:2:0:0:
147,326,328691,2,0,L|140:368,1,40,0|0,3:3|0:0,0:0:0:0:
31,196,328976,37,8,2:2:0:0:
102,223,329119,2,0,L|109:265,1,40,0|0,3:3|0:0,0:0:0:0:
175,128,329405,37,8,2:2:0:0:
275,59,329548,1,8,2:2:0:0:
163,126,329691,2,0,L|156:168,1,40,0|0,3:3|0:0,0:0:0:0:
0,5,329976,21,8,2:2:0:0:
102,34,330119,2,0,L|111:87,1,40,0|0,3:3|0:0,0:0:0:0:
102,34,330405,2,0,L|111:87,1,40,0|0,3:3|0:0,0:0:0:0:
258,180,330690,37,8,2:2:0:0:
280,55,330833,1,8,2:2:0:0:
258,180,330976,2,0,L|250:222,1,40,0|0,3:3|0:0,0:0:0:0:
356,0,331262,37,8,2:2:0:0:
372,90,331405,2,0,L|379:129,1,40,0|0,3:3|0:0,0:0:0:0:
256,211,331691,22,0,L|260:248,5,37.5000014305115,0|0|0|0|0|0,3:3|3:3|3:3|3:3|3:3|3:3,0:0:0:0:
243,328,332119,37,8,2:2:0:0:
243,328,332191,2,0,P|208:311|189:266,1,50,0|0,3:3|3:3,0:0:0:0:
127,351,332334,37,8,2:2:0:0:
127,351,332406,2,0,P|116:315|134:269,1,50,0|0,3:3|3:3,0:0:0:0:
104,228,332548,21,8,2:2:0:0:
69,242,332619,1,8,2:2:0:0:
32,226,332690,1,6,3:2:0:0:
42,86,332834,37,2,2:2:0:0:
71,81,332905,1,2,2:2:0:0:
101,84,332976,1,10,2:2:0:0:
129,95,333048,1,2,2:2:0:0:
153,114,333119,1,2,2:2:0:0:
171,138,333191,1,2,2:2:0:0:
180,162,333262,1,2,2:2:0:0:
188,175,333333,1,2,2:2:0:0:
200,183,333404,1,2,3:2:0:0:
214,187,333476,1,2,2:2:0:0:
230,184,333548,38,0,P|234:161|253:128,1,50,10|2,2:2|2:2,0:0:0:0:
356,150,333691,2,0,P|334:162|318:181,1,50,2|2,2:2|2:2,0:0:0:0:
411,307,333834,2,0,P|412:270|383:224,1,75.0000028610231,2|2,3:2|2:2,0:0:0:0:
243,303,334119,21,10,2:2:0:0:
326,286,334262,1,2,2:2:0:0:
151,331,334405,37,2,2:2:0:0:
234,314,334548,1,2,3:2:0:0:
79,205,334691,37,10,2:2:0:0:
50,375,334834,2,0,L|67:266,1,100,2|0,2:2|3:3,0:0:0:0:
23,151,335119,1,2,2:2:0:0:
65,276,335262,1,8,2:2:0:0:
158,188,335405,22,0,L|323:164,1,150.000005722046,2|2,2:2|3:2,0:0:0:0:
379,229,335834,1,8,2:2:0:0:
324,71,335976,38,0,P|364:86|393:137,1,89.9999972534181,2|0,2:2|0:0,0:0:0:0:
487,98,336405,2,0,P|493:141|473:181,1,89.9999972534181,8|0,2:2|0:0,0:0:0:0:
351,325,336834,37,2,3:2:0:0:
243,288,336976,1,10,2:2:0:0:
154,357,337119,1,2,2:2:0:0:
89,165,337262,21,2,3:2:0:0:
154,357,337405,2,0,P|128:326|129:280,1,75.0000028610231,2|8,2:2|2:2,0:0:0:0:
268,116,337691,2,0,P|275:155|251:195,1,75.0000028610231,2|0,2:2|0:0,0:0:0:0:
47,222,337976,2,0,P|60:183|101:161,1,75.0000028610231,2|8,3:2|2:2,0:0:0:0:
251,195,338262,38,0,P|308:245|409:241,1,150.000005722046,2|0,2:2|0:0,0:0:0:0:
486,212,338691,2,0,P|465:170|422:149,2,75.0000028610231,8|0|0,2:2|0:0|0:0,0:0:0:0:
468,312,339119,37,2,3:2:0:0:
379,251,339262,1,10,2:2:0:0:
350,152,339405,1,2,2:2:0:0:
277,306,339548,21,0,3:3:0:0:
350,152,339691,2,0,P|352:111|325:75,1,75.0000028610231,2|8,2:2|2:2,0:0:0:0:
131,98,339976,2,0,P|149:134|191:152,1,75.0000028610231,2|0,2:2|0:0,0:0:0:0:
391,30,340262,2,0,P|356:7|311:13,1,75.0000028610231,2|8,3:2|2:2,0:0:0:0:
178,236,340548,37,2,3:2:0:0:
213,79,340691,1,4,2:2:0:0:
108,198,340834,2,0,L|69:206,4,37.5000014305115,8|8|8|8|4,2:2|2:2|2:2|2:2|3:2,0:0:0:0:
264,151,341262,37,0,3:3:0:0:
282,150,341333,1,0,3:3:0:0:
300,154,341404,1,0,3:3:0:0:
316,164,341476,1,0,3:3:0:0:
328,179,341547,1,0,3:3:0:0:
342,223,341619,1,0,3:3:0:0:
375,255,341690,1,0,3:3:0:0:
419,270,341762,1,0,3:3:0:0:
464,262,341834,22,0,P|489:244|504:217,1,37.5000014305115,4|0,3:2|0:0,0:0:0:0:
486,137,341976,1,2,2:2:0:0:
449,141,342047,1,2,2:2:0:0:
426,169,342118,1,10,2:2:0:0:
366,338,342262,37,2,2:2:0:0:
259,271,342405,1,2,2:2:0:0:
165,306,342548,2,0,L|175:344,2,25.0000009536744,2|2|2,3:2|2:2|2:2,0:0:0:0:
95,270,342691,1,10,2:2:0:0:
39,94,342834,37,2,2:2:0:0:
129,111,342976,1,2,3:2:0:0:
120,146,343047,1,2,2:2:0:0:
93,172,343118,1,2,2:2:0:0:
185,42,343262,21,10,2:2:0:0:
212,68,343333,1,2,2:2:0:0:
221,103,343405,1,2,2:2:0:0:
129,111,343548,1,2,2:2:0:0:
282,32,343691,1,2,3:2:0:0:
390,104,343834,2,0,L|384:138,2,25.0000009536744,10|2|2,2:2|2:2|2:2,0:0:0:0:
476,84,343976,38,0,L|453:200,1,100,2|0,2:2|3:3,0:0:0:0:
490,256,344262,1,2,2:2:0:0:
322,201,344405,1,8,2:2:0:0:
196,339,344548,2,0,L|160:189,1,150.000005722046,2|0,2:2|3:3,0:0:0:0:
0,232,344976,37,8,2:2:0:0:
68,288,345119,2,0,L|81:212,2,75.0000028610231,2|0|0,2:2|3:3|0:0,0:0:0:0:
206,349,345548,1,8,2:2:0:0:
206,349,345691,2,0,L|237:218,1,129.999994049073,0|0,3:3|3:3,0:0:0:0:
439,175,346119,21,10,2:2:0:0:
363,144,346262,1,2,2:2:0:0:
348,137,346333,1,2,2:2:0:0:
336,131,346405,2,0,L|356:212,1,64.9999970245363,6|0,3:2|0:0,0:0:0:0:
512,52,346691,38,0,L|312:16,1,200,8|0,2:2|0:0,0:0:0:0:
156,75,347119,1,0,3:3:0:0:
320,29,347262,1,10,2:2:0:0:
214,5,347405,2,0,P|231:32|243:107,1,100,2|0,2:2|0:0,0:0:0:0:
172,207,347834,38,0,P|180:178|177:136,1,50,10|0,2:2|0:0,0:0:0:0:
59,98,347976,2,0,P|71:145|173:225,1,170.000003242493,2|0,2:2|3:3,0:0:0:0:
324,351,348405,2,0,P|351:320|407:311,1,85.0000016212464,8|0,2:2|0:0,0:0:0:0:
486,347,348691,21,0,3:3:0:0:
398,322,348834,1,2,2:2:0:0:
381,228,348976,1,10,2:2:0:0:
467,171,349119,2,0,P|481:134|482:96,1,64.9999970245363,2|0,2:2|0:0,0:0:0:0:
424,20,349405,1,2,3:2:0:0:
381,228,349548,37,8,2:2:0:0:
301,87,349691,1,2,2:2:0:0:
392,121,349834,1,4,3:2:0:0:
283,187,349976,2,0,P|277:205|276:227,4,32.4999985122681,10|8|8|8|14,2:2|2:2|2:2|2:2|2:2,0:0:0:0:
178,88,350405,37,0,3:3:0:0:
178,88,350476,1,0,3:3:0:0:
178,88,350548,2,0,P|161:96|144:111,1,32.4999985122681,2|0,3:2|3:3,0:0:0:0:
65,71,350691,2,0,P|59:89|58:111,3,32.4999985122681,0|0|2|0,3:3|3:3|3:2|3:3,0:0:0:0:
107,180,350976,69,6,2:2:0:0:
89,329,351262,70,0,L|153:317,1,50,2|2,2:2|2:2,0:0:0:0:
211,342,351691,2,0,L|260:332,2,50,2|2|2,2:2|2:2|2:2,0:0:0:0:
332,353,352262,2,0,L|381:343,2,50,2|2|2,2:2|2:2|2:2,0:0:0:0:
453,364,352834,2,0,L|502:354,1,50,2|2,2:2|2:2,0:0:0:0:
393,262,353119,37,2,2:2:0:0:
501,238,353262,1,2,2:2:0:0:
393,262,353691,70,0,L|401:193,1,50,2|0,2:2|0:0,0:0:0:0:
318,224,353976,2,0,L|326:155,1,50,2|0,2:2|0:0,0:0:0:0:
239,307,354262,38,0,L|247:238,1,50,2|0,2:2|0:0,0:0:0:0:
164,269,354548,2,0,L|172:200,1,50,2|0,2:2|0:0,0:0:0:0:
86,352,354834,70,0,L|94:283,1,50,2|0,2:2|0:0,0:0:0:0:
11,314,355119,2,0,L|19:245,2,50,2|0|2,2:2|0:0|2:2,0:0:0:0:
86,352,355548,38,0,L|103:174,1,160,2|0,2:2|0:0,0:0:0:0:
96,108,355976,70,0,P|66:117|36:146,1,59.9999981689454,2|0,2:2|0:0,0:0:0:0:
153,219,356262,2,0,P|129:200|100:192,1,59.9999981689454,2|0,2:2|0:0,0:0:0:0:
308,138,356548,38,0,P|284:116|244:104,1,59.9999981689454,2|0,2:2|0:0,0:0:0:0:
239,241,356834,2,0,P|242:210|236:182,1,59.9999981689454,2|0,2:2|0:0,0:0:0:0:
394,335,357119,70,0,P|401:304|391:263,1,59.9999981689454,2|0,2:2|0:0,0:0:0:0:
270,326,357405,2,0,P|297:314|319:294,2,59.9999981689454,2|0|2,2:2|0:0|2:2,0:0:0:0:
165,384,357834,38,0,P|175:315|142:200,1,179.999994506836,2|0,2:2|0:0,0:0:0:0:
74,139,358262,2,0,P|54:166|50:210,1,69.9999978637696,2|0,2:2|0:0,0:0:0:0:
237,179,358548,2,0,P|223:148|187:122,1,69.9999978637696,2|0,2:2|0:0,0:0:0:0:
44,288,358834,69,2,2:2:0:0:
44,288,358976,2,0,L|87:281,3,34.9999989318848,0|0|2|0,3:3|3:3|3:2|3:3,0:0:0:0:
141,227,359262,2,0,L|184:234,3,34.9999989318848,0|0|2|0,3:3|3:3|3:2|3:3,0:0:0:0:
278,280,359548,37,0,3:3:0:0:
290,273,359619,1,0,3:3:0:0:
300,264,359690,1,2,3:2:0:0:
308,253,359762,1,0,3:3:0:0:
313,240,359834,2,0,P|311:204|291:168,1,50,8|0,2:2|0:0,0:0:0:0:
175,115,359976,70,0,L|86:127,1,75.0000028610231,6|0,3:2|0:0,0:0:0:0:
86,118,360426,6,0,L|191:103,1,100,0|0,3:2|0:0,0:0:0:0:
316,91,360592,102,0,B|316:95|316:99|316:99|329:108|329:108|314:114|314:114|314:116|314:116|327:125|327:125|313:131|313:131|311:132|311:132|323:144|323:144|307:146|307:146|307:147|307:147|314:162|314:162|298:159|298:159|290:167|290:167|296:161|296:161|287:158|287:158|290:167|290:167|290:174|290:174|284:186|284:186|292:189|292:189|313:184,312,227.272727272727
215,215,373759,6,0,B|215:219|215:219|219:221|219:221|215:223|215:223|216:225|216:225|213:227|213:227|216:229|216:229|217:231|217:231|214:233|214:233|217:235|217:235|217:236|217:236|217:237|217:237|217:240|217:240|221:240|221:240|222:240|222:240|225:241|225:241|224:244|224:244|226:246|226:246|225:249|225:249|228:248|228:248|229:250|229:250|228:253|228:253|232:253|232:253|234:254|234:254|236:253|236:253|237:255|237:255|239:256|239:256|241:260|241:260|243:258|243:258|245:258|245:258|246:261|246:261|249:259|249:259|251:259|251:259|251:263|251:263|255:260|255:260|256:262|256:262|259:259|259:259|261:263,26,114.572334931424
365,275,374926,102,0,B|369:272|369:272|368:269|368:269|372:270|372:270|373:269|373:269|377:270|377:270|376:267|376:267|380:264|380:264|378:265|378:265|380:266|380:266|380:264|380:264|381:261|381:261|385:260|385:260|383:257|383:257|384:255|384:255|382:252|382:252|386:251|386:251|386:250|386:250|388:247|388:247|385:246|385:246|385:244|385:244|387:241|387:241|384:240|384:240|383:234|384:238|384:238|381:236|381:236|383:234,62,81.5988377570909
280,180,377592,6,0,B|286:204|286:204|314:219,1,50,0|0,0:0|0:0,0:1:0:0:
267,198,377676,2,0,B|280:218|280:218|311:224,1,50,0|0,0:0|0:0,0:0:0:0:
263,224,377759,102,2,B|363:236|363:236|414:176|414:176|393:98|393:98|329:91|329:91|302:121,1,349.500013998986,0|0,0:0|0:0,0:1:0:0:
317,120,378092,6,0,B|315:115|313:110|313:110|303:100|303:100|312:95|312:95|312:94|312:94|307:81|307:81|315:77|315:77|315:75|315:75|306:66|306:66|317:62|317:62|317:57|317:55|317:55|303:55|303:55|310:45|310:45|318:30|318:30|303:33|303:33|301:31|300:31|300:31|304:20|304:20|289:22|289:22|281:22|284:8|284:8|258:27|258:59,70,250
223,124,381092,102,0,B|224:128|224:128|228:129|228:129|226:132|226:132|226:134|226:134|224:137|224:137|228:138|228:138|228:140|228:140|226:142|226:142|229:143|229:143|230:145|230:145|228:148|228:148|231:149|231:149|232:151|232:151|235:152|235:152|233:155|233:155|234:156|234:156|232:159|232:159|235:160|235:160|236:163|236:163|233:164|233:164|235:167|235:167|234:169|234:169|237:170|237:170|235:173|235:173|235:174|235:174|233:176|233:176|236:178|236:178|236:180|236:180|234:182|234:182|237:184|237:184|238:186|238:186|235:188|235:188|239:189|239:189|239:191|239:191|242:193|242:193|240:195|240:195|240:196,6,109.96162412511
146,105,381426,2,0,B|145:113|145:113|145:109|145:109|148:111|148:111|145:113|145:113|144:115|144:115|140:115|140:115|142:118|142:118|139:123|139:123|141:120|141:120|138:120|138:120|139:123|139:123|140:125|140:125|137:128|137:128|141:129|141:129|142:131|142:131|145:132|145:132|143:135|143:135|144:140|143:137|143:137|141:139|141:139|144:140,6,74.7124213528173
94,45,381759,6,0,B|106:39|106:39|90:35|90:35|103:18|103:18|99:-1|99:-1|93:8,2,74.7124182946927
33,100,381926,102,0,B|31:103|29:106|29:106|27:119|27:119|22:117|22:117|22:119|22:119|29:130|29:130|15:129|15:129|15:130|15:130|15:138|15:138|8:142|8:142|8:143|8:143|18:153|18:153|2:152|2:152|3:156|3:156|0:160|0:160|1:168|1:168|-1:183|-1:183|1:170|1:170|-12:174|-12:174|-1:183|-1:183|0:183|0:183|8:172|8:172|8:186|8:186|0:194|0:194|30:189|30:189|40:198,60,250
90,249,384541,6,0,B|92:245|92:245|89:242|89:242|93:241|93:241|94:239|94:239|97:238|97:238|95:235|95:235|96:234|96:234|99:234|99:234|98:231|98:231|99:229|99:229|103:229|103:229|102:226|102:226|103:224|103:224|101:221|101:221|105:221|105:221|107:218|107:218|110:217|110:217|108:215|108:215|108:214|108:214|111:212|111:212|109:210|109:210|110:208|110:208|107:205|107:205|111:204|111:204|111:202|111:202|114:201|114:201|112:198|112:198|112:196|112:196|116:195|116:195|113:192|113:192|114:190|114:190|117:189|117:189|115:187|115:187|115:185|115:185|113:182|113:182|116:181|116:181|117:180,6,113.832668443855
165,101,384845,102,0,B|166:105|166:105|170:106|170:106|168:109|168:109|168:111|168:111|166:114|166:114|170:115|170:115|171:116|171:116|170:120|170:120|173:119|173:119|174:121|174:121|173:124|173:124|177:124|177:124|178:126|178:126|181:126|181:126|180:129|180:129|182:132|182:132|180:134|180:134|183:135|183:135|183:136|183:136|181:139|181:139|184:140|184:140|184:142|184:142|188:143|188:143|185:146|185:146|186:148|186:148|183:151|183:151|187:152|187:152|187:154|187:154|185:156|185:156|188:158|188:158|188:160|188:160|186:162|186:162|189:164|189:164|190:165|190:165|193:167|193:167|191:169|191:169|192:176|191:171|191:171|195:173|195:173|192:176,6,126.10005166245
229,261,385150,6,0,B|230:257|230:257|228:254|228:254|232:253|232:253|232:251|232:251|236:250|236:250|234:247|234:247|235:246|235:246|239:247|239:247|238:244|238:244|240:242|240:242|243:243|243:243|243:240|243:240|244:238|244:238|244:235|244:235|247:236|247:236|249:235|249:235|252:236|252:236|252:232|252:232|253:231|253:231|257:232|257:232|257:228|257:228|258:227|258:227|258:224|258:224|261:225|261:225|263:223|263:223|267:220|267:220|263:218|263:218|263:217|263:217|266:215|266:215|263:213|263:213|263:211|263:211|265:209|265:209|262:207|262:207|262:205|262:205|259:203|259:203|262:201|262:201|262:199|262:199|259:197|259:197|262:195|262:195|262:190|262:193|262:193|260:192|260:192|262:190,6,130.858464940893
314,139,385454,102,0,B|316:142|316:142|320:142|320:142|319:145|319:145|320:147|320:147|319:151|319:151|323:151|323:151|324:152|324:152|322:156|322:156|326:155|326:155|327:157|327:157|326:160|326:160|330:160|330:160|331:161|331:161|335:161|335:161|334:165|334:165|335:167|335:167|334:170|334:170|337:169|337:169|338:171|338:171|335:173|335:173|338:175|338:175|338:177|338:177|341:179|341:179|338:181|338:181|338:183|338:183|335:185|335:185|338:187|338:187|339:189|339:189|336:191|336:191|339:193|339:193|339:195|339:195|336:197|336:197|339:199|339:199|339:205|339:205|339:201|339:201|342:203|342:203|339:205|339:205|341:205|341:205|343:201|343:201|345:204|345:204|347:204|347:204|349:201|349:201|351:203|351:203|355:203,5,144.883162696477
426,219,385740,6,0,B|426:223|426:223|429:226|429:226|426:227|426:227|425:229|425:229|422:231|422:231|425:233|425:233|425:235|425:235|422:237|422:237|425:239|425:239|425:241|425:241|422:243|422:243|425:245|425:245|425:247|425:247|427:249|427:249|424:251|424:251|424:253|424:253|421:255|421:255|424:257|424:257|424:259|424:259|420:259|420:259|422:263|422:263|421:264|421:264|422:268|422:268|419:268|419:268|418:269|418:269|415:266|415:266|414:270|414:270|412:270|412:270|409:267|409:267|408:270|408:270|406:271|406:271|403:268|403:268|402:271|402:271|400:271|400:271|398:275|398:275|396:272|396:272|394:272|394:272|392:276|392:276|389:273|389:273|388:273|388:273|386:276|386:276|384:274|384:274|380:274,5,136.981147534816,0|0|0|0|0|0,2:2|0:0|0:0|0:0|0:0|0:0,0:0:0:0:
462,149,385995,102,0,B|466:149|466:149|468:146|468:146|470:149|470:149|472:148|472:148|474:151|474:151|476:148|476:148|478:148|478:148|480:151|480:151|482:148|482:148|484:148|484:148|486:151|486:151|488:148|488:148|490:148|490:148|492:145|492:145|494:147|494:147|496:147|496:147|498:150|498:150|500:147|500:147|502:147|502:147|506:149|506:149|506:145|506:145|507:144|507:144|508:140|508:140|511:142|511:142|512:141|512:141|515:139|515:139|513:137|513:137|513:135|513:135|516:133|516:133|513:131|513:131|514:129|514:129|517:127|517:127|514:125|514:125|514:123|514:123|512:120|512:120|515:119|515:119|515:117|515:117|512:114|512:114|516:112|516:112|516:111|516:111|513:108|513:108|517:107|517:107|517:103,5,135.695386054574
437,223,386250,6,0,B|438:227|438:227|441:229|441:229|439:231|439:231|439:233|439:233|437:236|437:236|440:237|440:237|440:239|440:239|438:242|438:242|441:243|441:243|441:245|441:245|439:247|439:247|442:249|442:249|443:251|443:251|446:252|446:252|443:255|443:255|444:257|444:257|441:259|441:259|445:261|445:261|445:262|445:262|441:264|441:264|444:266|444:266|443:268|443:268|446:271|446:271|442:272|442:272|442:273|442:273|441:273|441:273|438:271|438:271|437:275|437:275|436:276|436:276|433:274|433:274|432:277|432:277|430:278|430:278|427:276|427:276|426:280|426:280|425:280|425:280|424:284|424:284|421:282|421:282|419:283|419:283|418:286|418:286|415:284|415:284|414:285|414:285|413:289|413:289|409:287|409:287|406:288,5,134.940681879134
474,157,386505,102,0,B|478:158|478:158|481:155|481:155|482:159|482:159|484:159|484:159|486:162|486:162|488:160|488:160|490:160|490:160|491:164|491:164|494:161|494:161|496:161|496:161|497:165|497:165|500:162|500:162|502:163|502:163|504:160|504:160|506:163|506:163|508:164|508:164|509:167|509:167|512:165|512:165|513:165|513:165|516:167|516:167|517:164|517:164|519:163|519:163|520:160|520:160|523:162|523:162|524:162|524:162|524:161|524:161|528:160|528:160|525:157|525:157|525:155|525:155|529:154|529:154|526:151|526:151|527:149|527:149|530:148|530:148|527:145|527:145|528:143|528:143|525:141|525:141|529:140|529:140|529:138|529:138|527:135|527:135|530:134|530:134|530:132|530:132|528:129|528:129|531:128|531:128|532:124,4,138.873084418756
374,149,386717,6,0,B|373:145|373:145|370:143|370:143|372:141|372:141|372:139|372:139|374:136|374:136|371:135|371:135|371:133|371:133|373:130|373:130|370:129|370:129|369:127|369:127|372:125|372:125|369:123|369:123|368:121|368:121|365:120|365:120|367:117|367:117|367:116|367:116|366:112|366:112|363:114|363:114|361:113|361:113|361:109|361:109|358:111|358:111|354:109|354:109|356:110|356:110|354:111|354:111|354:109|354:109|355:105|355:105|358:104|358:104|356:101|356:101|357:99|357:99|360:98|360:98|358:96|358:96|358:94|358:94|362:93|362:93|359:90|359:90|360:88|360:88|358:85|358:85|361:84|361:84|362:82|362:82|359:79|359:79|363:78|363:78|363:76|363:76|361:74|361:74|364:73|364:73|365:69,4,137.261333128916
284,61,386920,102,0,B|285:57|285:57|283:54|283:54|287:53|287:53|287:51|287:51|291:50|291:50|289:47|289:47|289:45|289:45|293:45|293:45|290:42|290:42|291:40|291:40|294:39|294:39|292:36|292:36|293:34|293:34|291:31|291:31|294:30|294:30|295:29|295:29|298:28|298:28|296:25|296:25|297:22|297:22|300:23|300:23|300:19|300:19|301:19|301:19|300:15|300:15|304:16|304:16|306:15|306:15|309:16|309:16|309:12|309:12|310:11|310:11|314:12|314:12|313:8|313:8|315:7|315:7|318:8|318:8|318:5|318:5|319:3|319:3|319:0|319:0|322:1|322:1|323:0,3,76.5688875803386
203,71,387072,6,0,B|200:68|200:68|197:68|197:68|198:64|198:64|196:63|196:63|197:59|197:59|194:60|194:60|193:58|193:58|194:55|194:55|190:55|190:55|189:54|189:54|190:50|190:50|186:51|186:51|185:49|185:49|182:49|182:49|183:46|183:46|181:44|181:44|182:41|182:41|179:41|179:41|177:39|177:39|180:37|180:37|177:35|177:35|177:34|177:34|174:32|174:32|177:30|177:30|177:28|177:28|180:26|180:26|177:24|177:24|177:22|177:22|180:20|180:20|177:18|177:18|178:16|178:16|181:14|181:14|178:12|178:12|178:10|178:10|175:8|175:8|178:6|178:6|178:5,3,75.777416327272
126,102,387219,102,0,B|122:101|120:101|119:104|119:104|118:101|118:101|116:100|116:100|114:97|114:97|112:100|112:100|110:99|110:99|108:96|108:96|106:99|106:99|104:98|104:98|102:95|102:95|100:98|100:98|96:97|96:97|93:97|93:97|94:95|94:95|94:94|94:94|95:90|95:90|92:90|92:90|90:89|90:89|92:85|92:85|88:85|88:85|85:80|87:84|87:84|84:84|84:84|85:80,3,80.4425370601098
96,171,387360,6,0,B|97:175|97:175|99:178|96:179|96:179|96:179|96:181|96:181|92:183|92:183|95:185|95:185|95:187|95:187|92:189|92:189|95:192|95:192|94:195|94:195|93:192|93:192|92:194|92:194|91:194|91:194|88:197|88:197|86:194|86:194|85:193|85:193|83:190|83:190|80:193|80:193|79:192|79:192|78:189|78:189|74:192|74:192|69:191|73:191|73:191|70:194|70:194|69:191,3,78.4279724679952
103,268,387489,102,0,B|107:270|107:270|109:268|109:268|110:272|110:272|111:272|111:272|112:276|112:276|115:274|115:274|117:275|117:275|117:278|117:278|120:277|120:277|123:278|123:278|120:276|120:276|119:280|119:280|118:280|118:280|117:284|117:284|114:282|114:282|113:283|113:283|110:282|110:282|109:285|109:285|107:286|107:286|104:285|104:285|103:288|103:288|99:290|99:290|101:289|101:289|101:291|101:291|99:290|99:290|98:290,3,78.7120013732804,0|0|0|0,2:2|0:0|0:0|0:0,0:0:0:0:
191,323,387610,6,0,B|190:317|190:317|189:313|189:313|192:313|193:310|193:311|193:311|196:310|196:310|193:308|193:308|194:306|194:306|197:305|197:305|196:301|196:301|197:297|197:297|196:300|196:300|197:299|197:299|197:297|197:297|196:301|196:301|200:303|200:303|196:304|196:304|196:307|196:307|194:308|194:308|196:310|196:310|197:313|197:313|194:316|194:316|197:318|197:318|197:324|197:320|197:320|201:322|201:322|197:324,3,84.3607461992224
263,302,387742,102,0,B|259:286|259:286|250:278|250:278|247:291|247:291|251:302,1,50.0000019073487
302,249,387848,2,0,B|294:241|294:241|281:245|281:245|297:253,1,41.6666666666667
288,180,387955,2,0,B|275:191|275:191|279:193|279:193|288:183,1,34.9999989318848
225,156,388062,2,0,B|225:164|225:164|228:169|228:169|226:162|226:162|229:154,1,29.9999990844727
175,191,388169,2,0,B|187:194|187:194|181:194|181:194|175:189,1,26.6666666666667
175,263,388276,2,0,B|176:257|176:257|181:252|181:252|171:259,1,25.0000009536744,0|0,2:2|0:0,0:0:0:0:
213,293,388384,6,0,B|215:321|215:321|213:348,1,50
224,297,388467,2,0,B|228:329|228:329|238:350,1,50
232,296,388550,2,0,B|243:314|243:314|260:343,1,50
245,302,388634,2,0,B|266:328|266:328|284:340,1,50
247,287,388717,2,0,B|272:299|272:299|279:298|279:298|295:313,1,50
257,282,388800,2,0,B|285:291|285:291|311:295,1,50
254,263,388883,2,0,B|293:267|293:267|309:261,1,50
258,255,388967,2,0,B|265:244|265:244|311:239,1,50
240,240,389050,102,0,B|208:256|208:256|187:275,1,50
221,217,389134,2,0,B|184:233|184:233|161:237,1,50
228,202,389217,2,0,B|202:205|202:205|188:197|188:197|165:206,1,50
215,181,389300,2,0,B|171:180|171:180|153:168,1,50
228,174,389384,2,0,B|203:153|203:153|172:147,1,50
237,142,389467,2,0,B|214:130|214:130|190:101,1,50
249,135,389550,2,0,B|224:98|224:98|215:82,1,50
258,112,389634,2,0,B|256:91|256:91|238:53,1,50
271,110,389717,6,0,B|277:87|277:87|285:71|285:71|287:45,30,50
209,39,391050,102,0,B|202:24|202:24|202:14,84,25,0|0|0|0|0|0|0|0|0|0|0|0|0|0|0|0|0|0|0|0|0|0|0|0|0|0|0|0|0|0|0|0|0|0|0|0|0|0|0|0|0|0|0|0|0|0|0|0|0|0|0|0|0|0|0|0|0|0|0|0|0|0|0|0|0|0|0|0|0|0|0|0|0|0|0|0|0|0|0|0|0|0|0|0|0,0:0|0:0|0:0|0:0|0:0|0:0|0:0|0:0|0:0|0:0|0:0|0:0|0:0|0:0|0:0|0:0|0:0|0:0|0:0|0:0|0:0|0:0|0:0|0:0|0:0|0:0|0:0|0:0|0:0|0:0|0:0|0:0|0:0|0:0|0:0|0:0|0:0|0:0|0:0|0:0|0:0|0:0|0:0|0:0|0:0|0:0|0:0|0:0|0:0|0:0|0:0|0:0|0:0|0:0|0:0|0:0|0:0|0:0|0:0|0:0|0:0|0:0|0:0|0:0|0:0|0:0|0:0|0:0|0:0|0:0|0:0|0:0|0:0|2:2|2:2|2:2|2:2|2:2|2:2|2:2|2:2|2:2|2:2|2:2|2:2,0:0:0:0:
396,64,394737,6,0,B|437:56|437:56|451:15|451:15|433:42,1,100.000003814697,8|8,2:2|2:2,0:0:0:0:
399,74,394848,102,0,B|363:39|363:39|349:22|369:-6,1,100.000003814697,8|8,2:2|2:2,0:0:0:0:
392,81,394960,6,0,B|392:78|363:101|340:112|339:112|310:65|311:65|319:154,1,100.000003814697,8|8,2:2|2:2,0:0:0:0:
400,85,395072,102,0,B|400:89|400:89|403:91|403:91|401:93|401:93|401:95|401:95|398:97|398:97|401:99|401:99|401:101|401:101|398:103|398:103|401:105|401:105|401:107|401:107|399:109|399:109|402:111|402:111|402:115|402:115|405:116|405:116|403:118|403:118|403:119|403:119|401:122|401:122|405:123|405:123|405:125|405:125|403:128|403:128|407:129|407:129|407:130|407:130|410:132|410:132|408:134|408:134|408:136|408:136|405:139|405:139|408:140|408:140|408:142|408:142|406:145|406:145|409:146|409:146|409:148|409:148|406:151|406:151|409:152|409:152|410:154|410:154|413:156|413:156|410:158|410:158|410:159,10,111.1969950482,0|0|0|0|0|0|0|0|0|0|0,3:3|0:0|0:0|0:0|0:0|0:0|0:0|0:0|0:0|0:0|0:0,0:0:0:0:
482,200,395572,6,0,B|484:197|484:196|484:196|482:193|482:193|486:192|486:192|487:189|487:190|487:190|490:189|490:189|488:186|488:186|488:185|489:184|489:184|492:183|492:183|490:181|490:181|490:180|490:179|490:179|493:177|493:177|491:175|491:175|491:172|491:173|491:173|488:170|488:170|492:169|492:169|492:166|492:167|492:167|495:165|495:165|492:163|492:163|492:162|492:161|492:161|495:159|495:159|492:157|492:157|492:151|492:156|492:155|492:155|489:153|489:153|492:151,2,79.6953694431096,0|0|0,3:3|0:0|0:0,0:0:0:0:
332,224,395739,2,0,B|335:224|337:224|337:224|339:221|339:221|341:224|341:224|342:224|343:224|343:224|345:227|345:227|347:225|347:225|350:225|349:225|349:225|350:228|350:228|353:226|353:226|356:227|355:226|355:226|355:230|355:230|358:228|358:228|359:228|360:229|360:229|363:227|363:227|364:230|364:230|365:231|366:231|366:231|366:235|366:235|369:233|369:233|371:235|371:235|370:238|370:238|374:237|374:237|374:238|375:238|375:238|379:238|379:238|378:241|378:241|380:243|379:243|379:243|378:246|378:246|382:246|382:246|384:248|383:247|383:247|382:251|382:251|385:251|385:251|387:253|386:252|386:252|385:255|385:255|388:256|388:256|389:257|389:258|389:258|393:258|393:258|391:261|391:261|391:262,14,117.11043974445,8|0|0|0|0|0|0|0|0|0|0|0|0|0|0,2:2|0:0|0:0|0:0|0:0|0:0|0:0|0:0|0:0|0:0|0:0|0:0|0:0|0:0|0:0,0:0:0:0:
323,302,396405,102,0,B|319:302|319:302|316:305|316:305|315:302|315:302|313:301|313:301|311:298|311:298|309:301|309:301|307:301|307:301|305:298|305:298|303:301|303:301|301:301|301:301|299:298|299:298|297:301|297:301|295:301|295:301|293:303|293:303|291:300|291:300|289:300|289:300|287:297|287:297|285:300|285:300|282:300|282:300|282:296|282:296|279:298|279:298|278:297|278:297|275:299|275:299|275:295|275:295|270:292|270:292|272:294|272:294|272:291|272:291|270:292|270:292|267:292|267:292|265:289|265:289|263:292|263:292|261:292|261:292|259:289|259:289|257:292|257:292|255:291|255:291|253:294|253:294|251:291|251:291|250:291,6,120.309513669386,0|0|0|0|0|0|0,3:3|0:0|0:0|0:0|0:0|0:0|0:0,0:0:0:0:
137,276,396739,2,0,B|133:275|133:275|130:277|130:277|129:274|129:274|127:274|127:274|126:270|126:270|123:273|123:273|121:272|121:272|120:269|120:269|117:271|117:271|115:271|115:271|114:268|114:268|111:270|111:270|110:270|110:270|107:272|107:272|106:269|106:269|104:268|104:268|102:265|102:265|100:267|100:267|98:267|98:267|97:263|97:263|94:266|94:266|92:265|92:265|90:268|90:268|88:264|88:264|86:264|86:264|85:261|85:261|82:263|82:263|80:263|80:263|78:260|78:260|76:263|76:263|74:264|74:264|72:261|72:261|70:264|70:264|68:264|68:264|67:267|67:267|64:264|64:264|63:264,6,113.97680391907,0|0|0|0|0|0|0,3:3|0:0|0:0|0:0|0:0|0:0|0:0,0:0:0:0:
254,375,397072,6,0,B|253:371|253:371|249:370|249:370|251:367|251:367|251:365|251:365|253:362|253:362|250:361|250:361|249:359|249:359|251:356|251:356|248:355|248:355|247:354|247:354|249:351|249:351|246:350|246:350|245:348|245:348|242:347|242:347|244:344|244:344|243:342|243:342|246:339|246:339|242:338|242:338|242:336|242:336|244:334|244:334|240:333|240:333|240:331|240:331|236:330|236:330|239:327|239:327|238:325|238:325|242:326|242:326|241:322|241:322|242:321|242:321|246:321|246:321|245:318|245:318|248:314|248:314|246:316|246:316|249:317|249:317|248:314|248:314|247:311|247:311|244:310|244:310|246:307|246:307|246:305|246:305|243:304|243:304|245:301|245:301|245:299|245:299|241:298|241:298|244:296|244:296|243:294|243:294|240:292|240:292|242:290|242:290|242:288|242:288|239:287|239:287|241:284|241:284|241:282,14,157.804741782156,8|0|0|0|0|0|0|0|0|0|0|0|0|0|0,2:2|0:0|0:0|0:0|0:0|0:0|0:0|0:0|0:0|0:0|0:0|0:0|0:0|0:0|0:0,0:0:0:0:
271,180,397739,102,0,B|273:180|275:180|275:180|277:177|277:177|279:180|279:180|280:180|281:181|281:181|283:184|283:184|285:181|285:181|286:181|287:181|287:181|288:185|288:185|291:182|291:182|292:182|293:183|293:183|294:186|294:186|297:184|297:184|298:184|299:184|299:184|302:182|302:182|302:186|302:186|303:186|304:187|304:187|305:190|305:190|308:189|308:189|309:189|309:190|309:190|309:193|309:193|313:192|313:192|317:195|317:195|314:193|314:193|317:192|317:192|317:195|317:195|318:198|318:198|316:201|316:201|319:202|319:202|320:203|320:203|318:206|318:206|321:207|321:207|322:209|322:209|320:212|320:212|324:213|324:213|324:215|324:215|328:216|328:216|326:218|326:218|326:219,6,119.90491575307,0|0|0|0|0|0|0,3:3|0:0|0:0|0:0|0:0|0:0|0:0,0:0:0:0:
372,286,398072,6,0,B|374:285|376:284|376:284|376:280|376:280|379:282|379:282|380:281|381:280|381:280|384:282|384:282|384:278|384:278|385:278|385:277|385:277|389:278|389:278|388:274|388:274|389:274|390:273|390:273|393:274|393:274|393:270|393:270|393:269|394:269|394:269|393:265|393:265|396:266|396:266|397:265|398:264|398:264|401:264|401:264|400:261|400:261|401:260|401:259|401:259|405:259|405:259|403:255|403:255|403:254|404:253|404:253|406:250|406:250|408:253|408:253|409:253|409:253|411:256|411:256|413:253|413:253|415:253|415:253|417:256|417:256|419:254|419:254|421:254|421:254|423:257|423:257|426:254|426:254|428:254|428:254|430:251|430:251|432:254|432:254|433:254,2,116.700361550949,0|0|0,3:3|0:0|0:0,0:0:0:0:
448,333,398239,2,0,B|447:333|446:334|446:334|448:336|448:336|445:336|445:336|445:336|445:337|445:337|443:337|443:337|444:338|444:338|443:339|443:340|443:340|441:339|441:339|442:341|442:341|441:341|441:341|439:341|439:341|440:343|440:343|439:344|439:344|439:344|439:345|439:345|438:345|438:345|437:345|437:345|437:345|435:345|435:345|435:347|435:347|435:347|434:347|434:347|433:346|433:346|433:348|433:348|432:349|432:349|432:349|430:351|430:351|430:349|430:349|429:349|429:349|428:347|428:347|427:349|427:349|426:349|426:349|425:347|425:347|424:348|424:348|423:348|423:348|422:347|422:347|421:348|421:348|420:348|420:348|419:350|419:350|417:348|417:348|417:348,2,58.7499991035462,0|0|0,3:3|0:0|0:0,0:0:0:0:
238,285,398405,2,0,B|238:281|238:281|236:279|236:279|239:277|239:277|239:275|239:275|239:271|239:271|236:273|236:273|235:273|234:272|234:272|233:268|233:268|230:270|230:270|229:270|228:269|228:269|228:266|228:266|225:267|225:267|224:267|223:267|223:267|220:268|220:268|220:265|220:265|218:264|218:264|217:260|217:260|214:262|214:262|213:262|212:262|212:262|211:258|211:258|208:260|208:260|207:260|206:260|206:260|203:262|203:262|202:258|202:258|201:258|201:258|199:254|199:254|197:257|197:257|196:257|195:256|195:256|193:253|193:253|191:256|191:256|190:255|189:255|189:255|187:252|187:252|185:255|185:255|184:255|183:255|183:255|181:257|181:257|179:254|179:254|178:254|177:254|177:254|175:258|175:258|173:254|173:254|172:255|171:255|171:255|169:258|169:258|167:255|167:255|166:255|165:255|165:255|164:259|164:259|161:256|161:256|160:257|159:257|159:257|156:260|156:260|154:257|154:257|153:256,14,154.999328128753,8|0|0|0|0|0|0|0|0|0|0|0|0|0|0,2:2|0:0|0:0|0:0|0:0|0:0|0:0|0:0|0:0|0:0|0:0|0:0|0:0|0:0|0:0,0:0:0:0:
96,349,399072,102,0,B|100:348|100:348|102:345|102:345|104:348|104:348|106:347|106:347|109:350|109:350|110:347|110:347|112:346|112:346|115:349|115:349|116:346|116:346|118:346|118:346|121:348|121:348|122:345|122:345|124:345|124:345|126:341|126:341|128:344|128:344|130:344|130:344|132:346|132:346|134:343|134:343|136:343|136:343|138:346|138:346|140:342|140:342|142:342|142:342|143:339|143:339|146:341|146:341|148:341|148:341|150:344|150:344|152:340|152:340|154:340|154:340|156:343|156:343|158:340|158:340|161:339,2,99.1922590000826,0|0|0,3:3|0:0|0:0,0:0:0:0:
131,185,399239,2,0,B|127:186|127:186|125:189|125:189|123:186|123:186|121:186|121:186|118:184|118:184|117:187|117:187|115:187|115:187|112:184|112:184|111:188|111:188|109:188|109:188|106:185|106:185|105:188|105:188|103:189|103:189|101:192|101:192|99:189|99:189|97:189|97:189|95:187|95:187|93:190|93:190|91:190|91:190|89:187|89:187|87:191|87:191|85:191|85:191|84:194|84:194|81:191|81:191|79:192|79:192|77:189|77:189|75:192|75:192|73:192|73:192|71:190|71:190|69:193|69:193|66:193,2,98.1176052072298,8|0|0,2:2|0:0|0:0,0:0:0:0:
110,361,399405,6,0,B|114:362|114:362|117:359|117:359|118:362|118:362|120:362|120:362|122:366|122:366|124:363|124:363|125:363|125:363|126:363|126:363|129:364|129:364|129:361|129:361|131:360|131:360|134:362|134:362|135:358|135:358|137:357|137:357|137:353|137:353|141:356|141:356|142:355|142:355|145:356|145:356|146:353|146:353|150:351|150:351|148:352|148:352|150:353|150:353|150:351|150:351|157:351|153:351|153:351|155:348|155:348|157:351,10,82.7679250632556,0|0|0|0|0|0|0|0|0|0|0,3:3|0:0|0:0|0:0|0:0|0:0|0:0|0:0|0:0|0:0|0:0,0:0:0:0:
229,376,399905,102,0,B|230:374|232:373|232:373|230:369|230:369|234:370|234:370|235:368|235:368|238:367|238:367|237:364|237:364|237:363|238:363|238:363|241:362|241:362|239:359|239:359|239:358|239:357|239:357|243:355|243:355|240:353|240:353|240:352|240:351|240:351|238:349|238:349|241:347|241:347|241:346|241:345|241:345|244:343|244:343|241:341|241:341|241:340|240:339|240:339|243:337|243:337|240:335|240:335|240:334|240:333|240:333|237:331|237:331|241:329|241:329|241:327|241:326|241:326|242:323|242:323|239:323|239:323|238:322|238:322|239:319|239:319|236:319|236:319|235:317|235:317|236:313|236:313|232:313|232:313|231:312|231:312|227:312|227:312|228:309|228:309|228:308,2,113.840111759578,0|0|0,3:3|0:0|0:0,0:0:0:0:
296,227,400072,2,0,B|299:230|299:230|303:229|303:229|302:232|302:232|304:234|304:234|304:237|304:237|307:236|307:236|309:238|309:238|308:241|308:241|312:240|312:240|313:241|313:241|313:245|313:245|316:244|316:244|318:245|318:245|321:244|321:244|321:248|321:248|322:249|322:249|322:253|322:253|325:252|325:252|328:254|328:254|327:257|327:257|330:257|330:257|330:258|330:258|334:258|334:258|332:261|332:261|335:266|335:266|333:263|333:263|332:266|332:266|335:266|335:266|335:267|336:268|336:268|334:271|334:271|337:272|337:272|337:273|338:274|338:274|335:277|335:277|339:278|339:278|339:279|339:280|339:280|342:281|342:281|340:284|340:284|340:285|340:286|340:286|343:287|343:287|341:290|341:290|341:291|341:292|341:292|344:293|344:293|341:296|341:296|341:297,14,138.818947860297,8|0|0|0|0|0|0|0|0|0|0|0|0|0|0,2:2|0:0|0:0|0:0|0:0|0:0|0:0|0:0|0:0|0:0|0:0|0:0|0:0|0:0|0:0,0:0:0:0:
430,357,400739,6,0,B|431:353|431:353|434:351|434:351|431:349|431:349|432:347|432:347|429:344|429:344|432:343|432:343|433:341|433:341|430:338|430:338|433:337|433:337|434:335|434:335|437:333|437:333|434:331|434:331|435:326|435:326|435:329|435:329|433:327|433:327|435:326|435:326|436:325|437:324|437:324|434:322|434:322|438:320|438:320|438:319|438:318|438:318|435:316|435:316|438:314|438:314|438:313|438:312|438:312|441:311|441:311|438:308|438:308|439:307|439:306|439:306|442:305|442:305|440:302|440:302|440:301|441:301|441:301|439:297|439:297|443:297|443:297|443:296|444:295|444:295|447:296|447:296|446:292|446:292|447:291|448:291|448:291|447:287|447:287|451:288,6,122.020812319621,0|0|0|0|0|0|0,3:3|0:0|0:0|0:0|0:0|0:0|0:0,0:0:0:0:
400,217,401072,102,0,B|404:216|404:216|407:218|407:218|408:215|408:215|410:214|410:214|411:211|411:211|414:213|414:213|416:212|416:212|417:209|417:209|419:211|419:211|421:210|421:210|424:213|424:213|425:209|425:209|427:209|427:209|428:205|428:205|431:208|431:208|436:206|436:206|433:207|433:207|434:204|434:204|436:206|436:206|438:206|438:206|440:203|440:203|442:206|442:206|445:206|445:206|447:208|447:208|449:205|449:205|451:205|451:205|453:208|453:208|455:205|455:205|460:205|460:205|457:205|457:205|458:202|458:202|460:205|460:205|462:207|462:207|461:210|461:210|465:209|465:209|466:211|466:211|470:210|470:210|469:213|469:213|470:214,2,127.300799765877,0|0|0,3:3|0:0|0:0,0:0:0:0:
329,164,401239,2,0,B|327:163|327:161|327:161|327:159|327:159|325:160|325:160|324:159|324:159|324:159|322:160|322:160|322:157|322:157|321:157|320:157|320:157|319:158|319:158|319:155|319:155|318:155|317:155|317:155|316:152|316:152|315:154|315:154|314:154|314:154|314:154|312:156|312:156|311:153|311:153|310:153|310:153|310:153|308:154|308:154|307:152|307:152|307:152|306:152|306:152|304:154|304:154|303:152|303:152|303:152|302:152|302:152|301:150|301:150|299:152|299:152|299:152|298:151|298:151|297:149|297:149|296:151|296:151|295:151|294:151|294:151|292:152|292:152|292:150|292:150|291:150|291:150|291:150|291:150|288:149|288:149|288:152|288:152|288:152|288:152|287:155|287:155|285:154|285:154|285:154,2,75.0000028610231,0|0|0,3:3|0:0|0:0,0:0:0:0:
419,50,401405,2,0,B|423:50|423:50|425:53|425:53|427:50|427:50|429:50|429:50|431:47|431:47|433:49|433:49|435:49|435:49|437:46|437:46|439:49|439:49|445:49|445:49|441:49|441:49|443:52|443:52|445:49|445:49|446:49|447:49|447:49|450:47|450:47|451:50|451:50|452:51|453:51|453:51|456:49|456:49|456:53|456:53|458:53|458:54|458:54|461:52|461:52|462:56|462:56|463:56|463:57|463:57|463:60|463:60|466:59|466:59|468:60|468:60|467:64|467:64|471:63|471:63|472:64|472:65|472:65|476:64|476:64|475:68|475:68|476:69|476:69|475:73|475:73|478:73|478:73|479:74|480:75|480:75|483:73|483:73|484:76|484:76|485:77|485:77|488:76|488:76|487:80|487:80|488:81|488:82|488:82|491:83|491:83|489:86|489:86|489:87|489:87|487:90|487:90|490:91|490:91|490:93|490:93|487:96|487:96|490:98|490:98|490:99,14,158.263209805868,8|0|0|0|0|0|0|0|0|0|0|0|0|0|0,2:2|0:0|0:0|0:0|0:0|0:0|0:0|0:0|0:0|0:0|0:0|0:0|0:0|0:0|0:0,0:0:0:0:
399,162,402072,6,0,B|395:160|395:160|395:156|395:156|392:158|392:158|390:157|390:157|387:159|387:159|386:155|386:155|385:154|385:154|381:156|381:156|381:152|381:152|379:152|379:152|379:148|379:148|376:150|376:150|374:149|374:149|371:150|371:150|371:147|371:147|367:145|367:145|366:148|366:148|364:146|364:146|363:146|363:146|362:149|362:149|359:147|359:147|355:148|355:148|357:147|357:147|356:146|356:146|355:148|355:148|353:147|352:147|352:147|351:143|351:143|348:146|348:146|347:145|346:145|346:145|343:147|343:147|342:144|342:144|341:144|340:143|340:143|339:140|339:140|336:142|336:142|335:142|334:142|334:142|332:144|332:144|331:141|331:141|329:141,6,117.839114938696,0|0|0|0|0|0|0,3:3|0:0|0:0|0:0|0:0|0:0|0:0,0:0:0:0:
264,92,402405,102,0,B|265:90|266:88|266:88|270:88|270:88|268:85|268:85|269:84|269:83|269:83|268:80|268:80|271:80|271:80|272:79|272:78|272:78|270:75|270:75|273:74|273:74|274:73|274:72|274:72|278:71|278:71|275:69|275:69|275:67|276:67|276:67|272:65|272:65|275:63|275:63|274:61|273:61|273:61|274:57|274:57|277:60|277:60|278:59|278:59|279:56|279:56|282:58|282:58|284:57|284:57|287:59|287:59|288:56|288:56|289:55|289:55|292:57|292:57|293:54|293:54|296:53|296:53|297:57|297:57|293:56|293:56|292:57|292:57|289:56|289:56|289:60|289:60|288:61|288:61|289:65|289:65|285:64|285:64|284:65,2,117.933699467292,0|0|0,3:3|0:0|0:0,0:0:0:0:
263,179,402572,2,0,B|263:180|264:181|264:181|263:183|263:183|265:183|265:183|265:183|265:184|265:184|268:183|268:183|267:185|267:185|268:186|268:186|270:185|270:185|269:188|269:188|270:188|271:188|271:188|270:191|270:191|272:190|272:190|275:192|275:192|273:191|273:191|275:190|275:190|275:192|275:192|275:193|275:193|276:195|276:195|274:195|274:195|274:197|274:197|276:198|276:198|274:199|274:199|274:201|274:201|271:201|271:201|273:203|273:203|272:206|272:206|273:204|273:204|271:205|271:205|272:206|272:206|272:205|272:205|270:204|270:204|271:202|271:202|271:201|271:201|272:199|272:199|270:199|270:199|270:198|270:198|268:197|268:197|269:195,2,75.0000028610231,0|0|0,3:3|0:0|0:0,0:0:0:0:
145,174,402739,2,0,B|141:174|141:174|139:171|139:171|137:173|137:173|135:173|135:173|132:176|132:176|131:173|131:173|129:173|129:173|127:176|127:176|125:172|125:172|123:172|123:172|121:169|121:169|119:172|119:172|117:172|117:172|115:175|115:175|113:172|113:172|111:171|111:171|109:174|109:174|107:171|107:171|106:171|106:171|105:172|105:172|105:175|105:175|102:174|102:174|100:175|100:175|97:174|97:174|97:178|97:178|94:180|94:180|91:180|91:180|92:182|92:182|92:183|91:183|91:183|92:186|92:186|88:186|88:186|87:187|87:187|83:186|83:186|84:190|84:190|83:190|82:191|82:191|83:195|83:195|79:193|79:193|78:194|77:194|77:194|77:198|77:198|74:197|74:197|73:197|72:197|72:197|72:201|72:201|69:199|69:199|68:200|67:200|67:200|64:198|64:198|63:201|63:201|62:201|61:202|61:202|59:199|59:199|57:203|57:203|56:203|55:203,14,154.428340596046,8|0|0|0|0|0|0|0|0|0|0|0|0|0|0,2:2|0:0|0:0|0:0|0:0|0:0|0:0|0:0|0:0|0:0|0:0|0:0|0:0|0:0|0:0,0:0:0:0:
77,284,403405,6,0,B|81:282|81:282|84:284|84:284|85:280|85:280|86:280|86:280|87:276|87:276|90:278|90:278|92:277|92:277|92:274|92:274|95:275|95:275|97:275|97:275|100:276|100:276|101:273|101:273|102:272|102:272|103:268|103:268|106:270|106:270|111:268|111:268|108:269|108:269|108:266|108:266|111:268|111:268|113:267|113:267|113:263|113:263|117:264|117:264|118:263|118:263|122:264|122:264|121:261|121:261|123:260|123:260|126:261|126:261|126:257|126:257|128:256|128:256|128:253|128:253|131:254|131:254|134:252,2,102.409227923466,0|0|0,3:3|0:0|0:0,0:0:0:0:
57,104,403572,2,0,B|53:107|53:107|50:105|50:105|50:109|50:109|49:110|49:110|49:113|49:113|45:112|45:112|44:113|44:113|44:117|44:117|40:116|40:116|39:117|39:117|36:115|36:115|36:119|36:119|34:120|34:120|33:124|33:124|30:122|30:122|28:123|28:123|28:126|28:126|25:124|25:124|23:125|23:125|22:129|22:129|19:127|19:127|17:128|17:128|14:126|14:126|14:129|14:129|12:130|12:130|9:128|9:128|8:132|8:132|7:133|7:133|6:136|6:136|3:135|3:135|0:136,2,98.1784141738329,8|0|0,2:2|0:0|0:0,0:0:0:0:
93,289,403739,102,0,B|97:287|97:287|100:290|100:290|101:286|101:286|103:285|103:285|104:282|104:282|106:284|106:284|108:283|108:283|109:280|109:280|112:282|112:282|114:281|114:281|117:284|117:284|118:280|118:280|119:279|119:279|120:276|120:276|123:278|123:278|126:277|126:277|127:273|127:273|126:277|126:277|124:274|124:274|127:273|127:273|128:272|128:272|127:269|127:269|131:270|131:270|135:266|132:269|132:269|136:270|136:270|135:266,10,89.0091349600039,0|0|0|0|0|0|0|0|0|0|0,3:3|0:0|0:0|0:0|0:0|0:0|0:0|0:0|0:0|0:0|0:0,0:0:0:0:
218,251,404239,6,0,B|217:255|217:255|214:257|214:257|216:259|216:259|216:261|216:261|219:264|219:264|215:265|215:265|215:267|215:267|218:270|218:270|214:271|214:271|214:273|214:273|211:274|211:274|213:277|213:277|213:279|213:279|215:281|215:281|212:283|212:283|212:285|212:285|214:287|214:287|211:289|211:289|210:294|210:294|211:291|211:291|213:293|213:293|210:294|210:294|211:295|211:296|211:296|209:299|209:299|212:300|212:300|212:301|212:302|212:302|209:303|209:303|211:306|211:306|211:307|210:307|210:307|212:311|212:311|208:311|208:311|207:312|207:313|207:313|203:313|203:313|205:316|205:316|205:317|205:318|205:318|207:321|207:321|204:322|204:322|203:323,2,119.17761956357,0|0|0,3:3|0:0|0:0,0:0:0:0:
274,156,404405,2,0,B|276:152|276:152|279:151|279:151|277:148|277:148|278:146|278:146|276:143|276:143|280:143|280:143|281:140|281:140|277:140|277:140|278:137|278:137|278:136|278:136|279:133|279:133|275:133|275:133|274:132|274:132|270:132|270:132|271:129|271:129|270:127|270:127|266:128|266:128|267:124|267:124|266:123|266:123|264:120|264:120|267:119|267:119|267:118|268:117|268:117|271:116|271:116|268:113|268:113|268:112|268:111|268:111|271:109|271:109|268:107|268:107|268:106|268:105|268:105|264:105|264:105|266:102|266:102|266:101|265:100|265:100|267:97|267:97|263:96|263:96|263:95|263:95|259:94|259:94|261:91|261:91|261:90,14,115.076884149925,8|0|0|0|0|0|0|0|0|0|0|0|0|0|0,2:2|0:0|0:0|0:0|0:0|0:0|0:0|0:0|0:0|0:0|0:0|0:0|0:0|0:0|0:0,0:0:0:0:
362,189,405072,102,0,B|362:187|363:185|363:185|367:184|367:184|365:181|365:181|365:180|365:180|364:176|364:176|367:176|367:176|368:175|369:174|369:174|367:171|367:171|371:171|371:171|372:170|372:170|376:171|376:171|375:167|375:167|376:166|377:166|377:166|376:162|376:162|380:163|380:163|381:162|382:162|382:162|382:158|382:158|385:160|385:160|386:159|387:159|387:159|387:155|387:155|390:157|390:157|391:157|392:156|392:156|395:158|395:158|396:155|396:155|397:154|398:154|398:154|400:157|400:157|401:153|401:153|402:153|403:153|403:153|405:149|405:149|407:152|407:152|408:152|409:152|409:152|412:154|412:154|413:151|413:151|414:151|415:151|415:151|417:148|417:148|419:151|419:151|420:151,6,118.590327378333,0|0|0|0|0|0|0,3:3|0:0|0:0|0:0|0:0|0:0|0:0,0:0:0:0:
490,255,405405,6,0,B|490:254|489:254|489:254|490:250|490:250|487:251|487:251|486:250|486:249|486:249|482:250|482:250|483:247|483:247|482:246|481:245|481:245|481:242|481:242|478:243|478:243|477:242|476:242|476:242|473:243|473:243|473:240|473:240|472:239|471:239|471:239|468:241|468:241|467:237|467:237|466:236|466:236|465:233|465:233|462:235|462:235|461:234|460:234|460:234|459:231|459:231|456:233|456:233|455:233|454:233|454:233|453:229|453:229|450:232|450:232|448:231|448:231|446:234|446:234|444:231|444:231|442:231|442:231|441:228|441:228|438:231|438:231|436:231|436:231|434:228|434:228|432:231|432:231|426:233|430:231|430:231|430:235|430:235|427:233|427:233|424:234|426:236,2,115.450853056657,0|0|0,3:3|0:0|0:0,0:0:0:0:
439,307,405572,2,0,B|438:306|437:307|437:307|435:305|435:305|435:307|435:307|434:307|433:307|433:307|433:308|433:308|431:307|431:307|431:307|429:308|429:308|428:307|428:307|427:308|427:308|427:308|426:309|426:309|426:311|426:311|424:310|424:310|423:310|423:311|423:311|423:313|423:313|420:312|420:312|419:312|419:312|417:312|417:312|417:314|417:314|416:314|416:315|416:315|414:314|414:314|415:317|415:317|414:318|413:318|413:318|411:317|411:317|411:320|411:320|410:321|410:321|411:323|411:323|409:323|409:323|408:324|408:324|406:323|406:323|407:326|407:326|406:327|406:327|404:327|404:327|405:329|405:329|404:330|404:330|404:330|406:332|406:332|404:332|404:332|404:334|404:342,2,75.0000028610231,0|0|0,3:3|0:0|0:0,0:0:0:0:
285,342,405739,2,0,B|286:340|286:338|286:338|290:337|290:337|287:334|287:334|288:333|288:332|288:332|285:330|285:330|289:328|289:328|289:327|289:326|289:326|286:324|286:324|290:323|290:323|290:322|290:321|290:321|293:319|293:319|290:317|290:317|290:316|290:315|290:315|287:313|287:313|290:311|290:311|290:309|290:309|287:307|287:307|289:305|289:305|289:303|289:303|286:301|286:301|288:299|288:299|288:297|288:297|290:294|290:294|287:293|287:293|285:287|285:287|287:292|286:291|286:291|289:288|289:288|285:287|285:287|284:287|283:286|283:286|280:288|280:288|280:284|280:284|279:283|278:283|278:283|279:279|279:279|275:280|275:280|274:280|274:279|274:279|270:280|270:280|271:276|271:276|270:276|269:275|269:275|266:276|266:276|266:272|266:272|265:272|265:271|265:271|261:272|261:272|262:268|262:268|261:268|260:267|260:267|261:264|261:264|257:264|257:264|256:264|256:263|256:263|256:260|256:260|253:260|253:260|252:259|251:259,14,165.103851459146,8|0|0|0|0|0|0|0|0|0|0|0|0|0|0,2:2|0:0|0:0|0:0|0:0|0:0|0:0|0:0|0:0|0:0|0:0|0:0|0:0|0:0|0:0,0:0:0:0:
143,346,406405,102,0,B|145:346|147:345|147:345|150:348|150:348|151:344|151:344|152:344|153:344|153:344|154:340|154:340|157:342|157:342|158:342|159:342|159:342|159:338|159:338|162:341|162:341|164:340|164:340|167:342|167:342|168:338|168:338|169:338|170:337|170:337|170:334|170:334|173:335|173:335|178:332|178:332|174:335|175:334|175:334|175:331|175:331|178:332|178:332|177:334|177:334|178:337|178:337|175:338|175:338|173:341|173:341|175:342|175:342|175:339|175:339|176:339|176:339|179:340|179:340|179:337|179:337|180:336|181:336|181:336|181:332|181:332|185:334|185:334|186:333|186:333|189:335|189:335|190:331|190:331|191:331|192:331|192:331|193:327|193:327|196:330|196:330|197:330,6,122.989307199758,0|0|0|0|0|0|0,3:3|0:0|0:0|0:0|0:0|0:0|0:0,0:0:0:0:
110,268,406739,2,0,B|112:267|114:266|114:266|117:268|117:268|117:264|117:264|118:263|119:263|119:263|119:259|119:259|122:261|122:261|123:260|124:260|124:260|124:256|124:256|127:258|127:258|128:257|129:256|129:256|132:257|132:257|132:254|132:254|133:253|133:253|133:249|133:249|136:250|136:250|140:246|140:246|137:249|138:249|138:249|137:246|137:246|140:246|140:246|139:249|139:249|141:252|141:252|138:253|138:253|137:256|137:256|140:256|140:256|139:254|139:254|139:253|140:253|140:253|143:253|143:253|142:250|142:250|143:249|144:248|144:248|143:245|143:245|147:246|147:246|147:245|148:244|148:244|152:245|152:245|151:242|151:242|152:241|153:241|153:241|153:237|153:237|156:239|156:239|157:239|157:238,6,122.572423316185,0|0|0|0|0|0|0,3:3|0:0|0:0|0:0|0:0|0:0|0:0,0:0:0:0:
16,228,407072,6,0,B|15:230|14:232|14:232|10:232|10:232|12:235|12:235|12:236|11:237|11:237|13:240|13:240|10:241|10:241|10:242|9:243|9:243|11:245|11:245|8:246|8:246|8:248|8:248|4:250|4:250|7:252|7:252|6:253|6:254|6:254|9:257|9:257|6:258|6:258|5:260|5:260|8:263|8:263|5:264|5:264|5:265|5:266|5:266|8:268|8:268|5:270|5:270|5:272|5:272|2:274|2:274|5:276|5:276|5:277|5:278|5:278|2:280|2:280|6:282|6:282|6:284|6:284|9:286|9:286|7:288|7:288|7:289|7:290|7:290|4:293|4:293|8:294|8:294|8:295|8:295|8:296|8:296|12:296|12:296|10:299|10:299|11:300|12:301|12:301|15:301|15:301|14:304|14:304|14:305|15:306|15:306|18:306|18:306|17:310|17:310|17:311|18:311|18:311|16:314|16:314|20:315|20:315|21:316|21:316|19:320|19:320|23:320|23:320|24:321,14,154.802365211588,8|0|0|0|0|0|0|0|0|0|0|0|0|0|0,2:2|0:0|0:0|0:0|0:0|0:0|0:0|0:0|0:0|0:0|0:0|0:0|0:0|0:0|0:0,0:0:0:0:
110,268,407739,102,0,B|111:264|111:264|114:262|114:262|112:260|112:260|113:258|113:258|110:255|110:255|114:254|114:254|114:252|114:252|112:249|112:249|115:248|115:248|115:246|115:246|119:245|119:245|116:242|116:242|117:240|117:240|118:237|118:237|120:239|120:239|121:239|121:238|121:238|117:236|117:236|121:234|121:234|121:233|120:232|120:232|117:231|117:231|120:228|120:228|120:227|120:226|120:226|123:224|123:224|119:222|119:222|119:221|119:220|119:220|122:218|122:218|119:216|119:216|118:215|118:214|118:214|115:213|115:213|118:210|118:210|118:208|117:207,2,101.013491908637,0|0|0,3:3|0:0|0:0,0:0:0:0:
47,75,407905,2,0,B|48:79|48:79|46:82|46:82|49:83|49:83|50:85|50:85|53:86|53:86|50:89|50:89|51:91|51:91|54:92|54:92|52:95|52:95|52:97|52:97|50:99|50:99|53:101|53:101|54:103|54:103|56:101|56:101|57:104|57:104|58:104|58:105|58:105|61:107|61:107|58:109|58:109|58:110|57:111|57:111|60:113|60:113|57:115|57:115|57:116|57:117|57:117|54:119|54:119|56:121|56:121|56:122|56:123|56:123|53:124|53:124|56:127|56:127|55:128|55:129|55:129|58:131|58:131|55:133|55:133|55:135|54:136,2,95.1201205578987,8|0|0,2:2|0:0|0:0,0:0:0:0:
209,211,408072,2,0,B|208:207|208:207|211:204|211:204|208:203|208:203|207:201|207:201|204:199|204:199|207:197|207:197|206:195|206:195|203:193|203:193|206:191|206:191|205:189|205:189|208:186|208:186|205:185|205:185|204:180|204:180|204:183|204:183|202:182|202:182|204:180|204:180|203:177|203:177|199:177|199:177|201:174|201:174|200:172|200:172|196:172|196:172|198:169|192:165|191:156|191:156|196:164|196:164|194:164,10,86.5903592649015,0|0|0|0|0|0|0|0|0|0|0,3:3|0:0|0:0|0:0|0:0|0:0|0:0|0:0|0:0|0:0|0:0,0:0:0:0:
242,95,408572,6,0,B|246:98|246:98|246:101|246:101|249:100|249:100|251:101|251:101|254:100|254:100|254:103|254:103|256:104|256:104|259:103|259:103|259:106|259:106|260:108|260:108|260:111|260:111|264:110|264:110|267:112|267:112|270:112|270:112|268:115|268:115|269:116|269:116|272:116|272:116|271:119|271:119|271:121|271:121|275:121|275:121|273:124|273:124|274:126|274:126|272:129|272:129|276:130|276:130|277:132|277:132|275:135|275:135|279:136|279:136|279:137|279:137|282:138|282:138|280:141|280:141|281:143|281:143|279:146|279:146|283:147|283:147|283:149|283:149|287:150|287:150|285:152|285:152|285:153,2,112.324823909296,0|0|0,3:3|0:0|0:0,0:0:0:0:
347,257,408739,2,0,B|348:255|349:254|349:254|353:254|353:254|352:251|352:251|353:250|353:249|353:249|352:245|352:245|355:246|355:246|356:245|357:244|357:244|356:241|356:241|359:241|359:241|360:240|360:240|364:240|364:240|363:237|363:237|364:236|365:235|365:235|364:232|364:232|367:232|367:232|368:232|369:231|369:231|369:228|369:228|372:229|372:229|373:229|374:228|374:228|375:225|375:225|378:227|378:227|379:227|380:226|380:226|382:229|382:229|384:226|384:226|385:226|386:226|386:226|388:229|388:229|390:226|390:226|391:226|392:226|392:226|394:223|394:223|396:226|396:226|397:226|398:227|398:227|399:230|399:230|402:228|402:228|403:228|404:228|404:228|407:226|407:226|407:230|407:230|412:232|412:232|409:230|409:230|412:229|412:229|412:232|412:232|415:231|415:231|416:228|416:228|419:230|419:230|421:230|421:230|423:232|423:232|425:229|425:229|434:230|427:229|427:229|429:231|429:231|430:228,14,154.944665490365,8|0|0|0|0|0|0|0|0|0|0|0|0|0|0,2:2|0:0|0:0|0:0|0:0|0:0|0:0|0:0|0:0|0:0|0:0|0:0|0:0|0:0|0:0,0:0:0:0:
300,328,409405,102,0,B|297:325|297:325|298:321|298:321|295:321|295:321|293:320|293:320|290:320|290:320|291:317|291:317|289:315|289:315|286:316|286:316|287:312|287:312|286:311|286:311|287:307|287:307|283:308|283:308|282:306|282:306|278:307|278:307|279:303|279:303|278:302|278:302|274:302|274:302|275:299|275:299|274:297|274:297|271:297|271:297|272:294|272:294|271:293|271:292|271:292|273:289|273:289|269:289|269:289|269:287|269:287|271:284|271:284|268:283|268:283|268:282|268:281|268:281|264:279|264:279|267:277|267:277|267:276|267:275|267:275|270:273|270:273|268:271|268:271|268:270|268:269|268:269|265:266|265:266|269:265|269:265|269:264,6,115.540901540903,0|0|0|0|0|0|0,3:3|0:0|0:0|0:0|0:0|0:0|0:0,0:0:0:0:
215,202,409739,6,0,B|213:206|213:206|209:206|209:206|210:209|210:209|209:211|209:211|211:214|211:214|207:214|207:214|206:216|206:216|207:219|207:219|204:219|204:219|203:221|203:221|199:221|199:221|201:224|201:224|199:226|199:226|201:229|201:229|197:229|197:229|194:234|194:234|196:231|196:231|198:234|198:234|194:234|194:234|193:233|193:233|189:233|189:233|190:230|190:230|189:228|189:228|191:225|191:225|188:224|188:224|187:219|187:219|188:223|187:222|187:222|190:220|190:220|187:219|187:219|190:218|190:218|190:214|190:214|193:216|193:216|195:215|195:215|198:216|198:216|198:213|198:213|200:212|200:212|200:208|200:208|204:210,2,130.225359534713,0|0|0,3:3|0:0|0:0,0:0:0:0:
292,153,409905,2,0,B|293:150|293:150|295:150|295:150|294:149|294:149|295:148|295:148|294:146|294:146|296:146|296:146|296:145|296:145|296:144|296:144|297:144|297:144|298:142|298:142|300:142|300:142|299:141|299:141|300:140|300:140|299:138|299:138|301:138|301:138|303:136|303:136|302:137|302:137|300:136|300:136|303:136|303:136|303:136|303:136|305:136|305:136|305:138|305:138|305:139|305:139|304:140|304:140|306:141|306:141|306:144|306:144|306:141|306:142|306:142|305:143|305:143|306:144|306:144|305:144|305:144|305:146|305:146|303:145|303:145|302:146|302:146|300:145|300:145|300:147|300:147|299:147|299:147|299:149|299:149|297:148|297:148|297:148,2,62.5,0|0|0,3:3|0:0|0:0,0:0:0:0:
127,114,410072,2,0,B|124:111|124:111|125:107|125:107|121:108|121:108|117:104|117:104|120:107|120:107|116:107|116:107|117:104|117:104|119:104|119:104|122:102|122:102|123:105|123:105|125:106|125:106|126:109|126:109|129:107|129:107|131:107|131:107|133:105|133:105|135:108|135:108|136:108|136:108|139:106|139:106|140:109|140:109|142:110|142:110|145:107|145:107|146:111|146:111|148:111|148:111|149:114|149:114|152:112|152:112|154:112|154:112|155:116|155:116|158:113|158:113|160:114|160:114|162:111|162:111|164:115|164:115|170:116|170:116|166:115|166:115|167:118|167:118|170:116|170:116|172:117|172:117|175:116|175:116|175:120|175:120|179:123|179:123|176:121|176:121|179:120|179:120|179:123|179:123|180:123|181:123|181:123|183:120|183:120|185:123|185:123|186:123|187:123|187:123|189:127|189:127|191:124|191:124|192:124|193:125|193:125|194:128|194:128|197:126|197:126|198:126|199:127,14,175.358560948882,8|0|0|0|0|0|0|0|0|0|0|0|0|0|0,2:2|0:0|0:0|0:0|0:0|0:0|0:0|0:0|0:0|0:0|0:0|0:0|0:0|0:0|0:0,0:0:0:0:
292,153,410739,102,0,B|293:151|294:150|294:150|298:150|298:150|297:146|297:146|297:145|298:145|298:145|296:141|296:141|300:141|300:141|300:140|300:139|300:139|298:136|298:136|302:136|302:136|302:134|302:134|306:132|306:132|303:130|303:130|303:129|304:128|304:128|301:126|301:126|304:124|304:124|304:122|304:122|301:120|301:120|303:118|303:118|303:116|303:116|300:114|300:114|302:112|302:112|301:110|301:108|301:108|302:105|302:105|299:106|299:106|299:105|299:105|300:101|300:101|296:102|296:102|295:100|295:100|292:100|292:100|293:97|293:97|292:95|292:95|293:91|293:91|289:92|289:92|288:90|288:90|284:90|284:90|286:87|286:87|285:86,6,117.756453780835,0|0|0|0|0|0|0,3:3|0:0|0:0|0:0|0:0|0:0|0:0,0:0:0:0:
339,32,411072,2,0,B|338:30|337:28|337:28|339:25|339:25|336:25|336:25|335:24|335:23|335:23|331:23|331:23|333:19|333:19|332:18|332:18|328:18|328:18|330:14|330:14|329:13|328:13|328:13|329:9|329:9|325:10|325:10|324:9|324:9|320:10|320:10|320:7|320:7|319:6|319:6|315:8|315:8|315:4|315:4|314:4|313:3|313:3|310:6|310:6|309:2|309:2|305:1|305:1|308:2|307:2|307:2|307:-1|307:-1|305:1|305:1|302:1|302:1|299:-2|299:-2|297:2|297:2|295:2|295:2|294:5|294:5|291:3|291:3|289:3|289:3|287:0|287:0|285:3|285:3|283:3|283:3|282:7|282:7|279:4|279:4|278:4,6,125.09053218427,0|0|0|0|0|0|0,3:3|0:0|0:0|0:0|0:0|0:0|0:0,0:0:0:0:
399,119,411405,6,0,B|400:121|401:123|401:123|399:126|399:126|403:126|403:126|403:127|404:128|404:128|407:128|407:128|406:131|406:131|407:132|407:133|407:133|411:133|411:133|410:136|410:136|411:137|411:137|410:141|410:141|414:140|414:140|415:141|415:142|415:142|419:141|419:141|418:145|418:145|419:145|420:146|420:146|423:145|423:145|423:149|423:149|424:150|424:150|428:149|428:149|427:152|427:152|428:153|428:153|429:152|429:152|432:153|432:153|432:150|432:150|433:149|433:149|437:150|437:150|437:146|437:146|440:143|440:143|438:145|438:145|438:142|438:142|440:143|440:143|442:148|442:148|443:150|443:150|445:149|445:149|446:149|446:149|448:146|448:146|450:150|450:150|451:150|452:150|452:150|454:147|454:147|456:150|456:150|457:150|458:150|458:150|460:147|460:147|462:150|462:150|463:150|464:150|464:150|466:152|466:152|468:149|468:149|469:149|470:149|470:149|472:152|472:152|474:149|474:149|475:149|476:149,14,156.186287278344,8|0|0|0|0|0|0|0|0|0|0|0|0|0|0,2:2|0:0|0:0|0:0|0:0|0:0|0:0|0:0|0:0|0:0|0:0|0:0|0:0|0:0|0:0,0:0:0:0:
494,58,412072,102,0,B|489:58|489:58|487:55|487:55|485:58|485:58|483:58|483:58|481:62|481:62|479:60|479:60|477:60|477:60|475:63|473:61|473:60|473:60|468:60|468:60|471:60|471:60|469:57|469:57|468:60|468:60|464:62|464:62|460:62|460:62|462:58|462:58|461:57|461:57|457:58|457:58|458:54|458:54|457:53|457:53|453:54|453:54|454:50|454:50|452:49|452:49|453:45|453:45|448:46|448:46|447:45|447:45|447:41|447:41|444:42|444:42|442:41|442:41|439:42|439:42|439:38|439:38|437:36,2,104.604766096155,0|0|0,3:3|0:0|0:0,0:0:0:0:
425,240,412239,2,0,B|421:240|421:240|419:237|419:237|417:240|417:240|415:240|415:240|413:243|410:247|411:241|411:241|409:241|409:241|407:244|407:244|405:241|405:241|400:241|400:241|403:241|403:241|401:239|401:239|400:241|400:241|396:243|396:243|392:243|392:243|394:240|394:240|393:239|393:239|389:240|389:240|390:236|390:236|389:235|389:235|385:236|385:236|386:232|386:232|384:231|384:231|385:227|385:227|381:228|381:228|380:227|380:227|380:223|380:223|377:224|377:224|375:223|375:223|372:224|372:224|372:220|372:220|370:218,2,104.604766096155,8|0|0,2:2|0:0|0:0,0:0:0:0:
265,91,412405,6,0,B|268:88|268:88|272:89|272:89|272:86|272:86|273:84|273:84|273:81|273:81|276:82|276:82|278:81|278:81|277:77|277:77|281:78|281:78|282:77|282:77|286:78|286:78|285:74|285:74|287:73|287:73|287:70|287:70|290:71|290:71|292:69|292:69|294:66|294:66|296:69|296:69|297:69|297:69|299:65|299:65|301:68|301:68|303:68|303:68|305:71|305:71|307:68|307:68|309:68|309:68|312:71|312:71|314:67|314:67|315:67|315:67|317:71|317:71|313:71|313:71|312:74,2,99.9826513447694,6|0|0,3:2|0:0|0:0,0:0:0:0:
242,162,412572,2,0,B|243:166|243:166|240:169|240:169|243:170|243:170|244:172|244:172|247:174|247:174|244:176|244:176|244:178|244:178|248:180|248:180|245:182|245:182|245:184|245:184|243:187|243:187|246:188|246:188|246:190|246:190|249:192|249:192|247:194|247:194|247:196|247:196|249:199|249:199|245:200|245:200|244:201|244:201|246:204|246:204|243:205|243:205|242:207|242:207|238:207|238:207|240:210|240:210|239:212|239:212|236:213|236:213|238:216|238:216|237:217|237:217|233:217|233:217|235:213|235:213|233:211,2,97.7256812749412,2|0|0,2:2|0:0|0:0,0:0:0:0:
192,106,412739,2,0,B|188:104|188:104|187:101|187:101|184:103|184:103|182:102|182:102|179:104|179:104|179:101|179:101|177:100|177:100|174:102|174:102|173:98|173:98|171:98|171:98|170:94|170:94|167:96|167:96|166:96|166:96|163:98|163:98|162:94|162:94|159:93|159:93|155:93|155:93|157:90|157:90|156:89|156:89|153:89|153:89|154:86|154:86|153:84|153:84|154:81|154:81|151:81|151:81|150:79|150:79|151:76|151:76|147:76|147:76|146:74|146:74|148:70|148:70|151:74|151:74|153:74,2,98.3528381903502,2|0|0,2:2|0:0|0:0,0:0:0:0:
126,273,412905,102,0,B|123:270|123:270|124:266|124:266|121:267|121:267|119:265|119:265|116:266|116:266|117:262|117:262|116:261|116:261|116:260|116:260|113:258|113:258|116:256|116:256|116:254|116:254|119:252|119:252|116:250|116:250|116:245|116:245|116:248|116:248|113:247|113:247|116:245|116:245|118:246|118:246|122:244|122:244|122:248|122:248|124:248|124:248|127:246|127:246|128:250|128:250|130:250|130:250|130:254|130:254|133:252|133:252|136:253|136:253|133:255|133:255|135:257|135:257|135:258|135:258|138:260|138:260|135:262|135:262|134:265,2,106.258130363819,2|0|0,3:2|0:0|0:0,0:0:0:0:
37,91,413072,6,0,B|33:91|33:91|30:88|30:88|29:92|29:92|27:92|27:92|25:95|25:95|23:92|23:92|21:92|21:92|19:95|19:95|17:92|17:92|15:92|15:92|13:90|13:90|11:93|11:93|5:93|5:93|9:93|9:93|7:96|7:96|5:93|5:93|4:91|4:91|0:91|0:91|2:87|2:87|1:86|1:86|-2:85|-2:85|0:82|0:82|-2:79|-2:79|-2:82|-2:82|1:81|1:81|2:81|2:81|2:85|2:85|5:83|5:83|7:84|7:84|10:83|10:83|10:87|10:87|13:88,2,106.257282305169,10|0|0,2:2|0:0|0:0,0:0:0:0:
87,37,413239,2,0,B|87:33|87:33|90:30|90:30|86:29|86:29|86:27|86:27|83:25|83:25|86:23|86:23|86:21|86:21|83:19|83:19|86:17|86:17|86:15|86:15|88:13|88:13|85:11|85:11|85:5|85:5|85:9|85:9|82:7|82:7|85:5|85:5|87:4|87:4|87:0|87:0|91:2|91:2|92:1|92:1|92:-3|92:-3|96:-1|96:-1|99:-3|99:-3|96:-3|96:-3|97:0|97:0|93:1|93:1|95:4|95:4|94:6|94:6|96:9|96:9|92:9|92:9|91:12,2,107.527968565449,2|0|0,2:2|0:0|0:0,0:0:0:0:
152,73,413405,2,0,B|156:73|156:73|159:76|159:76|160:72|160:72|162:72|162:72|164:69|164:69|166:72|166:72|168:72|168:72|170:69|170:69|172:72|172:72|174:72|174:72|176:74|176:74|178:71|178:71|184:71|184:71|180:71|180:71|182:68|182:68|184:71|184:71|185:73|185:73|189:73|189:73|187:77|187:77|188:78|188:78|191:79|191:79|189:82|189:82|191:85|191:85|191:82|191:82|188:83|188:83|187:83|187:83|187:79|187:79|184:81|184:81|182:80|182:80|179:81|179:81|179:77|179:77|176:76,2,106.257282305169,2|0|0,2:2|0:0|0:0,0:0:0:0:
102,130,413572,2,0,B|102:134|102:134|99:137|99:137|103:138|103:138|103:140|103:140|106:142|106:142|103:144|103:144|103:146|103:146|106:148|106:148|103:150|103:150|103:152|103:152|101:154|101:154|104:156|104:156|104:162|104:162|104:158|104:158|107:160|107:160|104:162|104:162|102:163|102:163|102:167|102:167|98:165|98:165|97:166|97:166|96:169|96:169|93:167|93:167|90:169|90:169|93:169|93:169|92:166|92:166|92:165|92:165|96:165|96:165|94:162|94:162|95:160|95:160|94:157|94:157|98:157|98:157|99:154,2,106.257282305169,2|0|0,2:2|0:0|0:0,0:0:0:0:
192,237,413739,102,0,B|196:235|196:235|199:236|199:236|199:232|199:232|201:231|201:231|201:228|201:228|204:229|204:229|206:228|206:228|206:224|206:224|209:226|209:226|213:223|213:223|211:225|211:225|213:226|213:226|213:223|213:223|215:225|215:225|219:223|219:223|219:227|219:227|220:228|220:228|224:227|224:227|223:230|223:230|227:233|227:233|226:230|226:230|229:231|229:231|230:230|230:230|233:231|233:231|233:227|233:227|234:226|234:226|237:227|237:227|237:223|237:223|238:222|238:222|237:218|237:218|241:219|241:219|243:217,2,103.905423239725,2|0|0,3:2|0:0|0:0,0:0:0:0:
123,274,413905,2,0,B|119:276|119:276|116:275|116:275|116:279|116:279|114:280|114:280|114:283|114:283|111:282|111:282|109:283|109:283|109:287|109:287|106:285|106:285|102:288|102:288|104:286|104:286|102:285|102:285|102:288|102:288|100:286|100:286|96:288|96:288|96:284|96:284|95:283|95:283|91:284|91:284|92:281|92:281|88:278|88:278|89:281|89:281|86:280|86:280|85:281|85:281|82:280|82:280|82:284|82:284|81:285|81:285|78:284|78:284|78:288|78:288|77:289|77:289|78:293|78:293|74:292|74:292|72:294,2,103.905423239725,2|0|0,2:2|0:0|0:0,0:0:0:0:
219,352,414072,6,0,B|224:352|224:352|225:355|225:355|227:352|227:352|229:352|229:352|231:349|231:349|233:352|233:352|235:352|235:352|237:349|237:349|239:352|239:352|244:352|244:352|241:352|241:352|242:354|242:354|244:352|244:352|245:349|245:349|243:346|243:346|247:345|247:345|247:343|247:343|245:340|245:340|249:340|249:340|250:336|250:336|252:334|252:334|253:337|253:337|254:337|254:337|255:340|255:340|258:338|258:338|260:338|260:338|261:341|261:341|264:339|264:339|266:339|266:339|268:337|268:337|270:340|270:340|273:341,2,101.996739318624,2|0|0,3:2|0:0|0:0,0:0:0:0:
144,366,414238,2,0,B|140:366|140:366|138:363|138:363|136:366|136:366|134:366|134:366|132:368|132:368|130:365|130:365|128:365|128:365|126:368|126:368|124:365|124:365|118:365|118:365|122:365|122:365|120:362|120:362|118:365|118:365|117:367|117:367|119:370|119:370|116:371|116:371|115:373|115:373|117:376|117:376|114:376|114:376|112:381|112:381|113:378|113:378|115:380|115:380|112:381|112:381|109:380|109:380|108:377|108:377|105:380|105:380|103:379|103:379|102:376|102:376|99:378|99:378|97:378|97:378|95:380|95:380|93:377|93:377|90:376,2,109.618298452274,2|0|0,2:2|0:0|0:0,0:0:0:0:
324,236,414405,102,0,B|325:238|326:240|326:240|325:243|325:243|328:243|328:243|329:244|329:245|329:245|333:244|333:244|332:248|332:248|333:248|333:249|333:249|337:248|337:248|336:252|336:252|337:253|338:253|338:253|337:257|337:257|341:256|341:256|342:256|342:257|342:257|346:255|346:255|346:259|346:259|347:259|348:260|348:260|350:257|350:257|352:260|352:260|353:261|354:261|354:261|354:257|354:257|357:259|357:259|358:258|358:257|358:257|362:256|362:256|359:254|359:254|359:249|359:249|359:253|359:252|359:252|361:250|361:250|359:249|359:249|356:250|356:250|355:254|355:254|352:252|352:252|349:254,2,109.055553459943,10|0|0,2:2|0:0|0:0,0:0:0:0:
366,175,414572,2,0,B|368:174|370:173|370:173|373:174|373:174|373:171|373:171|374:170|375:170|375:170|374:166|374:166|378:167|378:167|378:166|379:166|379:166|378:162|378:162|382:163|382:163|383:162|383:161|383:161|387:162|387:162|386:158|386:158|387:157|387:157|385:153|385:153|389:153|389:153|389:152|390:151|390:151|387:149|387:149|390:147|390:147|391:146|391:145|391:145|387:144|387:144|389:142|389:142|389:141|388:140|388:140|387:137|387:137|384:139|384:139|379:139|379:139|383:139|382:139|382:139|380:137|380:137|379:139|379:139|380:142|380:142|384:142|384:142|382:145|382:145|383:148,2,106.671723846302,2|0|0,2:2|0:0|0:0,0:0:0:0:
305,134,414739,2,0,B|304:132|303:130|303:130|299:130|299:130|301:127|301:127|300:126|300:125|300:125|301:122|301:122|297:122|297:122|296:122|296:121|296:121|296:117|296:117|293:118|293:118|292:117|291:117|291:117|288:118|288:118|288:114|288:114|287:114|287:113|287:113|283:115|283:115|283:111|283:111|282:111|281:110|281:110|279:113|279:113|277:110|277:110|276:109|275:109|275:109|273:107|273:107|272:111|272:111|271:112|271:113|271:113|267:114|267:114|270:116|270:116|270:121|270:121|270:117|270:118|270:118|272:119|272:119|270:121|270:121|273:120|273:120|274:116|274:116|277:118|277:118|280:116,2,106.593007776937,2|0|0,2:2|0:0|0:0,0:0:0:0:
259,192,414906,2,0,B|257:193|255:194|255:194|255:198|255:198|252:196|252:196|251:197|250:197|250:197|247:196|247:196|247:200|247:200|247:201|246:201|246:201|242:201|242:201|243:204|243:204|242:205|242:206|242:206|243:209|243:209|239:209|239:209|239:210|238:210|238:210|240:214|240:214|236:214|236:214|236:215|235:216|235:216|238:218|238:218|235:220|235:220|234:221|234:222|234:222|232:224|232:224|236:225|236:225|237:226|238:226|238:226|239:230|239:230|241:227|241:227|246:227|246:227|242:227|243:227|243:227|244:225|244:225|246:227|246:227|245:224|245:224|241:223|241:223|243:220|243:220|241:217,2,106.593007776937,2|0|0,2:2|0:0|0:0,0:0:0:0:
451,319,415072,6,0,B|453:318|455:317|455:317|455:314|455:314|458:316|458:316|459:315|460:315|460:315|463:317|463:317|464:313|464:313|465:313|466:313|466:313|469:315|469:315|469:311|469:311|471:311|471:311|473:307|473:307|475:310|475:310|476:310|477:309|477:309|479:306|479:306|481:309|481:309|482:309|483:309|483:309|485:306|485:306|487:309|487:309|488:309|489:309|489:309|491:313|491:313|493:310|493:310|495:310|496:310|496:310|492:310|492:310|494:314|494:314|494:315|494:315|495:318|495:318|492:318|492:318|491:320|491:320|493:323|493:323|489:324|489:324|488:326,2,100.413731614297,2|0|0,3:2|0:0|0:0,0:0:0:0:
385,358,415239,2,0,B|383:359|381:360|381:360|381:363|381:363|378:361|378:361|377:362|376:362|376:362|373:360|373:360|372:364|372:364|371:364|370:364|370:364|367:362|367:362|367:366|367:366|365:366|365:366|363:370|363:370|361:367|361:367|360:367|359:368|359:368|357:371|357:371|355:368|355:368|354:368|353:368|353:368|351:371|351:371|349:368|349:368|348:368|347:368|347:368|345:364|345:364|343:367|343:367|341:367|340:367|340:367|344:367|344:367|342:363|342:363|342:362|342:362|341:359|341:359|344:359|344:359|345:357|345:357|343:354|343:354|347:353|347:353|348:351,2,100.413731614297,2|0|0,2:2|0:0|0:0,0:0:0:0:
494,103,415405,102,0,B|494:99|494:99|491:95|491:95|494:95|494:95|496:93|496:93|499:91|499:91|497:89|497:89|497:87|497:87|500:85|500:85|499:83|499:83|499:81|499:81|500:77|500:77|503:79|503:79|505:80|505:80|505:76|505:76|508:79|508:79|511:78|511:78|515:80|515:80|512:82|512:82|513:83|513:83|509:86|509:86|512:87|512:87|513:89|513:89|509:89|509:89|511:93|511:93|509:94|509:94|510:97|510:97|506:97|506:97|505:99|505:99|507:102|507:102|503:100|503:100|499:103,1,101.075597448287,2|0,3:2|0:0,0:0:0:0:
500,199,415572,2,0,B|503:201|503:201|506:200|506:200|506:203|506:203|508:204|508:204|508:208|508:208|511:207|511:207|513:208|513:208|512:212|512:212|515:210|515:210|516:211|516:211|516:212|516:212|519:216|519:216|515:216|515:216|515:218|515:218|516:221|516:221|513:222|513:222|513:224|513:224|511:227|511:227|509:223|509:223|507:222|507:222|506:218|506:218|503:221|503:221|502:221|502:221|502:220|502:220|504:217|504:217|501:217|501:217|500:215|500:215|496:214|496:214|498:210|498:210|497:209|497:209|493:208|493:208|496:205|496:205|495:204|495:204|494:203,2,101.150653655907,2|0|0,3:2|0:0|0:0,0:0:0:0:
382,147,415739,2,0,B|378:146|378:146|375:148|375:148|374:145|374:145|372:145|372:145|371:142|371:142|368:144|368:144|366:143|366:143|365:140|365:140|362:142|362:142|361:142|361:142|358:145|358:145|357:141|357:141|355:141|355:141|352:143|352:143|351:140|351:140|348:139|348:139|346:142|346:142|344:139|344:139|342:138|342:138|338:137|338:137|339:141|339:141|338:142|338:142|335:141|335:141|335:144|335:144|334:146|334:146|334:149|334:149|331:148|331:148|329:149|329:149|330:153|330:153|326:152|326:152|324:154|324:154|323:158|323:158|327:157|327:157|328:158|328:158|327:161|327:161|330:160|330:160|332:162|332:162|335:161|335:161|335:165|335:165|336:166|336:166|335:170|335:170|339:169|339:169|342:172|342:172|340:170|340:170|342:170|342:170|342:172|342:172|345:171|345:171|348:173|348:173|349:170|349:170|352:169|352:169|353:166|353:166|355:168|355:168|357:167|357:167|358:164|358:164|361:166|361:166|363:166|363:166|364:162|364:162|367:164|367:164|369:164|369:164|370:160|370:160|372:163|372:163|374:162|374:162|377:164|377:164|378:161|378:161|380:160,1,202.428880503051,10|0,2:2|0:0,0:0:0:0:
150,224,416072,6,0,B|151:220|151:220|149:217|149:217|153:216|153:216|153:214|153:214|157:213|157:213|155:210|155:210|155:209|155:209|159:208|159:208|156:205|156:205|157:203|157:203|155:200|155:200|158:199|158:199|160:194|160:194|159:197|159:197|157:195|157:195|160:194|160:194|162:194|162:194|164:191|164:191|166:194|166:194|170:194|170:194|172:192|172:192|170:191|170:191|169:190|169:190|172:187|172:187|169:186|169:186|169:184|169:184|165:182|165:182|168:180|168:180|168:178|168:178|165:176|165:176|167:174|167:174|167:171,2,103.094605099376,2|0|0,2:2|0:0|0:0,0:0:0:0:
69,195,416239,2,0,B|70:191|70:191|68:188|68:188|72:187|72:187|72:185|72:185|76:184|76:184|74:181|74:181|74:180|74:180|78:179|78:179|75:176|75:176|76:174|76:174|74:171|74:171|77:170|77:170|79:165|79:165|78:168|78:168|76:166|76:166|79:165|79:165|82:165|82:165|84:162|84:162|86:165|86:165|89:165|89:165|91:163|91:163|89:162|89:162|88:161|88:161|91:158|91:158|88:157|88:157|88:155|88:155|84:153|84:153|87:151|87:151|87:149|87:149|84:147|84:147|86:145|86:145|86:142,2,103.094605099376,2|0|0,2:2|0:0|0:0,0:0:0:0:
12,348,416405,102,0,B|10:344|10:344|7:343|7:343|9:340|9:340|8:338|8:338|10:335|10:335|7:335|7:335|6:333|6:333|8:330|8:330|5:329|5:329|4:327|4:327|1:326|1:326|3:323|3:323|2:322|2:322|-1:321|-1:321|1:318|1:318|0:316|0:316|-2:319|-2:319|-4:316|-4:316|-10:316|-10:316|-6:316|-6:316|-8:313|-8:313|-10:316|-10:316|-10:314|-10:314|-7:312|-7:312|-9:310|-9:310|-9:308|-9:308|-12:306|-12:306|-9:304|-9:304|-8:302|-8:302|-11:300|-11:300|-8:298|-8:298|-8:296|-8:296|-4:294|-4:294|-7:292|-7:292|-7:290|-7:290|-4:288|-4:288|-7:286|-7:286|-6:280|-6:280|-6:284|-6:284|-9:282|-9:282|-6:280|-6:280|-5:282|-5:282|-6:285|-6:285|-3:285|-3:285|0:288,2,149.245586214192,2|0|0,3:2|0:0|0:0,0:0:0:0:
259,313,416572,2,0,B|257:309|257:309|254:308|254:308|256:305|256:305|255:303|255:303|257:300|257:300|254:300|254:300|253:298|253:298|255:295|255:295|252:294|252:294|251:292|251:292|248:291|248:291|250:288|250:288|249:287|249:287|246:286|246:286|248:283|248:283|247:281|247:281|245:284|245:284|243:281|243:281|237:281|237:281|241:281|241:281|239:278|239:278|237:281|237:281|237:279|237:279|240:277|240:277|238:275|238:275|238:273|238:273|235:271|235:271|238:269|238:269|239:267|239:267|236:265|236:265|239:263|239:263|239:261|239:261|243:259|243:259|240:257|240:257|240:255|240:255|243:253|243:253|240:251|240:251|241:245|241:245|241:249|241:249|238:247|238:247|241:245|241:245|242:247|242:247|241:250|241:250|244:250|244:250|247:253,2,149.245586214192,10|0|0,2:2|0:0|0:0,0:0:0:0:
148,376,416739,6,0,B|145:373|145:373|141:374|141:374|141:371|141:371|138:368|138:368|140:370|140:370|140:367|140:367|138:368|138:368|140:365|140:365|144:365|144:365|142:362|142:362|143:360|143:360|142:357|142:357|146:357|146:357|147:355|147:355|143:357|143:357|143:353|143:353|142:352|142:352|139:354|139:354|139:350|139:350|137:349|137:349|137:345|137:345|133:347|133:347|131:346|131:346|135:346|135:346|133:342|133:342|134:341|134:341|132:338|132:338|136:338|136:338|137:336|137:336|136:333|136:333|139:333|139:333|140:331|140:331|144:331|144:331|142:328|142:328|145:324|145:324|143:326|143:326|146:326|146:326|145:324|145:324|142:323|142:323|139:325|139:325|139:321|139:321|137:320|137:320|136:317|136:317|133:319|133:319|129:317,1,149.499997604752,2|0,3:2|0:0,0:0:0:0:
240,115,416905,102,0,B|243:117|243:119|243:119|247:118|247:118|246:122|246:122|248:124|247:123|247:123|246:127|246:127|249:127|249:127|251:129|250:128|250:128|249:131|249:131|252:132|252:132|253:133|253:134|253:134|257:134|257:134|254:137|254:137|255:138|255:139|255:139|258:140|258:140|256:143|256:143|256:144|256:145|256:145|260:147|260:147|257:149|257:149|257:150|257:151|257:151|254:153|254:153|257:155|257:155|257:158|257:157|257:157|254:159|254:159|257:161|257:161|257:164|257:163|257:163|259:165|259:165|256:167|256:167|256:168|255:169|255:169|258:172|258:172|254:173|254:173|253:175,2,101.995715194262,2|0|0,2:2|0:0|0:0,0:0:0:0:
167,92,417072,2,0,B|164:93|162:93|162:93|161:97|161:97|158:94|158:94|157:94|156:94|156:94|154:91|154:91|152:94|152:94|149:94|150:94|150:94|149:91|149:91|146:94|146:94|143:94|144:94|144:94|142:97|142:97|141:93|141:93|138:93|139:93|139:93|136:95|136:95|135:92|135:92|132:91|133:91|133:91|130:93|130:93|129:90|129:90|128:89|127:89|127:89|127:85|127:85|124:87|124:87|121:85|122:86|122:86|122:82|122:82|119:83|119:83|118:83|118:82|118:82|114:83|114:83|115:79|115:79|114:79|113:78|113:78|110:79|110:79|111:75|111:75|109:73,2,103.898705253996,2|0|0,2:2|0:0|0:0,0:0:0:0:
221,43,417239,2,0,B|222:40|222:38|222:38|220:35|220:35|223:34|223:34|224:32|224:32|228:32|228:32|226:29|226:29|226:28|227:27|227:27|230:27|230:27|229:24|229:24|229:23|230:22|230:22|229:19|229:19|232:19|232:19|233:18|234:17|234:17|233:14|233:14|236:15|236:15|237:14|238:13|238:13|238:10|238:10|241:11|241:11|243:9|243:10|243:10|246:11|246:11|246:7|246:7|247:7|248:7|248:7|251:8|251:8|251:5|251:5|254:4|253:4|253:4|254:1|254:1|257:3|257:3|258:3|259:2|259:2|260:-1|260:-1|263:2|263:2|265:1|266:1,2,97.1882591044017,2|0|0,3:2|0:0|0:0,0:0:0:0:
378,194,417405,6,0,B|378:196|379:198|379:198|382:200|382:200|379:202|379:202|379:203|379:204|379:204|377:207|377:207|380:208|380:208|380:209|380:210|380:210|378:213|378:213|381:214|381:214|381:215|381:216|381:216|385:217|385:217|382:220|382:220|382:221|383:222|383:222|386:223|386:223|384:226|384:226|384:227|384:227|388:229|388:229|385:231|385:231|386:233|386:233|384:236|384:236|387:237|387:237|387:238|388:239|388:239|386:242|386:242|389:243|389:243|390:244|390:244|394:245|394:245|392:248|392:248|393:249|393:249|396:247|396:247|397:251|397:251|398:249|398:248,2,96.9501249557777,10|0|0,2:2|0:0|0:0,0:0:0:0:
457,205,417572,2,0,B|460:205|461:205|461:205|463:202|463:202|465:204|465:204|466:204|467:204|467:204|470:207|470:207|471:203|471:203|472:203|473:203|473:203|476:206|476:206|477:202|477:202|478:202|479:202|479:202|480:199|480:199|483:201|483:201|484:201|485:201|485:201|486:197|486:197|489:200|489:200|490:200|491:199|491:199|492:196|492:196|495:198|495:198|496:198|496:198|499:200|499:200|500:197|500:197|501:196|502:196|502:196|505:198|505:198|506:194|506:194|507:194|508:193|508:193|508:190|508:190|511:191|511:191|512:191|512:190|512:190|510:187|510:187|514:187|514:187|513:185|511:185,2,98.6520503961736,2|0|0,2:2|0:0|0:0,0:0:0:0:
471,121,417739,2,0,B|471:119|471:117|471:117|468:115|468:115|470:113|470:113|470:112|470:111|470:111|472:109|472:109|469:107|469:107|469:106|469:105|469:105|472:103|472:103|468:101|468:101|468:100|468:99|468:99|465:98|465:98|467:95|467:95|467:94|467:93|467:93|463:92|463:92|466:89|466:89|466:88|465:87|465:87|462:86|462:86|464:84|464:84|464:83|464:82|464:82|466:79|466:79|462:78|462:78|462:77|462:76|462:76|464:73|464:73|460:72|460:72|459:71|459:71|456:70|456:70|457:67|457:67|456:66|456:66|453:68|453:68|452:65|452:65|451:66|451:67|451:67|451:68,2,95.0370994203016,2|0|0,2:2|0:0|0:0,0:0:0:0:
387,111,417906,2,0,B|385:111|383:112|383:112|381:115|381:115|379:112|379:112|378:112|377:112|377:112|374:110|374:110|373:113|373:113|372:113|371:113|371:113|369:111|369:111|367:114|367:114|366:114|365:114|365:114|364:118|364:118|361:115|361:115|360:116|359:116|359:116|358:119|358:119|356:117|356:117|354:117|354:117|352:121|352:121|350:118|350:118|349:119|348:119|348:119|345:117|345:117|344:120|344:120|343:121|342:121|342:121|339:119|339:119|338:123|338:123|337:124|337:124|337:127|337:127|333:126|333:126|332:126|332:127|332:127|334:129|334:129|331:130|331:130|332:131|333:131|333:131|334:131,2,95.8274526280646,2|0|0,2:2|0:0|0:0,0:0:0:0:
278,304,418072,102,0,B|275:304|273:303|273:303|270:306|270:306|269:302|269:302|266:301|267:302|267:302|267:298|267:298|264:300|264:300|261:299|262:299|262:299|262:296|262:296|258:298|258:298|258:297|257:296|257:296|253:298|253:298|254:294|254:294|251:292|252:293|252:293|249:294|249:294|249:290|249:290|248:289|248:289|244:289|244:289|245:286|245:286|245:285|244:284|244:284|246:281|246:281|242:281|242:281|241:278|241:279|241:279|243:276|243:276|239:275|239:275|239:274|239:273|239:273|235:272|235:272|238:270|238:270|237:269|237:268|237:268|234:266|234:266|236:264|236:264|236:261,2,105.6171308565,2|0|0,3:2|0:0|0:0,0:0:0:0:
227,152,418239,2,0,B|230:152|232:153|232:153|235:151|235:151|236:154|236:154|237:154|238:155|238:155|238:158|238:158|241:156|241:156|244:157|243:157|243:157|243:161|243:161|246:159|246:159|247:160|248:160|248:160|251:159|251:159|251:162|251:162|252:163|253:164|253:164|256:163|256:163|256:167|256:167|257:168|257:168|260:168|260:168|259:171|259:171|260:172|260:173|260:173|259:176|259:176|262:176|262:176|264:179|263:178|263:178|261:181|261:181|265:182|265:182|266:183|266:183|269:184|269:184|267:187|267:187|267:188|267:189|267:189|270:191|270:191|268:193|268:193|268:194|268:195|268:195|268:196,2,96.0030069016802,2|0|0,2:2|0:0|0:0,0:0:0:0:
94,336,418405,6,0,B|91:334|90:333|90:333|87:333|87:333|88:330|88:330|87:329|86:328|86:328|88:325|88:325|84:325|84:325|83:322|83:323|83:323|85:320|85:320|81:320|81:320|81:319|81:318|81:318|77:317|77:317|79:314|79:314|78:311|79:312|79:312|75:311|75:311|78:308|78:308|77:307|77:307|74:305|74:305|77:303|77:303|77:300|77:301|77:301|80:299|80:299|77:297|77:297|77:294|77:295|77:295|80:293|80:293|78:291|78:291|78:290|78:289|78:289|76:286|76:286|79:285|79:285|80:282|80:283|80:283|78:280|78:280|81:279|81:279|82:277|83:277,2,101.304445247108,2|0|0,3:2|0:0|0:0,0:0:0:0:
130,167,418572,2,0,B|133:169|134:170|134:170|137:170|137:170|136:173|136:173|138:176|137:175|137:175|136:178|136:178|140:178|140:178|141:181|141:180|141:180|139:183|139:183|142:184|142:184|143:185|143:186|143:186|147:187|147:187|144:189|144:189|145:190|145:191|145:191|148:193|148:193|146:195|146:195|146:198|146:197|146:197|149:199|149:199|146:201|146:201|146:204|146:203|146:203|143:205|143:205|146:207|146:207|146:208|146:209|146:209|142:211|142:211|145:213|145:213|145:214|144:215|144:215|147:218|147:218|143:219|143:219|142:222|143:221|143:221|144:224|144:224|141:224|141:224|140:226|139:227,2,102.343744609665,2|0|0,2:2|0:0|0:0,0:0:0:0:
292,381,418739,102,0,B|295:381|297:381|297:381|299:378|299:378|301:381|301:381|302:381|303:380|303:380|305:383|305:383|307:380|307:380|310:379|309:379|309:379|311:382|311:382|313:378|313:378|314:378|314:378|315:374|315:374|318:376|318:376|321:375|320:375|320:375|320:372|320:372|323:374|323:374|326:372|325:373|325:373|325:369|325:369|329:371|329:371|329:370|330:370|330:370|334:371|334:371|333:367|333:367|336:365|335:366|335:366|338:367|338:367|338:363|338:363|340:361|339:362|339:362|339:359|339:359|342:359|342:359|344:357|343:358|343:358|342:354|342:354|346:355|346:355|346:354|347:353|347:353|348:352,2,104.813598448953,10|0|0,2:2|0:0|0:0,0:0:0:0:
415,384,418905,2,0,B|417:381|418:380|418:380|416:377|416:377|419:376|419:376|420:375|420:374|420:374|424:374|424:374|422:371|422:371|422:370|422:369|422:369|426:368|426:368|423:365|423:365|424:364|424:363|424:363|421:361|421:361|424:359|424:359|425:358|425:357|425:357|422:355|422:355|425:353|425:353|425:352|425:351|425:351|422:350|422:350|425:347|425:347|425:345|425:346|425:346|428:343|428:343|424:342|424:342|424:339|424:340|424:340|427:337|427:337|423:336|423:336|423:335|423:334|423:334|419:333|419:333|422:330|422:330|421:329|421:328|421:328|417:328|417:328|419:325|419:325|418:322,2,104.762666306544,2|0|0,2:2|0:0|0:0,0:0:0:0:
479,278,419072,2,0,B|477:275|477:274|477:274|473:274|473:274|475:270|475:270|473:268|473:269|473:269|475:265|475:265|471:265|471:265|469:263|470:264|470:264|470:260|470:260|467:261|467:261|466:260|466:260|462:261|462:261|463:257|463:257|460:255|461:256|461:256|458:257|458:257|458:253|458:253|457:253|456:252|456:252|453:254|453:254|453:250|453:250|452:250|451:249|451:249|450:246|450:246|447:248|447:248|446:247|445:247|445:247|445:244|445:244|442:246|442:246|441:245|440:245|440:245|437:248|437:248|436:244|436:244|433:244|434:244|434:244|432:247|432:247|430:243|430:243|427:243,2,105.613229844216,2|0|0,2:2|0:0|0:0,0:0:0:0:
419,169,419239,2,0,B|416:169|414:169|414:169|412:172|412:172|410:169|410:169|407:169|408:169|408:169|406:166|406:166|404:170|404:170|403:170|402:170|402:170|400:167|400:167|398:171|398:171|396:172|397:171|397:171|396:175|396:175|393:173|393:173|392:173|391:173|391:173|390:177|390:177|387:175|387:175|386:175|386:176|386:176|385:179|385:179|382:178|382:178|381:178|380:179|380:179|377:177|377:177|377:181|377:181|375:183|376:182|376:182|372:181|372:181|373:185|373:185|370:187|371:186|371:186|372:190|372:190|368:189|368:189|368:190|367:190|367:190|368:194|368:194|365:194|365:194|363:196,2,103.61384513139,2|0|0,2:2|0:0|0:0,0:0:0:0:
235,216,419405,6,0,B|234:212|234:212|231:210|231:210|234:208|234:208|234:206|234:206|236:203|236:203|233:202|233:202|233:200|233:200|235:197|235:197|232:196|232:196|232:194|232:194|229:192|229:192|231:190|231:190|231:188|231:188|228:186|228:186|231:184|231:184|230:182|230:182|227:180|227:180|230:178|230:178|230:176|230:176|232:174|232:174|229:172|229:172|229:170|229:170|231:168|231:168|228:166|228:166|228:164|228:164|225:163|225:163|227:160|227:160|227:158|227:158|224:157|224:157|227:154|227:154|226:151,2,94.1650992708852,2|0|0,3:2|0:0|0:0,0:0:0:0:
130,167,419572,2,0,B|131:171|131:171|134:173|134:173|131:175|131:175|131:177|131:177|129:180|129:180|132:181|132:181|132:183|132:183|129:186|129:186|133:187|133:187|133:189|133:189|136:191|136:191|133:193|133:193|134:195|134:195|137:197|137:197|134:199|134:199|134:201|134:201|138:203|138:203|135:205|135:205|135:207|135:207|132:210|132:210|136:211|136:211|136:213|136:213|133:215|133:215|136:217|136:217|137:219|137:219|140:221|140:221|137:223|137:223|137:225|137:225|140:227|140:227|138:229|138:229|138:231|138:231|138:232,2,99.6617415270372,2|0|0,2:2|0:0|0:0,0:0:0:0:
22,342,419739,102,0,B|22:338|22:338|20:335|20:335|23:334|23:334|23:332|23:332|26:330|26:330|23:328|23:328|23:326|23:326|26:324|26:324|24:322|24:322|24:320|24:320|21:318|21:318|24:316|24:316|24:314|24:314|21:312|21:312|25:310|25:310|25:308|25:308|22:306|22:306|25:304|25:304|25:302|25:302|28:300|28:300|25:298|25:298|26:292|26:296|26:296|29:294|29:294|26:292,1,78.6882597513591,2|0,3:2|0:0,0:0:0:0:
257,24,420072,6,0,B|260:24|262:24|262:24|264:22|264:22|266:25|266:25|269:26|268:25|268:25|269:29|269:29|272:26|272:26|275:27|274:27|274:27|275:30|275:30|277:28|277:28|280:29|279:29|279:29|282:27|282:27|283:30|283:30|286:31|285:31|285:31|288:29|288:29|288:32|288:32|291:34|290:33|290:33|293:32|293:32|294:35|294:35|294:36|295:36|295:36|295:40|295:40|299:39|299:39|301:40|300:40|300:40|300:43|300:43|303:42|303:42|304:43|305:43|305:43|308:42|308:42|308:46|308:46|310:48|309:47|309:47|313:47|313:47|312:50|312:50|314:52,2,99.2322321997886,10|0|0,2:2|0:0|0:0,0:0:0:0:
393,62,420239,2,0,B|393:65|393:67|393:67|395:69|395:69|392:71|392:71|391:74|392:73|392:73|388:74|388:74|391:77|391:77|390:78|390:79|390:79|387:80|387:80|389:82|389:82|388:85|388:84|388:84|390:87|390:87|387:88|387:88|386:91|386:90|386:90|388:93|388:93|385:93|385:93|384:94|384:95|384:95|385:98|385:98|382:99|382:99|380:101|381:100|381:100|377:100|377:100|378:104|378:104|377:105|377:105|374:105|374:105|375:108|375:108|374:109|374:110|374:110|375:113|375:113|371:113|371:113|369:115|370:114|370:114|370:118|370:118|367:117|367:117|365:119,2,98.2184967799845,2|0|0,2:2|0:0|0:0,0:0:0:0:
360,203,420405,2,0,B|357:203|355:203|355:203|353:205|353:205|351:202|351:202|348:201|349:202|349:202|348:198|348:198|345:201|345:201|342:200|343:200|343:200|342:197|342:197|340:199|340:199|337:198|338:198|338:198|335:200|335:200|334:197|334:197|331:196|332:196|332:196|329:198|329:198|329:195|329:195|326:193|327:194|327:194|324:195|324:195|323:192|323:192|323:191|322:191|322:191|322:187|322:187|318:188|318:188|317:187|317:187|317:184|317:184|314:185|314:185|311:183|312:184|312:184|309:185|309:185|309:181|309:181|308:180|308:180|304:180|304:180|305:177|305:177|303:175,2,98.4462719930394,2|0|0,2:2|0:0|0:0,0:0:0:0:
224,165,420572,2,0,B|224:162|224:160|224:160|222:158|222:158|225:156|225:156|226:153|225:154|225:154|229:153|229:153|226:150|226:150|227:147|227:148|227:148|230:147|230:147|228:145|228:145|229:142|229:143|229:143|227:140|227:140|230:139|230:139|231:136|231:137|231:137|229:134|229:134|232:134|232:134|234:131|233:132|233:132|232:129|232:129|235:128|235:128|237:126|236:127|236:127|240:127|240:127|239:123|239:123|240:121|240:122|240:122|243:122|243:122|242:119|242:119|244:116|243:117|243:117|242:114|242:114|246:114|246:114|248:112|247:113|247:113|247:109|247:109|250:110|250:110|252:108,2,100.713573374422,2|0|0,2:2|0:0|0:0,0:0:0:0:
408,70,420739,102,0,B|408:73|408:75|408:75|410:77|410:77|407:79|407:79|406:82|407:81|407:81|403:82|403:82|406:85|406:85|405:86|405:87|405:87|402:88|402:88|404:90|404:90|403:93|403:92|403:92|405:95|405:95|402:96|402:96|401:99|401:98|401:98|403:101|403:101|400:101|400:101|399:102|399:103|399:103|400:106|400:106|397:107|397:107|395:109|396:108|396:108|392:108|392:108|393:112|393:112|392:113|392:113|389:113|389:113|390:116|390:116|389:117|389:118|389:118|390:121|390:121|386:121|386:121|384:123|385:122|385:122|385:126|385:126|382:125|382:125|380:127,2,98.2184967799846,2|0|0,3:2|0:0|0:0,0:0:0:0:
235,248,420905,6,0,B|219:249|219:249|208:246|208:246|211:253|211:253|198:243|198:243|191:243|191:243|185:241|185:241|181:243|181:243|178:238|178:238|171:237|171:237|168:232|168:232|156:228|156:228|154:220|154:220|146:209|146:209|151:201|151:201|141:191|141:191|137:155,1,150.000005722046,8|0,2:2|0:0,0:0:0:0:
8,112,421072,102,0,B|12:97|12:97|15:89|15:89|21:81|21:81|18:77|18:77|29:71|29:71|36:61|36:61|59:49,1,85.0000016212464,0|0,3:3|0:0,0:0:0:0:
142,102,421405,6,0,B|128:102|128:102|123:100|123:100|92:115|92:115|69:137,1,64.9999970245363,2|0,2:2|0:0,0:0:0:0:
56,344,421739,102,0,B|57:340|57:340|55:337|55:337|58:336|58:336|59:334|59:334|62:333|62:333|60:330|60:330|60:328|60:328|64:327|64:327|61:324|61:324|62:323|62:323|59:320|59:320|63:319|63:319|64:314|64:314|63:317|63:317|61:315|61:315|64:314|64:314|67:312|67:312|63:310|63:310|67:308|67:308|67:307|67:307|69:304|69:304|66:303|66:303|66:301|66:301|69:298|69:298|66:296|66:296|66:294|66:294|62:293|62:293|65:290|65:290|65:286,2,98.8241300173206,10|0|0,2:2|0:0|0:0,0:0:0:0:
151,324,421905,2,0,B|152:320|152:320|150:317|150:317|153:316|153:316|154:314|154:314|157:313|157:313|155:310|155:310|155:308|155:308|159:307|159:307|156:304|156:304|157:303|157:303|154:300|154:300|158:299|158:299|159:294|159:294|158:297|158:297|156:295|156:295|159:294|159:294|162:292|162:292|158:290|158:290|162:288|162:288|162:287|162:287|164:284|164:284|161:283|161:283|161:281|161:281|164:278|164:278|161:276|161:276|161:274|161:274|157:273|157:273|160:270|160:270|160:266,2,98.8241300173206,2|0|0,2:2|0:0|0:0,0:0:0:0:
246,304,422072,2,0,B|247:300|247:300|245:297|245:297|248:296|248:296|249:294|249:294|252:293|252:293|250:290|250:290|250:288|250:288|254:287|254:287|251:284|251:284|252:283|252:283|249:280|249:280|253:279|253:279|254:274|254:274|253:277|253:277|251:275|251:275|254:274|254:274|257:272|257:272|253:270|253:270|257:268|257:268|257:267|257:267|259:264|259:264|256:263|256:263|256:261|256:261|259:258|259:258|256:256|256:256|256:254|256:254|252:253|252:253|255:250|255:250|255:246,2,98.8241300173206,2|0|0,2:2|0:0|0:0,0:0:0:0:
341,284,422239,2,0,B|342:280|342:280|340:277|340:277|343:276|343:276|344:274|344:274|347:273|347:273|345:270|345:270|345:268|345:268|349:267|349:267|346:264|346:264|347:263|347:263|344:260|344:260|348:259|348:259|349:254|349:254|348:257|348:257|346:255|346:255|349:254|349:254|352:252|352:252|348:250|348:250|352:248|352:248|352:247|352:247|354:244|354:244|351:243|351:243|351:241|351:241|354:238|354:238|351:236|351:236|351:234|351:234|347:233|347:233|350:230|350:230|350:226,2,98.8241300173207,2|0|0,2:2|0:0|0:0,0:0:0:0:
405,106,422405,6,0,B|409:103|409:103|409:100|409:100|412:101|412:101|414:100|414:100|417:101|417:101|417:98|417:98|418:97|418:97|422:98|422:98|422:94|422:94|423:93|423:93|423:90|423:90|427:91|427:91|428:90|428:90|428:86|428:86|432:88|432:88|434:86|434:86|436:83|436:83|438:86|438:86|439:87|439:87|441:90|441:90|443:87|443:87|445:87|445:87|447:90|447:90|449:88|449:88|451:88|451:88|453:85|453:85|455:88|455:88|459:89,2,87.9546435569218,2|0|0,3:2|0:0|0:0,0:0:0:0:
484,167,422572,2,0,B|480:169|480:169|480:173|480:173|477:171|477:171|475:173|475:173|472:171|472:171|472:175|472:175|470:176|470:176|467:174|467:174|467:178|467:178|465:179|465:179|465:182|465:182|462:181|462:181|460:182|460:182|460:186|460:186|457:184|457:184|454:186|454:186|452:189|452:189|450:186|450:186|449:185|449:185|447:182|447:182|445:185|445:185|443:185|443:185|442:182|442:182|439:184|439:184|437:184|437:184|435:187|435:187|433:184|433:184|429:183,2,92.1372568261406,2|0|0,2:2|0:0|0:0,0:0:0:0:
256,79,422739,102,0,B|260:78|260:78|262:75|262:75|264:78|264:78|266:78|266:78|269:80|269:80|270:77|270:77|272:77|272:77|274:80|274:80|276:76|276:76|280:76|280:76|282:75|282:75|282:78|282:78|283:78|283:78|287:77|287:77|287:80|287:80|288:81|288:81|292:80|292:80|292:84|292:84|294:85|294:85|294:88|294:88|297:87|297:87|299:88|299:88|299:91|299:91|302:90|302:90|304:91|304:91|307:90|307:90|307:93|307:93|310:95,2,85.8768053222184,2|0|0,3:2|0:0|0:0,0:0:0:0:
286,172,422906,2,0,B|282:172|282:172|280:175|280:175|278:173|278:173|276:173|276:173|274:170|274:170|272:173|272:173|270:173|270:173|268:171|268:171|266:174|266:174|261:174|261:174|264:174|264:174|263:176|263:176|261:174|261:174|258:172|258:172|255:174|255:174|255:170|255:170|253:169|253:169|250:170|250:170|250:167|250:167|248:166|248:166|248:162|248:162|245:164|245:164|243:163|243:163|243:159|243:159|240:161|240:161|238:159|238:159|235:161|235:161|235:157|235:157|231:155,2,95.3423555033279,2|0|0,2:2|0:0|0:0,0:0:0:0:
149,20,423072,6,0,B|146:20|145:20|145:20|142:22|142:22|141:19|141:19|139:19|139:19|137:16|137:16|135:18|135:18|134:18|133:18|133:18|131:15|131:15|129:18|129:18|128:18|127:18|127:18|125:20|125:20|123:17|123:17|122:17|121:17|121:17|119:20|119:20|117:17|117:17|116:18|115:18|115:18|117:21|117:21|114:22|114:22|114:26|114:26|114:23|114:24|114:24|112:25|112:25|114:26|114:26|112:29|112:29|108:29|108:29|110:33|110:33|109:34|109:34|110:38|110:38|107:38|107:38|105:41,2,90.2931795453649,10|0|0,2:2|0:0|0:0,0:0:0:0:
35,33,423239,2,0,B|34:36|33:37|33:37|35:40|35:40|32:41|32:41|31:42|31:43|31:43|28:43|28:43|30:46|30:46|29:47|29:48|29:48|26:49|26:49|28:52|28:52|27:53|27:54|27:54|29:56|29:56|26:57|26:57|25:58|25:59|25:59|28:62|28:62|24:63|24:63|25:64|25:65|25:65|28:63|28:63|29:67|29:67|30:68|32:68|32:68|31:71|31:71|34:70|34:70|35:71|35:71|34:75|34:75|38:74|38:74|39:75|39:75|43:75|43:75|42:78|42:78|45:81,2,90.2540657859352,2|0|0,2:2|0:0|0:0,0:0:0:0:
20,147,423405,2,0,B|22:149|23:150|23:150|27:148|27:148|27:152|27:152|28:153|28:153|28:156|28:156|31:155|31:155|32:156|33:156|33:156|33:160|33:160|36:159|36:159|37:159|38:160|38:160|41:159|41:159|41:162|41:162|42:163|43:163|43:163|46:161|46:161|47:164|47:164|48:165|49:164|49:164|48:161|48:161|51:161|51:161|52:160|53:158|53:158|56:159|56:159|56:156|56:156|57:156|57:156|60:157|60:157|60:154|60:154|62:153|62:153|62:149|62:149|66:151|66:151|69:149,2,86.9787802819813,2|0|0,2:2|0:0|0:0,0:0:0:0:
126,191,423572,2,0,B|128:189|129:188|129:188|129:185|129:185|132:186|132:186|133:185|134:184|134:184|137:185|137:185|137:182|137:182|138:181|138:181|142:182|142:182|141:178|141:178|142:177|143:177|143:177|142:173|142:173|146:174|146:174|147:173|147:172|147:172|146:169|146:169|149:169|149:169|150:168|150:167|150:167|146:167|146:167|148:164|148:164|146:162|145:161|145:161|147:159|147:159|144:158|144:158|144:157|144:157|147:154|147:154|143:153|143:153|143:151|143:151|139:149|139:149|142:147|142:147|141:143,2,91.7539711422481,2|0|0,2:2|0:0|0:0,0:0:0:0:
256,78,423739,102,0,B|260:76|260:76|260:72|260:72|263:74|263:74|265:73|265:73|268:75|268:75|269:71|269:71|270:70|270:70|274:72|274:72|274:69|274:69|276:68|276:68|276:64|276:64|279:66|279:66|281:65|281:65|281:61|281:61|285:63|285:63|286:63|286:63|289:61|289:61|290:64|290:64|292:65|292:65|293:68|293:68|296:66|296:66|298:66|298:66|299:70|299:70|302:67|302:67|304:68|304:68|307:66|307:66|308:69|308:69|312:70,2,91.7430595121321,2|0|0,3:2|0:0|0:0,0:0:0:0:
292,154,423905,1,2,2:2:0:0:
494,25,424072,6,0,B|490:23|490:23|487:25|487:25|487:21|487:21|485:20|485:20|484:17|484:17|481:18|481:18|480:18|480:18|479:14|479:14|476:16|476:16|474:15|474:15|471:17|471:17|471:13|471:13|469:12|469:12|466:14|466:14|465:10|465:10|464:10|464:10|462:14|462:14|460:11|460:11|458:12|458:12|455:9|455:9|454:13|454:13|452:13|452:13|449:11|449:11|448:14|448:14|446:15|446:15|445:18|445:18|442:16|442:16|438:17,2,90.7476445560095,2|0|0,3:2|0:0|0:0,0:0:0:0:
458,101,424238,1,2,3:2:0:0:
402,248,424405,102,0,B|403:244|403:244|400:241|400:241|403:240|403:240|404:234|404:234|403:238|403:238|407:236|407:236|404:234|404:234|402:234|402:234|401:230|401:230|398:233|398:233|395:232|395:232|394:229|394:229|397:229|397:229|398:228|398:228|396:225|396:225|400:225|400:225|403:220|403:220|401:223|401:223|400:220|400:220|403:220|403:220|402:218|402:218|403:215|403:215|399:215|399:215|396:210|398:213|398:213|399:210|399:210|396:210,1,94.6631906613838,10|0,2:2|0:0,0:0:0:0:
363,350,424739,6,0,B|359:351|359:351|358:355|358:355|355:352|355:352|353:353|353:353|350:351|350:351|349:354|349:354|347:355|347:355|347:351|347:351|344:352|344:352|341:350|341:350|343:352|343:352|341:352|341:352|341:350|341:350|338:349|338:349|335:352|335:352|333:349|333:349|331:348|331:348|329:351|329:351|327:348|327:348|325:347|325:347|324:344|324:344|322:347|322:347|320:346|320:346|318:343|318:343|316:346|316:346|314:345|314:345|311:348|311:348|310:345|310:345|306:344,2,93.9978724325095,2|0|0,2:2|0:0|0:0,0:0:0:0:
458,334,424905,2,0,B|463:334|463:334|464:331|464:331|466:334|466:334|468:334|468:334|470:337|470:337|472:334|472:334|475:334|475:334|479:334|479:334|477:330|477:330|479:327|479:327|478:329|478:329|476:327|476:327|479:327|479:327|482:326|482:326|482:322|482:322|485:324|485:324|487:324|487:324|488:320|488:320|491:322|491:322|493:321|493:321|496:323|496:323|497:319|497:319|499:319|499:319|502:321|502:321|502:317|502:317|504:316|504:316|505:313|505:313|508:315|508:315|512:313,2,97.6639086781611,2|0|0,2:2|0:0|0:0,0:0:0:0:
283,144,425072,102,0,B|280:147|280:147|280:151|280:151|277:150|277:150|275:151|275:151|272:150|272:150|272:154|272:154|271:155|271:155|267:154|267:154|268:158|268:158|266:159|266:159|267:162|267:162|263:161|263:161|262:163|262:163|262:166|262:166|259:165|259:165|257:167|257:167|258:170|258:170|254:169|254:169|253:171|253:171|249:170|249:170|250:173|250:173|247:176|247:176|244:177|244:177|246:179|246:179|246:180|246:180|248:183|248:183|244:184|244:184|243:187,2,90.1430274066202,2|0|0,3:2|0:0|0:0,0:0:0:0:
156,369,425239,2,0,B|155:365|155:365|152:363|152:363|154:361|154:361|154:359|154:359|156:356|156:356|153:355|153:355|153:353|153:353|155:350|155:350|152:349|152:349|151:347|151:347|148:346|148:346|151:343|151:343|150:341|150:341|147:340|147:340|149:337|149:337|149:336|149:336|146:334|146:334|148:332|148:332|148:330|148:330|150:327|150:327|147:326|147:326|146:321|146:321|147:324|147:324|148:322|148:322|146:321|146:321|144:318|144:318|140:319|140:319|141:315|141:315|138:313,2,91.1301794017788,10|0|0,2:2|0:0|0:0,0:0:0:0:
24,244,425405,2,0,B|28:245|28:245|31:243|31:243|32:247|32:247|34:247|34:247|35:251|35:251|38:249|38:249|40:249|40:249|41:253|41:253|43:250|43:250|45:251|45:251|48:249|48:249|49:252|49:252|51:253|51:253|54:251|54:251|55:254|55:254|57:255|57:255|60:253|60:253|60:256|60:256|62:257|62:257|63:260|63:260|66:258|66:258|69:259|69:259|72:261|72:261|73:258|73:258|74:258|74:258|75:255|75:255|78:257|78:257|81:256,2,88.0225995128244,2|0|0,3:2|0:0|0:0,0:0:0:0:
165,367,425572,6,0,B|164:363|164:363|161:361|161:361|163:359|163:359|163:357|163:357|165:354|165:354|162:353|162:353|162:351|162:351|164:348|164:348|161:347|161:347|160:345|160:345|157:344|157:344|160:341|160:341|159:339|159:339|156:338|156:338|158:335|158:335|158:334|158:334|155:332|155:332|157:330|157:330|157:328|157:328|159:325|159:325|156:324|156:324|155:319|155:319|156:322|156:322|157:320|157:320|155:319|155:319|153:316|153:316|149:317|149:317|150:313|150:313|147:311,2,91.1301798429125,2|2|2,2:2|2:2|2:2,0:0:0:0:
127,18,425905,102,0,B|129:21|129:22|129:22|133:23|133:23|130:26|130:26|131:27|131:28|131:28|128:30|128:30|132:32|132:32|132:35|132:34|132:34|129:36|129:36|132:37|132:37|131:42|132:38|132:39|132:39|133:41|133:41|131:42,2,40.6128950876691,2|0|0,3:2|0:0|0:0,0:0:0:0:
39,95,426072,6,0,B|38:91|38:91|34:90|34:90|36:87|36:87|36:85|36:85|38:82|38:82|34:81|34:81|34:79|34:79|36:77|36:77|33:76|33:76|31:71|31:71|32:74|32:74|29:73|29:73|31:71|31:71|30:72|30:72|29:71|29:71|26:71|26:71|27:67|27:67|24:63|26:66|26:66|23:66|23:66|24:63,2,64.6379519577157,10|0|0,2:2|0:0|0:0,0:0:0:0:
119,94,426239,2,0,B|119:90|119:90|117:87|117:87|120:86|120:86|120:84|120:84|123:82|123:82|120:80|120:80|121:78|121:78|124:76|124:76|121:74|121:74|121:72|121:72|119:70|119:70|122:68|122:68|122:65|122:65|120:65|120:65|118:64|118:64|120:62|120:62|117:60|117:60|119:58|119:58|119:56|119:56|122:53|122:53|118:52|118:52|118:48,2,68.7243002303915,2|0|0,2:2|0:0|0:0,0:0:0:0:
191,126,426405,2,0,B|193:122|193:122|192:119|192:119|195:119|195:119|196:117|196:117|200:117|200:117|198:114|198:114|199:112|199:112|203:112|203:112|202:108|202:108|203:107|203:107|201:103|201:103|205:103|205:103|206:102|206:102|204:98|204:98|208:98|208:98|209:96|209:96|206:94|206:94|209:96|209:96|206:97|206:97|206:94|206:94|207:93|207:93|210:92|210:92|208:89|208:89|209:87|209:87|213:86|213:86|210:83|210:83|211:81|211:81|209:78|209:78|212:77|212:77|213:76,2,95.4193209583382,2|0|0,2:2|0:0|0:0,0:0:0:0:
243,185,426572,2,0,B|247:183|247:183|247:179|247:179|250:181|250:181|252:180|252:180|255:181|255:181|256:178|256:178|257:177|257:177|260:178|260:178|261:175|261:175|262:174|262:174|263:170|263:170|266:172|266:172|268:171|268:171|268:167|268:167|271:169|271:169|273:168|273:168|273:164|273:164|276:166|276:166|278:165|278:165|281:164|281:164|279:161|279:161|279:159|279:159|282:158|282:158|280:155|280:155|280:154|280:154|281:153|281:153|280:150|280:150|284:151|284:151|285:149|285:149|285:146|285:146|288:147|288:147|292:143|290:145|290:145|293:146|293:146|292:143,2,104.104932613186,2|0|0,2:2|0:0|0:0,0:0:0:0:
451,18,426739,102,0,B|450:18|450:18|448:21|448:21|446:19|446:19|444:19|444:19|442:22|442:22|440:19|440:19|437:19|437:19|435:17|435:17|433:20|433:20|431:20|431:20|429:17|429:17|427:20|427:20|426:21|426:21|425:24|425:24|422:21|422:21|420:20|420:20|417:21|417:21|417:18|417:18|415:17|415:17|413:14|413:14|411:16|411:16|415:17|415:17|409:16|409:16|408:13|408:13|405:15|405:15|403:15|403:15|402:12|402:12|399:15|399:15|397:14|397:14|395:17|395:17|393:14|393:14|391:13|391:13|389:16|389:16|387:13|387:13|385:12|385:12|384:9|384:9|381:12|381:12|377:11,2,120.214734273412,2|0|0,3:2|0:0|0:0,0:0:0:0:
450,134,426905,2,0,B|446:135|446:135|443:132|443:132|442:135|442:135|440:135|440:135|437:133|437:133|436:136|436:136|434:136|434:136|431:133|431:133|430:137|430:137|428:137|428:137|426:134|426:134|424:137|424:137|420:138|420:138|417:138|417:138|418:140|418:140|417:143|417:143|415:145|415:145|414:143|414:143|413:142|413:142|411:139|411:139|409:142|409:142|407:142|407:142|406:138|406:138|403:141|403:141|401:141|401:141|399:144|399:144|397:140|397:140|395:140|395:140|393:143|393:143|391:140|391:140|388:139,2,98.9007780053324,2|0|0,2:2|0:0|0:0,0:0:0:0:
458,233,427072,2,0,B|456:231|456:231|455:234|455:234|458:233|453:234|453:234|452:238|452:238|449:236|449:236|448:236|448:236|447:240|447:240|444:238|444:238|442:238|442:238|439:236|439:236|438:240|438:240|436:240|436:240|436:244|436:244|433:242|433:242|432:242|432:242|431:245|431:245|429:243|429:243|426:240|426:240|424:243|424:243|422:240|422:240|426:240|426:240|420:241|420:241|418:244|418:244|416:241|416:241|414:241|414:241|413:244|413:244|410:242|410:242|406:242,2,94.6906137853097,2|0|0,3:2|0:0|0:0,0:0:0:0:
468,308,427239,2,0,B|464:310|464:310|461:308|461:308|460:312|460:312|459:313|459:313|455:311|455:311|455:314|455:314|453:315|453:315|450:313|450:313|450:317|450:317|445:319|445:319|448:318|448:318|445:316|445:316|445:319|445:319|442:318|442:318|439:315|439:315|438:319|438:319|437:319|437:319|435:322|435:322|433:320|433:320|431:320|431:320|428:317|428:317|426:321,2,75.7585343844189,2|0|0,3:2|0:0|0:0,0:0:0:0:
291,384,427405,6,0,B|294:381|294:381|298:382|298:382|298:379|298:379|299:377|299:377|303:378|303:378|302:375|302:375|304:374|304:374|307:375|307:375|307:371|307:371|308:370|308:370|312:371|312:371|311:367|311:367|313:366|313:366|316:365|316:365|314:362|314:362|315:360|315:360|316:356|316:356|319:358|319:358|320:358|320:358|323:360|323:360|324:356|324:356|325:355|325:355|328:357|328:357|329:354|329:354|331:353|331:353|332:349|332:349|335:351|335:351|338:350,2,88.9522917568498,10|0|0,2:2|0:0|0:0,0:0:0:0:
239,257,427572,2,0,B|236:261|236:261|233:260|233:260|234:264|234:264|233:265|233:265|229:265|229:265|231:268|231:268|229:270|229:270|226:270|226:270|227:273|227:273|225:276|225:276|223:274|223:274|221:277|221:277|220:277|220:277|216:278|216:278|218:281|218:281|218:282|218:282|220:285|220:285|217:286|217:286|216:288|216:288|212:288|212:288|214:291|214:291|213:295,2,70.7965932995074,2|0|0,2:2|0:0|0:0,0:0:0:0:
126,254,427739,2,0,B|126:250|126:250|129:248|129:248|127:246|127:246|127:244|127:244|130:242|130:242|127:240|127:240|127:239|127:239|126:236|126:236|129:235|129:235|127:233|127:233|127:232|127:232|131:231|131:231|129:228|129:228|129:227|129:227|133:226|133:226|131:223|131:223|132:220,2,50.4176548585528,2|0|0,2:2|0:0|0:0,0:0:0:0:
49,228,427906,2,0,B|49:236|49:236|49:232|49:232|46:234|46:234|49:236|49:236|48:238|48:238|46:241|46:241|50:242|50:242|50:243|50:243|48:247|48:247|52:247|52:247|53:249,2,40.8840313620088,2|0|0,2:2|0:0|0:0,0:0:0:0:
22,361,428072,102,0,P|31:351|57:346,1,40,2|0,3:2|0:0,0:0:0:0:
62,336,428405,2,0,P|81:337|96:351,1,40,2|0,3:2|3:3,0:0:0:0:
207,304,428739,6,0,B|208:308|208:308|206:311|206:311|209:312|209:312|210:314|210:314|207:316|207:316|210:318|210:318|210:322|210:320|210:320|208:321|208:321|210:322,2,28.1435743780106,10|0|0,2:2|0:0|0:0,0:0:0:0:
280,239,428905,2,0,B|278:243|278:243|275:243|275:243|276:247|276:247|276:248|276:248|272:249|272:249|274:252|274:252|273:254|273:254|270:254|270:254|271:257|271:257|271:258|271:258|271:259|271:259|267:261|267:261|271:263|271:263|270:265|270:265|267:267|267:267|270:269|270:269|270:271,2,51.113686557794,2|0|0,2:2|0:0|0:0,0:0:0:0:
109,175,429072,102,0,B|113:177|113:177|114:180|114:180|117:179|117:179|118:179|118:179|119:183|119:183|122:181|122:181|124:182|124:182|124:186|124:186|127:184|127:184|130:185|130:185|129:188|129:188|132:188|132:188|133:189|133:189|132:192|132:192|135:192|135:192|137:194|137:194|140:194|140:194|139:197|139:197|140:199|140:199|139:202|139:202|143:202|143:202|144:203|144:203|143:207|143:207|146:207|146:207|148:209,2,76.0228107075797,2|0|0,2:2|0:0|0:0,0:0:0:0:
348,85,429239,2,0,B|344:87|344:87|341:85|341:85|340:89|340:89|339:90|339:90|336:88|336:88|335:91|335:91|333:92|333:92|330:91|330:91|330:94|330:94|328:95|328:95|325:93|325:93|324:97|324:97|323:98|323:98|320:96|320:96|319:99|319:99|317:100|317:100|317:104|317:104|314:102|314:102|312:103|312:103|308:104|308:104|310:107|310:107|310:109|310:109|306:109|306:109|308:112|308:112|307:114|307:114|309:117|309:117|306:118|306:118|305:120|305:120|307:123|307:123|303:123|303:123|303:125|303:125|305:128|305:128|301:129|301:129|300:131|300:131|302:134|302:134|299:134|299:134|298:136|298:136|300:139|300:139|296:140|296:140|296:141,2,124.720360974074,2|0|0,2:2|0:0|0:0,0:0:0:0:
91,66,429405,6,0,B|91:62|91:62|89:59|89:59|92:58|92:58|92:56|92:56|89:53|89:53|92:52|92:52|92:50|92:50|89:47|89:47|93:46|93:46|93:44|93:44|90:42|90:42|93:40|93:40|93:38|93:38|90:36|90:36|93:34|93:34|94:32|94:32|97:30|97:30|94:28|94:28|94:26|94:26|91:24|91:24|94:22|94:22|95:16|94:20|94:20|92:18|92:18|95:16,1,79.3693761339186,2|2,3:2|2:2,0:0:0:0:
105,70,429489,2,0,B|105:66|105:66|103:63|103:63|106:62|106:62|106:60|106:60|103:57|103:57|106:56|106:56|106:54|106:54|103:51|103:51|107:50|107:50|107:48|107:48|104:46|104:46|107:44|107:44|107:42|107:42|104:40|104:40|107:38|107:38|108:36|108:36|111:34|111:34|108:32|108:32|108:30|108:30|105:28|105:28|108:26|108:26|109:20|108:24|108:24|106:22|106:22|109:20,1,79.3693761339186,2|2,2:2|2:2,0:0:0:0:
120,61,429572,2,0,B|120:57|120:57|118:54|118:54|121:53|121:53|121:51|121:51|118:48|118:48|121:47|121:47|121:45|121:45|118:42|118:42|122:41|122:41|122:39|122:39|119:37|119:37|122:35|122:35|122:33|122:33|119:31|119:31|122:29|122:29|123:27|123:27|126:25|126:25|123:23|123:23|123:21|123:21|120:19|120:19|123:17|123:17|124:11|123:15|123:15|121:13|121:13|124:11,1,79.3693761339186,10|2,2:2|2:2,0:0:0:0:
135,63,429655,2,0,B|135:59|135:59|133:56|133:56|136:55|136:55|136:53|136:53|133:50|133:50|136:49|136:49|136:47|136:47|133:44|133:44|137:43|137:43|137:41|137:41|134:39|134:39|137:37|137:37|137:35|137:35|134:33|134:33|137:31|137:31|138:29|138:29|141:27|141:27|138:25|138:25|138:23|138:23|135:21|135:21|138:19|138:19|139:13|138:17|138:17|136:15|136:15|139:13,1,79.3693761339186,2|2,2:2|2:2,0:0:0:0:
159,59,429739,102,0,B|162:60|164:61|164:61|164:65|164:65|167:63|167:63|168:63|169:64|169:64|169:67|169:67|172:66|172:66|173:66|174:67|174:67|174:71|174:71|177:69|177:69|178:70|179:71|179:71|178:74|178:74|182:73|182:73|184:75|183:74|183:74|183:78|183:78|186:77|186:77|187:78|188:78|188:78|191:78|191:78|190:81|190:81|192:84|192:83|192:83|190:86|190:86|194:86|194:86|195:87|195:88|195:88|194:91|194:91|197:91|197:91|198:92|198:93|198:93|202:93|202:93|200:96|200:96|201:97|201:98|201:98|205:98|205:98|203:101|203:101|204:102|204:103|204:103|208:104|208:104|206:107|206:107|206:108|206:109|206:109|210:110|210:110|207:112|207:112|208:115|208:114|208:114|211:116|211:116|209:118|209:118|209:119|209:120|209:120|207:123|207:123|210:124|210:124|210:126|211:128,1,140.412139274092,2|0,3:2|0:0,0:0:0:0:
276,283,429905,6,0,B|273:281|273:281|276:279|276:279|277:278|276:283|277:277|277:277|274:275|274:275|277:273|277:273|278:272|278:271|278:271|281:270|281:270|279:268|279:268|278:268|279:266|279:266|277:263|277:263|280:262|280:262|280:263|281:260|281:260|279:257|279:257|282:256|282:256|282:257|283:254|283:254|281:251|281:251|284:251|284:251|284:252|285:249|285:249|283:246|283:246|287:245|287:245|286:246|288:244|288:244|286:240|286:240|289:240|289:240|290:239|292:236,1,80.5442736027622,10|0,2:2|0:0,0:0:0:0:
393,176,430072,102,0,P|396:183|398:199,3,20,10|0|0|0,2:2|0:0|3:3|0:0,0:0:0:0:
466,235,430405,6,0,B|459:241|459:241|467:240|467:240|450:250|450:250|471:245|471:245|445:253|445:253|473:255|473:255|450:261|438:257|438:257|447:268|471:274|471:274|444:279|429:262|429:262|434:289|464:301|464:301|421:302|414:267|414:267|402:319|456:329|456:329|393:325|396:273|396:273|386:332|438:352|438:352|383:338|378:287|378:287|381:341|420:362|420:362|380:346|363:313|363:313|379:349|408:366|408:366|378:353|362:342|362:342|378:356|398:368|398:368|375:370|364:360|364:360|374:377|386:373|386:373|375:379|369:376|369:376|375:384,1,1150,0|0,3:3|2:2,0:0:0:0:
256,192,432405,12,2,433655,2:2:0:0:
256,192,433739,12,2,435322,2:2:0:0:
256,192,435405,12,2,437322,2:2:0:0:
256,192,437405,12,2,439739,2:2:0:0:
429,265,440405,6,0,L|430:257,163,5
494,211,447294,70,0,L|180:271,1,300.000011444092,6|0,2:2|0:0,0:0:0:0:
139,327,447664,1,2,2:2:0:0:
114,246,447788,1,2,2:2:0:0:
182,190,447911,1,2,2:2:0:0:
204,276,448034,85,2,2:2:0:0:
30,295,448158,2,0,B|2:213|62:158|62:158|130:94|85:-2,1,300.000011444092,2|0,2:2|0:0,0:0:0:0:
1,0,448528,1,2,2:2:0:0:
0,0,448652,2,0,P|-3:24|7:62,3,50,2|2|2|2,2:2|2:2|2:2|2:2,0:0:0:0:
107,102,448898,6,0,P|111:60|102:21,1,82.4999974822999
94,21,449269,6,0,P|104:59|96:99,1,82.5000025177003,2|0,2:2|0:0,0:0:0:0:
16,212,449516,86,0,P|6:248|14:284,1,75.0000028610231,2|0,2:2|0:0,0:0:0:0:
109,355,449639,2,0,P|163:354|210:314,3,75.0000028610231,2|0|0|0,2:2|0:0|0:0|0:0,0:0:0:0:
253,257,449886,6,0,P|282:246|313:248,1,50,2|0,2:2|0:0,0:0:0:0:
393,300,450010,2,0,P|402:319|405:349,3,37.5000014305115,2|0|0|0,2:2|0:0|0:0|0:0,0:0:0:0:
127,257,450318,5,2,2:2:0:0:
128,250,450379,1,2,2:2:0:0:
129,244,450441,1,2,2:2:0:0:
130,238,450503,1,2,2:2:0:0:
306,345,450750,1,2,2:2:0:0:
394,57,450999,86,0,P|422:26|504:21,1,119.999996337891,2|0,2:2|0:0,0:0:0:0:
474,107,451616,1,2,2:2:0:0:
490,26,451739,6,0,P|437:28|400:65,1,100,2|0,2:2|0:0,0:0:0:0:
301,90,451924,6,0,P|299:131|322:174,1,75.0000028610231,2|0,2:2|0:0,0:0:0:0:
373,264,452047,86,0,L|537:240,1,125,2|0,2:2|0:0,0:0:0:0:
512,259,452170,2,0,L|363:280,1,150.000005722046,2|0,2:2|0:0,0:0:0:0:
226,334,452417,5,2,2:2:0:0:
302,349,452540,1,2,2:2:0:0:
379,364,452665,2,0,L|381:385,7,17.4999994659424,2|0|0|0|0|0|0|0,2:2|0:0|0:0|0:0|0:0|0:0|0:0|0:0,0:0:0:0:
226,334,453158,6,0,L|206:195,1,133.333333333333,2|2,2:2|2:2,0:0:0:0:
145,90,453488,86,0,L|153:149,1,60,2|0,2:2|0:0,0:0:0:0:
76,55,453734,6,0,P|115:61|143:88,1,80,2|0,2:2|0:0,0:0:0:0:
9,87,453858,2,0,P|38:60|78:56,1,80,2|0,2:2|0:0,0:0:0:0:
212,268,453981,6,0,P|266:262|308:223,1,112.500004291535,2|0,2:2|0:0,0:0:0:0:
387,245,454228,86,0,P|391:220|388:194,1,52.4999983978272,2|0,2:2|0:0,0:0:0:0:
321,143,454722,5,6,2:2:0:0:
412,81,454846,1,0,0:0:0:0:
412,81,454908,1,0,0:0:0:0:
412,81,454969,2,0,P|380:48|328:34,1,80
237,103,455216,5,0,0:0:0:0:
244,111,455278,1,0,0:0:0:0:
244,111,455340,1,0,0:0:0:0:
135,19,455463,85,0,0:0:0:0:
139,38,455526,1,0,0:0:0:0:
144,57,455587,1,2,2:2:0:0:
148,77,455649,1,0,0:0:0:0:
153,96,455711,1,0,0:0:0:0:
24,195,455834,6,0,L|32:147,2,33.3333333333333
106,253,455957,2,0,L|100:220,2,33.3333333333333
6,303,456081,2,0,L|11:270,2,33.3333333333333,2|0|0,2:2|0:0|0:0,0:0:0:0:
84,369,456204,5,0,0:0:0:0:
92,354,456266,1,0,0:0:0:0:
104,343,456328,1,0,0:0:0:0:
119,335,456390,1,0,0:0:0:0:
135,332,456451,2,0,P|154:357|182:364,1,50,2|0,2:2|0:0,0:0:0:0:
243,384,456575,2,0,P|272:372|286:346,1,50,2|0,2:2|0:0,0:0:0:0:
321,293,456698,2,0,P|317:261|296:241,1,50,2|0,2:2|0:0,0:0:0:0:
301,122,456822,86,0,P|351:137|390:172,1,104.999996795654,2|0,2:2|0:0,0:0:0:0:
416,265,457068,1,2,2:2:0:0:
465,111,457192,6,0,P|482:138|488:171,2,52.4999983978272,2|0|0,2:2|0:0|0:0,0:0:0:0:
416,265,457439,5,2,2:2:0:0:
414,284,457501,1,0,0:0:0:0:
405,300,457563,2,0,L|301:287,2,86.6666626993817,2|0|0,2:2|0:0|0:0,0:0:0:0:
466,378,457809,85,0,0:0:0:0:
478,368,457871,1,0,0:0:0:0:
487,357,457933,1,2,2:2:0:0:
495,344,457995,1,2,2:2:0:0:
499,329,458056,1,2,2:2:0:0:
244,32,458303,5,2,2:2:0:0:
245,41,458364,1,0,0:0:0:0:
248,49,458426,1,0,0:0:0:0:
253,57,458488,1,0,0:0:0:0:
259,64,458549,1,0,0:0:0:0:
267,70,458611,1,0,0:0:0:0:
275,74,458673,1,0,0:0:0:0:
284,77,458735,6,0,L|445:55,1,150,2|0,2:2|0:0,0:0:0:0:
493,0,458981,1,0,0:0:0:0:
404,153,459105,85,0,0:0:0:0:
416,156,459166,1,0,0:0:0:0:
428,159,459228,1,0,0:0:0:0:
361,221,459352,5,2,2:2:0:0:
379,225,459413,1,0,0:0:0:0:
397,230,459475,1,2,2:2:0:0:
415,234,459537,1,0,0:0:0:0:
433,239,459599,2,0,L|492:255,2,50,2|0|0,2:2|0:0|0:0,0:0:0:0:
296,294,459785,6,0,P|276:229|213:167,1,100,2|0,2:2|0:0,0:0:0:0:
152,235,459908,2,0,P|178:252|196:278,2,64.9999970245363,2|0|0,2:2|0:0|0:0,0:0:0:0:
75,345,460155,85,0,0:0:0:0:
82,334,460216,1,0,0:0:0:0:
91,325,460278,1,0,0:0:0:0:
103,319,460340,1,0,0:0:0:0:
116,316,460403,2,0,L|135:379,2,66.6666666666667
227,213,460649,5,0,0:0:0:0:
227,213,460732,6,0,L|209:281,1,66.6666666666667
128,107,460896,86,0,P|128:148|93:169,1,85.0000016212464,2|0,2:2|0:0,0:0:0:0:
84,176,461061,2,0,P|50:162|46:108,1,85.0000016212464,2|0,2:2|0:0,0:0:0:0:
33,107,461226,2,0,P|43:86|68:68,1,50.0000019073487,2|0,2:2|0:0,0:0:0:0:
191,27,461431,5,2,2:2:0:0:
218,49,461493,1,0,0:0:0:0:
233,86,461556,2,0,L|240:146,3,50
358,217,461802,6,0,P|399:223|421:196,1,75.0000028610231,2|0,2:2|0:0,0:0:0:0:
415,189,461926,2,0,P|374:182|348:220,1,75.0000028610231,2|0,2:2|0:0,0:0:0:0:
270,299,462049,86,0,P|225:264|248:209,1,112.500004291535,2|0,2:2|0:0,0:0:0:0:
280,288,462296,2,0,P|227:279|215:227,1,112.500004291535,2|0,2:2|0:0,0:0:0:0:
146,184,462543,5,8,2:2:0:0:
97,177,462604,1,8,2:2:0:0:
54,201,462666,1,8,2:2:0:0:
36,247,462728,1,8,2:2:0:0:
49,295,462790,6,0,P|64:331|63:363,2,66.6666666666667,6|0|0,3:2|0:0|0:0,0:0:0:0:
0,145,463036,1,0,0:0:0:0:
154,191,463160,1,0,3:3:0:0:
154,191,463222,1,0,3:3:0:0:
154,191,463283,2,0,P|203:181|234:144,1,100,8|0,2:2|0:0,0:0:0:0:
151,84,463530,85,0,0:0:0:0:
240,149,463654,2,0,P|254:80|284:2,2,139.999995727539,2|0|0,2:2|0:0|3:3,0:0:0:0:
341,230,464024,6,0,P|335:181|348:141,1,69.9999978637696
437,201,464148,2,0,P|427:179|422:152,2,33.3333333333333,2|0|0,3:2|0:0|0:0,0:0:0:0:
502,161,464271,2,0,P|451:220|458:288,1,150.000005722046,8|0,2:2|0:0,0:0:0:0:
396,369,464518,5,2,2:2:0:0:
353,337,464600,85,0,0:0:0:0:
329,293,464682,5,0,0:0:0:0:
328,242,464765,5,2,3:2:0:0:
304,286,464847,85,2,2:2:0:0:
267,319,464929,5,0,0:0:0:0:
216,328,465011,5,2,2:2:0:0:
75,256,465135,2,0,P|84:244|109:226,2,33.3333333333333,2|0|0,3:2|0:0|0:0,0:0:0:0:
137,296,465258,86,0,P|107:205|125:137,1,150.000005722046,8|2,2:2|2:2,0:0:0:0:
270,93,465506,1,2,2:2:0:0:
259,108,465567,1,2,2:2:0:0:
242,118,465629,1,2,3:2:0:0:
224,119,465691,1,2,2:2:0:0:
206,112,465752,1,10,2:2:0:0:
56,84,465876,5,2,2:2:0:0:
93,59,465937,1,2,2:2:0:0:
137,64,465999,1,2,3:2:0:0:
179,203,466123,1,8,2:2:0:0:
350,84,466246,6,0,P|340:130|320:163,2,66.6666666666667,2|2|2,2:2|2:2|2:2,0:0:0:0:
291,11,466494,85,2,3:2:0:0:
404,12,466617,1,0,0:0:0:0:
404,12,466679,1,0,0:0:0:0:
404,12,466740,1,0,0:0:0:0:
477,96,466864,1,0,3:3:0:0:
477,96,466926,1,0,3:3:0:0:
477,96,466987,2,0,P|478:138|458:182,1,75.0000028610231,8|0,2:2|0:0,0:0:0:0:
391,375,467234,5,2,2:2:0:0:
286,321,467358,1,10,2:2:0:0:
304,318,467419,1,8,2:2:0:0:
323,320,467481,1,8,2:2:0:0:
339,327,467543,6,0,P|358:360|392:375,1,75.0000028610231,2|0,2:2|0:0,0:0:0:0:
469,280,467666,2,0,P|450:247|416:232,1,75.0000028610231,10|0,2:2|0:0,0:0:0:0:
335,157,467790,86,0,P|312:179|304:227,1,50,2|0,3:2|0:0,0:0:0:0:
222,209,467913,2,0,P|229:239|267:270,1,50,2|0,3:2|0:0,0:0:0:0:
205,329,468036,1,10,2:2:0:0:
59,233,468160,6,0,P|60:253|71:273,5,33.3333333333333,0|0|0|0|0|0,3:3|0:0|0:0|0:0|0:0|0:0,0:0:0:0:
141,245,468407,2,0,P|139:224|128:204,5,33.3333333333333
70,130,468653,5,10,2:2:0:0:
52,121,468736,85,10,2:2:0:0:
53,103,468818,5,10,2:2:0:0:
72,98,468900,5,10,2:2:0:0:
81,114,468983,85,2,3:2:0:0:
1,316,469230,5,10,2:2:0:0:
122,371,469353,1,10,2:2:0:0:
224,266,469476,5,2,3:2:0:0:
213,271,469538,1,0,0:0:0:0:
210,283,469600,1,0,0:0:0:0:
235,360,469723,1,10,2:2:0:0:
343,278,469847,85,2,2:2:0:0:
330,273,469909,1,0,0:0:0:0:
318,280,469970,2,0,P|339:313|339:341,2,50.0000019073487,8|8|8,2:2|2:2|2:2,0:0:0:0:
421,305,470094,2,0,P|423:340|405:388,2,75.0000028610231,8|2|2,2:2|3:2|3:2,0:0:0:0:
480,161,470340,5,0,0:0:0:0:
493,168,470402,1,0,0:0:0:0:
498,181,470463,1,0,0:0:0:0:
427,221,470587,1,0,3:3:0:0:
364,168,470710,5,8,2:2:0:0:
371,155,470772,1,0,0:0:0:0:
384,150,470833,1,0,0:0:0:0:
427,221,470957,1,0,0:0:0:0:
268,211,471081,86,0,P|267:167|298:62,1,150.000005722046,2|0,3:2|0:0,0:0:0:0:
129,123,471327,5,0,0:0:0:0:
147,129,471388,1,0,0:0:0:0:
163,140,471450,1,0,0:0:0:0:
175,153,471512,1,0,0:0:0:0:
184,170,471573,1,2,3:2:0:0:
88,242,471698,2,0,P|94:215|105:197,2,37.5000014305115,10|0|0,2:2|0:0|0:0,0:0:0:0:
120,382,471945,5,8,2:2:0:0:
120,382,472006,1,8,2:2:0:0:
120,382,472068,2,0,P|127:364|130:346,1,37.5000014305115,8|0,2:2|0:0,0:0:0:0:
242,355,472191,85,10,2:2:0:0:
242,355,472253,1,8,2:2:0:0:
242,355,472315,2,0,P|237:316|167:233,2,135.000000514984,2|0|2,3:2|0:0|2:2,0:0:0:0:
377,383,472685,2,0,P|394:349|390:294,2,50,2|0|8,3:2|0:0|2:2,0:0:0:0:
506,302,472932,6,0,P|499:277|486:256,1,50,2|0,2:2|0:0,0:0:0:0:
422,197,473056,2,0,L|338:184,2,75,2|0|0,3:2|0:0|0:0,0:0:0:0:
499,151,473303,1,0,0:0:0:0:
420,41,473426,6,0,P|397:61|382:90,1,50,10|2,2:2|2:2,0:0:0:0:
347,185,473549,1,10,2:2:0:0:
370,157,473610,1,10,2:2:0:0:
383,123,473672,1,10,2:2:0:0:
380,87,473734,1,10,2:2:0:0:
363,56,473795,1,10,2:2:0:0:
333,35,473857,1,10,2:2:0:0:
297,31,473919,1,10,2:2:0:0:
263,42,473981,1,10,2:2:0:0:
238,68,474042,1,10,2:2:0:0:
233,98,474104,1,10,2:2:0:0:
238,117,474166,1,10,2:2:0:0:
246,127,474229,86,0,P|267:124|292:111,4,37.5000014305115,2|0|2|0|0,3:2|0:0|2:2|0:0|0:0,0:0:0:0:
127,16,474599,5,0,3:3:0:0:
113,32,474660,1,0,3:3:0:0:
110,53,474722,1,8,2:2:0:0:
254,145,474846,2,0,P|269:140|294:120,5,37.5000014305115,0|0|2|0|2|2,0:0|0:0|2:2|0:0|2:2|2:2,0:0:0:0:
0,149,475279,6,0,P|52:146|94:182,1,94.9999974632264,2|0,3:2|0:0,0:0:0:0:
17,292,475402,2,0,P|41:267|75:262,1,69.9999978637696,2|0,2:2|0:0,0:0:0:0:
119,374,475525,2,0,P|122:352|130:335,1,32.4999985122681,2|0,3:2|0:0,0:0:0:0:
215,376,475649,1,0,3:3:0:0:
215,376,475711,1,0,3:3:0:0:
215,376,475772,2,0,P|208:363|206:349,1,17.4999994659424,10|0,3:2|0:0,0:0:0:0:
338,319,475897,86,0,L|326:394,2,66.6666666666667,0|0|0,3:3|0:0|0:0,0:0:0:0:
458,245,476143,5,0,3:3:0:0:
436,200,476226,5,0,0:0:0:0:
464,133,476308,85,8,2:2:0:0:
406,72,476390,6,0,P|394:36|405:-4,1,73.3333355712891,10|2,2:2|2:2,0:0:0:0:
497,8,476555,6,0,P|502:29|494:72,2,50.0000019073487,8|8|2,2:2|2:2|2:2,0:0:0:0:
338,112,476802,86,0,L|254:106,1,75.0000028610231,8|10,2:2|2:2,0:0:0:0:
181,42,477008,5,8,2:2:0:0:
141,106,477090,5,8,2:2:0:0:
179,175,477172,85,10,2:2:0:0:
179,175,477214,6,0,P|189:207|180:235,3,50,2|2|2|2,3:2|2:2|2:2|2:2,0:0:0:0:
89,292,477460,6,0,P|68:251|74:193,1,75.0000028610231,2|0,3:2|0:0,0:0:0:0:
150,334,477584,2,0,P|106:319|70:274,1,75.0000028610231,2|0,2:2|0:0,0:0:0:0:
269,304,477707,86,0,P|214:297|151:348,1,129.999994049073,2|2,2:2|3:2,0:0:0:0:
356,384,477954,1,2,2:2:0:0:
385,257,478078,1,10,2:2:0:0:
385,257,478139,1,10,2:2:0:0:
385,257,478201,102,0,P|377:221|362:189,8,43.3333313496908,2|0|0|0|0|0|0|0|0,3:2|0:0|0:0|0:0|0:0|0:0|0:0|0:0|0:0,0:0:0:0:
293,170,478573,38,0,B|296:148|309:140|309:140|320:133|330:95,8,64.9999970245363,0|0|0|0|0|0|0|0|2,0:0|0:0|0:0|0:0|0:0|0:0|0:0|0:0|2:2,0:0:0:0:
231,23,479191,70,0,P|184:20|121:87,1,119.999996337891,12|0,3:2|0:0,0:0:0:0:
30,138,479355,37,0,0:0:0:0:
33,144,479437,2,0,P|144:164|160:243,1,179.999994506836,8|0,3:2|0:0,0:0:0:0:
132,292,479601,69,0,0:0:0:0:
132,292,479684,2,0,P|21:272|5:193,1,179.999994506836,0|0,3:3|0:0,0:0:0:0:
30,138,479849,37,0,0:0:0:0:
33,144,479931,2,0,P|144:164|160:243,1,179.999994506836,8|0,3:2|0:0,0:0:0:0:
223,290,480096,69,0,0:0:0:0:
223,290,480178,2,0,P|334:270|350:191,1,179.999994506836,8|0,3:2|0:0,0:0:0:0:
455,188,480342,37,0,0:0:0:0:
455,188,480424,2,0,P|344:168|328:89,1,179.999994506836,8|0,3:2|0:0,0:0:0:0:
291,33,480589,69,0,0:0:0:0:
291,33,480671,2,0,L|266:223,1,179.999994506836,8|0,3:2|0:0,0:0:0:0:
356,362,480836,37,0,0:0:0:0:
313,384,480918,2,0,L|336:281,1,96.6666696166993,8|8,3:2|3:2,0:0:0:0:
55,43,481165,69,0,3:3:0:0:
64,87,481247,1,0,3:3:0:0:
45,129,481330,1,8,3:2:0:0:
55,173,481412,1,0,3:3:0:0:
303,373,481577,37,0,3:3:0:0:
341,295,481661,2,0,B|429:321|429:321|529:269,1,179.999994506836,8|0,3:2|0:0,0:0:0:0:
497,206,481825,69,0,0:0:0:0:
497,206,481907,2,0,B|413:176|413:176|309:232,1,179.999994506836,8|0,3:2|0:0,0:0:0:0:
244,265,482072,37,0,0:0:0:0:
244,265,482154,2,0,L|38:244,1,179.999994506836,8|0,3:2|0:0,0:0:0:0:
46,154,482319,69,0,0:0:0:0:
46,154,482401,2,0,L|252:133,1,179.999994506836,8|0,3:2|0:0,0:0:0:0:
268,58,482566,37,0,0:0:0:0:
268,58,482649,2,0,P|327:55|402:167,1,179.999994506836,8|0,3:2|0:0,0:0:0:0:
351,231,482813,69,0,0:0:0:0:
351,231,482896,2,0,P|290:232|216:120,1,179.999994506836,8|0,3:2|0:0,0:0:0:0:
310,145,483060,37,0,0:0:0:0:
310,145,483142,2,0,P|252:255|229:341,1,209.999993591309,8|0,3:2|0:0,0:0:0:0:
114,373,483307,69,0,0:0:0:0:
63,321,483389,2,0,L|-3:292,1,66.6666666666667,8|8,3:2|3:2,0:0:0:0:
485,328,483636,37,8,3:2:0:0:
434,289,483719,1,0,3:3:0:0:
376,313,483801,1,8,3:2:0:0:
114,373,484048,69,0,3:3:0:0:
63,321,484131,2,0,L|36:115,1,179.999994506836,8|0,3:2|0:0,0:0:0:0:
23,68,484295,37,0,0:0:0:0:
23,68,484377,2,0,P|76:42|116:137,1,179.999994506836,8|0,3:2|0:0,0:0:0:0:
142,226,484542,69,0,0:0:0:0:
139,206,484624,2,0,P|165:150|279:157,1,179.999994506836,8|0,3:2|0:0,0:0:0:0:
378,199,484789,37,0,0:0:0:0:
374,225,484871,2,0,P|313:240|245:149,1,179.999994506836,8|0,3:2|0:0,0:0:0:0:
218,43,485036,69,0,0:0:0:0:
243,36,485119,2,0,P|292:71|266:181,1,179.999994506836,8|0,3:2|0:0,0:0:0:0:
205,278,485283,37,0,0:0:0:0:
196,282,485365,2,0,P|193:367|272:332,1,179.999994506836,8|0,3:2|0:0,0:0:0:0:
340,341,485530,69,0,0:0:0:0:
347,340,485612,2,0,P|404:343|368:306,1,133.333333333333,8|0,3:2|0:0,0:0:0:0:
307,270,485859,37,8,3:2:0:0:
376,335,485942,2,0,P|458:323|502:166,1,239.999992675781,8|0,3:2|0:0,0:0:0:0:
375,55,486188,69,0,3:3:0:0:
440,74,486271,1,8,3:2:0:0:
474,17,486353,1,0,3:3:0:0:
287,122,486518,37,0,3:3:0:0:
225,66,486601,2,0,B|95:51|95:51|21:106,1,179.999994506836,8|0,3:2|0:0,0:0:0:0:
22,172,486765,69,0,0:0:0:0:
22,172,486847,2,0,B|74:292|74:292|158:328,1,179.999994506836,8|0,3:2|0:0,0:0:0:0:
222,281,487012,37,0,0:0:0:0:
222,281,487094,2,0,B|299:175|299:175|289:84,1,179.999994506836,8|0,3:2|0:0,0:0:0:0:
361,95,487259,69,0,0:0:0:0:
361,95,487341,2,0,B|371:173|371:173|408:196,1,119.999996337891,8|0,3:2|0:0,0:0:0:0:
491,163,487506,37,0,0:0:0:0:
491,163,487589,2,0,B|481:85|481:85|444:62,1,119.999996337891,8|0,3:2|0:0,0:0:0:0:
361,95,487753,69,0,0:0:0:0:
361,95,487835,2,0,B|371:173|371:173|408:196,1,119.999996337891,8|0,3:2|0:0,0:0:0:0:
481,253,488000,37,0,0:0:0:0:
481,253,488082,2,0,B|471:331|471:331|434:354,1,119.999996337891,8|0,3:2|0:0,0:0:0:0:
358,321,488247,69,8,3:2:0:0:
285,353,488329,1,8,3:2:0:0:
64,227,488494,37,8,3:2:0:0:
67,213,488576,1,0,3:3:0:0:
48,185,488658,69,8,3:2:0:0:
50,172,488740,1,0,3:3:0:0:
0,120,488823,37,8,3:2:0:0:
3,40,488905,1,10,3:2:0:0:
71,0,488987,1,8,3:2:0:0:
142,44,489071,70,0,B|282:28|282:28|295:35|295:35|416:13,1,239.999992675781,2|0,3:2|0:0,0:0:0:0:
510,62,489317,38,0,P|450:68|395:187,1,179.999994506836,8|0,3:2|0:0,0:0:0:0:
409,251,489482,69,0,0:0:0:0:
409,251,489564,2,0,P|433:196|358:88,1,179.999994506836,8|0,3:2|0:0,0:0:0:0:
286,113,489729,37,0,0:0:0:0:
286,113,489811,2,0,P|261:167|336:275,1,179.999994506836,8|0,3:2|0:0,0:0:0:0:
355,352,489976,69,0,0:0:0:0:
366,356,490059,2,0,P|331:307|200:318,1,179.999994506836,8|0,3:2|0:0,0:0:0:0:
180,241,490223,37,0,0:0:0:0:
171,235,490305,2,0,P|136:283|6:272,1,179.999994506836,8|0,3:2|0:0,0:0:0:0:
1,212,490470,69,0,0:0:0:0:
1,212,490552,2,0,P|35:163|166:174,1,179.999994506836,8|0,3:2|0:0,0:0:0:0:
240,181,490717,37,0,3:3:0:0:
296,198,490799,1,8,3:2:0:0:
340,162,490882,1,8,3:2:0:0:
228,7,491046,69,0,3:3:0:0:
242,65,491128,1,0,3:3:0:0:
298,81,491211,1,8,3:2:0:0:
336,37,491293,1,0,3:3:0:0:
478,271,491458,37,0,3:3:0:0:
454,202,491541,2,0,P|434:286|419:378,1,179.999994506836,8|0,3:2|0:0,0:0:0:0:
331,382,491705,69,0,0:0:0:0:
331,382,491787,2,0,P|311:298|296:206,1,179.999994506836,8|0,3:2|0:0,0:0:0:0:
221,151,491952,37,0,0:0:0:0:
221,151,492034,2,0,P|169:102|66:142,1,179.999994506836,8|0,3:2|0:0,0:0:0:0:
63,213,492199,69,0,0:0:0:0:
63,213,492281,2,0,P|114:261|217:221,1,179.999994506836,8|0,3:2|0:0,0:0:0:0:
295,205,492446,37,0,0:0:0:0:
295,205,492529,2,0,P|309:116|330:28,1,179.999994506836,8|0,3:2|0:0,0:0:0:0:
418,25,492693,69,0,0:0:0:0:
418,25,492775,2,0,P|438:112|452:201,1,179.999994506836,8|0,3:2|0:0,0:0:0:0:
449,283,492940,37,0,0:0:0:0:
449,283,493022,2,0,P|386:248|378:177,1,119.999996337891,8|0,3:2|0:0,0:0:0:0:
322,22,493187,69,0,3:3:0:0:
264,40,493269,1,8,3:2:0:0:
244,93,493352,1,8,3:2:0:0:
78,360,493516,38,0,P|29:329|49:267,1,119.999996337891,2|2,3:2|2:2,0:0:0:0:
121,241,493681,2,0,P|170:272|150:334,1,119.999996337891,2|0,3:2|0:0,0:0:0:0:
11,154,493928,69,8,3:2:0:0:
56,89,494010,2,0,B|107:77|140:112|140:112|171:147|235:140,1,179.999994506836,8|0,3:2|0:0,0:0:0:0:
317,101,494174,37,2,2:2:0:0:
317,101,494256,2,0,P|314:37|221:72,1,179.999994506836,8|0,3:2|0:0,0:0:0:0:
224,146,494421,69,0,0:0:0:0:
224,146,494503,2,0,P|275:183|306:89,1,179.999994506836,8|0,3:2|0:0,0:0:0:0:
398,20,494668,37,0,0:0:0:0:
398,20,494750,2,0,P|443:91|437:200,1,179.999994506836,8|0,3:2|0:0,0:0:0:0:
486,258,494915,69,0,0:0:0:0:
486,258,494998,2,0,P|429:319|322:342,1,179.999994506836,8|0,3:2|0:0,0:0:0:0:
295,270,495162,37,0,0:0:0:0:
295,270,495244,2,0,P|351:208|458:185,1,179.999994506836,8|0,3:2|0:0,0:0:0:0:
486,258,495409,69,0,0:0:0:0:
486,258,495491,2,0,P|429:319|322:342,1,179.999994506836,8|0,3:2|0:0,0:0:0:0:
202,319,495656,37,0,3:3:0:0:
148,303,495738,1,8,3:2:0:0:
125,351,495821,1,8,3:2:0:0:
198,196,495985,69,0,3:3:0:0:
172,143,496068,1,0,3:3:0:0:
117,133,496150,1,8,3:2:0:0:
71,171,496232,1,0,3:3:0:0:
227,40,496397,37,0,3:3:0:0:
192,0,496479,2,0,P|308:54|368:61,1,179.999994506836,2|0,3:2|0:0,0:0:0:0:
446,61,496643,69,0,0:0:0:0:
446,61,496725,2,0,P|358:78|279:121,1,179.999994506836,8|0,3:2|0:0,0:0:0:0:
205,196,496890,37,0,0:0:0:0:
205,196,496972,2,0,P|260:246|384:256,1,179.999994506836,8|0,3:2|0:0,0:0:0:0:
457,184,497137,69,0,0:0:0:0:
473,152,497219,2,0,P|401:189|366:288,1,179.999994506836,8|0,3:2|0:0,0:0:0:0:
456,384,497384,37,0,3:3:0:0:
509,356,497466,1,8,3:2:0:0:
499,297,497548,1,0,3:3:0:0:
440,287,497630,1,0,3:3:0:0:
412,341,497712,2,0,P|355:355|296:249,1,179.999994506836,8|0,3:2|0:0,0:0:0:0:
215,216,497877,69,0,0:0:0:0:
215,216,497959,2,0,P|240:183|292:174,1,86.6666626993817,8|0,3:2|3:3,0:0:0:0:
151,309,498124,37,8,3:2:0:0:
100,258,498206,1,8,3:2:0:0:
104,245,498289,1,0,3:3:0:0:
49,197,498371,69,8,3:2:0:0:
45,184,498454,1,0,3:3:0:0:
110,137,498535,37,8,3:2:0:0:
114,124,498618,1,0,3:3:0:0:
70,55,498700,69,8,3:2:0:0:
28,113,498783,1,8,3:2:0:0:
45,184,498865,2,0,L|93:396,1,199.999993896485,10|0,3:2|3:3,0:0:0:0:
207,376,499193,53,8,2:2:0:0:
230,305,499303,6,0,P|252:313|274:334,1,44.4444444444444,0|0,3:3|3:3,0:0:0:0:
355,282,499440,101,0,0:0:0:0:
355,282,499495,1,0,0:0:0:0:
355,282,499550,2,0,P|367:307|370:338,2,44.4444444444444,8|0|0,2:2|0:0|0:0,0:0:0:0:
460,319,499742,6,0,P|456:356|445:381,1,44.4444444444444,0|2,0:0|0:0,0:0:0:0:
207,376,499935,101,8,2:2:0:0:
145,283,500058,2,0,P|156:251|216:218,1,100,8|0,2:2|3:3,0:0:0:0:
50,323,500305,21,8,2:2:0:0:
42,306,500387,5,8,2:2:0:0:
38,287,500469,5,8,2:2:0:0:
39,269,500551,85,8,2:2:0:0:
42,251,500634,5,8,2:2:0:0:
50,234,500716,5,8,2:2:0:0:
61,219,500798,85,8,2:2:0:0:
75,207,500881,5,8,2:2:0:0:
91,198,500963,5,8,2:2:0:0:
106,194,501046,6,0,L|95:131,2,50,6|2|2,3:2|2:2|2:2,0:0:0:0:
129,340,501291,1,10,2:2:0:0:
232,215,501415,6,0,L|243:152,2,50,2|2|2,2:2|2:2|3:2,0:0:0:0:
204,367,501661,1,10,2:2:0:0:
313,282,501785,5,10,2:2:0:0:
325,278,501846,1,10,2:2:0:0:
337,279,501908,1,2,3:2:0:0:
349,284,501970,1,2,2:2:0:0:
360,291,502032,1,10,2:2:0:0:
388,331,502093,1,2,2:2:0:0:
435,345,502155,1,2,2:2:0:0:
481,325,502217,1,2,3:2:0:0:
503,280,502278,1,10,2:2:0:0:
505,243,502340,1,2,2:2:0:0:
498,220,502402,1,2,2:2:0:0:
486,203,502464,1,2,3:2:0:0:
474,196,502525,85,10,2:2:0:0:
356,155,502649,1,10,2:2:0:0:
449,37,502772,6,0,P|450:64|442:86,3,50,2|2|2|2,3:2|2:2|2:2|2:2,0:0:0:0:
356,155,503019,1,10,2:2:0:0:
337,155,503080,1,2,2:2:0:0:
319,151,503142,1,2,3:2:0:0:
302,142,503204,1,2,2:2:0:0:
289,128,503266,2,0,P|273:101|270:75,1,50,2|0,2:2|0:0,0:0:0:0:
232,0,503389,5,10,2:2:0:0:
212,9,503450,1,2,2:2:0:0:
197,24,503512,1,2,2:2:0:0:
191,42,503574,1,2,2:2:0:0:
188,62,503636,1,2,2:2:0:0:
179,88,503697,1,2,2:2:0:0:
152,120,503759,1,10,2:2:0:0:
93,128,503821,1,2,2:2:0:0:
41,98,503883,86,0,L|55:37,2,50,2|2|2,2:2|2:2|3:2,0:0:0:0:
2,194,504068,2,0,L|13:242,2,50,2|10|2,2:2|2:2|2:2,0:0:0:0:
41,98,504253,5,2,2:2:0:0:
102,90,504314,1,2,2:2:0:0:
152,120,504376,2,0,P|170:151|173:185,1,50,10|0,2:2|0:0,0:0:0:0:
122,284,504500,6,0,P|139:252|167:233,1,50,8|0,2:2|0:0,0:0:0:0:
241,205,504623,2,0,P|276:204|307:219,1,50,2|2,2:2|2:2,0:0:0:0:
423,317,504746,1,10,2:2:0:0:
423,328,504808,1,2,2:2:0:0:
392,345,504869,1,10,2:2:0:0:
345,346,504931,1,10,2:2:0:0:
305,324,504993,1,10,2:2:0:0:
288,280,505055,86,0,L|301:221,3,50,2|2|2|2,3:2|2:2|2:2|2:2,0:0:0:0:
386,223,505301,2,0,L|399:164,1,50
488,147,505425,5,10,2:2:0:0:
485,137,505486,1,2,2:2:0:0:
482,127,505548,1,2,3:2:0:0:
480,118,505610,1,2,2:2:0:0:
477,108,505671,1,2,2:2:0:0:
474,98,505733,1,0,0:0:0:0:
472,89,505795,5,10,2:2:0:0:
428,64,505856,1,2,2:2:0:0:
378,62,505918,1,2,2:2:0:0:
334,84,505980,1,2,2:2:0:0:
304,123,506041,1,2,2:2:0:0:
296,172,506104,2,0,L|306:225,1,50,2|0,3:2|0:0,0:0:0:0:
220,334,506227,85,10,2:2:0:0:
167,351,506288,1,10,2:2:0:0:
113,342,506350,1,10,2:2:0:0:
71,306,506412,1,8,2:2:0:0:
52,255,506474,2,0,P|60:218|79:190,3,50,2|2|2|2,3:2|2:2|2:2|2:2,0:0:0:0:
162,173,506721,5,2,3:2:0:0:
171,174,506782,1,2,2:2:0:0:
182,178,506844,1,2,2:2:0:0:
194,183,506906,1,2,2:2:0:0:
205,192,506968,2,0,P|229:224|233:250,3,50,10|2|2|2,2:2|2:2|3:2|2:2,0:0:0:0:
302,348,507215,5,2,3:2:0:0:
302,348,507277,1,2,3:2:0:0:
302,348,507339,2,0,P|312:321|319:282,1,50,10|0,2:2|0:0,0:0:0:0:
400,276,507462,2,0,P|388:241|367:215,3,50,2|2|2|2,3:2|2:2|3:2|2:2,0:0:0:0:
334,153,507709,86,0,P|314:139|292:132,6,33.3333333333333,2|2|2|2|10|2|2,3:2|2:2|2:2|2:2|2:2|2:2|2:2,0:0:0:0:
219,191,508039,5,2,3:2:0:0:
218,206,508100,1,2,2:2:0:0:
223,222,508162,1,10,2:2:0:0:
232,236,508224,1,2,2:2:0:0:
245,246,508285,1,10,2:2:0:0:
260,254,508347,1,2,2:2:0:0:
276,257,508409,1,10,2:2:0:0:
296,254,508471,1,10,2:2:0:0:
345,236,508532,1,10,3:2:0:0:
393,225,508593,1,2,2:2:0:0:
439,242,508655,1,2,2:2:0:0:
471,280,508717,1,2,2:2:0:0:
448,353,508779,6,0,P|414:329|401:301,3,50,2|0|0|0,3:2|0:0|0:0|0:0,0:0:0:0:
385,217,509026,86,0,P|396:186|424:152,2,50,10|2|2,2:2|2:2|2:2,0:0:0:0:
326,327,509211,2,0,P|334:351|346:373,2,50,10|2|2,2:2|2:2|2:2,0:0:0:0:
258,222,509397,5,2,3:2:0:0:
234,206,509458,1,2,2:2:0:0:
207,198,509520,1,2,2:2:0:0:
179,198,509582,1,2,2:2:0:0:
152,207,509643,1,10,2:2:0:0:
129,222,509705,1,0,0:0:0:0:
112,244,509767,1,2,2:2:0:0:
101,270,509829,1,0,0:0:0:0:
99,298,509890,2,0,P|123:310|162:309,3,50,2|2|10|2,3:2|2:2|2:2|2:2,0:0:0:0:
222,335,510137,2,0,P|245:321|266:287,3,50,2|0|2|0,2:2|0:0|3:2|0:0,0:0:0:0:
258,222,510385,5,10,2:2:0:0:
227,188,510447,1,2,2:2:0:0:
216,145,510508,1,2,2:2:0:0:
228,102,510570,1,2,3:2:0:0:
259,70,510631,1,10,2:2:0:0:
291,57,510693,1,2,2:2:0:0:
318,58,510755,1,2,2:2:0:0:
339,66,510817,1,2,3:2:0:0:
355,77,510878,2,0,P|366:96|395:114,1,50,10|2,2:2|2:2,0:0:0:0:
459,35,511002,2,0,P|447:15|418:-3,1,50,10|0,2:2|0:0,0:0:0:0:
306,155,511125,85,2,3:2:0:0:
330,183,511186,1,2,2:2:0:0:
362,201,511248,1,2,2:2:0:0:
399,206,511310,1,2,2:2:0:0:
443,199,511372,1,10,2:2:0:0:
460,189,511434,1,2,2:2:0:0:
465,179,511496,2,0,L|475:240,3,50,2|0|2|0,3:2|0:0|2:2|0:0,0:0:0:0:
392,291,511742,6,0,L|399:340,1,50,10|2,2:2|2:2,0:0:0:0:
306,155,511866,1,2,2:2:0:0:
271,140,511927,1,2,2:2:0:0:
234,143,511989,1,2,2:2:0:0:
203,163,512051,1,2,2:2:0:0:
185,196,512113,2,0,L|176:245,1,50,10|0,2:2|0:0,0:0:0:0:
249,312,512236,5,2,2:2:0:0:
253,289,512297,1,2,2:2:0:0:
256,267,512359,1,2,3:2:0:0:
261,245,512421,1,0,0:0:0:0:
264,223,512482,1,10,2:2:0:0:
455,175,512606,85,2,2:2:0:0:
450,191,512668,1,2,2:2:0:0:
431,210,512729,1,10,2:2:0:0:
392,217,512790,1,2,2:2:0:0:
346,198,512852,1,10,2:2:0:0:
315,159,512914,1,2,2:2:0:0:
308,111,512976,2,0,L|319:44,1,50,2|2,2:2|2:2,0:0:0:0:
185,196,513100,2,0,L|176:245,1,50,10|0,2:2|0:0,0:0:0:0:
48,73,513223,5,10,2:2:0:0:
54,109,513284,1,10,2:2:0:0:
61,146,513346,1,10,2:2:0:0:
67,183,513408,2,0,L|80:250,3,50,2|2|2|2,3:2|2:2|2:2|2:2,0:0:0:0:
166,253,513654,2,0,L|179:320,1,50
267,372,513778,6,0,L|276:323,3,37.5000014305115,10|2|2|2,2:2|2:2|3:2|2:2,0:0:0:0:
346,303,514025,2,0,L|355:254,1,37.5000014305115
348,173,514148,85,10,2:2:0:0:
331,193,514209,1,2,2:2:0:0:
308,204,514271,1,2,2:2:0:0:
282,205,514333,1,2,2:2:0:0:
258,195,514394,1,2,2:2:0:0:
239,176,514457,1,2,3:2:0:0:
237,169,514518,1,0,0:0:0:0:
235,162,514580,1,10,2:2:0:0:
186,138,514641,1,10,2:2:0:0:
134,145,514703,1,10,2:2:0:0:
92,178,514765,1,10,2:2:0:0:
74,236,514827,6,0,P|74:264|97:300,3,50,2|2|2|2,3:2|2:2|2:2|2:2,0:0:0:0:
153,343,515075,1,2,3:2:0:0:
159,325,515136,1,2,2:2:0:0:
170,310,515198,1,2,2:2:0:0:
185,299,515260,1,2,2:2:0:0:
203,294,515321,2,0,P|223:316|235:345,1,50,10|0,2:2|0:0,0:0:0:0:
299,384,515445,2,0,P|312:362|319:339,1,50,2|2,3:2|2:2,0:0:0:0:
456,273,515568,6,0,L|464:306,2,33.3333333333333,2|2|2,2:2|2:2|2:2,0:0:0:0:
495,205,515692,1,10,2:2:0:0:
497,188,515753,1,2,2:2:0:0:
499,171,515815,1,2,3:2:0:0:
501,155,515877,1,2,2:2:0:0:
503,138,515938,1,2,3:2:0:0:
506,122,516000,1,2,2:2:0:0:
508,105,516062,86,0,L|515:55,2,33.3333333333333,2|2|2,3:2|2:2|2:2,0:0:0:0:
401,139,516227,6,0,L|397:173,2,33.3333333333333,10|2|2,2:2|2:2|2:2,0:0:0:0:
301,97,516392,5,2,3:2:0:0:
301,97,516453,1,2,2:2:0:0:
301,97,516515,2,0,L|289:25,1,50,10|0,2:2|0:0,0:0:0:0:
199,1,516638,2,0,L|211:73,1,50,10|0,2:2|0:0,0:0:0:0:
159,140,516762,85,10,2:2:0:0:
112,139,516824,1,10,2:2:0:0:
79,107,516885,1,2,3:2:0:0:
66,91,516946,1,2,2:2:0:0:
58,85,517008,1,2,2:2:0:0:
49,83,517070,1,2,2:2:0:0:
39,82,517131,1,2,3:2:0:0:
29,85,517193,1,2,2:2:0:0:
21,92,517255,1,2,2:2:0:0:
15,100,517317,1,2,2:2:0:0:
11,109,517379,5,10,2:2:0:0:
11,142,517440,1,2,2:2:0:0:
12,175,517502,1,2,2:2:0:0:
29,199,517564,1,10,2:2:0:0:
25,232,517625,1,2,2:2:0:0:
20,265,517687,1,2,2:2:0:0:
3,291,517750,6,0,B|31:330|92:330|113:261|113:261|134:210|186:215,1,240,0|0,3:3|0:0,0:0:0:0:
217,284,517996,85,10,2:2:0:0:
235,277,518058,1,2,2:2:0:0:
256,298,518120,1,2,2:2:0:0:
273,285,518182,1,2,2:2:0:0:
297,300,518243,1,2,3:2:0:0:
309,281,518305,1,2,2:2:0:0:
338,290,518367,1,10,2:2:0:0:
344,267,518429,1,2,2:2:0:0:
373,268,518490,1,2,2:2:0:0:
373,243,518552,1,2,2:2:0:0:
400,237,518614,1,2,3:2:0:0:
393,211,518675,1,2,2:2:0:0:
419,200,518739,1,10,2:2:0:0:
410,184,518800,1,2,2:2:0:0:
429,162,518862,1,2,2:2:0:0:
416,146,518924,1,2,3:2:0:0:
428,117,518985,6,0,P|415:56|328:2,1,150,10|0,2:2|3:3,0:0:0:0:
227,34,519232,6,0,L|220:110,1,69.9999978637696,10|0,2:2|0:0,0:0:0:0:
131,93,519356,2,0,L|137:23,1,69.9999978637696,10|0,2:2|0:0,0:0:0:0:
313,106,519479,85,0,3:3:0:0:
313,106,519541,2,0,P|266:116|226:192,1,139.999995727539,2|0,2:2|0:0,0:0:0:0:
267,271,519726,6,0,P|307:235|302:187,1,69.9999978637696,10|0,2:2|0:0,0:0:0:0:
71,221,519850,2,0,P|124:222|169:262,1,100,2|0,3:2|0:0,0:0:0:0:
322,375,520096,1,8,2:2:0:0:
393,314,520220,1,0,0:0:0:0:
393,314,520282,1,0,0:0:0:0:
94,308,520467,5,8,2:2:0:0:
71,221,520590,2,0,P|66:201|65:164,2,50,0|0|0,0:0|0:0|3:3,0:0:0:0:
393,314,520836,86,0,L|415:202,1,100,8|0,2:2|0:0,0:0:0:0:
484,159,521022,1,0,0:0:0:0:
484,159,521083,2,0,P|503:186|505:221,1,64.9999970245363,10|0,2:2|0:0,0:0:0:0:
331,195,521207,6,0,P|344:164|374:145,1,64.9999970245363,10|0,2:2|0:0,0:0:0:0:
498,218,521330,2,0,P|494:250|476:276,1,64.9999970245363,2|0,2:2|0:0,0:0:0:0:
315,280,521454,1,10,2:2:0:0:
259,154,521577,1,8,2:2:0:0:
238,134,521638,1,8,2:2:0:0:
212,120,521700,1,8,2:2:0:0:
185,113,521762,6,0,B|131:103|97:137|97:137|59:175|-3:159,1,200,2|0,3:2|0:0,0:0:0:0:
29,84,522008,2,0,P|67:116|74:167,1,66.6649984141429,2|0,2:2|0:0,0:0:0:0:
138,324,522132,2,0,L|162:171,1,133.329996828286,10|0,2:2|3:3,0:0:0:0:
282,72,522379,85,2,2:2:0:0:
324,270,522502,1,8,2:2:0:0:
414,212,522626,1,2,2:2:0:0:
414,212,522687,1,0,0:0:0:0:
414,212,522749,2,0,P|386:181|340:161,2,75.0000028610231,0|0|0,0:0|3:3|0:0,0:0:0:0:
312,367,522934,5,10,2:2:0:0:
284,358,522995,1,8,2:2:0:0:
260,343,523057,1,8,2:2:0:0:
241,323,523119,1,8,2:2:0:0:
229,297,523181,2,0,P|226:253|263:194,1,100,0|0,3:3|0:0,0:0:0:0:
425,109,523429,5,2,3:2:0:0:
282,72,523552,1,2,2:2:0:0:
282,72,523614,1,0,0:0:0:0:
282,72,523675,2,0,L|290:122,2,50,8|0|0,2:2|0:0|3:3,0:0:0:0:
414,212,523922,86,0,L|405:262,3,33.3333333333333,0|0|0|8,0:0|0:0|0:0|2:2,0:0:0:0:
313,367,524169,5,0,3:3:0:0:
229,297,524293,1,0,3:3:0:0:
108,348,524416,2,0,P|67:320|57:261,1,100,0|0,3:3|0:0,0:0:0:0:
58,187,524581,5,8,2:2:0:0:
36,166,524663,85,0,3:3:0:0:
24,193,524745,5,2,3:2:0:0:
151,261,524869,1,8,2:2:0:0:
276,219,524992,1,10,2:2:0:0:
214,108,525116,5,8,2:2:0:0:
175,118,525177,1,8,2:2:0:0:
160,153,525239,1,2,3:2:0:0:
241,303,525363,1,0,0:0:0:0:
241,303,525424,1,0,0:0:0:0:
241,303,525486,1,2,3:2:0:0:
384,237,525610,1,0,0:0:0:0:
384,237,525671,1,0,0:0:0:0:
384,237,525733,86,0,P|433:244|472:303,1,100,10|0,2:2|0:0,0:0:0:0:
426,350,525918,2,0,P|376:342|337:283,1,100,10|0,2:2|0:0,0:0:0:0:
279,216,526102,6,0,P|234:159|162:153,1,150.000005722046,2|0,3:2|0:0,0:0:0:0:
38,296,526348,1,8,2:2:0:0:
121,363,526472,2,0,P|142:311|137:255,1,100,2|0,2:2|3:3,0:0:0:0:
162,49,526719,5,8,2:2:0:0:
63,50,526842,2,0,P|64:70|79:102,2,50,0|0|0,0:0|0:0|3:3,0:0:0:0:
283,222,527092,85,8,2:2:0:0:
346,147,527215,1,0,0:0:0:0:
346,147,527277,1,0,3:3:0:0:
346,147,527338,1,8,2:2:0:0:
442,170,527462,1,0,0:0:0:0:
442,170,527524,1,0,3:3:0:0:
442,170,527585,1,8,2:2:0:0:
283,222,527709,1,8,2:2:0:0:
112,189,527832,6,0,P|94:164|83:93,1,100,2|0,3:2|0:0,0:0:0:0:
166,43,528017,1,0,0:0:0:0:
166,43,528079,2,0,P|178:64|180:89,1,50,10|0,2:2|0:0,0:0:0:0:
119,302,528204,6,0,P|150:263|213:251,1,100,2|0,3:2|0:0,0:0:0:0:
342,287,528450,1,8,2:2:0:0:
200,347,528574,85,0,0:0:0:0:
200,347,528636,2,0,P|189:302|211:240,1,100,2|0,2:2|0:0,0:0:0:0:
278,229,528821,2,0,P|300:210|335:197,1,50,8|0,2:2|0:0,0:0:0:0:
452,216,528944,5,0,0:0:0:0:
452,216,529005,1,0,0:0:0:0:
452,216,529067,2,0,L|440:338,1,100,0|8,3:3|2:2,0:0:0:0:
292,85,529314,6,0,L|296:35,2,50,0|0|8,0:0|0:0|2:2,0:0:0:0:
278,229,529561,1,8,2:2:0:0:
155,115,529684,86,0,L|138:67,2,50,0|0|10,0:0|0:0|2:2,0:0:0:0:
157,232,529931,1,10,2:2:0:0:
146,214,529992,1,8,2:2:0:0:
127,204,530054,1,8,2:2:0:0:
104,199,530116,6,0,P|42:262|67:349,1,179.999994506836,2|0,3:2|0:0,0:0:0:0:
223,345,530486,2,0,P|171:357|142:399,2,89.9999972534181,10|0|0,2:2|3:3|0:0,0:0:0:0:
381,380,530856,1,8,2:2:0:0:
310,208,530980,5,0,0:0:0:0:
310,208,531041,1,0,0:0:0:0:
310,208,531103,1,0,0:0:0:0:
310,208,531165,2,0,P|289:243|292:298,1,75.0000028610231,0|0,3:3|0:0,0:0:0:0:
381,380,531288,85,8,2:2:0:0:
412,361,531349,1,8,2:2:0:0:
430,328,531411,1,8,2:2:0:0:
427,291,531473,1,8,2:2:0:0:
405,263,531535,2,0,L|261:279,1,119.999996337891,2|2,3:2|2:2,0:0:0:0:
59,368,531783,5,2,3:2:0:0:
36,344,531845,1,2,2:2:0:0:
66,335,531906,1,2,2:2:0:0:
46,312,531968,1,2,2:2:0:0:
72,304,532029,1,10,2:2:0:0:
55,281,532091,1,2,2:2:0:0:
79,272,532153,1,2,3:2:0:0:
63,249,532215,1,2,2:2:0:0:
85,241,532276,1,2,2:2:0:0:
72,218,532338,1,2,2:2:0:0:
93,210,532400,1,10,2:2:0:0:
81,188,532462,1,2,2:2:0:0:
99,177,532523,1,2,3:2:0:0:
91,155,532585,1,2,2:2:0:0:
106,146,532647,1,2,3:2:0:0:
98,125,532708,1,2,2:2:0:0:
112,115,532770,1,2,3:2:0:0:
108,95,532831,1,2,2:2:0:0:
120,83,532894,1,2,2:2:0:0:
116,64,532955,1,10,2:2:0:0:
126,52,533017,2,0,L|138:6,1,33.3333333333333,2|2,2:2|2:2,0:0:0:0:
211,0,533100,6,0,L|225:74,1,64.9999970245363,2|0,3:2|0:0,0:0:0:0:
290,179,533223,2,0,L|304:105,1,64.9999970245363,10|0,2:2|0:0,0:0:0:0:
372,8,533346,2,0,L|386:82,1,64.9999970245363,10|0,2:2|0:0,0:0:0:0:
471,185,533470,85,10,2:2:0:0:
471,185,533532,1,8,2:2:0:0:
471,185,533593,2,0,P|441:195|414:223,3,64.9999970245363,2|0|2|0,3:2|0:0|2:2|0:0,0:0:0:0:
341,239,533840,2,0,P|334:269|345:307,3,64.9999970245363,2|0|2|0,3:2|0:0|2:2|0:0,0:0:0:0:
396,354,534087,6,0,L|258:342,1,115.000002193451,10|2,2:2|2:2,0:0:0:0:
202,361,534272,2,0,L|64:349,1,115.000002193451,10|0,2:2|3:3,0:0:0:0:
34,263,534458,5,2,3:2:0:0:
203,140,534643,85,8,2:2:0:0:
203,140,534735,1,0,3:3:0:0:
210,366,535013,5,8,2:2:0:0:
210,366,535106,1,0,3:3:0:0:
34,263,535383,5,8,2:2:0:0:
36,246,535444,1,8,2:2:0:0:
39,230,535506,1,8,2:2:0:0:
42,214,535568,85,8,2:2:0:0:
93,205,535650,1,8,2:2:0:0:
138,223,535731,1,8,2:2:0:0:
166,280,535813,5,8,0:0:0:0:
234,311,535907,1,8,0:0:0:0:
319,295,536002,53,8,0:0:0:0:
374,207,536109,1,8,0:0:0:0:
317,82,536216,5,8,0:0:0:0:
193,55,536323,1,8,0:0:0:0:
49,129,536430,5,8,0:0:0:0:
93,326,536566,1,8,0:0:0:0:
383,51,536702,85,8,0:0:0:0:
141,4,536878,1,8,0:0:0:0:
286,384,537054,85,8,0:0:0:0:
478,121,537268,1,8,0:0:0:0:
18,27,537482,21,8,2:2:0:0:
212,384,537727,1,8,2:2:0:0:
464,44,538021,1,8,2:2:0:0:
212,384,538347,86,0,L|183:229,1,150.000005722046,8|0,2:2|3:3,0:0:0:0:
153,76,539045,1,8,2:2:0:0:
277,174,539396,38,0,B|291:82|282:174|298:83,1,95,0|0,3:3|0:0,0:0:0:0:
231,29,540754,38,0,B|264:2|351:-16|402:38|409:140|322:181|253:140|253:140|167:101|116:167|161:254|255:223|255:223|284:213|334:204|355:287|303:311|252:296|252:296|211:279|185:312|216:328|245:324|245:324|267:327|283:335|264:354|247:352|247:352|237:351|231:358|235:368|242:373|242:373|250:371|250:371|242:375|242:375|249:375|249:375|243:379|243:379|249:380|249:380|245:382|245:382|247:382|247:382|246:385|246:385|248:385|248:385|248:387|248:387|248:387|248:387|247:390|247:390,1,1022.39998003125
