osu file format v14

[General]
AudioFilename: audio.mp3
AudioLeadIn: 0
PreviewTime: 53528
Countdown: 0
SampleSet: Normal
StackLeniency: 0.7
Mode: 1
LetterboxInBreaks: 0
WidescreenStoryboard: 1

[Editor]
DistanceSpacing: 2
BeatDivisor: 4
GridSize: 32
TimelineZoom: 4.299999

[Metadata]
Title:We Want To Run
TitleUnicode:We Want To Run
Artist:Frums
ArtistUnicode:Frums
Creator:ikin5050
Version:Vulkin's Futsuu
Source:
Tags:Vulkin UNSP-A004 ぼくらの音楽 Unit 04 無分類 unisphere 5th electronic instrumental melodic chiptune breakcore chipbreak speedcore stream stamina featured artist fa
BeatmapID:2875949
BeatmapSetID:1392660

[Difficulty]
HPDrainRate:6.5
CircleSize:5
OverallDifficulty:4
ApproachRate:5
SliderMultiplier:1.25
SliderTickRate:1

[Events]
//Background and Video events
0,0,"vulkin.png",0,-136
//Break Periods
//Storyboard Layer 0 (Background)
//Storyboard Layer 1 (Fail)
//Storyboard Layer 2 (Pass)
//Storyboard Layer 3 (Foreground)
//Storyboard Layer 4 (Overlay)
//Storyboard Sound Samples

[TimingPoints]
1156,312.5,4,1,0,40,1,0
1156,-78.740157480315,4,1,0,40,0,0
21156,307.692307692308,4,1,0,40,1,0
21156,-80,4,1,0,40,0,0
22386,303.030303,4,1,0,40,1,0
22386,-81.3008130081301,4,1,0,40,0,0
23598,298.507462686567,4,1,0,40,1,0
23598,-82.6446280991736,4,1,0,40,0,0
24792,294.117647,4,1,0,40,1,0
24792,-84.0336134453782,4,1,0,40,0,0
25968,289.855072463768,4,1,0,40,1,0
25968,-85.4700854700855,4,1,0,40,0,0
27127,285.714285714286,4,1,0,40,1,0
27127,-86.2068965517241,4,1,0,40,0,0
28269,281.69014084507,4,1,0,40,1,0
28269,-87.719298245614,4,1,0,40,0,0
29395,277.777778,4,1,0,40,1,0
29395,-88.495575221239,4,1,0,40,0,0
30506,274.250610207608,4,1,0,40,1,0
30506,-90.0900900900901,4,1,0,40,0,0
31603,270.758122743682,4,1,0,40,1,0
31603,-90.9090909090909,4,1,0,40,0,0
32686,267.000120150054,4,1,0,40,1,0
32686,-92.5925925925926,4,1,0,40,0,0
33754,263.250263250263,4,1,0,40,1,0
33754,-93.4579439252336,4,1,0,40,0,0
34807,259.750379884931,4,1,0,40,1,0
34807,-95.2380952380952,4,1,0,40,0,0
35846,256.500141075078,4,1,0,40,1,0
35846,-96.1538461538461,4,1,0,40,0,0
36808,-96.1538461538461,4,1,0,10,0,0
36872,253.25004220834,4,1,0,10,1,0
36872,-97.0873786407767,4,1,0,10,0,0
37885,250.25025025025,4,1,0,10,1,0
37885,-99.009900990099,4,1,0,10,0,0
38823,-100,4,1,0,60,0,0
38886,246.913580246914,4,1,0,80,1,0
38886,-100,4,1,0,80,0,0
46766,-100,4,1,0,90,0,0
54667,-100,4,1,0,100,0,0
54688,-100,4,1,0,100,0,1
70490,-100,4,1,0,80,0,0
70511,-100,4,1,0,70,0,0
78361,-100,4,1,0,75,0,0
86663,-100,4,1,0,10,0,0
94071,-100,4,1,0,50,0,0
123700,-100,4,1,0,10,0,0
125676,-100,4,1,0,60,0,0
157774,-100,4,1,0,10,0,0
160614,-100,4,1,0,45,0,0
160737,-100,4,1,0,50,0,0
160861,-100,4,1,0,55,0,0
160984,-100,4,1,0,60,0,0
161108,-100,4,1,0,65,0,0
161231,-100,4,1,0,70,0,0
161355,-100,4,1,0,80,0,0
163330,-100,4,1,0,90,0,0
165285,-100,4,1,0,10,0,0
167260,-100,4,1,0,80,0,0
167281,246.913580246914,4,1,0,100,1,1
167281,-100,4,1,0,100,0,1
183083,-100,4,1,0,80,0,0
183577,-100,4,1,0,100,0,1
198885,-100,4,1,0,80,0,0
199132,-100,4,1,0,40,0,0
201725,-100,4,1,0,80,0,0
218618,-100,4,1,0,80,0,0
218639,-100,4,1,0,100,0,1
237404,312.5,4,1,0,60,1,8
237404,-78.740157480315,4,1,0,60,0,8
237872,-78.740157480315,4,1,0,10,0,0
238029,312.5,4,1,0,10,1,0
238029,-78.740157480315,4,1,0,10,0,0

[HitObjects]
256,192,21156,5,0,0:0:0:0:
256,192,21771,1,8,0:0:0:0:
256,192,22386,1,0,0:0:0:0:
256,192,22992,1,8,0:0:0:0:
256,192,23598,1,0,0:0:0:0:
256,192,24195,1,8,0:0:0:0:
256,192,24493,1,0,0:0:0:0:
256,192,24792,1,8,0:0:0:0:
256,192,25527,1,8,0:0:0:0:
256,192,25968,1,0,0:0:0:0:
256,192,26547,1,8,0:0:0:0:
256,192,27127,1,0,0:0:0:0:
256,192,27698,1,8,0:0:0:0:
256,192,28269,1,0,0:0:0:0:
256,192,28691,1,0,0:0:0:0:
256,192,29114,1,8,0:0:0:0:
256,192,29950,1,8,0:0:0:0:
256,192,30506,1,0,0:0:0:0:
256,192,30917,1,8,0:0:0:0:
256,192,31603,1,0,0:0:0:0:
256,192,32009,1,8,0:0:0:0:
256,192,32686,1,0,0:0:0:0:
256,192,33086,1,8,0:0:0:0:
256,192,33487,1,0,0:0:0:0:
256,192,34148,1,8,0:0:0:0:
256,192,34807,1,0,0:0:0:0:
256,192,35846,1,0,0:0:0:0:
256,192,36872,12,0,38385,0:0:0:0:
256,192,38886,5,8,0:0:0:0:
256,192,39379,1,8,0:0:0:0:
256,192,39626,1,0,0:0:0:0:
256,192,39873,1,8,0:0:0:0:
256,192,40367,1,0,0:0:0:0:
256,192,40861,1,8,0:0:0:0:
256,192,41355,1,8,0:0:0:0:
256,192,41602,1,8,0:0:0:0:
256,192,41972,1,8,0:0:0:0:
256,192,42342,1,8,0:0:0:0:
256,192,42836,1,0,0:0:0:0:
256,192,43330,1,0,0:0:0:0:
256,192,43577,1,8,0:0:0:0:
256,192,43824,1,0,0:0:0:0:
256,192,44318,1,8,0:0:0:0:
256,192,44811,1,0,0:0:0:0:
256,192,45305,1,0,0:0:0:0:
256,192,45552,1,8,0:0:0:0:
256,192,45799,1,0,0:0:0:0:
256,192,46046,1,0,0:0:0:0:
256,192,46293,1,8,0:0:0:0:
256,192,46787,5,0,0:0:0:0:
256,192,47281,1,8,0:0:0:0:
256,192,48021,1,0,0:0:0:0:
256,192,48268,1,8,0:0:0:0:
256,192,48762,1,0,0:0:0:0:
256,192,49256,1,8,0:0:0:0:
256,192,49503,1,0,0:0:0:0:
256,192,49997,1,8,0:0:0:0:
256,192,50490,1,8,0:0:0:0:
256,192,50737,1,0,0:0:0:0:
256,192,51231,1,8,0:0:0:0:
256,192,51972,1,0,0:0:0:0:
256,192,52219,1,8,0:0:0:0:
256,192,52713,1,0,0:0:0:0:
256,192,53206,1,8,0:0:0:0:
256,192,53453,1,0,0:0:0:0:
256,192,53700,1,0,0:0:0:0:
256,192,54688,1,8,0:0:0:0:
256,192,55058,1,0,0:0:0:0:
256,192,55429,1,0,0:0:0:0:
256,192,55676,1,8,0:0:0:0:
256,192,56046,1,0,0:0:0:0:
256,192,56416,1,8,0:0:0:0:
256,192,56540,1,8,0:0:0:0:
256,192,56663,1,8,0:0:0:0:
256,192,57034,1,0,0:0:0:0:
256,192,57404,1,8,0:0:0:0:
256,192,57774,1,8,0:0:0:0:
256,192,58145,1,0,0:0:0:0:
256,192,58639,1,0,0:0:0:0:
256,192,59009,1,8,0:0:0:0:
256,192,59379,1,8,0:0:0:0:
256,192,59626,1,0,0:0:0:0:
256,192,59873,1,8,0:0:0:0:
256,192,60120,1,0,0:0:0:0:
256,192,60367,1,0,0:0:0:0:
256,192,60490,1,0,0:0:0:0:
256,192,60614,1,0,0:0:0:0:
256,192,61108,1,0,0:0:0:0:
256,192,61602,1,8,0:0:0:0:
256,192,61848,1,8,0:0:0:0:
256,192,62095,1,8,0:0:0:0:
256,192,62589,1,8,0:0:0:0:
256,192,62960,1,0,0:0:0:0:
256,192,63330,1,0,0:0:0:0:
256,192,63577,1,8,0:0:0:0:
256,192,63947,1,0,0:0:0:0:
256,192,64318,1,8,0:0:0:0:
256,192,64441,1,8,0:0:0:0:
256,192,64565,1,8,0:0:0:0:
256,192,64935,1,0,0:0:0:0:
256,192,65305,1,8,0:0:0:0:
256,192,65676,1,8,0:0:0:0:
256,192,66046,1,0,0:0:0:0:
256,192,66540,1,0,0:0:0:0:
256,192,66910,1,8,0:0:0:0:
256,192,67281,1,8,0:0:0:0:
256,192,67527,1,0,0:0:0:0:
256,192,67774,1,8,0:0:0:0:
256,192,68021,1,0,0:0:0:0:
256,192,68268,1,0,0:0:0:0:
256,192,68392,1,0,0:0:0:0:
256,192,68515,1,0,0:0:0:0:
256,192,69009,1,8,0:0:0:0:
256,192,69503,1,0,0:0:0:0:
256,192,69750,1,8,0:0:0:0:
256,192,69873,1,0,0:0:0:0:
256,192,69997,1,8,0:0:0:0:
256,192,70244,1,8,0:0:0:0:
256,192,70490,1,4,0:0:0:0:
256,192,71478,1,0,0:0:0:0:
256,192,72466,1,0,0:0:0:0:
256,192,72713,1,8,0:0:0:0:
256,192,72960,1,8,0:0:0:0:
256,192,73453,1,8,0:0:0:0:
256,192,73947,1,8,0:0:0:0:
256,192,74441,1,0,0:0:0:0:
256,192,75182,1,8,0:0:0:0:
256,192,75429,1,0,0:0:0:0:
256,192,75676,1,8,0:0:0:0:
256,192,75923,1,8,0:0:0:0:
256,192,76416,1,0,0:0:0:0:
256,192,77404,1,0,0:0:0:0:
256,192,77898,1,8,0:0:0:0:
256,192,78145,1,8,0:0:0:0:
256,192,78392,1,4,0:0:0:0:
256,192,78886,1,8,0:0:0:0:
256,192,79379,1,0,0:0:0:0:
256,192,79750,1,8,0:0:0:0:
256,192,80120,1,0,0:0:0:0:
256,192,80367,1,0,0:0:0:0:
256,192,80861,1,8,0:0:0:0:
256,192,81355,1,8,0:0:0:0:
256,192,81602,1,0,0:0:0:0:
256,192,81725,1,8,0:0:0:0:
256,192,82095,1,8,0:0:0:0:
256,192,82342,1,0,0:0:0:0:
256,192,82836,1,8,0:0:0:0:
256,192,83330,1,0,0:0:0:0:
256,192,83700,1,8,0:0:0:0:
256,192,84071,1,0,0:0:0:0:
256,192,84318,1,0,0:0:0:0:
256,192,84811,1,8,0:0:0:0:
256,192,85305,1,8,0:0:0:0:
256,192,85552,1,0,0:0:0:0:
256,192,85676,1,8,0:0:0:0:
256,192,86046,1,0,0:0:0:0:
256,192,86293,1,12,0:0:0:0:
256,192,86787,12,0,93453,0:0:0:0:
256,192,94194,5,8,0:0:0:0:
256,192,96169,1,0,0:0:0:0:
256,192,98145,1,0,0:0:0:0:
256,192,99297,1,8,0:0:0:0:
256,192,100367,1,8,0:0:0:0:
256,192,102095,1,0,0:0:0:0:
256,192,104071,1,0,0:0:0:0:
256,192,105058,1,8,0:0:0:0:
256,192,106046,1,8,0:0:0:0:
256,192,108021,1,0,0:0:0:0:
256,192,108927,1,8,0:0:0:0:
256,192,109997,1,8,0:0:0:0:
256,192,111972,1,0,0:0:0:0:
256,192,112589,1,8,0:0:0:0:
256,192,113124,1,8,0:0:0:0:
256,192,113947,1,0,0:0:0:0:
256,192,116787,1,8,0:0:0:0:
256,192,117898,1,0,0:0:0:0:
256,192,119503,1,8,0:0:0:0:
256,192,119873,1,0,0:0:0:0:
256,192,121108,1,8,0:0:0:0:
256,192,121478,1,0,0:0:0:0:
256,192,121848,1,8,0:0:0:0:
256,192,122589,1,8,0:0:0:0:
256,192,123824,12,0,125305,0:0:0:0:
256,192,125799,5,4,0:0:0:0:
256,192,126663,1,8,0:0:0:0:
256,192,127034,1,8,0:0:0:0:
256,192,127774,1,0,0:0:0:0:
256,192,128021,1,8,0:0:0:0:
256,192,129009,1,8,0:0:0:0:
256,192,129750,1,0,0:0:0:0:
256,192,130244,1,8,0:0:0:0:
256,192,130490,1,0,0:0:0:0:
256,192,130614,1,8,0:0:0:0:
256,192,130984,1,8,0:0:0:0:
256,192,131478,1,8,0:0:0:0:
256,192,132219,1,8,0:0:0:0:
256,192,132960,1,8,0:0:0:0:
256,192,133700,1,0,0:0:0:0:
256,192,134194,1,8,0:0:0:0:
256,192,134565,1,8,0:0:0:0:
256,192,134935,1,8,0:0:0:0:
256,192,135676,1,0,0:0:0:0:
256,192,136046,1,8,0:0:0:0:
256,192,136663,1,8,0:0:0:0:
256,192,137034,1,8,0:0:0:0:
256,192,137281,1,8,0:0:0:0:
256,192,137404,1,8,0:0:0:0:
256,192,137651,1,0,0:0:0:0:
256,192,138021,1,0,0:0:0:0:
256,192,138392,1,0,0:0:0:0:
256,192,138639,1,8,0:0:0:0:
256,192,139009,1,8,0:0:0:0:
256,192,139873,1,8,0:0:0:0:
256,192,140367,1,8,0:0:0:0:
256,192,140861,1,8,0:0:0:0:
256,192,141602,1,0,0:0:0:0:
256,192,142095,1,8,0:0:0:0:
256,192,142466,1,8,0:0:0:0:
256,192,142836,1,8,0:0:0:0:
256,192,143206,1,8,0:0:0:0:
256,192,143577,1,0,0:0:0:0:
256,192,143947,1,8,0:0:0:0:
256,192,144318,1,8,0:0:0:0:
256,192,144688,1,0,0:0:0:0:
256,192,145552,1,0,0:0:0:0:
256,192,146046,1,8,0:0:0:0:
256,192,146293,1,0,0:0:0:0:
256,192,146416,1,8,0:0:0:0:
256,192,146787,1,8,0:0:0:0:
256,192,147157,1,8,0:0:0:0:
256,192,147527,1,8,0:0:0:0:
256,192,148268,1,8,0:0:0:0:
256,192,149503,1,0,0:0:0:0:
256,192,150861,1,8,0:0:0:0:
256,192,151231,1,8,0:0:0:0:
256,192,151478,1,0,0:0:0:0:
256,192,152219,1,8,0:0:0:0:
256,192,152836,1,8,0:0:0:0:
256,192,153206,1,8,0:0:0:0:
256,192,153453,1,0,0:0:0:0:
256,192,154194,1,8,0:0:0:0:
256,192,154688,1,8,0:0:0:0:
256,192,155058,1,8,0:0:0:0:
256,192,155429,1,0,0:0:0:0:
256,192,156169,1,8,0:0:0:0:
256,192,157404,1,0,0:0:0:0:
256,192,157651,1,8,0:0:0:0:
256,192,157898,12,0,160861,0:0:0:0:
256,192,161108,5,8,0:0:0:0:
256,192,161355,5,4,0:0:0:0:
256,192,161725,1,8,0:0:0:0:
256,192,162095,1,8,0:0:0:0:
256,192,162342,1,0,0:0:0:0:
256,192,162713,1,8,0:0:0:0:
256,192,163083,1,0,0:0:0:0:
256,192,163330,1,8,0:0:0:0:
256,192,163824,1,8,0:0:0:0:
256,192,164318,1,8,0:0:0:0:
256,192,164565,1,8,0:0:0:0:
256,192,164811,1,8,0:0:0:0:
256,192,164935,1,8,0:0:0:0:
256,192,165058,1,8,0:0:0:0:
256,192,165305,12,0,166787,0:0:0:0:
256,192,167281,5,8,0:0:0:0:
256,192,167774,1,8,0:0:0:0:
256,192,168021,1,8,0:0:0:0:
256,192,168268,1,8,0:0:0:0:
256,192,168515,1,0,0:0:0:0:
256,192,168762,1,8,0:0:0:0:
256,192,169256,1,0,0:0:0:0:
256,192,169750,1,0,0:0:0:0:
256,192,169997,1,0,0:0:0:0:
256,192,170120,1,0,0:0:0:0:
256,192,170243,1,0,0:0:0:0:
256,192,170490,1,0,0:0:0:0:
256,192,170737,1,0,0:0:0:0:
256,192,171231,1,8,0:0:0:0:
256,192,171478,1,8,0:0:0:0:
256,192,171725,1,0,0:0:0:0:
256,192,172219,1,8,0:0:0:0:
256,192,172466,1,0,0:0:0:0:
256,192,172713,1,0,0:0:0:0:
256,192,173206,1,0,0:0:0:0:
256,192,173700,1,0,0:0:0:0:
256,192,173947,1,0,0:0:0:0:
256,192,174071,1,0,0:0:0:0:
256,192,174194,1,8,0:0:0:0:
256,192,174441,1,0,0:0:0:0:
256,192,174688,1,8,0:0:0:0:
256,192,175182,1,0,0:0:0:0:
256,192,175676,1,0,0:0:0:0:
256,192,175922,1,0,0:0:0:0:
256,192,176169,1,8,0:0:0:0:
256,192,176416,1,0,0:0:0:0:
256,192,176663,1,8,0:0:0:0:
256,192,177157,1,8,0:0:0:0:
256,192,177651,1,0,0:0:0:0:
256,192,177898,1,8,0:0:0:0:
256,192,178021,1,8,0:0:0:0:
256,192,178145,1,0,0:0:0:0:
256,192,178392,1,0,0:0:0:0:
256,192,178639,1,0,0:0:0:0:
256,192,179132,1,8,0:0:0:0:
256,192,179379,1,0,0:0:0:0:
256,192,179626,1,0,0:0:0:0:
256,192,180120,1,8,0:0:0:0:
256,192,180367,1,8,0:0:0:0:
256,192,180614,1,0,0:0:0:0:
256,192,180861,1,0,0:0:0:0:
256,192,181108,1,8,0:0:0:0:
256,192,181355,1,8,0:0:0:0:
256,192,181601,1,8,0:0:0:0:
256,192,182095,1,8,0:0:0:0:
256,192,182342,1,8,0:0:0:0:
256,192,182466,1,8,0:0:0:0:
256,192,182589,1,8,0:0:0:0:
256,192,182836,1,8,0:0:0:0:
256,192,183577,1,8,0:0:0:0:
256,192,183824,1,8,0:0:0:0:
256,192,184071,1,8,0:0:0:0:
256,192,184318,1,0,0:0:0:0:
256,192,184564,1,8,0:0:0:0:
256,192,184811,1,8,0:0:0:0:
256,192,185058,1,0,0:0:0:0:
256,192,185552,1,8,0:0:0:0:
256,192,185799,1,0,0:0:0:0:
256,192,185922,1,0,0:0:0:0:
256,192,186046,1,0,0:0:0:0:
256,192,186293,1,0,0:0:0:0:
256,192,186540,1,0,0:0:0:0:
256,192,187034,1,8,0:0:0:0:
256,192,187281,1,0,0:0:0:0:
256,192,187527,1,8,0:0:0:0:
256,192,187774,1,8,0:0:0:0:
256,192,188021,1,8,0:0:0:0:
256,192,188268,1,0,0:0:0:0:
256,192,188515,1,8,0:0:0:0:
256,192,189009,1,0,0:0:0:0:
256,192,189503,1,8,0:0:0:0:
256,192,189750,1,0,0:0:0:0:
256,192,189997,1,0,0:0:0:0:
256,192,190243,1,8,0:0:0:0:
256,192,190367,1,8,0:0:0:0:
256,192,190490,1,8,0:0:0:0:
256,192,190737,1,8,0:0:0:0:
256,192,190984,1,0,0:0:0:0:
256,192,191478,1,0,0:0:0:0:
256,192,191725,1,0,0:0:0:0:
256,192,191972,1,8,0:0:0:0:
256,192,192219,1,0,0:0:0:0:
256,192,192466,1,8,0:0:0:0:
256,192,192960,1,8,0:0:0:0:
256,192,193453,1,8,0:0:0:0:
256,192,193700,1,8,0:0:0:0:
256,192,193947,1,0,0:0:0:0:
256,192,194194,1,8,0:0:0:0:
256,192,194441,1,0,0:0:0:0:
256,192,194935,1,8,0:0:0:0:
256,192,195182,1,0,0:0:0:0:
256,192,195429,1,0,0:0:0:0:
256,192,195676,1,0,0:0:0:0:
256,192,195922,1,8,0:0:0:0:
256,192,196416,1,0,0:0:0:0:
256,192,196663,1,0,0:0:0:0:
256,192,196910,1,8,0:0:0:0:
256,192,197157,1,8,0:0:0:0:
256,192,197281,1,8,0:0:0:0:
256,192,197404,1,0,0:0:0:0:
256,192,197651,1,0,0:0:0:0:
256,192,197898,1,8,0:0:0:0:
256,192,198145,1,0,0:0:0:0:
256,192,198392,1,8,0:0:0:0:
256,192,198885,1,12,0:0:0:0:
256,192,199379,12,0,201355,0:0:0:0:
256,192,201848,5,0,0:0:0:0:
256,192,202095,1,0,0:0:0:0:
256,192,202342,1,0,0:0:0:0:
256,192,202836,1,8,0:0:0:0:
256,192,203330,1,8,0:0:0:0:
256,192,203577,1,0,0:0:0:0:
256,192,203700,1,0,0:0:0:0:
256,192,203824,1,8,0:0:0:0:
256,192,204318,1,0,0:0:0:0:
256,192,204564,1,0,0:0:0:0:
256,192,204811,1,8,0:0:0:0:
256,192,205305,1,0,0:0:0:0:
256,192,205552,1,8,0:0:0:0:
256,192,205799,1,8,0:0:0:0:
256,192,206046,1,0,0:0:0:0:
256,192,206293,1,8,0:0:0:0:
256,192,206787,1,0,0:0:0:0:
256,192,207281,1,8,0:0:0:0:
256,192,207527,1,8,0:0:0:0:
256,192,207651,1,8,0:0:0:0:
256,192,207774,1,0,0:0:0:0:
256,192,208268,1,0,0:0:0:0:
256,192,208515,1,8,0:0:0:0:
256,192,208762,1,0,0:0:0:0:
256,192,209256,1,0,0:0:0:0:
256,192,209503,1,0,0:0:0:0:
256,192,209750,1,8,0:0:0:0:
256,192,209997,1,0,0:0:0:0:
256,192,210120,1,0,0:0:0:0:
256,192,210243,1,8,0:0:0:0:
256,192,210490,1,0,0:0:0:0:
256,192,210737,1,8,0:0:0:0:
256,192,211231,1,0,0:0:0:0:
256,192,211478,1,0,0:0:0:0:
256,192,211601,1,0,0:0:0:0:
256,192,211725,1,8,0:0:0:0:
256,192,212219,1,0,0:0:0:0:
256,192,212466,1,0,0:0:0:0:
256,192,212713,1,8,0:0:0:0:
256,192,213206,1,0,0:0:0:0:
256,192,213453,1,8,0:0:0:0:
256,192,213700,1,8,0:0:0:0:
256,192,213947,1,0,0:0:0:0:
256,192,214194,1,8,0:0:0:0:
256,192,214688,1,0,0:0:0:0:
256,192,215182,1,8,0:0:0:0:
256,192,215429,1,8,0:0:0:0:
256,192,215552,1,8,0:0:0:0:
256,192,215676,1,0,0:0:0:0:
256,192,216169,1,8,0:0:0:0:
256,192,216416,1,0,0:0:0:0:
256,192,216663,1,0,0:0:0:0:
256,192,216910,1,8,0:0:0:0:
256,192,217157,1,0,0:0:0:0:
256,192,217651,1,8,0:0:0:0:
256,192,217898,1,0,0:0:0:0:
256,192,218021,1,0,0:0:0:0:
256,192,218145,1,8,0:0:0:0:
256,192,218392,1,8,0:0:0:0:
256,192,218639,1,0,0:0:0:0:
256,192,219132,1,0,0:0:0:0:
256,192,219379,1,0,0:0:0:0:
256,192,219503,1,0,0:0:0:0:
256,192,219626,1,8,0:0:0:0:
256,192,219873,1,0,0:0:0:0:
256,192,220120,1,8,0:0:0:0:
256,192,220367,1,8,0:0:0:0:
256,192,220614,1,8,0:0:0:0:
256,192,220984,1,0,0:0:0:0:
256,192,221355,1,0,0:0:0:0:
256,192,221478,1,0,0:0:0:0:
256,192,221601,1,8,0:0:0:0:
256,192,221848,1,0,0:0:0:0:
256,192,222095,1,8,0:0:0:0:
256,192,222342,1,0,0:0:0:0:
256,192,222589,1,0,0:0:0:0:
256,192,223083,1,8,0:0:0:0:
256,192,223330,1,0,0:0:0:0:
256,192,223453,1,0,0:0:0:0:
256,192,223577,1,0,0:0:0:0:
256,192,223824,1,8,0:0:0:0:
256,192,224071,1,0,0:0:0:0:
256,192,224318,1,8,0:0:0:0:
256,192,224564,1,0,0:0:0:0:
256,192,225058,1,0,0:0:0:0:
256,192,225305,1,0,0:0:0:0:
256,192,225429,1,0,0:0:0:0:
256,192,225552,1,8,0:0:0:0:
256,192,225799,1,0,0:0:0:0:
256,192,226046,1,8,0:0:0:0:
256,192,226293,1,0,0:0:0:0:
256,192,226540,1,8,0:0:0:0:
256,192,227034,1,0,0:0:0:0:
256,192,227281,1,0,0:0:0:0:
256,192,227404,1,0,0:0:0:0:
256,192,227527,1,8,0:0:0:0:
256,192,227774,1,0,0:0:0:0:
256,192,228021,1,8,0:0:0:0:
256,192,228268,1,8,0:0:0:0:
256,192,228515,1,8,0:0:0:0:
256,192,229009,1,0,0:0:0:0:
256,192,229256,1,8,0:0:0:0:
256,192,229379,1,8,0:0:0:0:
256,192,229503,1,8,0:0:0:0:
256,192,229750,1,0,0:0:0:0:
256,192,229997,1,8,0:0:0:0:
256,192,230243,1,8,0:0:0:0:
256,192,230490,1,0,0:0:0:0:
256,192,230984,1,8,0:0:0:0:
256,192,231231,1,0,0:0:0:0:
256,192,231355,1,0,0:0:0:0:
256,192,231478,1,0,0:0:0:0:
256,192,231725,1,8,0:0:0:0:
256,192,231972,1,0,0:0:0:0:
256,192,232219,1,8,0:0:0:0:
256,192,232466,1,0,0:0:0:0:
256,192,232960,1,0,0:0:0:0:
256,192,233206,1,0,0:0:0:0:
256,192,233330,1,0,0:0:0:0:
256,192,233453,1,8,0:0:0:0:
256,192,233947,1,0,0:0:0:0:
256,192,234194,1,8,0:0:0:0:
256,192,234441,1,8,0:0:0:0:
256,192,234935,1,0,0:0:0:0:
256,192,235182,1,8,0:0:0:0:
256,192,235429,1,8,0:0:0:0:
256,192,235676,1,0,0:0:0:0:
256,192,235922,1,8,0:0:0:0:
256,192,236416,1,8,0:0:0:0:
256,192,236663,1,8,0:0:0:0:
256,192,236910,1,8,0:0:0:0:
256,192,237157,1,8,0:0:0:0:
256,192,237281,1,8,0:0:0:0:
256,192,238029,12,0,243029,0:0:0:0:
