osu file format v14

[General]
AudioFilename: audio.mp3
AudioLeadIn: 0
PreviewTime: 53737
Countdown: 0
SampleSet: Soft
StackLeniency: 0.7
Mode: 3
LetterboxInBreaks: 0
SpecialStyle: 0
WidescreenStoryboard: 1

[Editor]
DistanceSpacing: 0.8
BeatDivisor: 6
GridSize: 32
TimelineZoom: 1.4

[Metadata]
Title:We Want To Run
TitleUnicode:We Want To Run
Artist:Frums
ArtistUnicode:Frums
Creator:Monheim
Version:run
Source:
Tags:osu! qqqant ぼくらの音楽 Unit 04 無分類 unisphere 5th chiptune wwtr famoss instrumental melodic speedcore chipcore chipbreak densecore breakcore electronic jumpstream stream monheimport civilization -mint- elekton fa featured artist
BeatmapID:2327936
BeatmapSetID:1114402

[Difficulty]
HPDrainRate:8
CircleSize:4
OverallDifficulty:8
ApproachRate:5
SliderMultiplier:1.4
SliderTickRate:1

[Events]
//Background and Video events
0,0,"wowthosenumeralsarewrongimsosorry.png",0,0
//Break Periods
//Storyboard Layer 0 (Background)
//Storyboard Layer 1 (Fail)
//Storyboard Layer 2 (Pass)
//Storyboard Layer 3 (Foreground)
//Storyboard Layer 4 (Overlay)
//Storyboard Sound Samples

[TimingPoints]
1193,312.5,4,2,1,50,1,0
1193,-78.740157480315,4,2,1,50,0,0
21193,307.692307692308,4,2,1,50,1,0
21193,-80,4,2,1,50,0,0
22423,303.030303,4,2,1,50,1,0
22423,-81.3008130081301,4,2,1,50,0,0
23635,298.507462686567,4,2,1,50,1,0
23635,-82.6446280991736,4,2,1,50,0,0
24829,294.117647,4,2,1,50,1,0
24829,-84.0336134453782,4,2,1,50,0,0
26005,289.855072463768,4,2,1,50,1,0
26005,-85.4700854700855,4,2,1,50,0,0
27164,285.714285714286,4,2,1,50,1,0
27164,-86.2068965517241,4,2,1,50,0,0
28306,281.69014084507,4,2,1,50,1,0
28306,-87.719298245614,4,2,1,50,0,0
29432,277.777778,4,2,1,50,1,0
29432,-88.495575221239,4,2,1,50,0,0
30543,274.250610207608,4,2,1,50,1,0
30543,-90.0900900900901,4,2,1,50,0,0
31640,270.758122743682,4,2,1,50,1,0
31640,-91.743119266055,4,2,1,50,0,0
32723,267.000120150054,4,2,1,50,1,0
32723,-92.5925925925926,4,2,1,50,0,0
33791,263.250263250263,4,2,1,50,1,0
33791,-93.4579439252336,4,2,1,50,0,0
34844,259.750379884931,4,2,1,50,1,0
34844,-95.2380952380952,4,2,1,50,0,0
35883,256.500141075078,4,2,1,50,1,0
35883,-96.1538461538461,4,2,1,50,0,0
36909,253.25004220834,4,2,1,50,1,0
36909,-97.0873786407767,4,2,1,50,0,0
37922,250.25025025025,4,2,1,60,1,0
37922,-99.009900990099,4,2,1,60,0,0
38923,246.913580246914,4,2,1,70,1,0
54725,-100,4,2,1,70,0,1
70527,-100,4,2,1,70,0,0
78429,-100,4,2,1,70,0,1
86330,-100,4,2,1,40,0,0
161392,-100,4,2,1,50,0,0
163367,-100,4,2,1,60,0,0
167318,-100,4,2,1,70,0,1
183120,-100,4,2,1,70,0,0
183614,-100,4,2,1,70,0,1
198923,-100,4,2,1,70,0,0
202873,-100,4,2,1,70,0,1
237441,312.5,4,2,1,20,1,0
237441,-78.7401574803149,4,2,1,20,0,0
238066,312.5,4,2,1,20,1,0
238066,-78.7401574803149,4,2,1,20,0,0

[HitObjects]
64,192,1193,5,0,0:0:0:0:
192,192,1232,1,0,0:0:0:0:
320,192,1271,1,0,0:0:0:0:
448,192,1310,128,0,2443:0:0:0:0:
320,192,2443,128,0,3693:0:0:0:0:
192,192,3693,128,0,4630:0:0:0:0:
64,192,4630,128,0,6193:0:0:0:0:
448,192,6193,128,0,7443:0:0:0:0:
320,192,7443,128,0,8693:0:0:0:0:
64,192,8693,128,0,9630:0:0:0:0:
192,192,9161,128,0,9630:0:0:0:0:
448,192,9591,1,0,0:0:0:0:
320,192,9630,128,0,11193:0:0:0:0:
448,192,11193,128,0,12443:0:0:0:0:
64,192,12443,128,0,13693:0:0:0:0:
320,192,13693,128,0,14630:0:0:0:0:
448,192,14161,128,0,14630:0:0:0:0:
192,192,14630,128,0,16193:0:0:0:0:
320,192,16193,128,0,17443:0:0:0:0:
192,192,17443,128,0,18614:0:0:0:0:
192,192,18693,128,0,19943:0:0:0:0:
320,192,19943,128,0,21193:0:0:0:0:
448,192,21193,128,2,22423:0:0:0:0:
64,192,21808,1,0,0:0:0:0:
320,192,22423,128,0,23635:0:0:0:0:
64,192,23029,1,0,0:0:0:0:
64,192,23332,1,0,0:0:0:0:
192,192,23635,128,0,24530:0:0:0:0:
448,192,24232,1,0,0:0:0:0:
64,192,24530,128,0,26005:0:0:0:0:
320,192,25417,1,0,0:0:0:0:
320,192,25564,1,0,0:0:0:0:
320,192,25711,1,0,0:0:0:0:
448,192,26005,128,0,27164:0:0:0:0:
64,192,26584,1,0,0:0:0:0:
320,192,27164,128,0,28306:0:0:0:0:
192,192,27735,1,0,0:0:0:0:
192,192,28021,1,0,0:0:0:0:
64,192,28306,128,0,29151:0:0:0:0:
192,192,28728,128,0,29151:0:0:0:0:
448,192,28869,1,0,0:0:0:0:
320,192,29151,128,0,30543:0:0:0:0:
64,192,29987,1,0,0:0:0:0:
192,192,30057,1,0,0:0:0:0:
64,192,30126,1,0,0:0:0:0:
192,192,30195,1,0,0:0:0:0:
64,192,30265,1,0,0:0:0:0:
448,192,30543,128,0,31640:0:0:0:0:
192,192,31091,1,0,0:0:0:0:
64,192,31640,128,0,32723:0:0:0:0:
448,192,32181,1,0,0:0:0:0:
448,192,32452,1,0,0:0:0:0:
320,192,32723,128,0,33524:0:0:0:0:
448,192,33123,128,0,33524:0:0:0:0:
64,192,33257,1,0,0:0:0:0:
192,192,33524,128,0,34844:0:0:0:0:
448,192,34317,1,0,0:0:0:0:
448,192,34449,1,0,0:0:0:0:
448,192,34580,1,0,0:0:0:0:
320,192,34844,128,0,35883:0:0:0:0:
64,192,35363,1,0,0:0:0:0:
192,192,35883,128,0,36844:0:0:0:0:
448,192,36396,1,0,0:0:0:0:
448,192,36652,1,0,0:0:0:0:
192,192,36909,128,0,37922:0:0:0:0:
64,192,37415,1,0,0:0:0:0:
448,192,37922,128,0,38422:0:0:0:0:
64,192,38172,1,2,0:0:0:0:
64,192,38297,1,2,0:0:0:0:
320,192,38422,1,2,0:0:0:0:
320,192,38547,1,2,0:0:0:0:
192,192,38672,1,2,0:0:0:0:
192,192,38797,1,2,0:0:0:0:
320,192,38923,128,6,39108:0:0:0:0:
448,192,38923,1,0,0:0:0:0:
192,192,39046,1,0,0:0:0:0:
64,192,39169,1,8,0:0:0:0:
320,192,39169,128,0,39293:0:0:0:0:
448,192,39293,128,0,39416:0:0:0:0:
192,192,39416,128,2,39602:0:0:0:0:
64,192,39416,1,0,0:0:0:0:
320,192,39540,1,0,0:0:0:0:
192,192,39663,128,8,39787:0:0:0:0:
448,192,39663,1,0,0:0:0:0:
64,192,39787,128,2,39910:0:0:0:0:
320,192,39910,128,2,40095:0:0:0:0:
448,192,39910,1,0,0:0:0:0:
192,192,40034,1,0,0:0:0:0:
64,192,40157,1,8,0:0:0:0:
320,192,40157,128,0,40281:0:0:0:0:
192,192,40281,128,0,40466:0:0:0:0:
320,192,40404,1,2,0:0:0:0:
448,192,40404,1,0,0:0:0:0:
192,192,40527,128,0,40651:0:0:0:0:
320,192,40651,128,8,40836:0:0:0:0:
64,192,40651,1,0,0:0:0:0:
448,192,40774,1,2,0:0:0:0:
192,192,40898,128,2,41083:0:0:0:0:
64,192,40898,1,0,0:0:0:0:
320,192,41021,1,0,0:0:0:0:
448,192,41145,1,8,0:0:0:0:
192,192,41145,128,0,41268:0:0:0:0:
64,192,41268,128,0,41392:0:0:0:0:
320,192,41392,128,2,41577:0:0:0:0:
448,192,41392,1,0,0:0:0:0:
192,192,41515,1,0,0:0:0:0:
320,192,41639,128,8,41762:0:0:0:0:
64,192,41639,1,0,0:0:0:0:
448,192,41762,128,2,41885:0:0:0:0:
192,192,41885,128,2,42071:0:0:0:0:
64,192,41885,1,0,0:0:0:0:
320,192,42009,1,0,0:0:0:0:
448,192,42132,1,8,0:0:0:0:
192,192,42132,128,0,42256:0:0:0:0:
320,192,42256,128,0,42441:0:0:0:0:
192,192,42379,1,2,0:0:0:0:
64,192,42379,1,0,0:0:0:0:
320,192,42503,128,2,42626:0:0:0:0:
192,192,42626,128,8,42811:0:0:0:0:
448,192,42626,1,0,0:0:0:0:
64,192,42750,1,2,0:0:0:0:
448,192,42873,1,2,0:0:0:0:
320,192,42873,128,0,43058:0:0:0:0:
192,192,42997,1,0,0:0:0:0:
320,192,43120,128,8,43243:0:0:0:0:
64,192,43120,1,0,0:0:0:0:
448,192,43243,128,0,43367:0:0:0:0:
64,192,43367,1,2,0:0:0:0:
192,192,43367,128,0,43552:0:0:0:0:
320,192,43490,1,0,0:0:0:0:
448,192,43614,1,8,0:0:0:0:
192,192,43614,128,0,43737:0:0:0:0:
64,192,43737,128,2,43861:0:0:0:0:
448,192,43861,1,2,0:0:0:0:
320,192,43861,128,0,44046:0:0:0:0:
192,192,43984,1,0,0:0:0:0:
64,192,44108,1,8,0:0:0:0:
320,192,44108,128,0,44231:0:0:0:0:
192,192,44231,128,0,44416:0:0:0:0:
448,192,44355,1,2,0:0:0:0:
320,192,44355,1,0,0:0:0:0:
192,192,44478,128,0,44602:0:0:0:0:
64,192,44602,1,8,0:0:0:0:
320,192,44602,128,0,44787:0:0:0:0:
448,192,44725,1,2,0:0:0:0:
192,192,44848,128,2,45034:0:0:0:0:
64,192,44848,1,0,0:0:0:0:
320,192,44972,1,0,0:0:0:0:
448,192,45095,1,8,0:0:0:0:
192,192,45095,128,0,45219:0:0:0:0:
64,192,45219,128,0,45342:0:0:0:0:
320,192,45342,128,2,45527:0:0:0:0:
448,192,45342,1,0,0:0:0:0:
192,192,45466,1,0,0:0:0:0:
320,192,45589,128,8,45713:0:0:0:0:
64,192,45589,1,0,0:0:0:0:
448,192,45713,128,2,45836:0:0:0:0:
192,192,45836,128,2,46021:0:0:0:0:
64,192,45836,1,0,0:0:0:0:
320,192,45960,1,0,0:0:0:0:
448,192,46083,1,8,0:0:0:0:
192,192,46083,128,0,46206:0:0:0:0:
320,192,46206,128,0,46392:0:0:0:0:
192,192,46330,1,2,0:0:0:0:
64,192,46330,1,0,0:0:0:0:
320,192,46453,128,2,46577:0:0:0:0:
192,192,46577,128,8,46762:0:0:0:0:
448,192,46577,1,0,0:0:0:0:
448,192,46700,1,2,0:0:0:0:
320,192,46762,1,2,0:0:0:0:
192,192,46824,1,6,0:0:0:0:
64,192,46824,1,0,0:0:0:0:
64,192,47071,1,8,0:0:0:0:
192,192,47071,1,0,0:0:0:0:
448,192,47194,1,0,0:0:0:0:
320,192,47318,1,2,0:0:0:0:
64,192,47318,1,0,0:0:0:0:
320,192,47564,1,8,0:0:0:0:
64,192,47688,1,2,0:0:0:0:
320,192,47811,1,2,0:0:0:0:
448,192,47935,1,0,0:0:0:0:
192,192,48058,1,8,0:0:0:0:
64,192,48058,1,0,0:0:0:0:
448,192,48182,1,0,0:0:0:0:
320,192,48305,1,2,0:0:0:0:
64,192,48305,1,0,0:0:0:0:
448,192,48429,1,0,0:0:0:0:
64,192,48552,1,8,0:0:0:0:
320,192,48676,1,2,0:0:0:0:
192,192,48799,1,2,0:0:0:0:
64,192,48799,1,0,0:0:0:0:
64,192,49046,1,8,0:0:0:0:
192,192,49046,1,0,0:0:0:0:
448,192,49169,1,0,0:0:0:0:
320,192,49293,1,2,0:0:0:0:
64,192,49293,1,0,0:0:0:0:
320,192,49540,1,8,0:0:0:0:
64,192,49663,1,2,0:0:0:0:
320,192,49787,1,2,0:0:0:0:
448,192,49910,1,0,0:0:0:0:
448,192,50034,1,8,0:0:0:0:
192,192,50034,1,0,0:0:0:0:
64,192,50157,1,0,0:0:0:0:
320,192,50281,1,2,0:0:0:0:
448,192,50404,1,2,0:0:0:0:
192,192,50404,1,0,0:0:0:0:
64,192,50527,1,8,0:0:0:0:
320,192,50651,1,2,0:0:0:0:
192,192,50774,1,2,0:0:0:0:
64,192,50774,1,0,0:0:0:0:
320,192,50898,1,0,0:0:0:0:
192,192,51021,1,8,0:0:0:0:
64,192,51021,1,0,0:0:0:0:
320,192,51145,1,0,0:0:0:0:
448,192,51268,1,2,0:0:0:0:
192,192,51268,1,0,0:0:0:0:
64,192,51330,1,0,0:0:0:0:
320,192,51392,1,0,0:0:0:0:
192,192,51453,1,0,0:0:0:0:
448,192,51515,1,8,0:0:0:0:
320,192,51577,1,0,0:0:0:0:
64,192,51639,1,2,0:0:0:0:
448,192,51700,1,0,0:0:0:0:
192,192,51762,1,2,0:0:0:0:
64,192,51824,1,0,0:0:0:0:
448,192,51885,1,0,0:0:0:0:
320,192,51947,1,0,0:0:0:0:
192,192,52009,1,8,0:0:0:0:
64,192,52009,1,0,0:0:0:0:
320,192,52071,1,0,0:0:0:0:
192,192,52132,1,0,0:0:0:0:
448,192,52194,1,0,0:0:0:0:
64,192,52256,1,2,0:0:0:0:
320,192,52256,1,0,0:0:0:0:
192,192,52318,1,0,0:0:0:0:
448,192,52379,1,0,0:0:0:0:
320,192,52441,1,0,0:0:0:0:
64,192,52503,1,8,0:0:0:0:
448,192,52564,1,0,0:0:0:0:
192,192,52626,1,2,0:0:0:0:
64,192,52688,1,0,0:0:0:0:
320,192,52750,1,2,0:0:0:0:
448,192,52750,1,0,0:0:0:0:
192,192,52811,1,0,0:0:0:0:
64,192,52873,1,0,0:0:0:0:
448,192,52935,1,0,0:0:0:0:
64,192,52997,1,8,0:0:0:0:
192,192,52997,1,0,0:0:0:0:
320,192,53058,1,0,0:0:0:0:
448,192,53120,1,0,0:0:0:0:
64,192,53182,1,0,0:0:0:0:
192,192,53243,1,2,0:0:0:0:
448,192,53243,1,0,0:0:0:0:
320,192,53305,1,0,0:0:0:0:
64,192,53367,1,0,0:0:0:0:
192,192,53429,1,0,0:0:0:0:
448,192,53490,1,8,0:0:0:0:
64,192,53552,1,0,0:0:0:0:
320,192,53614,1,2,0:0:0:0:
448,192,53676,1,0,0:0:0:0:
192,192,53737,128,0,53902:0:0:0:0:
64,192,53902,128,0,53984:0:0:0:0:
320,192,53984,128,0,54067:0:0:0:0:
192,192,54067,128,0,54149:0:0:0:0:
64,192,54149,128,0,54231:0:0:0:0:
448,192,54231,128,0,54313:0:0:0:0:
192,192,54313,128,0,54396:0:0:0:0:
64,192,54396,128,0,54478:0:0:0:0:
320,192,54478,1,0,0:0:0:0:
448,192,54509,1,0,0:0:0:0:
192,192,54540,1,0,0:0:0:0:
64,192,54571,1,0,0:0:0:0:
320,192,54602,1,0,0:0:0:0:
448,192,54632,1,0,0:0:0:0:
192,192,54663,1,0,0:0:0:0:
64,192,54694,1,0,0:0:0:0:
320,192,54725,1,6,0:0:0:0:
448,192,54725,1,0,0:0:0:0:
192,192,54787,1,0,0:0:0:0:
64,192,54848,1,8,0:0:0:0:
320,192,54910,1,0,0:0:0:0:
448,192,54972,1,8,0:0:0:0:
192,192,55034,1,0,0:0:0:0:
320,192,55095,1,2,0:0:0:0:
448,192,55095,1,0,0:0:0:0:
64,192,55157,1,0,0:0:0:0:
192,192,55219,1,8,0:0:0:0:
448,192,55281,1,0,0:0:0:0:
320,192,55342,1,2,0:0:0:0:
192,192,55404,1,0,0:0:0:0:
320,192,55466,1,8,0:0:0:0:
448,192,55466,1,0,0:0:0:0:
64,192,55527,1,0,0:0:0:0:
192,192,55589,1,2,0:0:0:0:
448,192,55651,1,0,0:0:0:0:
192,192,55713,1,6,0:0:0:0:
64,192,55713,1,0,0:0:0:0:
320,192,55774,1,0,0:0:0:0:
448,192,55836,1,8,0:0:0:0:
192,192,55898,1,0,0:0:0:0:
64,192,55960,1,8,0:0:0:0:
320,192,56021,1,0,0:0:0:0:
192,192,56083,1,2,0:0:0:0:
64,192,56083,1,0,0:0:0:0:
448,192,56145,1,0,0:0:0:0:
320,192,56206,1,8,0:0:0:0:
64,192,56268,1,0,0:0:0:0:
192,192,56330,1,2,0:0:0:0:
320,192,56392,1,0,0:0:0:0:
192,192,56453,1,8,0:0:0:0:
64,192,56453,1,0,0:0:0:0:
448,192,56515,1,0,0:0:0:0:
320,192,56577,1,2,0:0:0:0:
64,192,56639,1,0,0:0:0:0:
320,192,56700,1,6,0:0:0:0:
448,192,56700,1,0,0:0:0:0:
192,192,56762,1,0,0:0:0:0:
64,192,56824,1,8,0:0:0:0:
320,192,56885,1,0,0:0:0:0:
448,192,56947,1,8,0:0:0:0:
192,192,57009,1,0,0:0:0:0:
320,192,57071,1,2,0:0:0:0:
448,192,57071,1,0,0:0:0:0:
64,192,57132,1,0,0:0:0:0:
192,192,57194,1,8,0:0:0:0:
320,192,57256,1,0,0:0:0:0:
448,192,57318,1,2,0:0:0:0:
64,192,57379,1,0,0:0:0:0:
320,192,57441,1,8,0:0:0:0:
448,192,57441,1,0,0:0:0:0:
192,192,57503,1,0,0:0:0:0:
64,192,57564,1,2,0:0:0:0:
448,192,57626,1,0,0:0:0:0:
320,192,57688,1,6,0:0:0:0:
192,192,57750,1,0,0:0:0:0:
320,192,57811,1,8,0:0:0:0:
448,192,57811,1,0,0:0:0:0:
64,192,57873,1,0,0:0:0:0:
192,192,57935,1,2,0:0:0:0:
448,192,57997,1,0,0:0:0:0:
320,192,58058,1,2,0:0:0:0:
64,192,58120,1,0,0:0:0:0:
320,192,58182,1,8,0:0:0:0:
448,192,58182,1,4,0:0:0:0:
192,192,58243,1,0,0:0:0:0:
64,192,58305,1,2,0:0:0:0:
448,192,58367,1,0,0:0:0:0:
192,192,58429,1,8,0:0:0:0:
64,192,58429,1,0,0:0:0:0:
320,192,58490,1,0,0:0:0:0:
448,192,58552,1,8,0:0:0:0:
64,192,58614,1,0,0:0:0:0:
320,192,58676,1,6,0:0:0:0:
448,192,58676,1,0,0:0:0:0:
192,192,58737,1,0,0:0:0:0:
64,192,58799,1,8,0:0:0:0:
320,192,58861,1,0,0:0:0:0:
448,192,58923,1,8,0:0:0:0:
192,192,58984,1,0,0:0:0:0:
320,192,59046,1,2,0:0:0:0:
448,192,59046,1,0,0:0:0:0:
64,192,59108,1,0,0:0:0:0:
192,192,59169,1,8,0:0:0:0:
448,192,59231,1,0,0:0:0:0:
320,192,59293,1,2,0:0:0:0:
192,192,59355,1,0,0:0:0:0:
320,192,59416,1,8,0:0:0:0:
448,192,59416,1,0,0:0:0:0:
64,192,59478,1,0,0:0:0:0:
192,192,59540,1,8,0:0:0:0:
448,192,59602,1,0,0:0:0:0:
192,192,59663,1,6,0:0:0:0:
64,192,59663,1,0,0:0:0:0:
320,192,59725,1,0,0:0:0:0:
448,192,59787,1,8,0:0:0:0:
192,192,59848,1,0,0:0:0:0:
64,192,59910,1,8,0:0:0:0:
320,192,59972,1,0,0:0:0:0:
192,192,60034,1,2,0:0:0:0:
64,192,60034,1,0,0:0:0:0:
448,192,60095,1,0,0:0:0:0:
320,192,60157,1,8,0:0:0:0:
64,192,60219,1,0,0:0:0:0:
192,192,60281,1,2,0:0:0:0:
320,192,60342,1,0,0:0:0:0:
192,192,60404,1,8,0:0:0:0:
64,192,60404,1,0,0:0:0:0:
448,192,60466,1,0,0:0:0:0:
320,192,60527,1,8,0:0:0:0:
64,192,60589,1,0,0:0:0:0:
320,192,60651,1,6,0:0:0:0:
448,192,60651,1,0,0:0:0:0:
192,192,60713,1,0,0:0:0:0:
64,192,60774,1,8,0:0:0:0:
320,192,60836,1,0,0:0:0:0:
448,192,60898,1,8,0:0:0:0:
192,192,60960,1,0,0:0:0:0:
320,192,61021,1,2,0:0:0:0:
448,192,61021,1,0,0:0:0:0:
64,192,61083,1,0,0:0:0:0:
192,192,61145,1,8,0:0:0:0:
320,192,61206,1,0,0:0:0:0:
448,192,61268,1,2,0:0:0:0:
192,192,61330,1,0,0:0:0:0:
320,192,61392,1,8,0:0:0:0:
448,192,61392,1,0,0:0:0:0:
64,192,61453,1,0,0:0:0:0:
192,192,61515,1,8,0:0:0:0:
448,192,61577,1,8,0:0:0:0:
192,192,61639,1,6,0:0:0:0:
64,192,61639,1,0,0:0:0:0:
320,192,61700,1,0,0:0:0:0:
448,192,61762,1,2,0:0:0:0:
64,192,61824,1,2,0:0:0:0:
320,192,61885,1,8,0:0:0:0:
448,192,61885,1,4,0:0:0:0:
192,192,61947,1,0,0:0:0:0:
64,192,62009,1,2,0:0:0:0:
448,192,62071,1,2,0:0:0:0:
192,192,62132,1,8,0:0:0:0:
64,192,62132,1,4,0:0:0:0:
320,192,62194,1,0,0:0:0:0:
448,192,62256,1,2,0:0:0:0:
64,192,62318,1,2,0:0:0:0:
320,192,62379,1,12,0:0:0:0:
448,192,62379,1,0,0:0:0:0:
192,192,62441,1,0,0:0:0:0:
64,192,62503,1,2,0:0:0:0:
448,192,62564,1,2,0:0:0:0:
192,192,62626,1,6,0:0:0:0:
64,192,62626,1,0,0:0:0:0:
320,192,62688,1,0,0:0:0:0:
448,192,62750,1,8,0:0:0:0:
192,192,62811,1,0,0:0:0:0:
64,192,62873,1,8,0:0:0:0:
320,192,62935,1,0,0:0:0:0:
192,192,62997,1,2,0:0:0:0:
64,192,62997,1,0,0:0:0:0:
448,192,63058,1,0,0:0:0:0:
320,192,63120,1,8,0:0:0:0:
64,192,63182,1,0,0:0:0:0:
192,192,63243,1,2,0:0:0:0:
320,192,63305,1,0,0:0:0:0:
192,192,63367,1,8,0:0:0:0:
64,192,63367,1,0,0:0:0:0:
448,192,63429,1,0,0:0:0:0:
320,192,63490,1,2,0:0:0:0:
64,192,63552,1,0,0:0:0:0:
320,192,63614,1,6,0:0:0:0:
448,192,63614,1,0,0:0:0:0:
192,192,63676,1,0,0:0:0:0:
64,192,63737,1,8,0:0:0:0:
320,192,63799,1,0,0:0:0:0:
448,192,63861,1,8,0:0:0:0:
192,192,63923,1,0,0:0:0:0:
320,192,63984,1,2,0:0:0:0:
448,192,63984,1,0,0:0:0:0:
64,192,64046,1,0,0:0:0:0:
192,192,64108,1,8,0:0:0:0:
448,192,64169,1,0,0:0:0:0:
320,192,64231,1,2,0:0:0:0:
192,192,64293,1,0,0:0:0:0:
320,192,64355,1,8,0:0:0:0:
448,192,64355,1,0,0:0:0:0:
64,192,64416,1,0,0:0:0:0:
192,192,64478,1,2,0:0:0:0:
448,192,64540,1,0,0:0:0:0:
192,192,64602,1,6,0:0:0:0:
64,192,64602,1,0,0:0:0:0:
320,192,64663,1,0,0:0:0:0:
448,192,64725,1,8,0:0:0:0:
192,192,64787,1,0,0:0:0:0:
64,192,64848,1,8,0:0:0:0:
320,192,64910,1,0,0:0:0:0:
192,192,64972,1,2,0:0:0:0:
64,192,64972,1,0,0:0:0:0:
448,192,65034,1,0,0:0:0:0:
320,192,65095,1,8,0:0:0:0:
192,192,65157,1,0,0:0:0:0:
64,192,65219,1,2,0:0:0:0:
448,192,65281,1,0,0:0:0:0:
192,192,65342,1,8,0:0:0:0:
64,192,65342,1,0,0:0:0:0:
320,192,65404,1,0,0:0:0:0:
448,192,65466,1,2,0:0:0:0:
64,192,65527,1,0,0:0:0:0:
192,192,65589,1,6,0:0:0:0:
320,192,65651,1,0,0:0:0:0:
192,192,65713,1,8,0:0:0:0:
64,192,65713,1,0,0:0:0:0:
448,192,65774,1,0,0:0:0:0:
320,192,65836,1,2,0:0:0:0:
64,192,65898,1,0,0:0:0:0:
192,192,65960,1,2,0:0:0:0:
448,192,66021,1,0,0:0:0:0:
192,192,66083,1,8,0:0:0:0:
64,192,66083,1,4,0:0:0:0:
320,192,66145,1,0,0:0:0:0:
448,192,66206,1,2,0:0:0:0:
64,192,66268,1,0,0:0:0:0:
320,192,66330,1,8,0:0:0:0:
448,192,66330,1,0,0:0:0:0:
192,192,66392,1,0,0:0:0:0:
64,192,66453,1,8,0:0:0:0:
448,192,66515,1,0,0:0:0:0:
192,192,66577,1,6,0:0:0:0:
64,192,66577,1,0,0:0:0:0:
320,192,66639,1,0,0:0:0:0:
448,192,66700,1,8,0:0:0:0:
192,192,66762,1,0,0:0:0:0:
64,192,66824,1,8,0:0:0:0:
320,192,66885,1,0,0:0:0:0:
192,192,66947,1,2,0:0:0:0:
64,192,66947,1,0,0:0:0:0:
448,192,67009,1,0,0:0:0:0:
320,192,67071,1,8,0:0:0:0:
64,192,67132,1,0,0:0:0:0:
192,192,67194,1,2,0:0:0:0:
320,192,67256,1,0,0:0:0:0:
192,192,67318,1,8,0:0:0:0:
64,192,67318,1,0,0:0:0:0:
448,192,67379,1,0,0:0:0:0:
320,192,67441,1,8,0:0:0:0:
64,192,67503,1,0,0:0:0:0:
320,192,67564,1,6,0:0:0:0:
448,192,67564,1,0,0:0:0:0:
192,192,67626,1,0,0:0:0:0:
64,192,67688,1,8,0:0:0:0:
320,192,67750,1,0,0:0:0:0:
448,192,67811,1,8,0:0:0:0:
192,192,67873,1,0,0:0:0:0:
320,192,67935,1,2,0:0:0:0:
448,192,67935,1,0,0:0:0:0:
64,192,67997,1,0,0:0:0:0:
192,192,68058,1,8,0:0:0:0:
448,192,68120,1,0,0:0:0:0:
320,192,68182,1,2,0:0:0:0:
192,192,68243,1,0,0:0:0:0:
320,192,68305,1,8,0:0:0:0:
448,192,68305,1,0,0:0:0:0:
64,192,68367,1,0,0:0:0:0:
192,192,68429,1,8,0:0:0:0:
448,192,68490,1,0,0:0:0:0:
192,192,68552,1,6,0:0:0:0:
64,192,68552,1,0,0:0:0:0:
320,192,68614,1,0,0:0:0:0:
448,192,68676,1,8,0:0:0:0:
192,192,68737,1,0,0:0:0:0:
64,192,68799,1,8,0:0:0:0:
320,192,68861,1,0,0:0:0:0:
64,192,68923,1,0,0:0:0:0:
192,192,68923,1,2,0:0:0:0:
448,192,68984,1,0,0:0:0:0:
320,192,69046,1,8,0:0:0:0:
192,192,69108,1,0,0:0:0:0:
64,192,69169,1,2,0:0:0:0:
320,192,69231,1,0,0:0:0:0:
192,192,69293,1,8,0:0:0:0:
64,192,69293,1,0,0:0:0:0:
448,192,69355,1,8,0:0:0:0:
320,192,69416,1,8,0:0:0:0:
64,192,69478,1,0,0:0:0:0:
320,192,69540,1,6,0:0:0:0:
448,192,69540,1,0,0:0:0:0:
192,192,69602,1,0,0:0:0:0:
64,192,69663,1,2,0:0:0:0:
448,192,69725,1,2,0:0:0:0:
192,192,69787,1,8,0:0:0:0:
64,192,69787,1,4,0:0:0:0:
320,192,69848,1,0,0:0:0:0:
448,192,69910,1,2,0:0:0:0:
64,192,69972,1,2,0:0:0:0:
320,192,70034,1,8,0:0:0:0:
448,192,70034,1,4,0:0:0:0:
192,192,70095,1,0,0:0:0:0:
64,192,70157,1,2,0:0:0:0:
448,192,70219,1,2,0:0:0:0:
192,192,70281,1,8,0:0:0:0:
64,192,70281,1,4,0:0:0:0:
320,192,70342,1,0,0:0:0:0:
448,192,70404,1,2,0:0:0:0:
64,192,70466,1,2,0:0:0:0:
320,192,70527,1,6,0:0:0:0:
448,192,70527,1,0,0:0:0:0:
192,192,70651,1,0,0:0:0:0:
64,192,70713,1,0,0:0:0:0:
320,192,70774,1,8,0:0:0:0:
448,192,70774,1,0,0:0:0:0:
192,192,70898,1,0,0:0:0:0:
64,192,70960,1,0,0:0:0:0:
320,192,71021,1,2,0:0:0:0:
448,192,71021,1,0,0:0:0:0:
192,192,71145,1,0,0:0:0:0:
64,192,71206,1,0,0:0:0:0:
320,192,71268,1,8,0:0:0:0:
448,192,71268,1,0,0:0:0:0:
64,192,71392,1,0,0:0:0:0:
192,192,71453,1,0,0:0:0:0:
320,192,71515,1,2,0:0:0:0:
448,192,71515,1,0,0:0:0:0:
64,192,71639,1,0,0:0:0:0:
192,192,71700,1,0,0:0:0:0:
320,192,71762,1,8,0:0:0:0:
448,192,71762,1,0,0:0:0:0:
64,192,71885,1,0,0:0:0:0:
192,192,71947,1,0,0:0:0:0:
320,192,72009,1,2,0:0:0:0:
448,192,72009,1,0,0:0:0:0:
64,192,72132,1,0,0:0:0:0:
192,192,72194,1,0,0:0:0:0:
448,192,72256,1,8,0:0:0:0:
320,192,72256,1,0,0:0:0:0:
192,192,72379,1,0,0:0:0:0:
64,192,72441,1,0,0:0:0:0:
320,192,72503,1,2,0:0:0:0:
448,192,72503,1,0,0:0:0:0:
192,192,72626,1,0,0:0:0:0:
64,192,72688,128,0,72873:0:0:0:0:
320,192,72750,1,8,0:0:0:0:
448,192,72750,1,0,0:0:0:0:
192,192,72873,128,0,72997:0:0:0:0:
448,192,72997,1,2,0:0:0:0:
320,192,72997,128,0,73182:0:0:0:0:
448,192,73182,128,0,73367:0:0:0:0:
192,192,73243,1,8,0:0:0:0:
64,192,73243,1,0,0:0:0:0:
320,192,73367,128,0,73490:0:0:0:0:
64,192,73490,1,2,0:0:0:0:
192,192,73490,128,0,73737:0:0:0:0:
448,192,73737,1,8,0:0:0:0:
320,192,73737,128,0,73984:0:0:0:0:
192,192,73984,1,2,0:0:0:0:
64,192,73984,128,0,74231:0:0:0:0:
320,192,74231,1,8,0:0:0:0:
448,192,74231,128,0,74478:0:0:0:0:
64,192,74478,1,2,0:0:0:0:
192,192,74478,128,0,75219:0:0:0:0:
320,192,74725,1,8,0:0:0:0:
448,192,74725,1,0,0:0:0:0:
320,192,74972,1,2,0:0:0:0:
448,192,74972,1,0,0:0:0:0:
320,192,75219,128,8,75342:0:0:0:0:
448,192,75219,1,0,0:0:0:0:
192,192,75342,128,0,75589:0:0:0:0:
320,192,75466,1,2,0:0:0:0:
448,192,75466,1,0,0:0:0:0:
64,192,75589,128,0,75836:0:0:0:0:
320,192,75713,1,8,0:0:0:0:
448,192,75713,1,0,0:0:0:0:
192,192,75836,128,0,76083:0:0:0:0:
320,192,75960,1,2,0:0:0:0:
448,192,75960,1,0,0:0:0:0:
448,192,76083,128,0,76330:0:0:0:0:
192,192,76206,1,8,0:0:0:0:
64,192,76206,1,0,0:0:0:0:
320,192,76330,128,0,77318:0:0:0:0:
192,192,76453,1,2,0:0:0:0:
64,192,76453,1,0,0:0:0:0:
192,192,76700,1,8,0:0:0:0:
64,192,76700,1,0,0:0:0:0:
192,192,76947,1,2,0:0:0:0:
64,192,76947,1,0,0:0:0:0:
192,192,77194,1,8,0:0:0:0:
64,192,77194,1,0,0:0:0:0:
320,192,77441,1,2,0:0:0:0:
448,192,77441,1,0,0:0:0:0:
320,192,77688,1,8,0:0:0:0:
448,192,77688,1,0,0:0:0:0:
320,192,77935,1,2,0:0:0:0:
448,192,77935,1,0,0:0:0:0:
192,192,78120,1,0,0:0:0:0:
320,192,78182,1,8,0:0:0:0:
448,192,78182,1,0,0:0:0:0:
64,192,78243,1,8,0:0:0:0:
448,192,78305,1,8,0:0:0:0:
64,192,78367,1,8,0:0:0:0:
192,192,78429,1,12,0:0:0:0:
320,192,78429,1,2,0:0:0:0:
448,192,78490,1,0,0:0:0:0:
192,192,78552,1,2,0:0:0:0:
64,192,78614,1,0,0:0:0:0:
320,192,78676,1,8,0:0:0:0:
192,192,78737,1,0,0:0:0:0:
448,192,78799,1,2,0:0:0:0:
64,192,78861,1,0,0:0:0:0:
448,192,78923,1,8,0:0:0:0:
320,192,78923,1,0,0:0:0:0:
192,192,78984,1,0,0:0:0:0:
64,192,79046,1,0,0:0:0:0:
448,192,79108,1,8,0:0:0:0:
192,192,79169,1,8,0:0:0:0:
320,192,79231,1,0,0:0:0:0:
64,192,79293,1,2,0:0:0:0:
448,192,79355,1,0,0:0:0:0:
320,192,79416,1,8,0:0:0:0:
192,192,79416,1,2,0:0:0:0:
64,192,79478,1,0,0:0:0:0:
320,192,79540,1,2,0:0:0:0:
192,192,79602,1,0,0:0:0:0:
448,192,79663,1,8,0:0:0:0:
64,192,79725,1,0,0:0:0:0:
320,192,79787,1,2,0:0:0:0:
448,192,79787,1,0,0:0:0:0:
192,192,79848,1,0,0:0:0:0:
320,192,79910,1,8,0:0:0:0:
448,192,79910,1,0,0:0:0:0:
192,192,79972,1,0,0:0:0:0:
64,192,80034,1,0,0:0:0:0:
192,192,80095,1,8,0:0:0:0:
320,192,80157,1,8,0:0:0:0:
448,192,80157,1,0,0:0:0:0:
64,192,80219,1,0,0:0:0:0:
192,192,80281,1,2,0:0:0:0:
448,192,80342,1,0,0:0:0:0:
320,192,80404,1,12,0:0:0:0:
192,192,80404,1,2,0:0:0:0:
64,192,80466,1,0,0:0:0:0:
320,192,80527,1,2,0:0:0:0:
448,192,80589,1,0,0:0:0:0:
192,192,80651,1,8,0:0:0:0:
320,192,80713,1,0,0:0:0:0:
64,192,80774,1,2,0:0:0:0:
448,192,80836,1,0,0:0:0:0:
192,192,80898,1,8,0:0:0:0:
64,192,80898,1,0,0:0:0:0:
320,192,80960,1,0,0:0:0:0:
448,192,81021,1,0,0:0:0:0:
64,192,81083,1,8,0:0:0:0:
320,192,81145,1,8,0:0:0:0:
192,192,81206,1,0,0:0:0:0:
448,192,81268,1,2,0:0:0:0:
64,192,81330,1,0,0:0:0:0:
192,192,81392,1,10,0:0:0:0:
320,192,81392,1,0,0:0:0:0:
448,192,81453,1,0,0:0:0:0:
192,192,81515,1,2,0:0:0:0:
64,192,81577,1,0,0:0:0:0:
320,192,81639,1,8,0:0:0:0:
448,192,81700,1,0,0:0:0:0:
192,192,81762,1,2,0:0:0:0:
64,192,81762,1,0,0:0:0:0:
320,192,81824,1,0,0:0:0:0:
192,192,81885,1,8,0:0:0:0:
64,192,81885,1,0,0:0:0:0:
320,192,81947,1,0,0:0:0:0:
192,192,82009,1,10,0:0:0:0:
64,192,82009,1,0,0:0:0:0:
448,192,82071,1,0,0:0:0:0:
320,192,82132,1,8,0:0:0:0:
64,192,82132,1,0,0:0:0:0:
64,192,82256,1,10,0:0:0:0:
320,192,82256,1,0,0:0:0:0:
320,192,82379,1,12,0:0:0:0:
64,192,82379,1,2,0:0:0:0:
448,192,82441,1,0,0:0:0:0:
192,192,82503,1,2,0:0:0:0:
64,192,82564,1,0,0:0:0:0:
320,192,82626,1,8,0:0:0:0:
192,192,82688,1,0,0:0:0:0:
448,192,82750,1,2,0:0:0:0:
64,192,82811,1,0,0:0:0:0:
320,192,82873,1,8,0:0:0:0:
448,192,82873,1,0,0:0:0:0:
192,192,82935,1,0,0:0:0:0:
64,192,82997,1,0,0:0:0:0:
448,192,83058,1,8,0:0:0:0:
320,192,83120,1,8,0:0:0:0:
192,192,83182,1,0,0:0:0:0:
448,192,83243,1,2,0:0:0:0:
64,192,83305,1,0,0:0:0:0:
320,192,83367,1,10,0:0:0:0:
192,192,83367,1,0,0:0:0:0:
448,192,83429,1,0,0:0:0:0:
320,192,83490,1,2,0:0:0:0:
192,192,83552,1,0,0:0:0:0:
448,192,83614,1,8,0:0:0:0:
64,192,83676,1,0,0:0:0:0:
320,192,83737,1,2,0:0:0:0:
448,192,83737,1,0,0:0:0:0:
192,192,83799,1,0,0:0:0:0:
320,192,83861,1,8,0:0:0:0:
448,192,83861,1,0,0:0:0:0:
192,192,83923,1,0,0:0:0:0:
64,192,83984,1,0,0:0:0:0:
192,192,84046,1,8,0:0:0:0:
320,192,84108,1,8,0:0:0:0:
448,192,84108,1,0,0:0:0:0:
64,192,84169,1,0,0:0:0:0:
192,192,84231,1,2,0:0:0:0:
448,192,84293,1,0,0:0:0:0:
320,192,84355,1,14,0:0:0:0:
192,192,84355,1,0,0:0:0:0:
64,192,84416,1,0,0:0:0:0:
320,192,84478,1,0,0:0:0:0:
448,192,84540,1,0,0:0:0:0:
192,192,84602,1,8,0:0:0:0:
320,192,84663,1,0,0:0:0:0:
64,192,84725,1,2,0:0:0:0:
448,192,84787,1,0,0:0:0:0:
192,192,84848,1,8,0:0:0:0:
64,192,84848,1,0,0:0:0:0:
320,192,84910,1,0,0:0:0:0:
448,192,84972,1,0,0:0:0:0:
64,192,85034,1,8,0:0:0:0:
192,192,85095,1,8,0:0:0:0:
320,192,85157,1,0,0:0:0:0:
64,192,85219,1,2,0:0:0:0:
320,192,85281,1,0,0:0:0:0:
64,192,85342,1,12,0:0:0:0:
448,192,85342,1,2,0:0:0:0:
192,192,85404,1,0,0:0:0:0:
320,192,85466,1,2,0:0:0:0:
192,192,85527,1,0,0:0:0:0:
448,192,85589,1,8,0:0:0:0:
64,192,85651,1,0,0:0:0:0:
320,192,85713,1,2,0:0:0:0:
448,192,85713,1,0,0:0:0:0:
320,192,85836,1,8,0:0:0:0:
448,192,85836,1,0,0:0:0:0:
192,192,85960,1,14,0:0:0:0:
64,192,85960,1,0,0:0:0:0:
320,192,86083,1,8,0:0:0:0:
448,192,86083,1,0,0:0:0:0:
192,192,86145,1,8,0:0:0:0:
64,192,86145,1,0,0:0:0:0:
320,192,86206,1,8,0:0:0:0:
448,192,86206,1,2,0:0:0:0:
192,192,86268,1,8,0:0:0:0:
64,192,86268,1,0,0:0:0:0:
320,192,86330,128,14,86453:0:0:0:0:
448,192,86330,128,0,92256:0:0:0:0:
320,192,91268,128,0,94108:0:0:0:0:
64,192,93490,5,0,0:0:0:0:
192,192,93861,1,0,0:0:0:0:
320,192,94231,1,0,0:0:0:0:
448,192,94231,1,0,0:0:0:0:
192,192,96206,1,0,0:0:0:0:
64,192,98182,1,0,0:0:0:0:
448,192,99324,5,0,0:0:0:0:
192,192,99663,1,0,0:0:0:0:
64,192,99992,1,0,0:0:0:0:
192,192,100404,1,0,0:0:0:0:
320,192,101021,1,0,0:0:0:0:
448,192,101793,1,0,0:0:0:0:
192,192,102132,1,0,0:0:0:0:
64,192,104108,1,0,0:0:0:0:
192,192,105095,1,0,0:0:0:0:
448,192,105281,1,0,0:0:0:0:
320,192,105466,1,0,0:0:0:0:
64,192,105671,1,0,0:0:0:0:
192,192,105960,1,0,0:0:0:0:
448,192,106083,1,0,0:0:0:0:
64,192,106453,1,0,0:0:0:0:
64,192,108058,1,0,0:0:0:0:
192,192,108305,1,0,0:0:0:0:
320,192,108614,1,0,0:0:0:0:
448,192,108953,1,0,0:0:0:0:
320,192,109293,1,0,0:0:0:0:
192,192,109663,1,0,0:0:0:0:
64,192,109992,1,0,0:0:0:0:
320,192,110034,1,0,0:0:0:0:
192,192,112009,1,0,0:0:0:0:
320,192,112626,1,0,0:0:0:0:
448,192,112873,1,0,0:0:0:0:
320,192,113161,1,0,0:0:0:0:
192,192,113490,1,0,0:0:0:0:
64,192,113861,1,0,0:0:0:0:
320,192,113984,1,0,0:0:0:0:
192,192,114560,1,0,0:0:0:0:
192,192,116824,1,0,0:0:0:0:
64,192,117153,1,0,0:0:0:0:
320,192,117564,1,0,0:0:0:0:
64,192,117935,1,0,0:0:0:0:
448,192,117935,1,0,0:0:0:0:
64,192,119540,1,0,0:0:0:0:
320,192,119725,1,0,0:0:0:0:
192,192,119910,1,0,0:0:0:0:
448,192,119910,1,0,0:0:0:0:
192,192,121145,1,0,0:0:0:0:
320,192,121515,1,0,0:0:0:0:
448,192,121885,1,0,0:0:0:0:
192,192,121885,1,0,0:0:0:0:
64,192,122256,1,0,0:0:0:0:
320,192,122626,1,0,0:0:0:0:
448,192,122626,1,0,0:0:0:0:
64,192,124602,128,0,125836:0:0:0:0:
192,192,124972,128,0,125836:0:0:0:0:
320,192,125466,128,0,125836:0:0:0:0:
448,192,125836,128,0,125898:0:0:0:0:
192,192,126330,1,0,0:0:0:0:
448,192,126700,1,0,0:0:0:0:
320,192,127071,1,0,0:0:0:0:
320,192,127564,1,0,0:0:0:0:
448,192,127688,1,0,0:0:0:0:
192,192,127811,1,0,0:0:0:0:
320,192,128058,1,0,0:0:0:0:
320,192,129046,1,0,0:0:0:0:
192,192,129169,1,0,0:0:0:0:
64,192,129787,1,0,0:0:0:0:
320,192,130281,1,0,0:0:0:0:
64,192,130527,1,0,0:0:0:0:
448,192,130651,1,0,0:0:0:0:
320,192,131021,1,0,0:0:0:0:
192,192,131453,1,0,0:0:0:0:
320,192,131515,1,0,0:0:0:0:
448,192,132256,1,0,0:0:0:0:
320,192,132997,1,0,0:0:0:0:
64,192,133737,1,0,0:0:0:0:
192,192,134231,1,0,0:0:0:0:
448,192,134272,1,0,0:0:0:0:
320,192,134602,1,0,0:0:0:0:
192,192,134972,1,0,0:0:0:0:
320,192,135713,1,0,0:0:0:0:
448,192,135743,1,0,0:0:0:0:
192,192,136083,1,0,0:0:0:0:
64,192,136577,1,0,0:0:0:0:
192,192,136618,1,0,0:0:0:0:
320,192,136659,1,0,0:0:0:0:
448,192,136700,1,0,0:0:0:0:
192,192,137071,1,0,0:0:0:0:
320,192,137318,1,0,0:0:0:0:
64,192,137441,1,0,0:0:0:0:
320,192,137688,1,0,0:0:0:0:
448,192,137688,1,0,0:0:0:0:
64,192,138429,1,0,0:0:0:0:
320,192,138676,1,0,0:0:0:0:
448,192,139046,1,0,0:0:0:0:
448,192,139416,1,0,0:0:0:0:
320,192,139910,1,0,0:0:0:0:
192,192,140404,1,0,0:0:0:0:
320,192,140445,1,0,0:0:0:0:
64,192,140898,1,0,0:0:0:0:
192,192,141639,1,0,0:0:0:0:
448,192,142132,1,0,0:0:0:0:
192,192,142256,1,0,0:0:0:0:
448,192,142503,1,0,0:0:0:0:
192,192,142750,1,0,0:0:0:0:
448,192,142873,1,0,0:0:0:0:
192,192,142997,1,0,0:0:0:0:
448,192,143243,1,0,0:0:0:0:
192,192,143490,1,0,0:0:0:0:
320,192,143614,1,0,0:0:0:0:
64,192,143614,1,0,0:0:0:0:
192,192,143737,1,0,0:0:0:0:
320,192,143984,1,0,0:0:0:0:
192,192,144231,1,0,0:0:0:0:
320,192,144355,1,0,0:0:0:0:
192,192,144478,1,0,0:0:0:0:
64,192,144725,1,0,0:0:0:0:
64,192,145589,1,0,0:0:0:0:
320,192,145589,1,0,0:0:0:0:
192,192,145960,1,0,0:0:0:0:
448,192,146083,1,0,0:0:0:0:
320,192,146206,1,0,0:0:0:0:
64,192,146330,1,0,0:0:0:0:
448,192,146453,1,0,0:0:0:0:
448,192,146824,1,0,0:0:0:0:
64,192,146947,1,0,0:0:0:0:
448,192,147194,1,0,0:0:0:0:
192,192,147441,1,0,0:0:0:0:
320,192,147564,1,0,0:0:0:0:
192,192,147688,1,0,0:0:0:0:
320,192,147935,1,0,0:0:0:0:
192,192,148182,1,0,0:0:0:0:
320,192,148305,1,0,0:0:0:0:
192,192,148429,1,0,0:0:0:0:
320,192,148676,1,0,0:0:0:0:
192,192,148923,1,0,0:0:0:0:
320,192,149169,1,0,0:0:0:0:
448,192,149416,1,0,0:0:0:0:
64,192,149540,1,0,0:0:0:0:
320,192,150898,1,0,0:0:0:0:
448,192,151268,1,0,0:0:0:0:
192,192,151515,1,0,0:0:0:0:
448,192,152873,1,0,0:0:0:0:
320,192,153243,1,0,0:0:0:0:
192,192,153490,1,0,0:0:0:0:
192,192,154725,1,0,0:0:0:0:
320,192,155095,1,0,0:0:0:0:
448,192,155466,1,0,0:0:0:0:
64,192,155466,1,0,0:0:0:0:
192,192,156206,1,0,0:0:0:0:
320,192,157359,1,0,0:0:0:0:
64,192,157441,128,0,161145:0:0:0:0:
448,192,157523,1,0,0:0:0:0:
192,192,157626,1,0,0:0:0:0:
320,192,157729,1,0,0:0:0:0:
320,192,160651,1,0,0:0:0:0:
448,192,160774,1,0,0:0:0:0:
192,192,160898,1,0,0:0:0:0:
320,192,161021,1,0,0:0:0:0:
448,192,161145,128,0,161392:0:0:0:0:
320,192,161268,128,0,161392:0:0:0:0:
64,192,161392,1,6,0:0:0:0:
192,192,161392,128,0,161639:0:0:0:0:
320,192,161515,1,2,0:0:0:0:
448,192,161639,1,8,0:0:0:0:
64,192,161639,1,0,0:0:0:0:
448,192,161762,1,8,0:0:0:0:
320,192,161762,128,0,162009:0:0:0:0:
192,192,161885,1,6,0:0:0:0:
64,192,162009,1,2,0:0:0:0:
448,192,162009,1,0,0:0:0:0:
64,192,162132,1,8,0:0:0:0:
192,192,162132,128,0,162256:0:0:0:0:
320,192,162256,1,8,0:0:0:0:
64,192,162379,1,6,0:0:0:0:
192,192,162379,128,0,162626:0:0:0:0:
320,192,162503,1,2,0:0:0:0:
448,192,162626,1,8,0:0:0:0:
64,192,162626,128,0,162873:0:0:0:0:
320,192,162750,1,8,0:0:0:0:
448,192,162750,1,0,0:0:0:0:
192,192,162873,128,6,162997:0:0:0:0:
64,192,162997,1,2,0:0:0:0:
448,192,162997,1,0,0:0:0:0:
64,192,163120,1,8,0:0:0:0:
192,192,163120,128,0,163243:0:0:0:0:
320,192,163243,1,8,0:0:0:0:
192,192,163367,1,6,0:0:0:0:
64,192,163367,1,0,0:0:0:0:
192,192,163490,1,2,0:0:0:0:
64,192,163490,1,0,0:0:0:0:
320,192,163614,1,12,0:0:0:0:
448,192,163614,1,2,0:0:0:0:
320,192,163737,1,8,0:0:0:0:
448,192,163737,1,2,0:0:0:0:
64,192,163861,1,6,0:0:0:0:
192,192,163861,1,0,0:0:0:0:
192,192,163984,1,2,0:0:0:0:
64,192,163984,1,0,0:0:0:0:
448,192,164108,1,12,0:0:0:0:
320,192,164108,1,2,0:0:0:0:
448,192,164231,1,8,0:0:0:0:
320,192,164231,1,2,0:0:0:0:
64,192,164355,1,6,0:0:0:0:
320,192,164416,1,8,0:0:0:0:
192,192,164478,1,2,0:0:0:0:
448,192,164540,1,8,0:0:0:0:
64,192,164602,1,6,0:0:0:0:
320,192,164663,1,8,0:0:0:0:
64,192,164725,1,2,0:0:0:0:
192,192,164787,1,8,0:0:0:0:
320,192,164848,1,14,0:0:0:0:
448,192,164910,1,8,0:0:0:0:
192,192,164972,1,10,0:0:0:0:
64,192,165003,1,0,0:0:0:0:
448,192,165034,1,8,0:0:0:0:
192,192,165095,1,14,0:0:0:0:
320,192,165157,1,8,0:0:0:0:
64,192,165219,1,10,0:0:0:0:
192,192,165250,1,0,0:0:0:0:
448,192,165281,1,8,0:0:0:0:
320,192,165342,1,6,0:0:0:0:
448,192,167071,128,0,167318:0:0:0:0:
192,192,167318,1,6,0:0:0:0:
64,192,167318,1,0,0:0:0:0:
320,192,167379,1,2,0:0:0:0:
448,192,167441,1,8,0:0:0:0:
64,192,167503,1,8,0:0:0:0:
320,192,167564,1,6,0:0:0:0:
448,192,167564,1,0,0:0:0:0:
192,192,167626,1,2,0:0:0:0:
64,192,167688,1,8,0:0:0:0:
448,192,167750,1,8,0:0:0:0:
192,192,167811,1,6,0:0:0:0:
64,192,167811,1,0,0:0:0:0:
320,192,167873,1,2,0:0:0:0:
448,192,167935,1,8,0:0:0:0:
64,192,167997,1,8,0:0:0:0:
448,192,168058,1,6,0:0:0:0:
320,192,168058,1,0,0:0:0:0:
192,192,168120,1,2,0:0:0:0:
64,192,168182,1,8,0:0:0:0:
320,192,168243,1,8,0:0:0:0:
192,192,168305,1,6,0:0:0:0:
64,192,168305,1,0,0:0:0:0:
448,192,168367,1,2,0:0:0:0:
320,192,168429,1,8,0:0:0:0:
192,192,168490,1,8,0:0:0:0:
320,192,168552,1,6,0:0:0:0:
448,192,168552,1,0,0:0:0:0:
64,192,168614,1,2,0:0:0:0:
192,192,168676,1,8,0:0:0:0:
320,192,168737,1,8,0:0:0:0:
192,192,168799,128,6,168861:0:0:0:0:
64,192,168799,128,0,168861:0:0:0:0:
448,192,168861,1,2,0:0:0:0:
320,192,168923,1,8,0:0:0:0:
192,192,168984,128,8,169046:0:0:0:0:
64,192,168984,128,0,169046:0:0:0:0:
448,192,169046,1,6,0:0:0:0:
320,192,169108,1,2,0:0:0:0:
192,192,169169,128,8,169231:0:0:0:0:
64,192,169169,128,0,169231:0:0:0:0:
448,192,169231,1,8,0:0:0:0:
192,192,169293,1,6,0:0:0:0:
64,192,169293,1,0,0:0:0:0:
320,192,169355,1,2,0:0:0:0:
448,192,169416,1,8,0:0:0:0:
192,192,169478,1,8,0:0:0:0:
320,192,169540,1,6,0:0:0:0:
448,192,169540,1,0,0:0:0:0:
192,192,169602,1,2,0:0:0:0:
64,192,169663,1,8,0:0:0:0:
320,192,169725,1,8,0:0:0:0:
192,192,169787,1,6,0:0:0:0:
64,192,169787,1,0,0:0:0:0:
320,192,169848,1,2,0:0:0:0:
448,192,169910,1,8,0:0:0:0:
192,192,169972,1,8,0:0:0:0:
320,192,170034,1,6,0:0:0:0:
448,192,170034,1,0,0:0:0:0:
192,192,170095,1,2,0:0:0:0:
64,192,170157,1,8,0:0:0:0:
320,192,170219,1,8,0:0:0:0:
192,192,170281,1,6,0:0:0:0:
64,192,170281,1,0,0:0:0:0:
320,192,170342,1,2,0:0:0:0:
448,192,170404,1,8,0:0:0:0:
64,192,170466,1,8,0:0:0:0:
320,192,170527,1,6,0:0:0:0:
448,192,170527,1,0,0:0:0:0:
192,192,170589,1,2,0:0:0:0:
64,192,170651,1,8,0:0:0:0:
448,192,170713,1,8,0:0:0:0:
64,192,170774,128,6,170836:0:0:0:0:
192,192,170774,128,0,170836:0:0:0:0:
320,192,170836,1,2,0:0:0:0:
448,192,170898,1,8,0:0:0:0:
64,192,170960,1,8,0:0:0:0:
320,192,171021,128,6,171083:0:0:0:0:
448,192,171021,128,0,171083:0:0:0:0:
192,192,171083,1,2,0:0:0:0:
320,192,171145,1,8,0:0:0:0:
192,192,171206,1,8,0:0:0:0:
448,192,171268,1,6,0:0:0:0:
320,192,171268,1,0,0:0:0:0:
64,192,171330,1,2,0:0:0:0:
192,192,171392,1,8,0:0:0:0:
448,192,171453,1,8,0:0:0:0:
192,192,171515,1,6,0:0:0:0:
64,192,171515,1,0,0:0:0:0:
448,192,171577,1,2,0:0:0:0:
320,192,171639,1,8,0:0:0:0:
64,192,171700,1,8,0:0:0:0:
320,192,171762,1,6,0:0:0:0:
448,192,171762,1,0,0:0:0:0:
64,192,171824,1,2,0:0:0:0:
192,192,171885,1,8,0:0:0:0:
448,192,171947,1,8,0:0:0:0:
192,192,172009,1,6,0:0:0:0:
64,192,172009,1,0,0:0:0:0:
448,192,172071,1,2,0:0:0:0:
320,192,172132,1,8,0:0:0:0:
64,192,172194,1,8,0:0:0:0:
320,192,172256,1,6,0:0:0:0:
448,192,172256,1,0,0:0:0:0:
192,192,172318,1,2,0:0:0:0:
64,192,172379,1,8,0:0:0:0:
448,192,172441,1,8,0:0:0:0:
192,192,172503,1,6,0:0:0:0:
64,192,172503,1,0,0:0:0:0:
320,192,172564,1,2,0:0:0:0:
448,192,172626,1,8,0:0:0:0:
64,192,172688,1,8,0:0:0:0:
320,192,172750,128,6,172811:0:0:0:0:
448,192,172750,128,0,172811:0:0:0:0:
192,192,172811,1,2,0:0:0:0:
64,192,172873,1,8,0:0:0:0:
320,192,172935,128,8,172997:0:0:0:0:
448,192,172935,128,0,172997:0:0:0:0:
192,192,172997,1,6,0:0:0:0:
64,192,173058,1,2,0:0:0:0:
448,192,173120,128,8,173182:0:0:0:0:
320,192,173120,128,0,173182:0:0:0:0:
192,192,173182,1,8,0:0:0:0:
320,192,173243,1,6,0:0:0:0:
448,192,173243,1,0,0:0:0:0:
64,192,173305,1,2,0:0:0:0:
192,192,173367,1,8,0:0:0:0:
448,192,173429,1,8,0:0:0:0:
192,192,173490,1,6,0:0:0:0:
64,192,173490,1,0,0:0:0:0:
448,192,173552,1,2,0:0:0:0:
320,192,173614,1,8,0:0:0:0:
64,192,173676,1,8,0:0:0:0:
448,192,173737,1,6,0:0:0:0:
320,192,173737,1,0,0:0:0:0:
64,192,173799,1,2,0:0:0:0:
192,192,173861,1,8,0:0:0:0:
448,192,173923,1,8,0:0:0:0:
192,192,173984,1,6,0:0:0:0:
64,192,173984,1,0,0:0:0:0:
448,192,174046,1,2,0:0:0:0:
320,192,174108,1,8,0:0:0:0:
64,192,174169,1,8,0:0:0:0:
320,192,174231,1,6,0:0:0:0:
448,192,174231,1,0,0:0:0:0:
192,192,174293,1,2,0:0:0:0:
448,192,174355,1,8,0:0:0:0:
320,192,174416,1,8,0:0:0:0:
192,192,174478,1,6,0:0:0:0:
64,192,174478,1,0,0:0:0:0:
320,192,174540,1,2,0:0:0:0:
64,192,174602,1,8,0:0:0:0:
192,192,174663,1,8,0:0:0:0:
320,192,174725,1,6,0:0:0:0:
448,192,174725,1,0,0:0:0:0:
64,192,174787,1,2,0:0:0:0:
448,192,174848,1,8,0:0:0:0:
320,192,174879,1,8,0:0:0:0:
192,192,174910,1,8,0:0:0:0:
64,192,174941,1,8,0:0:0:0:
320,192,174972,1,6,0:0:0:0:
448,192,174972,1,0,0:0:0:0:
192,192,175034,1,2,0:0:0:0:
448,192,175095,1,8,0:0:0:0:
320,192,175126,1,8,0:0:0:0:
192,192,175157,1,8,0:0:0:0:
64,192,175188,1,8,0:0:0:0:
320,192,175219,1,6,0:0:0:0:
448,192,175219,1,0,0:0:0:0:
192,192,175281,1,2,0:0:0:0:
64,192,175342,1,8,0:0:0:0:
448,192,175404,1,8,0:0:0:0:
192,192,175466,1,6,0:0:0:0:
64,192,175466,1,0,0:0:0:0:
320,192,175527,1,2,0:0:0:0:
448,192,175589,1,8,0:0:0:0:
64,192,175651,1,8,0:0:0:0:
320,192,175713,1,6,0:0:0:0:
448,192,175713,1,0,0:0:0:0:
192,192,175774,1,2,0:0:0:0:
64,192,175836,1,8,0:0:0:0:
448,192,175898,1,8,0:0:0:0:
192,192,175960,1,6,0:0:0:0:
64,192,175960,1,0,0:0:0:0:
320,192,176021,1,2,0:0:0:0:
448,192,176083,1,8,0:0:0:0:
64,192,176145,1,8,0:0:0:0:
320,192,176206,1,6,0:0:0:0:
448,192,176206,1,0,0:0:0:0:
192,192,176268,1,2,0:0:0:0:
64,192,176330,1,8,0:0:0:0:
320,192,176392,1,8,0:0:0:0:
192,192,176453,1,6,0:0:0:0:
64,192,176453,1,0,0:0:0:0:
320,192,176515,1,2,0:0:0:0:
448,192,176577,1,8,0:0:0:0:
192,192,176639,1,8,0:0:0:0:
320,192,176700,128,6,176762:0:0:0:0:
448,192,176700,128,0,176762:0:0:0:0:
192,192,176762,1,2,0:0:0:0:
64,192,176824,1,8,0:0:0:0:
448,192,176885,128,8,176947:0:0:0:0:
320,192,176885,128,0,176947:0:0:0:0:
192,192,176947,1,6,0:0:0:0:
64,192,177009,1,2,0:0:0:0:
320,192,177071,128,8,177132:0:0:0:0:
448,192,177071,128,0,177132:0:0:0:0:
192,192,177132,1,8,0:0:0:0:
320,192,177194,1,6,0:0:0:0:
448,192,177194,1,0,0:0:0:0:
64,192,177256,1,2,0:0:0:0:
192,192,177318,1,8,0:0:0:0:
320,192,177379,1,8,0:0:0:0:
192,192,177441,1,6,0:0:0:0:
64,192,177441,1,0,0:0:0:0:
448,192,177503,1,2,0:0:0:0:
320,192,177564,1,8,0:0:0:0:
192,192,177626,1,8,0:0:0:0:
320,192,177688,1,6,0:0:0:0:
448,192,177688,1,0,0:0:0:0:
64,192,177750,1,2,0:0:0:0:
192,192,177811,1,8,0:0:0:0:
320,192,177873,1,8,0:0:0:0:
64,192,177935,1,6,0:0:0:0:
192,192,177935,1,0,0:0:0:0:
448,192,177997,1,2,0:0:0:0:
320,192,178058,1,8,0:0:0:0:
192,192,178120,1,8,0:0:0:0:
320,192,178182,1,6,0:0:0:0:
448,192,178182,1,0,0:0:0:0:
64,192,178243,1,2,0:0:0:0:
192,192,178305,1,8,0:0:0:0:
448,192,178367,1,8,0:0:0:0:
192,192,178429,1,6,0:0:0:0:
64,192,178429,1,0,0:0:0:0:
448,192,178490,1,2,0:0:0:0:
320,192,178552,1,8,0:0:0:0:
64,192,178614,1,8,0:0:0:0:
320,192,178676,128,6,178737:0:0:0:0:
448,192,178676,128,0,178737:0:0:0:0:
64,192,178737,1,0,0:0:0:0:
192,192,178799,1,8,0:0:0:0:
448,192,178861,1,0,0:0:0:0:
192,192,178923,128,6,178984:0:0:0:0:
64,192,178923,128,0,178984:0:0:0:0:
448,192,178984,1,0,0:0:0:0:
320,192,179046,1,8,0:0:0:0:
64,192,179108,1,0,0:0:0:0:
320,192,179169,1,6,0:0:0:0:
448,192,179169,1,0,0:0:0:0:
192,192,179231,1,2,0:0:0:0:
64,192,179293,1,8,0:0:0:0:
320,192,179355,1,8,0:0:0:0:
192,192,179416,1,6,0:0:0:0:
64,192,179416,1,0,0:0:0:0:
320,192,179478,1,2,0:0:0:0:
448,192,179540,1,8,0:0:0:0:
192,192,179602,1,8,0:0:0:0:
320,192,179663,1,6,0:0:0:0:
448,192,179663,1,0,0:0:0:0:
192,192,179725,1,2,0:0:0:0:
64,192,179787,1,8,0:0:0:0:
320,192,179848,1,8,0:0:0:0:
192,192,179910,1,6,0:0:0:0:
64,192,179910,1,0,0:0:0:0:
320,192,179972,1,2,0:0:0:0:
448,192,180034,1,8,0:0:0:0:
192,192,180095,1,8,0:0:0:0:
320,192,180157,1,6,0:0:0:0:
448,192,180157,1,0,0:0:0:0:
192,192,180219,1,2,0:0:0:0:
64,192,180281,1,8,0:0:0:0:
448,192,180342,1,8,0:0:0:0:
192,192,180404,1,6,0:0:0:0:
64,192,180404,1,0,0:0:0:0:
320,192,180466,1,2,0:0:0:0:
448,192,180527,1,8,0:0:0:0:
64,192,180589,1,8,0:0:0:0:
192,192,180651,1,6,0:0:0:0:
448,192,180713,128,2,180774:0:0:0:0:
320,192,180713,128,0,180774:0:0:0:0:
64,192,180774,1,8,0:0:0:0:
448,192,180836,128,8,180898:0:0:0:0:
320,192,180836,128,0,180898:0:0:0:0:
192,192,180898,1,6,0:0:0:0:
64,192,180960,1,2,0:0:0:0:
320,192,181021,128,8,181083:0:0:0:0:
448,192,181021,128,0,181083:0:0:0:0:
192,192,181083,1,8,0:0:0:0:
320,192,181145,1,6,0:0:0:0:
448,192,181145,1,0,0:0:0:0:
64,192,181206,1,2,0:0:0:0:
192,192,181268,1,8,0:0:0:0:
320,192,181330,1,8,0:0:0:0:
192,192,181392,1,6,0:0:0:0:
64,192,181392,1,0,0:0:0:0:
448,192,181453,1,2,0:0:0:0:
320,192,181515,1,8,0:0:0:0:
192,192,181577,1,8,0:0:0:0:
320,192,181639,1,6,0:0:0:0:
448,192,181639,1,0,0:0:0:0:
64,192,181700,1,2,0:0:0:0:
192,192,181762,1,8,0:0:0:0:
320,192,181824,1,8,0:0:0:0:
192,192,181885,1,6,0:0:0:0:
64,192,181885,1,0,0:0:0:0:
448,192,181947,1,2,0:0:0:0:
320,192,182009,1,8,0:0:0:0:
192,192,182071,1,8,0:0:0:0:
320,192,182132,1,6,0:0:0:0:
448,192,182132,1,0,0:0:0:0:
64,192,182194,1,2,0:0:0:0:
192,192,182256,1,8,0:0:0:0:
448,192,182318,1,8,0:0:0:0:
64,192,182379,1,2,0:0:0:0:
192,192,182379,1,4,0:0:0:0:
448,192,182441,1,2,0:0:0:0:
320,192,182503,1,8,0:0:0:0:
64,192,182564,1,8,0:0:0:0:
448,192,182626,128,12,182688:0:0:0:0:
320,192,182688,128,8,182750:0:0:0:0:
192,192,182750,128,8,182811:0:0:0:0:
64,192,182811,128,8,182873:0:0:0:0:
448,192,182873,1,12,0:0:0:0:
320,192,182904,1,8,0:0:0:0:
192,192,182935,1,8,0:0:0:0:
64,192,182966,1,8,0:0:0:0:
448,192,182997,128,8,183120:0:0:0:0:
320,192,183027,128,8,183120:0:0:0:0:
64,192,183120,1,4,0:0:0:0:
192,192,183182,1,0,0:0:0:0:
320,192,183243,1,0,0:0:0:0:
448,192,183305,1,0,0:0:0:0:
192,192,183367,1,0,0:0:0:0:
320,192,183449,1,0,0:0:0:0:
448,192,183532,1,0,0:0:0:0:
192,192,183614,1,6,0:0:0:0:
64,192,183614,1,0,0:0:0:0:
320,192,183676,1,2,0:0:0:0:
64,192,183737,1,8,0:0:0:0:
448,192,183799,1,8,0:0:0:0:
192,192,183861,1,6,0:0:0:0:
64,192,183861,1,0,0:0:0:0:
320,192,183923,1,2,0:0:0:0:
64,192,183984,1,8,0:0:0:0:
192,192,184046,1,8,0:0:0:0:
448,192,184108,1,6,0:0:0:0:
320,192,184108,1,0,0:0:0:0:
192,192,184169,1,2,0:0:0:0:
448,192,184231,1,8,0:0:0:0:
64,192,184293,1,8,0:0:0:0:
320,192,184355,1,6,0:0:0:0:
448,192,184355,1,0,0:0:0:0:
192,192,184416,1,2,0:0:0:0:
448,192,184478,1,8,0:0:0:0:
64,192,184540,1,8,0:0:0:0:
320,192,184602,128,6,184663:0:0:0:0:
448,192,184602,128,0,184663:0:0:0:0:
192,192,184663,1,2,0:0:0:0:
448,192,184725,1,8,0:0:0:0:
192,192,184787,128,8,184848:0:0:0:0:
64,192,184787,128,0,184848:0:0:0:0:
320,192,184848,1,6,0:0:0:0:
64,192,184910,1,2,0:0:0:0:
448,192,184972,128,8,185034:0:0:0:0:
320,192,184972,128,0,185034:0:0:0:0:
192,192,185034,1,8,0:0:0:0:
320,192,185095,1,6,0:0:0:0:
448,192,185095,1,0,0:0:0:0:
64,192,185157,1,2,0:0:0:0:
320,192,185219,1,8,0:0:0:0:
192,192,185281,1,8,0:0:0:0:
448,192,185342,1,6,0:0:0:0:
320,192,185342,1,0,0:0:0:0:
64,192,185404,1,2,0:0:0:0:
320,192,185466,1,8,0:0:0:0:
192,192,185527,1,8,0:0:0:0:
448,192,185589,1,6,0:0:0:0:
320,192,185589,1,0,0:0:0:0:
64,192,185651,1,2,0:0:0:0:
320,192,185713,1,8,0:0:0:0:
192,192,185774,1,8,0:0:0:0:
448,192,185836,1,6,0:0:0:0:
320,192,185836,1,0,0:0:0:0:
64,192,185898,1,2,0:0:0:0:
320,192,185960,1,8,0:0:0:0:
448,192,186021,1,8,0:0:0:0:
64,192,186083,1,6,0:0:0:0:
192,192,186083,1,0,0:0:0:0:
320,192,186145,1,2,0:0:0:0:
192,192,186206,1,8,0:0:0:0:
448,192,186268,1,8,0:0:0:0:
192,192,186330,1,6,0:0:0:0:
64,192,186330,1,0,0:0:0:0:
320,192,186392,1,2,0:0:0:0:
192,192,186453,1,8,0:0:0:0:
448,192,186515,1,8,0:0:0:0:
64,192,186577,128,6,186639:0:0:0:0:
192,192,186577,128,0,186639:0:0:0:0:
192,192,186824,128,6,186885:0:0:0:0:
64,192,186824,128,0,186885:0:0:0:0:
320,192,186885,1,0,0:0:0:0:
448,192,186947,1,8,0:0:0:0:
192,192,187009,1,0,0:0:0:0:
320,192,187071,1,6,0:0:0:0:
448,192,187071,1,0,0:0:0:0:
192,192,187132,1,2,0:0:0:0:
448,192,187194,1,8,0:0:0:0:
64,192,187256,1,8,0:0:0:0:
448,192,187318,1,6,0:0:0:0:
320,192,187318,1,0,0:0:0:0:
192,192,187379,1,2,0:0:0:0:
448,192,187441,1,8,0:0:0:0:
64,192,187503,1,8,0:0:0:0:
448,192,187564,1,6,0:0:0:0:
320,192,187564,1,0,0:0:0:0:
192,192,187626,1,2,0:0:0:0:
448,192,187688,1,8,0:0:0:0:
64,192,187750,1,8,0:0:0:0:
448,192,187811,1,6,0:0:0:0:
320,192,187811,1,0,0:0:0:0:
192,192,187873,1,2,0:0:0:0:
448,192,187935,1,8,0:0:0:0:
320,192,187997,1,8,0:0:0:0:
64,192,188058,1,6,0:0:0:0:
192,192,188058,1,0,0:0:0:0:
320,192,188120,1,2,0:0:0:0:
192,192,188182,1,8,0:0:0:0:
448,192,188243,1,8,0:0:0:0:
192,192,188305,1,6,0:0:0:0:
64,192,188305,1,0,0:0:0:0:
320,192,188367,1,2,0:0:0:0:
192,192,188429,1,8,0:0:0:0:
448,192,188490,1,8,0:0:0:0:
64,192,188552,128,6,188614:0:0:0:0:
192,192,188552,128,0,188614:0:0:0:0:
320,192,188614,1,2,0:0:0:0:
64,192,188676,1,8,0:0:0:0:
320,192,188737,128,8,188799:0:0:0:0:
448,192,188737,128,0,188799:0:0:0:0:
192,192,188799,1,6,0:0:0:0:
448,192,188861,1,2,0:0:0:0:
64,192,188923,128,0,188984:0:0:0:0:
192,192,188923,128,8,188984:0:0:0:0:
320,192,188984,1,8,0:0:0:0:
192,192,189046,1,6,0:0:0:0:
64,192,189046,1,0,0:0:0:0:
448,192,189108,1,2,0:0:0:0:
64,192,189169,1,8,0:0:0:0:
320,192,189231,1,8,0:0:0:0:
64,192,189293,1,6,0:0:0:0:
192,192,189293,1,0,0:0:0:0:
448,192,189355,1,2,0:0:0:0:
64,192,189416,1,8,0:0:0:0:
320,192,189478,1,8,0:0:0:0:
64,192,189540,1,6,0:0:0:0:
192,192,189540,1,0,0:0:0:0:
448,192,189602,1,2,0:0:0:0:
64,192,189663,1,8,0:0:0:0:
320,192,189725,1,8,0:0:0:0:
64,192,189787,1,6,0:0:0:0:
192,192,189787,1,0,0:0:0:0:
448,192,189848,1,2,0:0:0:0:
64,192,189910,1,8,0:0:0:0:
192,192,189972,1,8,0:0:0:0:
448,192,190034,1,6,0:0:0:0:
320,192,190034,1,0,0:0:0:0:
64,192,190095,1,2,0:0:0:0:
320,192,190157,1,8,0:0:0:0:
192,192,190219,1,8,0:0:0:0:
320,192,190281,1,6,0:0:0:0:
448,192,190281,1,0,0:0:0:0:
64,192,190342,1,2,0:0:0:0:
320,192,190404,1,8,0:0:0:0:
192,192,190466,1,8,0:0:0:0:
320,192,190527,1,6,0:0:0:0:
448,192,190527,1,0,0:0:0:0:
64,192,190589,1,2,0:0:0:0:
448,192,190651,128,8,190774:0:0:0:0:
320,192,190682,128,0,190774:0:0:0:0:
64,192,190774,1,6,0:0:0:0:
192,192,190774,1,0,0:0:0:0:
320,192,190836,1,2,0:0:0:0:
64,192,190898,1,8,0:0:0:0:
192,192,190929,1,8,0:0:0:0:
320,192,190960,1,8,0:0:0:0:
448,192,190990,1,8,0:0:0:0:
192,192,191021,1,6,0:0:0:0:
64,192,191021,1,0,0:0:0:0:
320,192,191083,1,2,0:0:0:0:
64,192,191145,1,8,0:0:0:0:
448,192,191206,1,8,0:0:0:0:
64,192,191268,1,6,0:0:0:0:
192,192,191268,1,0,0:0:0:0:
320,192,191330,1,2,0:0:0:0:
64,192,191392,1,8,0:0:0:0:
448,192,191453,1,8,0:0:0:0:
64,192,191515,1,6,0:0:0:0:
192,192,191515,1,0,0:0:0:0:
320,192,191577,1,2,0:0:0:0:
64,192,191639,1,8,0:0:0:0:
448,192,191700,1,8,0:0:0:0:
64,192,191762,1,6,0:0:0:0:
192,192,191762,1,0,0:0:0:0:
320,192,191824,1,2,0:0:0:0:
64,192,191885,1,8,0:0:0:0:
192,192,191947,1,8,0:0:0:0:
448,192,192009,1,6,0:0:0:0:
320,192,192009,1,0,0:0:0:0:
192,192,192071,1,2,0:0:0:0:
320,192,192132,1,8,0:0:0:0:
64,192,192194,1,8,0:0:0:0:
320,192,192256,1,6,0:0:0:0:
448,192,192256,1,0,0:0:0:0:
192,192,192318,1,2,0:0:0:0:
320,192,192379,1,8,0:0:0:0:
64,192,192441,1,8,0:0:0:0:
448,192,192503,128,6,192564:0:0:0:0:
320,192,192503,128,0,192564:0:0:0:0:
192,192,192564,1,0,0:0:0:0:
448,192,192626,1,8,0:0:0:0:
192,192,192688,128,8,192750:0:0:0:0:
64,192,192688,128,0,192750:0:0:0:0:
320,192,192750,1,6,0:0:0:0:
64,192,192811,1,2,0:0:0:0:
320,192,192873,128,8,192935:0:0:0:0:
448,192,192873,128,0,192935:0:0:0:0:
192,192,192935,1,8,0:0:0:0:
320,192,192997,1,6,0:0:0:0:
448,192,192997,1,0,0:0:0:0:
64,192,193058,1,2,0:0:0:0:
448,192,193120,1,8,0:0:0:0:
192,192,193182,1,8,0:0:0:0:
448,192,193243,1,6,0:0:0:0:
320,192,193243,1,0,0:0:0:0:
64,192,193305,1,2,0:0:0:0:
448,192,193367,1,8,0:0:0:0:
192,192,193429,1,8,0:0:0:0:
448,192,193490,1,6,0:0:0:0:
320,192,193490,1,0,0:0:0:0:
64,192,193552,1,2,0:0:0:0:
448,192,193614,1,8,0:0:0:0:
192,192,193676,1,8,0:0:0:0:
448,192,193737,1,6,0:0:0:0:
320,192,193737,1,0,0:0:0:0:
64,192,193799,1,2,0:0:0:0:
448,192,193861,1,8,0:0:0:0:
320,192,193923,1,8,0:0:0:0:
64,192,193984,1,6,0:0:0:0:
192,192,193984,1,0,0:0:0:0:
448,192,194046,1,2,0:0:0:0:
192,192,194108,1,8,0:0:0:0:
320,192,194169,1,8,0:0:0:0:
192,192,194231,1,6,0:0:0:0:
64,192,194231,1,0,0:0:0:0:
448,192,194293,1,2,0:0:0:0:
192,192,194355,1,8,0:0:0:0:
320,192,194416,1,8,0:0:0:0:
192,192,194478,128,6,194540:0:0:0:0:
64,192,194478,128,0,194540:0:0:0:0:
192,192,194725,128,6,194787:0:0:0:0:
64,192,194725,128,0,194787:0:0:0:0:
320,192,194787,1,0,0:0:0:0:
64,192,194848,1,8,0:0:0:0:
192,192,194910,1,0,0:0:0:0:
320,192,194972,1,6,0:0:0:0:
448,192,194972,1,0,0:0:0:0:
192,192,195034,1,2,0:0:0:0:
448,192,195095,1,8,0:0:0:0:
64,192,195157,1,8,0:0:0:0:
448,192,195219,1,6,0:0:0:0:
320,192,195219,1,0,0:0:0:0:
192,192,195281,1,2,0:0:0:0:
448,192,195342,1,8,0:0:0:0:
64,192,195404,1,8,0:0:0:0:
320,192,195466,1,6,0:0:0:0:
448,192,195466,1,0,0:0:0:0:
192,192,195527,1,2,0:0:0:0:
448,192,195589,1,8,0:0:0:0:
64,192,195651,1,8,0:0:0:0:
448,192,195713,1,6,0:0:0:0:
320,192,195713,1,0,0:0:0:0:
192,192,195774,1,2,0:0:0:0:
64,192,195836,1,8,0:0:0:0:
448,192,195898,1,8,0:0:0:0:
64,192,195960,1,6,0:0:0:0:
192,192,195960,1,0,0:0:0:0:
320,192,196021,1,2,0:0:0:0:
192,192,196083,1,8,0:0:0:0:
448,192,196145,1,8,0:0:0:0:
192,192,196206,1,6,0:0:0:0:
64,192,196206,1,0,0:0:0:0:
320,192,196268,1,2,0:0:0:0:
192,192,196330,1,8,0:0:0:0:
448,192,196392,1,8,0:0:0:0:
192,192,196453,1,6,0:0:0:0:
64,192,196453,1,0,0:0:0:0:
320,192,196515,1,2,0:0:0:0:
192,192,196577,128,8,196639:0:0:0:0:
64,192,196577,128,0,196639:0:0:0:0:
448,192,196639,1,8,0:0:0:0:
64,192,196700,128,6,196762:0:0:0:0:
192,192,196700,128,0,196762:0:0:0:0:
320,192,196762,1,2,0:0:0:0:
192,192,196824,1,8,0:0:0:0:
64,192,196824,1,0,0:0:0:0:
320,192,196885,128,0,196947:0:0:0:0:
448,192,196885,128,8,196947:0:0:0:0:
192,192,196947,1,6,0:0:0:0:
64,192,196947,1,0,0:0:0:0:
448,192,197009,1,2,0:0:0:0:
64,192,197071,1,8,0:0:0:0:
320,192,197132,1,8,0:0:0:0:
64,192,197194,1,6,0:0:0:0:
192,192,197194,1,0,0:0:0:0:
448,192,197256,1,2,0:0:0:0:
64,192,197318,1,8,0:0:0:0:
320,192,197379,1,8,0:0:0:0:
64,192,197441,1,6,0:0:0:0:
192,192,197441,1,0,0:0:0:0:
448,192,197503,1,2,0:0:0:0:
64,192,197564,1,8,0:0:0:0:
320,192,197626,1,8,0:0:0:0:
64,192,197688,1,6,0:0:0:0:
192,192,197688,1,0,0:0:0:0:
448,192,197750,1,2,0:0:0:0:
64,192,197811,1,8,0:0:0:0:
192,192,197873,1,8,0:0:0:0:
448,192,197935,1,6,0:0:0:0:
320,192,197935,1,0,0:0:0:0:
64,192,197997,1,2,0:0:0:0:
320,192,198058,1,8,0:0:0:0:
192,192,198120,1,8,0:0:0:0:
448,192,198182,1,6,0:0:0:0:
320,192,198182,1,0,0:0:0:0:
64,192,198243,1,2,0:0:0:0:
320,192,198305,1,8,0:0:0:0:
192,192,198367,1,8,0:0:0:0:
448,192,198429,128,12,198490:0:0:0:0:
320,192,198490,128,8,198552:0:0:0:0:
192,192,198552,128,8,198614:0:0:0:0:
64,192,198614,128,8,198676:0:0:0:0:
448,192,198676,1,12,0:0:0:0:
320,192,198706,1,8,0:0:0:0:
192,192,198737,1,8,0:0:0:0:
64,192,198768,1,8,0:0:0:0:
448,192,198799,128,8,198923:0:0:0:0:
320,192,198830,128,8,198923:0:0:0:0:
192,192,198923,128,6,198984:0:0:0:0:
64,192,198923,128,0,200898:0:0:0:0:
320,192,200898,128,0,200960:0:0:0:0:
192,192,200960,128,0,201021:0:0:0:0:
64,192,201021,128,0,201083:0:0:0:0:
448,192,201083,128,0,201145:0:0:0:0:
320,192,201145,128,0,201206:0:0:0:0:
192,192,201206,128,0,201268:0:0:0:0:
64,192,201268,128,0,201330:0:0:0:0:
448,192,201330,128,0,201392:0:0:0:0:
320,192,201392,128,0,201453:0:0:0:0:
192,192,201453,128,0,201515:0:0:0:0:
64,192,201515,128,0,201577:0:0:0:0:
448,192,201577,128,0,201639:0:0:0:0:
320,192,201639,128,0,201700:0:0:0:0:
192,192,201700,128,0,201762:0:0:0:0:
64,192,201762,128,0,201824:0:0:0:0:
448,192,201824,128,0,201885:0:0:0:0:
192,192,201885,1,14,0:0:0:0:
320,192,201947,1,8,0:0:0:0:
192,192,202009,1,10,0:0:0:0:
320,192,202071,1,8,0:0:0:0:
192,192,202132,1,14,0:0:0:0:
320,192,202194,1,8,0:0:0:0:
192,192,202256,1,10,0:0:0:0:
320,192,202318,1,8,0:0:0:0:
192,192,202379,1,14,0:0:0:0:
320,192,202441,1,10,0:0:0:0:
64,192,202503,1,10,0:0:0:0:
192,192,202564,1,10,0:0:0:0:
320,192,202626,1,14,0:0:0:0:
192,192,202688,1,10,0:0:0:0:
320,192,202750,1,10,0:0:0:0:
448,192,202811,1,10,0:0:0:0:
192,192,202873,1,6,0:0:0:0:
64,192,202873,1,0,0:0:0:0:
320,192,202935,1,0,0:0:0:0:
448,192,202997,1,8,0:0:0:0:
192,192,203058,1,0,0:0:0:0:
64,192,203120,1,8,0:0:0:0:
320,192,203182,1,0,0:0:0:0:
192,192,203243,1,2,0:0:0:0:
64,192,203243,1,0,0:0:0:0:
448,192,203305,1,0,0:0:0:0:
320,192,203367,1,8,0:0:0:0:
64,192,203429,1,0,0:0:0:0:
192,192,203490,1,2,0:0:0:0:
320,192,203552,1,0,0:0:0:0:
64,192,203614,1,8,0:0:0:0:
192,192,203614,1,0,0:0:0:0:
448,192,203676,1,0,0:0:0:0:
320,192,203737,1,2,0:0:0:0:
64,192,203799,1,0,0:0:0:0:
320,192,203861,1,6,0:0:0:0:
448,192,203861,1,0,0:0:0:0:
192,192,203923,1,0,0:0:0:0:
64,192,203984,1,8,0:0:0:0:
320,192,204046,1,0,0:0:0:0:
448,192,204108,1,8,0:0:0:0:
192,192,204169,1,0,0:0:0:0:
320,192,204231,1,2,0:0:0:0:
448,192,204231,1,0,0:0:0:0:
64,192,204293,1,0,0:0:0:0:
192,192,204355,1,8,0:0:0:0:
448,192,204416,1,0,0:0:0:0:
320,192,204478,1,2,0:0:0:0:
192,192,204540,1,0,0:0:0:0:
320,192,204602,1,8,0:0:0:0:
448,192,204602,1,0,0:0:0:0:
64,192,204663,1,0,0:0:0:0:
192,192,204725,1,2,0:0:0:0:
448,192,204787,1,0,0:0:0:0:
64,192,204848,1,6,0:0:0:0:
192,192,204848,1,0,0:0:0:0:
320,192,204910,1,0,0:0:0:0:
448,192,204972,1,8,0:0:0:0:
192,192,205034,1,0,0:0:0:0:
64,192,205095,1,8,0:0:0:0:
320,192,205157,1,0,0:0:0:0:
64,192,205219,1,2,0:0:0:0:
192,192,205219,1,0,0:0:0:0:
448,192,205281,1,0,0:0:0:0:
320,192,205342,1,8,0:0:0:0:
64,192,205404,1,0,0:0:0:0:
192,192,205466,1,2,0:0:0:0:
448,192,205527,1,0,0:0:0:0:
64,192,205589,1,8,0:0:0:0:
192,192,205589,1,0,0:0:0:0:
320,192,205651,1,0,0:0:0:0:
448,192,205713,1,2,0:0:0:0:
192,192,205774,1,0,0:0:0:0:
64,192,205836,1,6,0:0:0:0:
320,192,205898,1,0,0:0:0:0:
192,192,205960,1,8,0:0:0:0:
64,192,205960,1,0,0:0:0:0:
448,192,206021,1,0,0:0:0:0:
320,192,206083,1,2,0:0:0:0:
64,192,206145,1,0,0:0:0:0:
192,192,206206,1,2,0:0:0:0:
448,192,206268,1,0,0:0:0:0:
192,192,206330,1,8,0:0:0:0:
64,192,206330,1,4,0:0:0:0:
320,192,206392,1,0,0:0:0:0:
448,192,206453,1,2,0:0:0:0:
192,192,206453,1,0,0:0:0:0:
64,192,206515,1,0,0:0:0:0:
320,192,206577,1,8,0:0:0:0:
448,192,206577,1,0,0:0:0:0:
192,192,206639,1,0,0:0:0:0:
64,192,206700,1,8,0:0:0:0:
320,192,206700,1,0,0:0:0:0:
448,192,206762,1,0,0:0:0:0:
192,192,206824,1,6,0:0:0:0:
64,192,206824,1,0,0:0:0:0:
320,192,206885,1,0,0:0:0:0:
448,192,206947,1,8,0:0:0:0:
192,192,207009,1,0,0:0:0:0:
64,192,207071,1,8,0:0:0:0:
320,192,207132,1,0,0:0:0:0:
192,192,207194,1,2,0:0:0:0:
64,192,207194,1,0,0:0:0:0:
448,192,207256,1,0,0:0:0:0:
320,192,207318,1,8,0:0:0:0:
64,192,207379,1,0,0:0:0:0:
192,192,207441,1,2,0:0:0:0:
320,192,207503,1,0,0:0:0:0:
64,192,207564,1,8,0:0:0:0:
192,192,207564,1,0,0:0:0:0:
448,192,207626,1,0,0:0:0:0:
320,192,207688,1,8,0:0:0:0:
64,192,207750,1,0,0:0:0:0:
320,192,207811,1,6,0:0:0:0:
448,192,207811,1,0,0:0:0:0:
192,192,207873,1,0,0:0:0:0:
64,192,207935,1,8,0:0:0:0:
320,192,207997,1,0,0:0:0:0:
448,192,208058,1,8,0:0:0:0:
192,192,208120,1,0,0:0:0:0:
320,192,208182,1,2,0:0:0:0:
448,192,208182,1,0,0:0:0:0:
64,192,208243,1,0,0:0:0:0:
192,192,208305,1,8,0:0:0:0:
448,192,208367,1,0,0:0:0:0:
320,192,208429,1,2,0:0:0:0:
192,192,208490,1,0,0:0:0:0:
320,192,208552,1,8,0:0:0:0:
448,192,208552,1,0,0:0:0:0:
64,192,208614,1,0,0:0:0:0:
192,192,208676,1,8,0:0:0:0:
448,192,208737,1,0,0:0:0:0:
64,192,208799,1,6,0:0:0:0:
192,192,208799,1,0,0:0:0:0:
320,192,208861,1,0,0:0:0:0:
448,192,208923,1,8,0:0:0:0:
192,192,208984,1,0,0:0:0:0:
64,192,209046,1,8,0:0:0:0:
320,192,209108,1,0,0:0:0:0:
64,192,209169,1,2,0:0:0:0:
192,192,209169,1,0,0:0:0:0:
448,192,209231,1,0,0:0:0:0:
320,192,209293,1,8,0:0:0:0:
64,192,209355,1,0,0:0:0:0:
192,192,209416,1,2,0:0:0:0:
448,192,209478,1,0,0:0:0:0:
64,192,209540,1,8,0:0:0:0:
192,192,209540,1,0,0:0:0:0:
320,192,209602,1,0,0:0:0:0:
448,192,209663,1,8,0:0:0:0:
192,192,209725,1,0,0:0:0:0:
320,192,209787,1,6,0:0:0:0:
448,192,209787,1,0,0:0:0:0:
192,192,209848,1,0,0:0:0:0:
320,192,209910,1,2,0:0:0:0:
64,192,209972,1,2,0:0:0:0:
320,192,210034,1,8,0:0:0:0:
448,192,210034,1,4,0:0:0:0:
64,192,210095,1,0,0:0:0:0:
448,192,210157,1,2,0:0:0:0:
320,192,210219,1,2,0:0:0:0:
192,192,210281,1,8,0:0:0:0:
64,192,210281,1,4,0:0:0:0:
320,192,210342,1,0,0:0:0:0:
192,192,210404,1,2,0:0:0:0:
448,192,210466,1,2,0:0:0:0:
64,192,210527,1,8,0:0:0:0:
192,192,210527,1,4,0:0:0:0:
448,192,210589,1,0,0:0:0:0:
64,192,210651,1,2,0:0:0:0:
192,192,210713,1,2,0:0:0:0:
320,192,210774,1,6,0:0:0:0:
448,192,210774,1,0,0:0:0:0:
192,192,210836,1,0,0:0:0:0:
64,192,210898,1,8,0:0:0:0:
320,192,210960,1,0,0:0:0:0:
448,192,211021,1,8,0:0:0:0:
192,192,211083,1,0,0:0:0:0:
320,192,211145,1,2,0:0:0:0:
448,192,211145,1,0,0:0:0:0:
64,192,211206,1,0,0:0:0:0:
192,192,211268,1,8,0:0:0:0:
448,192,211330,1,0,0:0:0:0:
320,192,211392,1,2,0:0:0:0:
192,192,211453,1,0,0:0:0:0:
448,192,211515,1,8,0:0:0:0:
320,192,211515,1,0,0:0:0:0:
64,192,211577,1,0,0:0:0:0:
192,192,211639,1,2,0:0:0:0:
448,192,211700,1,0,0:0:0:0:
192,192,211762,1,6,0:0:0:0:
64,192,211762,1,0,0:0:0:0:
320,192,211824,1,0,0:0:0:0:
448,192,211885,1,8,0:0:0:0:
192,192,211947,1,0,0:0:0:0:
64,192,212009,1,8,0:0:0:0:
320,192,212071,1,0,0:0:0:0:
192,192,212132,1,2,0:0:0:0:
64,192,212132,1,0,0:0:0:0:
448,192,212194,1,0,0:0:0:0:
320,192,212256,1,8,0:0:0:0:
64,192,212318,1,0,0:0:0:0:
192,192,212379,1,2,0:0:0:0:
320,192,212441,1,0,0:0:0:0:
192,192,212503,1,8,0:0:0:0:
64,192,212503,1,0,0:0:0:0:
448,192,212564,1,0,0:0:0:0:
320,192,212626,1,2,0:0:0:0:
64,192,212688,1,0,0:0:0:0:
448,192,212750,1,6,0:0:0:0:
320,192,212750,1,0,0:0:0:0:
192,192,212811,1,0,0:0:0:0:
64,192,212873,1,8,0:0:0:0:
320,192,212935,1,0,0:0:0:0:
448,192,212997,1,8,0:0:0:0:
192,192,213058,1,0,0:0:0:0:
448,192,213120,1,2,0:0:0:0:
320,192,213120,1,0,0:0:0:0:
64,192,213182,1,0,0:0:0:0:
192,192,213243,1,8,0:0:0:0:
448,192,213305,1,0,0:0:0:0:
320,192,213367,1,2,0:0:0:0:
64,192,213429,1,0,0:0:0:0:
448,192,213490,1,8,0:0:0:0:
320,192,213490,1,0,0:0:0:0:
192,192,213552,1,0,0:0:0:0:
64,192,213614,1,2,0:0:0:0:
320,192,213676,1,0,0:0:0:0:
448,192,213737,1,6,0:0:0:0:
192,192,213799,1,0,0:0:0:0:
320,192,213861,1,8,0:0:0:0:
448,192,213861,1,0,0:0:0:0:
64,192,213923,1,0,0:0:0:0:
192,192,213984,1,2,0:0:0:0:
448,192,214046,1,0,0:0:0:0:
320,192,214108,1,2,0:0:0:0:
64,192,214169,1,0,0:0:0:0:
320,192,214231,1,8,0:0:0:0:
448,192,214231,1,4,0:0:0:0:
192,192,214293,1,0,0:0:0:0:
64,192,214355,1,2,0:0:0:0:
320,192,214355,1,0,0:0:0:0:
448,192,214416,1,0,0:0:0:0:
192,192,214478,1,8,0:0:0:0:
64,192,214478,1,0,0:0:0:0:
320,192,214540,1,0,0:0:0:0:
448,192,214602,1,8,0:0:0:0:
192,192,214602,1,0,0:0:0:0:
64,192,214663,1,0,0:0:0:0:
320,192,214725,1,6,0:0:0:0:
448,192,214725,1,0,0:0:0:0:
192,192,214787,1,0,0:0:0:0:
64,192,214848,1,8,0:0:0:0:
320,192,214910,1,0,0:0:0:0:
448,192,214972,1,8,0:0:0:0:
192,192,215034,1,0,0:0:0:0:
320,192,215095,1,2,0:0:0:0:
448,192,215095,1,0,0:0:0:0:
64,192,215157,1,0,0:0:0:0:
192,192,215219,1,8,0:0:0:0:
448,192,215281,1,0,0:0:0:0:
320,192,215342,1,2,0:0:0:0:
192,192,215404,1,0,0:0:0:0:
448,192,215466,1,8,0:0:0:0:
320,192,215466,1,0,0:0:0:0:
64,192,215527,1,0,0:0:0:0:
192,192,215589,1,8,0:0:0:0:
448,192,215651,1,0,0:0:0:0:
192,192,215713,1,6,0:0:0:0:
64,192,215713,1,0,0:0:0:0:
320,192,215774,1,0,0:0:0:0:
448,192,215836,1,8,0:0:0:0:
192,192,215898,1,0,0:0:0:0:
64,192,215960,1,8,0:0:0:0:
320,192,216021,1,0,0:0:0:0:
192,192,216083,1,2,0:0:0:0:
64,192,216083,1,0,0:0:0:0:
448,192,216145,1,0,0:0:0:0:
320,192,216206,1,8,0:0:0:0:
64,192,216268,1,0,0:0:0:0:
192,192,216330,1,2,0:0:0:0:
320,192,216392,1,0,0:0:0:0:
192,192,216453,1,8,0:0:0:0:
64,192,216453,1,0,0:0:0:0:
448,192,216515,1,0,0:0:0:0:
320,192,216577,1,8,0:0:0:0:
64,192,216639,1,0,0:0:0:0:
448,192,216700,1,6,0:0:0:0:
320,192,216700,1,0,0:0:0:0:
192,192,216762,1,0,0:0:0:0:
64,192,216824,1,8,0:0:0:0:
320,192,216885,1,0,0:0:0:0:
448,192,216947,1,8,0:0:0:0:
192,192,217009,1,0,0:0:0:0:
448,192,217071,1,2,0:0:0:0:
320,192,217071,1,0,0:0:0:0:
64,192,217132,1,0,0:0:0:0:
192,192,217194,1,8,0:0:0:0:
448,192,217256,1,0,0:0:0:0:
320,192,217318,1,2,0:0:0:0:
64,192,217379,1,0,0:0:0:0:
448,192,217441,1,8,0:0:0:0:
320,192,217441,1,0,0:0:0:0:
192,192,217503,1,0,0:0:0:0:
64,192,217564,1,8,0:0:0:0:
320,192,217626,1,0,0:0:0:0:
192,192,217688,1,6,0:0:0:0:
64,192,217688,1,0,0:0:0:0:
320,192,217750,1,0,0:0:0:0:
192,192,217811,1,0,0:0:0:0:
448,192,217873,1,0,0:0:0:0:
192,192,217935,1,6,0:0:0:0:
64,192,217935,1,0,0:0:0:0:
448,192,217997,1,0,0:0:0:0:
64,192,218058,1,0,0:0:0:0:
192,192,218120,1,0,0:0:0:0:
320,192,218182,1,6,0:0:0:0:
448,192,218182,1,0,0:0:0:0:
192,192,218243,1,0,0:0:0:0:
320,192,218305,1,0,0:0:0:0:
64,192,218367,1,0,0:0:0:0:
448,192,218429,1,6,0:0:0:0:
320,192,218429,1,0,0:0:0:0:
64,192,218490,1,0,0:0:0:0:
448,192,218552,1,0,0:0:0:0:
320,192,218614,1,0,0:0:0:0:
192,192,218676,1,6,0:0:0:0:
64,192,218676,1,0,0:0:0:0:
320,192,218737,1,8,0:0:0:0:
64,192,218799,1,8,0:0:0:0:
448,192,218861,1,8,0:0:0:0:
64,192,218923,1,8,0:0:0:0:
448,192,218984,1,8,0:0:0:0:
192,192,219046,1,2,0:0:0:0:
64,192,219046,1,0,0:0:0:0:
320,192,219108,1,8,0:0:0:0:
64,192,219169,1,8,0:0:0:0:
448,192,219231,1,8,0:0:0:0:
64,192,219293,1,2,0:0:0:0:
448,192,219355,1,8,0:0:0:0:
64,192,219416,1,8,0:0:0:0:
192,192,219416,1,0,0:0:0:0:
320,192,219478,1,0,0:0:0:0:
64,192,219540,1,2,0:0:0:0:
448,192,219602,1,0,0:0:0:0:
192,192,219663,1,6,0:0:0:0:
64,192,219663,1,0,0:0:0:0:
320,192,219725,1,0,0:0:0:0:
448,192,219787,1,8,0:0:0:0:
192,192,219848,1,0,0:0:0:0:
64,192,219910,1,8,0:0:0:0:
320,192,219972,1,0,0:0:0:0:
192,192,220034,1,2,0:0:0:0:
64,192,220034,1,0,0:0:0:0:
448,192,220095,1,0,0:0:0:0:
320,192,220157,1,8,0:0:0:0:
64,192,220219,1,0,0:0:0:0:
192,192,220281,1,2,0:0:0:0:
320,192,220342,1,0,0:0:0:0:
192,192,220404,1,8,0:0:0:0:
64,192,220404,1,0,0:0:0:0:
448,192,220466,1,0,0:0:0:0:
320,192,220527,1,2,0:0:0:0:
64,192,220589,1,0,0:0:0:0:
320,192,220651,1,6,0:0:0:0:
448,192,220651,1,0,0:0:0:0:
192,192,220713,1,0,0:0:0:0:
448,192,220774,1,8,0:0:0:0:
64,192,220836,1,0,0:0:0:0:
448,192,220898,1,8,0:0:0:0:
64,192,220960,1,0,0:0:0:0:
320,192,221021,1,2,0:0:0:0:
448,192,221021,1,0,0:0:0:0:
192,192,221083,1,0,0:0:0:0:
448,192,221145,1,8,0:0:0:0:
64,192,221206,1,0,0:0:0:0:
448,192,221268,1,2,0:0:0:0:
64,192,221330,1,0,0:0:0:0:
448,192,221392,1,8,0:0:0:0:
320,192,221392,1,0,0:0:0:0:
192,192,221453,1,0,0:0:0:0:
448,192,221515,1,2,0:0:0:0:
64,192,221577,1,0,0:0:0:0:
320,192,221639,1,6,0:0:0:0:
64,192,221700,1,0,0:0:0:0:
320,192,221762,1,8,0:0:0:0:
448,192,221762,1,0,0:0:0:0:
192,192,221824,1,0,0:0:0:0:
64,192,221885,1,2,0:0:0:0:
320,192,221947,1,0,0:0:0:0:
448,192,222009,1,2,0:0:0:0:
192,192,222071,1,0,0:0:0:0:
320,192,222132,1,8,0:0:0:0:
448,192,222132,1,4,0:0:0:0:
64,192,222194,1,0,0:0:0:0:
192,192,222256,1,2,0:0:0:0:
448,192,222318,1,0,0:0:0:0:
192,192,222379,1,8,0:0:0:0:
64,192,222379,1,0,0:0:0:0:
320,192,222441,1,0,0:0:0:0:
448,192,222503,1,8,0:0:0:0:
192,192,222564,1,0,0:0:0:0:
320,192,222626,1,6,0:0:0:0:
448,192,222626,1,0,0:0:0:0:
64,192,222688,1,0,0:0:0:0:
448,192,222750,1,8,0:0:0:0:
192,192,222811,1,8,0:0:0:0:
448,192,222873,1,8,0:0:0:0:
192,192,222935,1,8,0:0:0:0:
320,192,222997,1,2,0:0:0:0:
448,192,222997,1,0,0:0:0:0:
64,192,223058,1,0,0:0:0:0:
448,192,223120,1,8,0:0:0:0:
192,192,223182,1,8,0:0:0:0:
448,192,223243,1,2,0:0:0:0:
192,192,223305,1,8,0:0:0:0:
448,192,223367,1,8,0:0:0:0:
320,192,223367,1,0,0:0:0:0:
64,192,223429,1,0,0:0:0:0:
448,192,223490,1,8,0:0:0:0:
192,192,223552,1,0,0:0:0:0:
320,192,223614,1,6,0:0:0:0:
448,192,223614,1,0,0:0:0:0:
64,192,223676,1,0,0:0:0:0:
192,192,223737,1,8,0:0:0:0:
448,192,223799,1,0,0:0:0:0:
320,192,223861,1,8,0:0:0:0:
64,192,223923,1,0,0:0:0:0:
320,192,223984,1,2,0:0:0:0:
448,192,223984,1,0,0:0:0:0:
192,192,224046,1,0,0:0:0:0:
64,192,224108,1,8,0:0:0:0:
320,192,224169,1,0,0:0:0:0:
448,192,224231,1,2,0:0:0:0:
64,192,224293,1,0,0:0:0:0:
320,192,224355,1,8,0:0:0:0:
448,192,224355,1,0,0:0:0:0:
192,192,224416,1,0,0:0:0:0:
64,192,224478,1,8,0:0:0:0:
448,192,224540,1,0,0:0:0:0:
192,192,224602,1,6,0:0:0:0:
64,192,224602,1,0,0:0:0:0:
320,192,224663,1,0,0:0:0:0:
64,192,224725,1,8,0:0:0:0:
448,192,224787,1,8,0:0:0:0:
64,192,224848,1,8,0:0:0:0:
448,192,224910,1,8,0:0:0:0:
64,192,224972,1,2,0:0:0:0:
192,192,224972,1,0,0:0:0:0:
320,192,225034,1,0,0:0:0:0:
64,192,225095,1,8,0:0:0:0:
448,192,225157,1,0,0:0:0:0:
64,192,225219,1,2,0:0:0:0:
320,192,225281,1,0,0:0:0:0:
64,192,225342,1,8,0:0:0:0:
192,192,225342,1,0,0:0:0:0:
320,192,225404,1,0,0:0:0:0:
64,192,225466,1,8,0:0:0:0:
448,192,225527,1,8,0:0:0:0:
192,192,225589,1,6,0:0:0:0:
64,192,225589,1,0,0:0:0:0:
320,192,225651,1,0,0:0:0:0:
448,192,225713,1,2,0:0:0:0:
64,192,225774,1,2,0:0:0:0:
448,192,225836,1,8,0:0:0:0:
320,192,225836,1,4,0:0:0:0:
192,192,225898,1,0,0:0:0:0:
64,192,225960,1,2,0:0:0:0:
448,192,226021,1,2,0:0:0:0:
64,192,226083,1,8,0:0:0:0:
192,192,226083,1,4,0:0:0:0:
320,192,226145,1,0,0:0:0:0:
192,192,226206,1,2,0:0:0:0:
64,192,226268,1,2,0:0:0:0:
448,192,226330,1,8,0:0:0:0:
320,192,226330,1,4,0:0:0:0:
192,192,226392,1,0,0:0:0:0:
320,192,226453,1,2,0:0:0:0:
448,192,226515,1,2,0:0:0:0:
192,192,226577,1,6,0:0:0:0:
64,192,226577,1,0,0:0:0:0:
320,192,226639,1,8,0:0:0:0:
64,192,226700,1,8,0:0:0:0:
448,192,226762,1,8,0:0:0:0:
64,192,226824,1,8,0:0:0:0:
448,192,226885,1,8,0:0:0:0:
192,192,226947,1,2,0:0:0:0:
64,192,226947,1,0,0:0:0:0:
320,192,227009,1,8,0:0:0:0:
64,192,227071,1,8,0:0:0:0:
448,192,227132,1,8,0:0:0:0:
64,192,227194,1,2,0:0:0:0:
448,192,227256,1,8,0:0:0:0:
64,192,227318,1,8,0:0:0:0:
192,192,227318,1,0,0:0:0:0:
320,192,227379,1,0,0:0:0:0:
64,192,227441,1,2,0:0:0:0:
448,192,227503,1,0,0:0:0:0:
192,192,227564,1,6,0:0:0:0:
64,192,227564,1,0,0:0:0:0:
320,192,227626,1,0,0:0:0:0:
448,192,227688,1,8,0:0:0:0:
192,192,227750,1,0,0:0:0:0:
64,192,227811,1,8,0:0:0:0:
320,192,227873,1,0,0:0:0:0:
192,192,227935,1,2,0:0:0:0:
64,192,227935,1,0,0:0:0:0:
448,192,227997,1,0,0:0:0:0:
320,192,228058,1,8,0:0:0:0:
64,192,228120,1,0,0:0:0:0:
192,192,228182,1,2,0:0:0:0:
320,192,228243,1,0,0:0:0:0:
192,192,228305,1,8,0:0:0:0:
64,192,228305,1,0,0:0:0:0:
448,192,228367,1,0,0:0:0:0:
320,192,228429,1,2,0:0:0:0:
64,192,228490,1,0,0:0:0:0:
320,192,228552,1,6,0:0:0:0:
448,192,228552,1,0,0:0:0:0:
192,192,228614,1,0,0:0:0:0:
448,192,228676,1,8,0:0:0:0:
64,192,228737,1,0,0:0:0:0:
448,192,228799,1,8,0:0:0:0:
64,192,228861,1,0,0:0:0:0:
448,192,228923,1,0,0:0:0:0:
320,192,228923,1,2,0:0:0:0:
192,192,228984,1,0,0:0:0:0:
448,192,229046,1,8,0:0:0:0:
64,192,229108,1,0,0:0:0:0:
448,192,229169,1,2,0:0:0:0:
64,192,229231,1,0,0:0:0:0:
448,192,229293,1,8,0:0:0:0:
320,192,229293,1,0,0:0:0:0:
192,192,229355,1,0,0:0:0:0:
448,192,229416,1,2,0:0:0:0:
64,192,229478,1,0,0:0:0:0:
448,192,229540,1,6,0:0:0:0:
64,192,229602,1,0,0:0:0:0:
320,192,229663,1,8,0:0:0:0:
448,192,229663,1,0,0:0:0:0:
192,192,229725,1,0,0:0:0:0:
64,192,229787,1,2,0:0:0:0:
320,192,229848,1,0,0:0:0:0:
448,192,229910,1,2,0:0:0:0:
192,192,229972,1,0,0:0:0:0:
320,192,230034,1,8,0:0:0:0:
448,192,230034,1,4,0:0:0:0:
64,192,230095,1,0,0:0:0:0:
320,192,230157,1,2,0:0:0:0:
448,192,230219,1,0,0:0:0:0:
192,192,230281,1,8,0:0:0:0:
64,192,230281,1,0,0:0:0:0:
320,192,230342,1,0,0:0:0:0:
448,192,230404,1,8,0:0:0:0:
192,192,230466,1,0,0:0:0:0:
320,192,230527,1,6,0:0:0:0:
448,192,230527,1,0,0:0:0:0:
64,192,230589,1,0,0:0:0:0:
448,192,230651,1,8,0:0:0:0:
192,192,230713,1,8,0:0:0:0:
448,192,230774,1,8,0:0:0:0:
192,192,230836,1,8,0:0:0:0:
320,192,230898,1,2,0:0:0:0:
448,192,230898,1,0,0:0:0:0:
64,192,230960,1,0,0:0:0:0:
448,192,231021,1,8,0:0:0:0:
192,192,231083,1,8,0:0:0:0:
448,192,231145,1,2,0:0:0:0:
192,192,231206,1,8,0:0:0:0:
448,192,231268,1,8,0:0:0:0:
320,192,231268,1,0,0:0:0:0:
64,192,231330,1,0,0:0:0:0:
448,192,231392,1,8,0:0:0:0:
192,192,231453,1,0,0:0:0:0:
320,192,231515,1,6,0:0:0:0:
448,192,231515,1,0,0:0:0:0:
64,192,231577,1,0,0:0:0:0:
192,192,231639,1,8,0:0:0:0:
448,192,231700,1,0,0:0:0:0:
320,192,231762,1,8,0:0:0:0:
64,192,231824,1,0,0:0:0:0:
320,192,231885,1,2,0:0:0:0:
448,192,231885,1,0,0:0:0:0:
192,192,231947,1,0,0:0:0:0:
64,192,232009,1,8,0:0:0:0:
320,192,232071,1,0,0:0:0:0:
448,192,232132,1,2,0:0:0:0:
64,192,232194,1,0,0:0:0:0:
320,192,232256,1,8,0:0:0:0:
448,192,232256,1,0,0:0:0:0:
192,192,232318,1,0,0:0:0:0:
64,192,232379,1,8,0:0:0:0:
448,192,232441,1,0,0:0:0:0:
192,192,232503,1,6,0:0:0:0:
64,192,232503,1,0,0:0:0:0:
320,192,232564,1,0,0:0:0:0:
64,192,232626,1,8,0:0:0:0:
448,192,232688,1,8,0:0:0:0:
64,192,232750,1,8,0:0:0:0:
448,192,232811,1,8,0:0:0:0:
64,192,232873,1,2,0:0:0:0:
192,192,232873,1,0,0:0:0:0:
320,192,232935,1,0,0:0:0:0:
64,192,232997,1,8,0:0:0:0:
448,192,233058,1,0,0:0:0:0:
64,192,233120,1,2,0:0:0:0:
320,192,233182,1,0,0:0:0:0:
64,192,233243,1,8,0:0:0:0:
192,192,233243,1,0,0:0:0:0:
320,192,233305,1,0,0:0:0:0:
64,192,233367,1,8,0:0:0:0:
448,192,233429,1,8,0:0:0:0:
64,192,233490,1,6,0:0:0:0:
192,192,233490,1,0,0:0:0:0:
320,192,233552,1,0,0:0:0:0:
448,192,233614,1,2,0:0:0:0:
64,192,233676,1,2,0:0:0:0:
448,192,233737,1,8,0:0:0:0:
320,192,233737,1,4,0:0:0:0:
192,192,233799,1,0,0:0:0:0:
64,192,233861,1,2,0:0:0:0:
448,192,233923,1,2,0:0:0:0:
64,192,233984,1,8,0:0:0:0:
192,192,233984,1,4,0:0:0:0:
320,192,234046,1,0,0:0:0:0:
192,192,234108,1,2,0:0:0:0:
64,192,234169,1,2,0:0:0:0:
448,192,234231,1,8,0:0:0:0:
320,192,234231,1,4,0:0:0:0:
192,192,234293,1,0,0:0:0:0:
320,192,234355,1,2,0:0:0:0:
448,192,234416,1,2,0:0:0:0:
192,192,234478,1,6,0:0:0:0:
64,192,234478,1,0,0:0:0:0:
320,192,234540,1,0,0:0:0:0:
448,192,234602,1,8,0:0:0:0:
64,192,234663,1,0,0:0:0:0:
448,192,234725,1,8,0:0:0:0:
320,192,234725,1,0,0:0:0:0:
192,192,234787,1,0,0:0:0:0:
64,192,234848,1,2,0:0:0:0:
448,192,234910,1,0,0:0:0:0:
64,192,234972,1,2,0:0:0:0:
192,192,234972,1,0,0:0:0:0:
320,192,235034,1,0,0:0:0:0:
192,192,235095,1,8,0:0:0:0:
64,192,235157,1,0,0:0:0:0:
448,192,235219,1,8,0:0:0:0:
320,192,235219,1,0,0:0:0:0:
192,192,235281,1,0,0:0:0:0:
320,192,235342,1,2,0:0:0:0:
448,192,235404,1,0,0:0:0:0:
64,192,235466,1,6,0:0:0:0:
192,192,235466,1,0,0:0:0:0:
320,192,235527,1,0,0:0:0:0:
448,192,235589,1,8,0:0:0:0:
64,192,235651,1,0,0:0:0:0:
448,192,235713,1,8,0:0:0:0:
320,192,235713,1,0,0:0:0:0:
192,192,235774,1,0,0:0:0:0:
64,192,235836,1,2,0:0:0:0:
448,192,235898,1,0,0:0:0:0:
192,192,235960,1,2,0:0:0:0:
64,192,235960,1,0,0:0:0:0:
320,192,236021,1,0,0:0:0:0:
448,192,236083,1,8,0:0:0:0:
64,192,236145,1,0,0:0:0:0:
320,192,236206,1,8,0:0:0:0:
448,192,236206,1,0,0:0:0:0:
192,192,236268,1,0,0:0:0:0:
64,192,236330,1,2,0:0:0:0:
448,192,236392,1,0,0:0:0:0:
64,192,236453,1,6,0:0:0:0:
192,192,236453,1,0,0:0:0:0:
320,192,236515,1,0,0:0:0:0:
192,192,236577,1,8,0:0:0:0:
448,192,236639,1,0,0:0:0:0:
64,192,236700,1,8,0:0:0:0:
192,192,236700,1,0,0:0:0:0:
320,192,236762,1,0,0:0:0:0:
192,192,236824,1,2,0:0:0:0:
448,192,236885,1,0,0:0:0:0:
192,192,236947,1,2,0:0:0:0:
64,192,236947,1,0,0:0:0:0:
320,192,237009,1,8,0:0:0:0:
64,192,237071,1,8,0:0:0:0:
192,192,237071,1,0,0:0:0:0:
320,192,237132,1,8,0:0:0:0:
192,192,237194,1,8,0:0:0:0:
64,192,237194,1,0,0:0:0:0:
320,192,237256,1,8,0:0:0:0:
192,192,237318,1,2,0:0:0:0:
64,192,237318,1,0,0:0:0:0:
320,192,237379,1,8,0:0:0:0:
192,192,238105,1,0,0:0:0:0:
320,192,238144,128,0,243066:0:0:0:0:
