osu file format v14

[General]
AudioFilename: 01. Frums - We Want To Run.mp3
AudioLeadIn: 0
PreviewTime: 54701
Countdown: 0
SampleSet: Soft
StackLeniency: 0.7
Mode: 3
LetterboxInBreaks: 0
SpecialStyle: 0
WidescreenStoryboard: 0

[Editor]
DistanceSpacing: 1
BeatDivisor: 16
GridSize: 4
TimelineZoom: 2.4

[Metadata]
Title:We Want To Run
TitleUnicode:We Want To Run
Artist:Frums
ArtistUnicode:Frums
Creator:Blocko
Version:Run
Source:osu!
Tags:ぼくらの音楽 Unit 04 無分類 unisphere 5th electronic instrumental melodic chiptune breakcore densecore speedcore chordstream stamina featured artist fa mappers' guild mg wwtr
BeatmapID:2144223
BeatmapSetID:1025170

[Difficulty]
HPDrainRate:8.4
CircleSize:7
OverallDifficulty:8.4
ApproachRate:9.7
SliderMultiplier:1.4
SliderTickRate:1

[Events]
//Background and Video events
0,0,"sunrise-edited-982013_1920.png",0,0
//Break Periods
2,86537,93002
//Storyboard Layer 0 (Background)
//Storyboard Layer 1 (Fail)
//Storyboard Layer 2 (Pass)
//Storyboard Layer 3 (Foreground)
//Storyboard Layer 4 (Overlay)
//Storyboard Sound Samples

[TimingPoints]
1200,312.5,4,2,1,20,1,0
1200,-78.740157480315,4,2,1,20,0,0
21200,307.692307692308,4,2,1,20,1,0
21200,-80,4,2,1,20,0,0
22430,303.030303,4,2,1,20,1,0
22430,-81.3008130081301,4,2,1,20,0,0
23642,298.507462686567,4,2,1,20,1,0
23642,-82.6446280991736,4,2,1,20,0,0
24836,294.117647,4,2,1,20,1,0
24836,-84.0336134453782,4,2,1,20,0,0
26012,289.855072463768,4,2,1,20,1,0
26012,-85.4700854700855,4,2,1,20,0,0
27171,285.714285714286,4,2,1,20,1,0
27171,-86.2068965517241,4,2,1,20,0,0
28313,281.69014084507,4,2,1,20,1,0
28313,-87.719298245614,4,2,1,20,0,0
29439,277.777778,4,2,1,20,1,0
29439,-88.495575221239,4,2,1,20,0,0
30550,274.250610207608,4,2,1,20,1,0
30550,-90.0900900900901,4,2,1,20,0,0
31647,270.758122743682,4,2,1,20,1,0
31647,-91.743119266055,4,2,1,20,0,0
32730,267.000120150054,4,2,1,20,1,0
32730,-92.5925925925926,4,2,1,20,0,0
33798,263.250263250263,4,2,1,20,1,0
33798,-93.4579439252336,4,2,1,20,0,0
34851,259.750379884931,4,2,1,20,1,0
34851,-95.2380952380952,4,2,1,20,0,0
35890,256.500141075078,4,2,1,20,1,0
35890,-96.1538461538461,4,2,1,20,0,0
36916,253.25004220834,4,2,1,20,1,0
36916,-97.0873786407767,4,2,1,20,0,0
37929,250.25025025025,4,2,1,20,1,0
37929,-99.009900990099,4,2,1,20,0,0
38930,246.913580246914,4,3,1,20,1,0
46831,-100,4,3,1,25,0,0
54732,-100,4,3,1,35,0,1
70534,-100,4,3,1,35,0,0
93497,-100,4,2,1,20,0,0
161399,-100,4,3,1,35,0,0
218683,-100,4,3,1,35,0,1
237448,312.5,4,2,1,20,1,0
237448,-78.7401574803149,4,2,1,20,0,0
238073,312.5,4,2,1,20,1,0
238073,-78.7401574803149,4,2,1,20,0,0

[HitObjects]
36,192,1200,5,0,0:0:0:0:
182,192,1239,1,0,0:0:0:0:
329,192,1278,1,0,0:0:0:0:
475,192,1317,128,0,2450:0:0:0:25:chi.wav
402,192,2450,128,0,3700:0:0:0:25:chi.wav
329,192,3700,128,0,4637:0:0:0:25:chi.wav
256,192,4637,128,0,6200:0:0:0:25:chi.wav
182,192,6200,128,0,7450:0:0:0:25:chi.wav
109,192,7450,128,0,8700:0:0:0:25:chi.wav
36,192,8700,128,0,9168:0:0:0:25:chi.wav
182,192,9168,128,0,9598:0:0:0:25:chi.wav
109,192,9598,1,0,0:0:0:25:chi.wav
256,192,9637,128,0,11200:0:0:0:25:chi.wav
402,192,11200,128,0,12450:0:0:0:25:chi.wav
36,192,12020,5,0,0:0:0:0:
109,192,12293,1,0,0:0:0:0:
329,192,12450,128,0,13700:0:0:0:25:chi.wav
182,192,12762,1,0,0:0:0:0:
36,192,12879,1,0,0:0:0:0:
109,192,13270,1,0,0:0:0:0:
402,192,13700,128,0,14168:0:0:0:25:chi.wav
475,192,14168,128,0,14637:0:0:0:25:chi.wav
256,192,14637,128,0,16200:0:0:0:25:chi.wav
182,192,16200,128,0,17450:0:0:0:25:chi.wav
329,192,17059,1,0,0:0:0:0:
475,192,17293,1,0,0:0:0:0:
402,192,17410,1,0,0:0:0:0:
109,192,17450,128,0,18700:0:0:0:25:chi.wav
329,192,17528,1,0,0:0:0:0:
475,192,17703,1,0,0:0:0:0:
402,192,17860,1,0,0:0:0:0:
329,192,18543,1,0,0:0:0:0:
36,192,18700,128,0,19950:0:0:0:25:chi.wav
182,192,19950,128,0,21200:0:0:0:25:chi.wav
475,192,20262,5,0,0:0:0:0:
475,192,20418,1,0,0:0:0:0:
475,192,20575,128,0,20731:0:0:0:0:
475,192,20887,128,0,21043:0:0:0:0:
36,192,21200,5,0,0:0:0:25:kick2.wav
109,192,21200,1,0,0:0:0:10:kick3.wav
329,192,21200,1,0,0:0:0:35:chi.wav
402,192,21815,128,0,22123:0:0:0:20:jingle.wav
475,192,22123,128,0,22581:0:0:0:20:jingle.wav
109,192,22430,1,0,0:0:0:35:chi.wav
329,192,22581,128,0,23036:0:0:0:20:jingle.wav
256,192,23036,128,0,23187:0:0:0:20:jingle.wav
182,192,23187,128,0,23940:0:0:0:20:jingle.wav
475,192,23642,1,0,0:0:0:35:chi.wav
36,192,23940,128,0,24239:0:0:0:20:jingle.wav
109,192,24239,128,0,24388:0:0:0:20:jingle.wav
182,192,24388,128,0,24686:0:0:0:20:jingle.wav
402,192,24537,1,0,0:0:0:35:chi.wav
329,192,24686,128,0,25130:0:0:0:20:jingle.wav
402,192,25130,128,0,25571:0:0:0:20:jingle.wav
256,192,25571,128,0,26301:0:0:0:20:jingle.wav
329,192,26012,1,0,0:0:0:35:chi.wav
109,192,26012,1,0,0:0:0:10:kick3.wav
36,192,26012,1,0,0:0:0:25:kick2.wav
475,192,26301,128,0,26519:0:0:0:20:jingle.wav
329,192,26519,128,0,26736:0:0:0:20:jingle.wav
182,192,26736,128,0,27171:0:0:0:20:jingle.wav
402,192,27171,128,0,27385:0:0:0:20:jingle.wav
109,192,27171,1,0,0:0:0:35:chi.wav
256,192,27385,128,0,27599:0:0:0:20:jingle.wav
109,192,27599,128,0,27885:0:0:0:20:jingle.wav
329,192,27885,128,0,28028:0:0:0:20:jingle.wav
182,192,28028,128,0,28171:0:0:0:20:jingle.wav
329,192,28171,128,0,28876:0:0:0:20:jingle.wav
36,192,28313,1,0,0:0:0:35:chi.wav
109,192,28735,1,0,0:0:0:35:chi.wav
402,192,28876,128,0,29017:0:0:0:20:jingle.wav
475,192,29017,128,0,29158:0:0:0:20:jingle.wav
182,192,29158,1,0,0:0:0:35:chi.wav
475,192,29298,128,0,29577:0:0:0:20:jingle.wav
329,192,29577,128,0,29855:0:0:0:20:jingle.wav
182,192,29855,128,0,30133:0:0:0:20:jingle.wav
36,192,30133,128,0,30824:0:0:0:20:jingle.wav
475,192,30411,1,0,0:0:0:20:kick2.wav
475,192,30550,1,0,0:0:0:10:kick3.wav
402,192,30550,1,0,0:0:0:25:kick2.wav
182,192,30550,1,0,0:0:0:35:chi.wav
256,192,30824,128,0,31029:0:0:0:20:jingle.wav
475,192,30824,1,0,0:0:0:20:kick2.wav
109,192,31029,128,0,31235:0:0:0:20:jingle.wav
256,192,31235,128,0,31509:0:0:0:20:jingle.wav
36,192,31509,128,0,31647:0:0:0:20:jingle.wav
182,192,31647,128,0,31850:0:0:0:20:jingle.wav
329,192,31647,1,0,0:0:0:35:chi.wav
36,192,31850,128,0,32053:0:0:0:20:jingle.wav
182,192,32053,128,0,32997:0:0:0:20:jingle.wav
402,192,32730,1,0,0:0:0:35:chi.wav
475,192,32997,128,0,33197:0:0:0:20:jingle.wav
109,192,33130,1,0,0:0:0:35:chi.wav
329,192,33197,128,0,33397:0:0:0:20:jingle.wav
475,192,33397,128,0,33664:0:0:0:20:jingle.wav
36,192,33531,1,0,0:0:0:35:chi.wav
256,192,33664,128,0,33798:0:0:0:20:jingle.wav
402,192,33798,128,0,33995:0:0:0:20:jingle.wav
256,192,33995,128,0,34192:0:0:0:20:jingle.wav
402,192,34192,128,0,34587:0:0:0:20:jingle.wav
182,192,34587,128,0,34719:0:0:0:20:jingle.wav
329,192,34719,128,0,35760:0:0:0:20:jingle.wav
36,192,34719,1,0,0:0:0:20:kick2.wav
36,192,34851,1,0,0:0:0:10:kick3.wav
109,192,34851,1,0,0:0:0:25:kick2.wav
475,192,34851,1,0,0:0:0:35:chi.wav
36,192,35110,1,0,0:0:0:20:kick2.wav
402,192,35760,128,0,36659:0:0:0:20:jingle.wav
182,192,35890,1,0,0:0:0:35:chi.wav
475,192,36659,128,0,36787:0:0:0:20:jingle.wav
256,192,36787,128,0,38804:0:0:0:20:jingle.wav
109,192,36916,1,0,0:0:0:35:chi.wav
402,192,37929,1,0,0:0:0:50:chi.wav
329,192,38179,1,0,0:0:0:0:
182,192,38179,1,0,0:0:0:25:kick3.wav
182,192,38304,1,0,0:0:0:0:
329,192,38304,1,0,0:0:0:25:kick3.wav
109,192,38429,5,0,0:0:0:30:kick3.wav
402,192,38429,1,0,0:0:0:0:
109,192,38554,1,0,0:0:0:0:
402,192,38554,1,0,0:0:0:30:kick3.wav
36,192,38679,1,0,0:0:0:35:kick3.wav
475,192,38679,1,0,0:0:0:0:
475,192,38804,5,0,0:0:0:40:kick3.wav
36,192,38804,1,0,0:0:0:0:
36,192,38930,5,0,0:0:0:60:jingle.wav
475,192,38930,1,0,0:0:0:25:hihat2.wav
329,192,38930,1,0,0:0:0:40:kick3.wav
402,192,38930,1,0,0:0:0:0:
182,192,38930,1,0,0:0:0:65:crash.wav
109,192,38930,1,0,0:0:0:0:
402,192,39053,1,0,0:0:0:0:
256,192,39053,1,0,0:0:0:0:
109,192,39053,1,0,0:0:0:0:
36,192,39115,1,0,0:0:0:60:jingle.wav
475,192,39176,1,0,0:0:0:25:hihat1.wav
182,192,39176,1,0,0:0:0:40:kick3.wav
329,192,39176,1,0,0:0:0:0:
256,192,39176,1,0,0:0:0:0:
329,192,39300,1,0,0:0:0:60:jingle.wav
475,192,39300,1,0,0:0:0:25:hihat1.wav
182,192,39300,1,0,0:0:0:0:
256,192,39423,1,0,0:0:0:25:hihat2.wav
402,192,39423,1,0,0:0:0:40:kick3.wav
109,192,39423,1,0,0:0:0:0:
36,192,39423,1,0,0:0:0:0:
182,192,39485,1,0,0:0:0:60:jingle.wav
109,192,39547,1,0,0:0:0:0:
329,192,39547,1,0,0:0:0:0:
475,192,39547,1,0,0:0:0:0:
182,192,39670,1,0,0:0:0:60:jingle.wav
36,192,39670,1,0,0:0:0:25:hihat1.wav
402,192,39670,1,0,0:0:0:40:kick3.wav
256,192,39670,1,0,0:0:0:0:
256,192,39794,1,0,0:0:0:60:jingle.wav
36,192,39794,1,0,0:0:0:25:hihat1.wav
402,192,39794,1,0,0:0:0:0:
109,192,39917,1,0,0:0:0:60:jingle.wav
182,192,39917,1,0,0:0:0:25:hihat2.wav
475,192,39917,1,0,0:0:0:40:kick3.wav
329,192,39917,1,0,0:0:0:0:
402,192,40041,1,0,0:0:0:0:
36,192,40041,1,0,0:0:0:0:
182,192,40041,1,0,0:0:0:0:
329,192,40102,1,0,0:0:0:60:jingle.wav
36,192,40164,1,0,0:0:0:25:hihat1.wav
109,192,40164,1,0,0:0:0:40:kick3.wav
256,192,40164,1,0,0:0:0:0:
475,192,40164,1,0,0:0:0:0:
182,192,40288,1,0,0:0:0:60:jingle.wav
402,192,40288,1,0,0:0:0:25:hihat2.wav
256,192,40288,1,0,0:0:0:0:
329,192,40288,1,0,0:0:0:0:
109,192,40349,1,0,0:0:0:0:
36,192,40411,1,0,0:0:0:40:kick3.wav
256,192,40411,1,0,0:0:0:0:
475,192,40411,1,0,0:0:0:0:
402,192,40473,1,0,0:0:0:60:jingle.wav
36,192,40534,1,0,0:0:0:25:hihat1.wav
109,192,40534,1,0,0:0:0:0:
329,192,40534,1,0,0:0:0:0:
182,192,40534,1,0,0:0:0:0:
36,192,40658,1,0,0:0:0:60:jingle.wav
475,192,40658,1,0,0:0:0:25:hihat2.wav
329,192,40658,1,0,0:0:0:40:kick3.wav
256,192,40658,1,0,0:0:0:0:
182,192,40720,1,0,0:0:0:0:
256,192,40781,1,0,0:0:0:60:jingle.wav
109,192,40781,1,0,0:0:0:0:
402,192,40781,1,0,0:0:0:0:
475,192,40905,1,0,0:0:0:60:jingle.wav
182,192,40905,1,0,0:0:0:25:hihat2.wav
36,192,40905,1,0,0:0:0:40:kick3.wav
329,192,40905,1,0,0:0:0:0:
109,192,41028,1,0,0:0:0:0:
256,192,41028,1,0,0:0:0:0:
402,192,41028,1,0,0:0:0:0:
475,192,41090,1,0,0:0:0:60:jingle.wav
36,192,41152,1,0,0:0:0:25:hihat1.wav
182,192,41152,1,0,0:0:0:40:kick3.wav
329,192,41152,1,0,0:0:0:0:
256,192,41152,1,0,0:0:0:0:
36,192,41275,1,0,0:0:0:60:jingle.wav
329,192,41275,1,0,0:0:0:25:hihat1.wav
182,192,41275,1,0,0:0:0:0:
256,192,41399,1,0,0:0:0:25:hihat2.wav
109,192,41399,1,0,0:0:0:40:kick3.wav
402,192,41399,1,0,0:0:0:0:
475,192,41399,1,0,0:0:0:0:
329,192,41460,1,0,0:0:0:60:jingle.wav
182,192,41522,1,0,0:0:0:0:
36,192,41522,1,0,0:0:0:0:
402,192,41522,1,0,0:0:0:0:
256,192,41646,1,0,0:0:0:60:jingle.wav
109,192,41646,1,0,0:0:0:25:hihat1.wav
475,192,41646,1,0,0:0:0:40:kick3.wav
329,192,41646,1,0,0:0:0:0:
256,192,41769,1,0,0:0:0:25:hihat1.wav
109,192,41769,1,0,0:0:0:0:
475,192,41769,1,0,0:0:0:0:
402,192,41831,1,0,0:0:0:60:jingle.wav
329,192,41892,1,0,0:0:0:25:hihat2.wav
36,192,41892,1,0,0:0:0:40:kick3.wav
256,192,41892,1,0,0:0:0:0:
182,192,41892,1,0,0:0:0:0:
329,192,42016,1,0,0:0:0:60:jingle.wav
109,192,42016,1,0,0:0:0:0:
402,192,42016,1,0,0:0:0:0:
256,192,42139,1,0,0:0:0:25:hihat1.wav
475,192,42139,1,0,0:0:0:40:kick3.wav
182,192,42139,1,0,0:0:0:0:
402,192,42139,1,0,0:0:0:0:
109,192,42201,1,0,0:0:0:60:jingle.wav
36,192,42263,1,0,0:0:0:25:hihat2.wav
475,192,42263,1,0,0:0:0:0:
329,192,42263,1,0,0:0:0:0:
256,192,42263,1,0,0:0:0:0:
182,192,42325,1,0,0:0:0:0:
402,192,42386,1,0,0:0:0:60:jingle.wav
36,192,42386,1,0,0:0:0:40:kick3.wav
109,192,42386,1,0,0:0:0:0:
329,192,42510,1,0,0:0:0:25:hihat1.wav
182,192,42510,1,0,0:0:0:0:
36,192,42510,1,0,0:0:0:0:
256,192,42510,1,0,0:0:0:0:
402,192,42571,1,0,0:0:0:60:jingle.wav
475,192,42633,1,0,0:0:0:25:hihat2.wav
109,192,42633,1,0,0:0:0:40:kick3.wav
182,192,42633,1,0,0:0:0:0:
256,192,42633,1,0,0:0:0:0:
329,192,42695,1,0,0:0:0:0:
109,192,42757,1,0,0:0:0:60:jingle.wav
402,192,42757,1,0,0:0:0:0:
36,192,42757,1,0,0:0:0:0:
36,192,42880,1,0,0:0:0:60:jingle.wav
182,192,42880,1,0,0:0:0:25:hihat2.wav
475,192,42880,1,0,0:0:0:40:kick3.wav
329,192,42880,1,0,0:0:0:0:
402,192,43004,1,0,0:0:0:0:
109,192,43004,1,0,0:0:0:0:
256,192,43004,1,0,0:0:0:0:
329,192,43065,1,0,0:0:0:60:jingle.wav
402,192,43127,1,0,0:0:0:25:hihat1.wav
182,192,43127,1,0,0:0:0:40:kick3.wav
36,192,43127,1,0,0:0:0:0:
475,192,43127,1,0,0:0:0:0:
182,192,43250,1,0,0:0:0:60:jingle.wav
402,192,43250,1,0,0:0:0:25:hihat1.wav
36,192,43250,1,0,0:0:0:0:
475,192,43374,1,0,0:0:0:25:hihat2.wav
256,192,43374,1,0,0:0:0:40:kick3.wav
109,192,43374,1,0,0:0:0:0:
329,192,43374,1,0,0:0:0:0:
182,192,43436,1,0,0:0:0:60:jingle.wav
256,192,43497,1,0,0:0:0:0:
402,192,43497,1,0,0:0:0:0:
36,192,43497,1,0,0:0:0:0:
109,192,43621,1,0,0:0:0:60:jingle.wav
329,192,43621,1,0,0:0:0:25:hihat1.wav
475,192,43621,1,0,0:0:0:40:kick3.wav
182,192,43621,1,0,0:0:0:0:
475,192,43744,1,0,0:0:0:60:jingle.wav
329,192,43744,1,0,0:0:0:25:hihat1.wav
109,192,43744,1,0,0:0:0:0:
402,192,43868,1,0,0:0:0:60:jingle.wav
36,192,43868,1,0,0:0:0:25:hihat2.wav
256,192,43868,1,0,0:0:0:40:kick3.wav
182,192,43868,1,0,0:0:0:0:
109,192,43991,1,0,0:0:0:0:
329,192,43991,1,0,0:0:0:0:
475,192,43991,1,0,0:0:0:0:
256,192,44053,1,0,0:0:0:60:jingle.wav
402,192,44115,1,0,0:0:0:25:hihat1.wav
475,192,44115,1,0,0:0:0:40:kick3.wav
182,192,44115,1,0,0:0:0:0:
36,192,44115,1,0,0:0:0:0:
36,192,44238,1,0,0:0:0:60:jingle.wav
402,192,44238,1,0,0:0:0:25:hihat2.wav
109,192,44238,1,0,0:0:0:0:
256,192,44238,1,0,0:0:0:0:
475,192,44300,1,0,0:0:0:0:
182,192,44362,1,0,0:0:0:40:kick3.wav
329,192,44362,1,0,0:0:0:0:
256,192,44362,1,0,0:0:0:0:
36,192,44423,1,0,0:0:0:60:jingle.wav
109,192,44485,1,0,0:0:0:25:hihat1.wav
402,192,44485,1,0,0:0:0:0:
329,192,44485,1,0,0:0:0:0:
475,192,44485,1,0,0:0:0:0:
36,192,44609,1,0,0:0:0:60:jingle.wav
182,192,44609,1,0,0:0:0:25:hihat2.wav
475,192,44609,1,0,0:0:0:40:kick3.wav
256,192,44609,1,0,0:0:0:0:
329,192,44732,1,0,0:0:0:60:jingle.wav
182,192,44732,1,0,0:0:0:0:
109,192,44732,1,0,0:0:0:0:
475,192,44855,1,0,0:0:0:60:jingle.wav
402,192,44855,1,0,0:0:0:25:hihat2.wav
36,192,44855,1,0,0:0:0:40:kick3.wav
256,192,44855,1,0,0:0:0:0:
182,192,44979,1,0,0:0:0:0:
402,192,44979,1,0,0:0:0:0:
109,192,44979,1,0,0:0:0:0:
256,192,45041,1,0,0:0:0:60:jingle.wav
36,192,45102,1,0,0:0:0:25:hihat1.wav
109,192,45102,1,0,0:0:0:40:kick3.wav
329,192,45102,1,0,0:0:0:0:
475,192,45102,1,0,0:0:0:0:
36,192,45226,1,0,0:0:0:60:jingle.wav
329,192,45226,1,0,0:0:0:25:hihat1.wav
109,192,45226,1,0,0:0:0:0:
256,192,45349,1,0,0:0:0:60:jingle.wav
182,192,45349,1,0,0:0:0:25:hihat2.wav
402,192,45349,1,0,0:0:0:40:kick3.wav
475,192,45349,1,0,0:0:0:0:
329,192,45473,1,0,0:0:0:0:
402,192,45473,1,0,0:0:0:0:
109,192,45473,1,0,0:0:0:0:
256,192,45534,1,0,0:0:0:60:jingle.wav
475,192,45596,1,0,0:0:0:25:hihat1.wav
402,192,45596,1,0,0:0:0:40:kick3.wav
182,192,45596,1,0,0:0:0:0:
36,192,45596,1,0,0:0:0:0:
182,192,45720,1,0,0:0:0:60:jingle.wav
475,192,45720,1,0,0:0:0:25:hihat1.wav
402,192,45720,1,0,0:0:0:0:
329,192,45843,1,0,0:0:0:60:jingle.wav
109,192,45843,1,0,0:0:0:25:hihat2.wav
256,192,45843,1,0,0:0:0:40:kick3.wav
36,192,45843,1,0,0:0:0:0:
402,192,45967,1,0,0:0:0:0:
182,192,45967,1,0,0:0:0:0:
109,192,45967,1,0,0:0:0:0:
329,192,46028,1,0,0:0:0:0:
36,192,46090,1,0,0:0:0:60:jingle.wav
182,192,46090,1,0,0:0:0:25:hihat1.wav
256,192,46090,1,0,0:0:0:40:kick3.wav
475,192,46090,1,0,0:0:0:0:
475,192,46213,1,0,0:0:0:25:hihat2.wav
109,192,46213,1,0,0:0:0:0:
402,192,46213,1,0,0:0:0:0:
256,192,46213,1,0,0:0:0:0:
36,192,46275,1,0,0:0:0:0:
402,192,46337,1,0,0:0:0:60:jingle.wav
182,192,46337,1,0,0:0:0:40:kick3.wav
329,192,46337,1,0,0:0:0:0:
329,192,46460,1,0,0:0:0:25:hihat1.wav
256,192,46460,1,0,0:0:0:0:
36,192,46460,1,0,0:0:0:0:
475,192,46460,1,0,0:0:0:0:
109,192,46522,1,0,0:0:0:0:
182,192,46584,1,0,0:0:0:60:jingle.wav
329,192,46584,1,0,0:0:0:25:hihat2.wav
402,192,46584,1,0,0:0:0:40:kick3.wav
475,192,46584,1,0,0:0:0:40:drum2.wav
109,192,46646,1,0,0:0:0:40:drum2.wav
256,192,46646,1,0,0:0:0:0:
36,192,46707,1,0,0:0:0:40:drum2.wav
475,192,46707,1,0,0:0:0:0:
402,192,46707,1,0,0:0:0:0:
329,192,46769,1,0,0:0:0:40:drum2.wav
182,192,46769,1,0,0:0:0:0:
256,192,46831,1,0,0:0:0:65:jingle.wav
109,192,46831,1,0,0:0:0:25:hihat2.wav
36,192,46831,1,0,0:0:0:45:kick3.wav
402,192,46831,1,0,0:0:0:0:
475,192,46831,1,0,0:0:0:0:
109,192,46954,1,0,0:0:0:0:
182,192,46954,1,0,0:0:0:0:
329,192,46954,1,0,0:0:0:0:
402,192,47016,1,0,0:0:0:65:jingle.wav
256,192,47078,1,0,0:0:0:25:hihat1.wav
182,192,47078,1,0,0:0:0:45:kick3.wav
475,192,47078,1,0,0:0:0:0:
36,192,47078,1,0,0:0:0:0:
329,192,47201,1,0,0:0:0:65:jingle.wav
109,192,47201,1,0,0:0:0:25:hihat1.wav
402,192,47201,1,0,0:0:0:0:
475,192,47325,1,0,0:0:0:25:hihat2.wav
182,192,47325,1,0,0:0:0:45:kick3.wav
256,192,47325,1,0,0:0:0:45:drum2.wav
36,192,47325,1,0,0:0:0:0:
329,192,47325,1,0,0:0:0:0:
109,192,47386,1,0,0:0:0:65:jingle.wav
256,192,47448,1,0,0:0:0:0:
36,192,47448,1,0,0:0:0:0:
402,192,47448,1,0,0:0:0:0:
182,192,47571,1,0,0:0:0:65:jingle.wav
109,192,47571,1,0,0:0:0:25:hihat1.wav
475,192,47571,1,0,0:0:0:45:kick3.wav
329,192,47571,1,0,0:0:0:0:
402,192,47695,1,0,0:0:0:65:jingle.wav
256,192,47695,1,0,0:0:0:25:hihat1.wav
109,192,47695,1,0,0:0:0:0:
329,192,47818,1,0,0:0:0:65:jingle.wav
182,192,47818,1,0,0:0:0:25:hihat2.wav
36,192,47818,1,0,0:0:0:45:kick3.wav
475,192,47818,1,0,0:0:0:0:
402,192,47942,1,0,0:0:0:0:
109,192,47942,1,0,0:0:0:0:
256,192,47942,1,0,0:0:0:0:
329,192,48004,1,0,0:0:0:65:jingle.wav
182,192,48065,1,0,0:0:0:25:hihat1.wav
475,192,48065,1,0,0:0:0:45:kick3.wav
402,192,48065,1,0,0:0:0:0:
36,192,48065,1,0,0:0:0:0:
329,192,48189,1,0,0:0:0:65:jingle.wav
109,192,48189,1,0,0:0:0:25:hihat2.wav
256,192,48189,1,0,0:0:0:0:
182,192,48250,1,0,0:0:0:0:
475,192,48312,1,0,0:0:0:45:kick3.wav
329,192,48312,1,0,0:0:0:45:drum2.wav
109,192,48312,1,0,0:0:0:0:
36,192,48312,1,0,0:0:0:0:
402,192,48312,1,0,0:0:0:0:
256,192,48374,1,0,0:0:0:65:jingle.wav
109,192,48436,1,0,0:0:0:25:hihat1.wav
182,192,48436,1,0,0:0:0:0:
402,192,48436,1,0,0:0:0:0:
36,192,48559,1,0,0:0:0:65:jingle.wav
256,192,48559,1,0,0:0:0:25:hihat2.wav
475,192,48559,1,0,0:0:0:45:kick3.wav
329,192,48559,1,0,0:0:0:0:
182,192,48621,1,0,0:0:0:0:
109,192,48683,1,0,0:0:0:65:jingle.wav
402,192,48683,1,0,0:0:0:0:
329,192,48683,1,0,0:0:0:0:
256,192,48806,1,0,0:0:0:65:jingle.wav
36,192,48806,1,0,0:0:0:25:hihat2.wav
475,192,48806,1,0,0:0:0:45:kick3.wav
182,192,48806,1,0,0:0:0:0:
109,192,48930,1,0,0:0:0:0:
402,192,48930,1,0,0:0:0:0:
329,192,48930,1,0,0:0:0:0:
256,192,48991,1,0,0:0:0:65:jingle.wav
36,192,49053,1,0,0:0:0:25:hihat1.wav
402,192,49053,1,0,0:0:0:45:kick3.wav
182,192,49053,1,0,0:0:0:0:
475,192,49053,1,0,0:0:0:0:
109,192,49176,1,0,0:0:0:65:jingle.wav
256,192,49176,1,0,0:0:0:25:hihat1.wav
329,192,49176,1,0,0:0:0:0:
36,192,49300,1,0,0:0:0:25:hihat2.wav
475,192,49300,1,0,0:0:0:45:kick3.wav
402,192,49300,1,0,0:0:0:45:drum2.wav
256,192,49300,1,0,0:0:0:0:
182,192,49300,1,0,0:0:0:0:
109,192,49362,1,0,0:0:0:65:jingle.wav
329,192,49423,1,0,0:0:0:0:
182,192,49423,1,0,0:0:0:0:
402,192,49423,1,0,0:0:0:0:
36,192,49547,1,0,0:0:0:65:jingle.wav
109,192,49547,1,0,0:0:0:25:hihat1.wav
475,192,49547,1,0,0:0:0:45:kick3.wav
256,192,49547,1,0,0:0:0:0:
182,192,49670,1,0,0:0:0:25:hihat1.wav
329,192,49670,1,0,0:0:0:0:
109,192,49670,1,0,0:0:0:0:
402,192,49732,1,0,0:0:0:65:jingle.wav
256,192,49794,1,0,0:0:0:25:hihat2.wav
182,192,49794,1,0,0:0:0:45:kick3.wav
36,192,49794,1,0,0:0:0:0:
475,192,49794,1,0,0:0:0:0:
402,192,49917,1,0,0:0:0:65:jingle.wav
329,192,49917,1,0,0:0:0:0:
109,192,49917,1,0,0:0:0:0:
402,192,50041,1,0,0:0:0:25:hihat1.wav
475,192,50041,1,0,0:0:0:45:kick3.wav
182,192,50041,1,0,0:0:0:45:drum2.wav
256,192,50041,1,0,0:0:0:0:
36,192,50041,1,0,0:0:0:0:
109,192,50102,1,0,0:0:0:65:jingle.wav
182,192,50164,1,0,0:0:0:25:hihat2.wav
329,192,50164,1,0,0:0:0:0:
475,192,50164,1,0,0:0:0:0:
36,192,50226,1,0,0:0:0:0:
109,192,50288,1,0,0:0:0:65:jingle.wav
256,192,50288,1,0,0:0:0:45:kick3.wav
402,192,50288,1,0,0:0:0:0:
329,192,50411,1,0,0:0:0:25:hihat1.wav
256,192,50411,1,0,0:0:0:45:drum2.wav
475,192,50411,1,0,0:0:0:0:
36,192,50411,1,0,0:0:0:0:
182,192,50411,1,0,0:0:0:0:
402,192,50473,1,0,0:0:0:65:jingle.wav
329,192,50534,1,0,0:0:0:25:hihat2.wav
109,192,50534,1,0,0:0:0:45:kick3.wav
36,192,50534,1,0,0:0:0:0:
475,192,50596,1,0,0:0:0:0:
182,192,50658,1,0,0:0:0:65:jingle.wav
256,192,50658,1,0,0:0:0:0:
402,192,50658,1,0,0:0:0:0:
329,192,50781,1,0,0:0:0:65:jingle.wav
36,192,50781,1,0,0:0:0:25:hihat2.wav
109,192,50781,1,0,0:0:0:45:kick3.wav
475,192,50781,1,0,0:0:0:0:
402,192,50905,1,0,0:0:0:0:
256,192,50905,1,0,0:0:0:0:
182,192,50905,1,0,0:0:0:0:
109,192,50967,1,0,0:0:0:65:jingle.wav
329,192,51028,1,0,0:0:0:25:hihat1.wav
36,192,51028,1,0,0:0:0:45:kick3.wav
256,192,51028,1,0,0:0:0:0:
475,192,51028,1,0,0:0:0:0:
109,192,51152,1,0,0:0:0:65:jingle.wav
402,192,51152,1,0,0:0:0:25:hihat1.wav
182,192,51152,1,0,0:0:0:0:
402,192,51275,1,0,0:0:0:25:hihat2.wav
36,192,51275,1,0,0:0:0:45:kick3.wav
475,192,51275,1,0,0:0:0:45:drum2.wav
182,192,51275,1,0,0:0:0:0:
329,192,51275,1,0,0:0:0:0:
256,192,51337,1,0,0:0:0:65:jingle.wav
36,192,51399,1,0,0:0:0:0:
329,192,51399,1,0,0:0:0:0:
109,192,51399,1,0,0:0:0:0:
402,192,51522,1,0,0:0:0:65:jingle.wav
182,192,51522,1,0,0:0:0:25:hihat1.wav
256,192,51522,1,0,0:0:0:45:kick3.wav
475,192,51522,1,0,0:0:0:0:
329,192,51646,1,0,0:0:0:65:jingle.wav
256,192,51646,1,0,0:0:0:25:hihat1.wav
109,192,51646,1,0,0:0:0:0:
402,192,51769,1,0,0:0:0:65:jingle.wav
182,192,51769,1,0,0:0:0:25:hihat2.wav
36,192,51769,1,0,0:0:0:45:kick3.wav
475,192,51769,1,0,0:0:0:0:
256,192,51892,1,0,0:0:0:0:
109,192,51892,1,0,0:0:0:0:
329,192,51892,1,0,0:0:0:0:
402,192,51954,1,0,0:0:0:65:jingle.wav
182,192,52016,1,0,0:0:0:25:hihat1.wav
36,192,52016,1,0,0:0:0:45:kick3.wav
475,192,52016,1,0,0:0:0:0:
329,192,52016,1,0,0:0:0:0:
256,192,52139,1,0,0:0:0:65:jingle.wav
402,192,52139,1,0,0:0:0:25:hihat2.wav
109,192,52139,1,0,0:0:0:0:
182,192,52201,1,0,0:0:0:0:
475,192,52263,1,0,0:0:0:45:kick3.wav
402,192,52263,1,0,0:0:0:45:drum2.wav
329,192,52263,1,0,0:0:0:0:
36,192,52263,1,0,0:0:0:0:
109,192,52263,1,0,0:0:0:0:
256,192,52325,1,0,0:0:0:65:jingle.wav
182,192,52386,1,0,0:0:0:25:hihat1.wav
402,192,52386,1,0,0:0:0:0:
36,192,52386,1,0,0:0:0:0:
36,192,52510,1,0,0:0:0:65:jingle.wav
109,192,52510,1,0,0:0:0:25:hihat2.wav
329,192,52510,1,0,0:0:0:45:kick3.wav
475,192,52510,1,0,0:0:0:0:
182,192,52571,1,0,0:0:0:0:
402,192,52633,1,0,0:0:0:65:jingle.wav
329,192,52633,1,0,0:0:0:0:
256,192,52633,1,0,0:0:0:0:
475,192,52757,1,0,0:0:0:65:jingle.wav
36,192,52757,1,0,0:0:0:25:hihat2.wav
109,192,52757,1,0,0:0:0:45:kick3.wav
256,192,52757,1,0,0:0:0:0:
402,192,52818,1,0,0:0:0:0:
329,192,52880,1,0,0:0:0:0:
109,192,52880,1,0,0:0:0:0:
182,192,52880,1,0,0:0:0:0:
256,192,52942,1,0,0:0:0:65:jingle.wav
36,192,52942,1,0,0:0:0:0:
402,192,53004,1,0,0:0:0:25:hihat1.wav
475,192,53004,1,0,0:0:0:45:kick3.wav
182,192,53004,1,0,0:0:0:0:
329,192,53065,1,0,0:0:0:0:
109,192,53127,1,0,0:0:0:65:jingle.wav
36,192,53127,1,0,0:0:0:25:hihat1.wav
475,192,53127,1,0,0:0:0:0:
256,192,53127,1,0,0:0:0:0:
182,192,53189,1,0,0:0:0:0:
36,192,53250,1,0,0:0:0:65:jingle.wav
475,192,53250,1,0,0:0:0:25:hihat2.wav
402,192,53250,1,0,0:0:0:45:kick3.wav
256,192,53250,1,0,0:0:0:45:drum2.wav
329,192,53250,1,0,0:0:0:0:
109,192,53312,1,0,0:0:0:0:
402,192,53374,1,0,0:0:0:0:
329,192,53374,1,0,0:0:0:0:
182,192,53374,1,0,0:0:0:0:
475,192,53436,1,0,0:0:0:65:jingle.wav
256,192,53436,1,0,0:0:0:0:
329,192,53497,1,0,0:0:0:25:hihat1.wav
109,192,53497,1,0,0:0:0:45:kick3.wav
36,192,53497,1,0,0:0:0:0:
182,192,53559,1,0,0:0:0:0:
402,192,53621,1,0,0:0:0:65:jingle.wav
36,192,53621,1,0,0:0:0:25:hihat1.wav
475,192,53621,1,0,0:0:0:0:
256,192,53621,1,0,0:0:0:0:
329,192,53683,1,0,0:0:0:0:
182,192,53744,128,0,53827:0:0:0:60:jingle.wav
36,192,53827,128,0,53909:0:0:0:60:jingle.wav
109,192,53909,128,0,53991:0:0:0:60:jingle.wav
329,192,53991,128,0,54074:0:0:0:60:jingle.wav
182,192,54074,128,0,54156:0:0:0:60:jingle.wav
256,192,54156,128,0,54238:0:0:0:60:jingle.wav
475,192,54238,128,0,54320:0:0:0:60:jingle.wav
402,192,54320,128,0,54403:0:0:0:60:jingle.wav
329,192,54403,128,0,54485:0:0:0:60:jingle.wav
36,192,54485,1,0,0:0:0:50:jingle.wav
109,192,54516,1,0,0:0:0:50:jingle.wav
182,192,54547,1,0,0:0:0:50:jingle.wav
256,192,54578,1,0,0:0:0:50:jingle.wav
475,192,54609,1,0,0:0:0:50:jingle.wav
402,192,54639,1,0,0:0:0:50:jingle.wav
329,192,54670,1,0,0:0:0:50:jingle.wav
256,192,54701,1,0,0:0:0:50:jingle.wav
36,192,54732,5,0,0:0:0:65:jingle.wav
475,192,54732,1,0,0:0:0:0:
402,192,54732,1,0,0:0:0:45:kick2.wav
182,192,54732,1,0,0:0:0:65:crash.wav
109,192,54732,1,0,0:0:0:0:
329,192,54794,1,0,0:0:0:0:
109,192,54855,1,0,0:0:0:30:hihat2.wav
182,192,54855,1,0,0:0:0:0:
329,192,54917,1,0,0:0:0:65:jingle.wav
256,192,54917,1,0,0:0:0:0:
109,192,54979,1,0,0:0:0:50:drum2.wav
475,192,54979,1,0,0:0:0:0:
36,192,54979,1,0,0:0:0:0:
402,192,54979,1,0,0:0:0:0:
182,192,55041,1,0,0:0:0:0:
36,192,55102,1,0,0:0:0:65:jingle.wav
475,192,55102,1,0,0:0:0:45:kick2.wav
256,192,55102,1,0,0:0:0:0:
109,192,55164,1,0,0:0:0:0:
329,192,55226,1,0,0:0:0:30:hihat2.wav
402,192,55226,1,0,0:0:0:0:
256,192,55288,1,0,0:0:0:65:jingle.wav
182,192,55288,1,0,0:0:0:0:
402,192,55349,1,0,0:0:0:50:drum2.wav
109,192,55349,1,0,0:0:0:0:
475,192,55349,1,0,0:0:0:0:
36,192,55349,1,0,0:0:0:0:
329,192,55411,1,0,0:0:0:0:
256,192,55473,1,0,0:0:0:65:jingle.wav
475,192,55473,1,0,0:0:0:45:kick2.wav
36,192,55473,1,0,0:0:0:0:
402,192,55534,1,0,0:0:0:0:
182,192,55534,1,0,0:0:0:0:
109,192,55596,1,0,0:0:0:65:jingle.wav
256,192,55596,1,0,0:0:0:50:drum2.wav
36,192,55596,1,0,0:0:0:0:
329,192,55596,1,0,0:0:0:0:
402,192,55658,1,0,0:0:0:0:
329,192,55720,1,0,0:0:0:65:jingle.wav
36,192,55720,1,0,0:0:0:45:kick2.wav
182,192,55720,1,0,0:0:0:0:
475,192,55720,1,0,0:0:0:0:
256,192,55781,1,0,0:0:0:0:
402,192,55843,1,0,0:0:0:30:hihat2.wav
109,192,55843,1,0,0:0:0:0:
329,192,55905,1,0,0:0:0:65:jingle.wav
36,192,55905,1,0,0:0:0:0:
256,192,55967,1,0,0:0:0:50:drum2.wav
402,192,55967,1,0,0:0:0:0:
182,192,55967,1,0,0:0:0:0:
475,192,55967,1,0,0:0:0:0:
109,192,56028,1,0,0:0:0:0:
475,192,56090,1,0,0:0:0:65:jingle.wav
329,192,56090,1,0,0:0:0:45:kick2.wav
36,192,56090,1,0,0:0:0:0:
256,192,56152,1,0,0:0:0:0:
109,192,56213,1,0,0:0:0:30:hihat2.wav
402,192,56213,1,0,0:0:0:0:
475,192,56275,1,0,0:0:0:65:jingle.wav
182,192,56275,1,0,0:0:0:0:
329,192,56337,1,0,0:0:0:50:drum2.wav
36,192,56337,1,0,0:0:0:0:
109,192,56337,1,0,0:0:0:0:
256,192,56337,1,0,0:0:0:0:
402,192,56399,1,0,0:0:0:0:
36,192,56460,1,0,0:0:0:65:jingle.wav
475,192,56460,1,0,0:0:0:45:kick2.wav
182,192,56460,1,0,0:0:0:0:
109,192,56522,1,0,0:0:0:0:
329,192,56522,1,0,0:0:0:0:
256,192,56584,1,0,0:0:0:65:jingle.wav
475,192,56584,1,0,0:0:0:50:drum2.wav
182,192,56584,1,0,0:0:0:0:
402,192,56584,1,0,0:0:0:0:
109,192,56646,1,0,0:0:0:0:
36,192,56707,1,0,0:0:0:65:jingle.wav
329,192,56707,1,0,0:0:0:45:kick2.wav
475,192,56707,1,0,0:0:0:0:
402,192,56707,1,0,0:0:0:0:
256,192,56769,1,0,0:0:0:0:
182,192,56831,1,0,0:0:0:30:hihat2.wav
475,192,56831,1,0,0:0:0:0:
402,192,56892,1,0,0:0:0:65:jingle.wav
109,192,56892,1,0,0:0:0:0:
182,192,56954,1,0,0:0:0:50:drum2.wav
36,192,56954,1,0,0:0:0:0:
256,192,56954,1,0,0:0:0:0:
329,192,56954,1,0,0:0:0:0:
402,192,57016,1,0,0:0:0:0:
109,192,57078,1,0,0:0:0:65:jingle.wav
475,192,57078,1,0,0:0:0:45:kick2.wav
182,192,57078,1,0,0:0:0:0:
256,192,57139,1,0,0:0:0:0:
329,192,57201,1,0,0:0:0:30:hihat2.wav
36,192,57201,1,0,0:0:0:0:
109,192,57263,1,0,0:0:0:65:jingle.wav
402,192,57263,1,0,0:0:0:0:
475,192,57325,1,0,0:0:0:50:drum2.wav
182,192,57325,1,0,0:0:0:0:
329,192,57325,1,0,0:0:0:0:
256,192,57325,1,0,0:0:0:0:
109,192,57386,1,0,0:0:0:0:
475,192,57448,1,0,0:0:0:65:jingle.wav
36,192,57448,1,0,0:0:0:45:kick2.wav
402,192,57448,1,0,0:0:0:0:
256,192,57510,1,0,0:0:0:0:
109,192,57571,1,0,0:0:0:30:hihat2.wav
329,192,57571,1,0,0:0:0:0:
402,192,57633,1,0,0:0:0:65:jingle.wav
182,192,57633,1,0,0:0:0:0:
36,192,57695,1,0,0:0:0:50:drum2.wav
329,192,57695,1,0,0:0:0:0:
475,192,57695,1,0,0:0:0:0:
256,192,57695,1,0,0:0:0:0:
109,192,57757,1,0,0:0:0:0:
182,192,57818,1,0,0:0:0:65:jingle.wav
256,192,57818,1,0,0:0:0:45:kick2.wav
402,192,57818,1,0,0:0:0:0:
36,192,57880,1,0,0:0:0:0:
475,192,57942,1,0,0:0:0:30:hihat2.wav
329,192,57942,1,0,0:0:0:0:
256,192,58004,1,0,0:0:0:65:jingle.wav
109,192,58004,1,0,0:0:0:0:
182,192,58065,1,0,0:0:0:50:drum2.wav
36,192,58065,1,0,0:0:0:0:
402,192,58065,1,0,0:0:0:0:
475,192,58065,1,0,0:0:0:0:
329,192,58127,1,0,0:0:0:0:
256,192,58189,1,0,0:0:0:65:jingle.wav
109,192,58189,1,0,0:0:0:45:kick2.wav
36,192,58189,1,0,0:0:0:35:kick3.wav
182,192,58250,1,0,0:0:0:0:
475,192,58312,1,0,0:0:0:50:drum2.wav
402,192,58312,1,0,0:0:0:0:
36,192,58312,1,0,0:0:0:0:
329,192,58312,1,0,0:0:0:0:
109,192,58374,1,0,0:0:0:65:jingle.wav
256,192,58374,1,0,0:0:0:0:
402,192,58436,1,0,0:0:0:45:kick2.wav
475,192,58436,1,0,0:0:0:35:kick3.wav
182,192,58436,1,0,0:0:0:0:
256,192,58497,1,0,0:0:0:0:
329,192,58497,1,0,0:0:0:0:
36,192,58559,1,0,0:0:0:65:jingle.wav
182,192,58559,1,0,0:0:0:50:drum2.wav
402,192,58559,1,0,0:0:0:0:
109,192,58559,1,0,0:0:0:0:
329,192,58621,1,0,0:0:0:0:
36,192,58683,1,0,0:0:0:65:jingle.wav
109,192,58683,1,0,0:0:0:45:kick2.wav
256,192,58683,1,0,0:0:0:0:
475,192,58683,1,0,0:0:0:0:
402,192,58744,1,0,0:0:0:0:
329,192,58806,1,0,0:0:0:30:hihat2.wav
182,192,58806,1,0,0:0:0:0:
256,192,58868,1,0,0:0:0:65:jingle.wav
109,192,58868,1,0,0:0:0:0:
182,192,58930,1,0,0:0:0:50:drum2.wav
475,192,58930,1,0,0:0:0:0:
36,192,58930,1,0,0:0:0:0:
402,192,58930,1,0,0:0:0:0:
329,192,58991,1,0,0:0:0:0:
475,192,59053,1,0,0:0:0:65:jingle.wav
36,192,59053,1,0,0:0:0:45:kick2.wav
256,192,59053,1,0,0:0:0:0:
109,192,59115,1,0,0:0:0:0:
182,192,59176,1,0,0:0:0:30:hihat2.wav
329,192,59176,1,0,0:0:0:0:
256,192,59238,1,0,0:0:0:65:jingle.wav
402,192,59238,1,0,0:0:0:0:
475,192,59300,1,0,0:0:0:50:drum2.wav
329,192,59300,1,0,0:0:0:0:
36,192,59300,1,0,0:0:0:0:
109,192,59300,1,0,0:0:0:0:
182,192,59362,1,0,0:0:0:0:
329,192,59423,1,0,0:0:0:65:jingle.wav
36,192,59423,1,0,0:0:0:45:kick2.wav
256,192,59423,1,0,0:0:0:0:
402,192,59485,1,0,0:0:0:0:
109,192,59485,1,0,0:0:0:0:
256,192,59547,1,0,0:0:0:65:jingle.wav
475,192,59547,1,0,0:0:0:50:drum2.wav
182,192,59547,1,0,0:0:0:0:
36,192,59547,1,0,0:0:0:0:
329,192,59609,1,0,0:0:0:0:
109,192,59670,1,0,0:0:0:65:jingle.wav
36,192,59670,1,0,0:0:0:45:kick2.wav
182,192,59670,1,0,0:0:0:0:
475,192,59670,1,0,0:0:0:0:
402,192,59732,1,0,0:0:0:0:
256,192,59794,1,0,0:0:0:30:hihat2.wav
329,192,59794,1,0,0:0:0:0:
109,192,59855,1,0,0:0:0:65:jingle.wav
182,192,59855,1,0,0:0:0:0:
329,192,59917,1,0,0:0:0:50:drum2.wav
36,192,59917,1,0,0:0:0:0:
475,192,59917,1,0,0:0:0:0:
402,192,59917,1,0,0:0:0:0:
182,192,59979,1,0,0:0:0:0:
36,192,60041,1,0,0:0:0:65:jingle.wav
475,192,60041,1,0,0:0:0:45:kick2.wav
256,192,60041,1,0,0:0:0:0:
109,192,60102,1,0,0:0:0:0:
182,192,60164,1,0,0:0:0:30:hihat2.wav
256,192,60164,1,0,0:0:0:0:
329,192,60226,1,0,0:0:0:65:jingle.wav
402,192,60226,1,0,0:0:0:0:
36,192,60288,1,0,0:0:0:50:drum2.wav
182,192,60288,1,0,0:0:0:0:
109,192,60288,1,0,0:0:0:0:
475,192,60288,1,0,0:0:0:0:
329,192,60349,1,0,0:0:0:0:
475,192,60411,1,0,0:0:0:65:jingle.wav
256,192,60411,1,0,0:0:0:45:kick2.wav
182,192,60411,1,0,0:0:0:0:
109,192,60473,1,0,0:0:0:0:
402,192,60473,1,0,0:0:0:0:
256,192,60534,1,0,0:0:0:65:jingle.wav
36,192,60534,1,0,0:0:0:50:drum2.wav
475,192,60534,1,0,0:0:0:0:
329,192,60534,1,0,0:0:0:0:
182,192,60596,1,0,0:0:0:0:
36,192,60658,1,0,0:0:0:65:jingle.wav
402,192,60658,1,0,0:0:0:45:kick2.wav
109,192,60658,1,0,0:0:0:0:
475,192,60658,1,0,0:0:0:0:
256,192,60720,1,0,0:0:0:0:
182,192,60781,1,0,0:0:0:30:hihat2.wav
402,192,60781,1,0,0:0:0:0:
329,192,60843,1,0,0:0:0:65:jingle.wav
109,192,60843,1,0,0:0:0:0:
36,192,60905,1,0,0:0:0:50:drum2.wav
475,192,60905,1,0,0:0:0:0:
182,192,60905,1,0,0:0:0:0:
256,192,60905,1,0,0:0:0:0:
402,192,60967,1,0,0:0:0:0:
36,192,61028,1,0,0:0:0:65:jingle.wav
329,192,61028,1,0,0:0:0:45:kick2.wav
256,192,61028,1,0,0:0:0:0:
109,192,61090,1,0,0:0:0:0:
182,192,61152,1,0,0:0:0:30:hihat2.wav
329,192,61152,1,0,0:0:0:65:jingle.wav
402,192,61213,1,0,0:0:0:0:
109,192,61275,1,0,0:0:0:50:drum2.wav
256,192,61275,1,0,0:0:0:0:
36,192,61275,1,0,0:0:0:0:
475,192,61275,1,0,0:0:0:0:
329,192,61337,1,0,0:0:0:65:jingle.wav
182,192,61337,1,0,0:0:0:0:
475,192,61399,1,0,0:0:0:45:kick2.wav
36,192,61399,1,0,0:0:0:0:
402,192,61399,1,0,0:0:0:0:
256,192,61460,1,0,0:0:0:0:
109,192,61460,1,0,0:0:0:0:
329,192,61522,1,0,0:0:0:65:jingle.wav
182,192,61522,1,0,0:0:0:50:drum2.wav
475,192,61522,1,0,0:0:0:0:
402,192,61522,1,0,0:0:0:0:
109,192,61584,1,0,0:0:0:0:
36,192,61646,1,0,0:0:0:65:jingle.wav
402,192,61646,1,0,0:0:0:45:kick2.wav
256,192,61646,1,0,0:0:0:35:kick3.wav
475,192,61646,1,0,0:0:0:0:
182,192,61707,1,0,0:0:0:0:
329,192,61769,1,0,0:0:0:50:drum2.wav
109,192,61769,1,0,0:0:0:0:
36,192,61769,1,0,0:0:0:0:
182,192,61831,1,0,0:0:0:35:drum2.wav
402,192,61831,1,0,0:0:0:0:
36,192,61892,1,0,0:0:0:65:jingle.wav
109,192,61892,1,0,0:0:0:45:kick2.wav
475,192,61892,1,0,0:0:0:35:kick3.wav
256,192,61892,1,0,0:0:0:0:
329,192,61954,1,0,0:0:0:0:
182,192,62016,1,0,0:0:0:50:drum2.wav
402,192,62016,1,0,0:0:0:0:
475,192,62016,1,0,0:0:0:0:
109,192,62078,1,0,0:0:0:35:drum2.wav
329,192,62078,1,0,0:0:0:0:
36,192,62139,1,0,0:0:0:65:jingle.wav
402,192,62139,1,0,0:0:0:45:kick2.wav
256,192,62139,1,0,0:0:0:35:kick3.wav
475,192,62139,1,0,0:0:0:0:
182,192,62201,1,0,0:0:0:0:
109,192,62263,1,0,0:0:0:50:drum2.wav
329,192,62263,1,0,0:0:0:0:
36,192,62263,1,0,0:0:0:0:
182,192,62325,1,0,0:0:0:35:drum2.wav
402,192,62325,1,0,0:0:0:0:
475,192,62386,1,0,0:0:0:65:jingle.wav
256,192,62386,1,0,0:0:0:45:kick2.wav
109,192,62386,1,0,0:0:0:35:kick3.wav
36,192,62386,1,0,0:0:0:0:
329,192,62448,1,0,0:0:0:0:
182,192,62510,1,0,0:0:0:50:drum2.wav
402,192,62510,1,0,0:0:0:0:
475,192,62510,1,0,0:0:0:0:
329,192,62571,1,0,0:0:0:35:drum2.wav
109,192,62571,1,0,0:0:0:0:
36,192,62633,1,0,0:0:0:65:jingle.wav
256,192,62633,1,0,0:0:0:45:kick2.wav
402,192,62633,1,0,0:0:0:35:kick3.wav
475,192,62633,1,0,0:0:0:0:
182,192,62695,1,0,0:0:0:0:
329,192,62757,1,0,0:0:0:30:hihat2.wav
109,192,62757,1,0,0:0:0:0:
256,192,62818,1,0,0:0:0:65:jingle.wav
36,192,62818,1,0,0:0:0:0:
182,192,62880,1,0,0:0:0:50:drum2.wav
402,192,62880,1,0,0:0:0:0:
109,192,62880,1,0,0:0:0:0:
475,192,62880,1,0,0:0:0:0:
329,192,62942,1,0,0:0:0:0:
256,192,63004,1,0,0:0:0:65:jingle.wav
109,192,63004,1,0,0:0:0:45:kick2.wav
36,192,63004,1,0,0:0:0:0:
329,192,63065,1,0,0:0:0:0:
402,192,63127,1,0,0:0:0:30:hihat2.wav
182,192,63127,1,0,0:0:0:0:
475,192,63189,1,0,0:0:0:65:jingle.wav
256,192,63189,1,0,0:0:0:0:
109,192,63250,1,0,0:0:0:50:drum2.wav
329,192,63250,1,0,0:0:0:0:
36,192,63250,1,0,0:0:0:0:
402,192,63250,1,0,0:0:0:0:
182,192,63312,1,0,0:0:0:0:
329,192,63374,1,0,0:0:0:65:jingle.wav
256,192,63374,1,0,0:0:0:45:kick2.wav
36,192,63374,1,0,0:0:0:0:
402,192,63436,1,0,0:0:0:0:
109,192,63436,1,0,0:0:0:0:
329,192,63497,1,0,0:0:0:65:jingle.wav
182,192,63497,1,0,0:0:0:50:drum2.wav
475,192,63497,1,0,0:0:0:0:
256,192,63497,1,0,0:0:0:0:
109,192,63559,1,0,0:0:0:0:
402,192,63621,1,0,0:0:0:65:jingle.wav
36,192,63621,1,0,0:0:0:45:kick2.wav
329,192,63621,1,0,0:0:0:0:
475,192,63621,1,0,0:0:0:0:
256,192,63683,1,0,0:0:0:0:
402,192,63744,1,0,0:0:0:30:hihat2.wav
182,192,63744,1,0,0:0:0:0:
329,192,63806,1,0,0:0:0:65:jingle.wav
109,192,63806,1,0,0:0:0:0:
475,192,63868,1,0,0:0:0:50:drum2.wav
36,192,63868,1,0,0:0:0:0:
256,192,63868,1,0,0:0:0:0:
182,192,63868,1,0,0:0:0:0:
402,192,63930,1,0,0:0:0:0:
109,192,63991,1,0,0:0:0:65:jingle.wav
36,192,63991,1,0,0:0:0:45:kick2.wav
182,192,63991,1,0,0:0:0:0:
256,192,64053,1,0,0:0:0:0:
329,192,64115,1,0,0:0:0:30:hihat2.wav
109,192,64115,1,0,0:0:0:0:
182,192,64176,1,0,0:0:0:65:jingle.wav
402,192,64176,1,0,0:0:0:0:
36,192,64238,1,0,0:0:0:50:drum2.wav
475,192,64238,1,0,0:0:0:0:
256,192,64238,1,0,0:0:0:0:
329,192,64238,1,0,0:0:0:0:
109,192,64300,1,0,0:0:0:0:
475,192,64362,1,0,0:0:0:65:jingle.wav
182,192,64362,1,0,0:0:0:45:kick2.wav
256,192,64362,1,0,0:0:0:0:
402,192,64423,1,0,0:0:0:0:
109,192,64423,1,0,0:0:0:0:
256,192,64485,1,0,0:0:0:65:jingle.wav
36,192,64485,1,0,0:0:0:50:drum2.wav
182,192,64485,1,0,0:0:0:0:
329,192,64485,1,0,0:0:0:0:
402,192,64547,1,0,0:0:0:0:
36,192,64609,1,0,0:0:0:65:jingle.wav
256,192,64609,1,0,0:0:0:45:kick2.wav
329,192,64609,1,0,0:0:0:0:
475,192,64609,1,0,0:0:0:0:
182,192,64670,1,0,0:0:0:0:
402,192,64732,1,0,0:0:0:30:hihat2.wav
109,192,64732,1,0,0:0:0:0:
36,192,64794,1,0,0:0:0:65:jingle.wav
329,192,64794,1,0,0:0:0:0:
402,192,64855,1,0,0:0:0:50:drum2.wav
182,192,64855,1,0,0:0:0:0:
256,192,64855,1,0,0:0:0:0:
475,192,64855,1,0,0:0:0:0:
109,192,64917,1,0,0:0:0:0:
256,192,64979,1,0,0:0:0:65:jingle.wav
475,192,64979,1,0,0:0:0:45:kick2.wav
36,192,64979,1,0,0:0:0:0:
329,192,65041,1,0,0:0:0:0:
402,192,65102,1,0,0:0:0:30:hihat2.wav
109,192,65102,1,0,0:0:0:0:
182,192,65164,1,0,0:0:0:65:jingle.wav
475,192,65164,1,0,0:0:0:0:
329,192,65226,1,0,0:0:0:50:drum2.wav
109,192,65226,1,0,0:0:0:0:
256,192,65226,1,0,0:0:0:0:
36,192,65226,1,0,0:0:0:0:
402,192,65288,1,0,0:0:0:0:
475,192,65349,1,0,0:0:0:65:jingle.wav
182,192,65349,1,0,0:0:0:45:kick2.wav
36,192,65349,1,0,0:0:0:0:
256,192,65411,1,0,0:0:0:0:
109,192,65473,1,0,0:0:0:30:hihat2.wav
329,192,65473,1,0,0:0:0:0:
402,192,65534,1,0,0:0:0:65:jingle.wav
182,192,65534,1,0,0:0:0:0:
36,192,65596,1,0,0:0:0:50:drum2.wav
329,192,65596,1,0,0:0:0:0:
475,192,65596,1,0,0:0:0:0:
256,192,65596,1,0,0:0:0:0:
182,192,65658,1,0,0:0:0:0:
109,192,65720,1,0,0:0:0:65:jingle.wav
329,192,65720,1,0,0:0:0:45:kick2.wav
402,192,65720,1,0,0:0:0:0:
256,192,65781,1,0,0:0:0:0:
402,192,65843,1,0,0:0:0:30:hihat2.wav
182,192,65843,1,0,0:0:0:0:
329,192,65905,1,0,0:0:0:65:jingle.wav
109,192,65905,1,0,0:0:0:0:
256,192,65967,1,0,0:0:0:50:drum2.wav
36,192,65967,1,0,0:0:0:0:
182,192,65967,1,0,0:0:0:0:
475,192,65967,1,0,0:0:0:0:
329,192,66028,1,0,0:0:0:0:
402,192,66090,1,0,0:0:0:65:jingle.wav
182,192,66090,1,0,0:0:0:45:kick2.wav
109,192,66090,1,0,0:0:0:35:kick3.wav
475,192,66152,1,0,0:0:0:0:
329,192,66213,1,0,0:0:0:50:drum2.wav
109,192,66213,1,0,0:0:0:0:
36,192,66213,1,0,0:0:0:0:
256,192,66213,1,0,0:0:0:0:
182,192,66275,1,0,0:0:0:65:jingle.wav
402,192,66275,1,0,0:0:0:0:
475,192,66337,1,0,0:0:0:45:kick2.wav
36,192,66337,1,0,0:0:0:35:kick3.wav
256,192,66337,1,0,0:0:0:0:
109,192,66399,1,0,0:0:0:0:
329,192,66399,1,0,0:0:0:0:
182,192,66460,1,0,0:0:0:65:jingle.wav
402,192,66460,1,0,0:0:0:50:drum2.wav
36,192,66460,1,0,0:0:0:0:
475,192,66460,1,0,0:0:0:0:
256,192,66522,1,0,0:0:0:0:
109,192,66584,1,0,0:0:0:65:jingle.wav
402,192,66584,1,0,0:0:0:45:kick2.wav
329,192,66584,1,0,0:0:0:0:
36,192,66584,1,0,0:0:0:0:
256,192,66646,1,0,0:0:0:0:
182,192,66707,1,0,0:0:0:30:hihat2.wav
475,192,66707,1,0,0:0:0:0:
109,192,66769,1,0,0:0:0:65:jingle.wav
402,192,66769,1,0,0:0:0:0:
182,192,66831,1,0,0:0:0:50:drum2.wav
256,192,66831,1,0,0:0:0:0:
36,192,66831,1,0,0:0:0:0:
329,192,66831,1,0,0:0:0:0:
402,192,66892,1,0,0:0:0:0:
475,192,66954,1,0,0:0:0:65:jingle.wav
109,192,66954,1,0,0:0:0:45:kick2.wav
182,192,66954,1,0,0:0:0:0:
256,192,67016,1,0,0:0:0:0:
329,192,67078,1,0,0:0:0:30:hihat2.wav
36,192,67078,1,0,0:0:0:0:
109,192,67139,1,0,0:0:0:65:jingle.wav
402,192,67139,1,0,0:0:0:0:
475,192,67201,1,0,0:0:0:50:drum2.wav
256,192,67201,1,0,0:0:0:0:
182,192,67201,1,0,0:0:0:0:
329,192,67201,1,0,0:0:0:0:
109,192,67263,1,0,0:0:0:0:
36,192,67325,1,0,0:0:0:65:jingle.wav
256,192,67325,1,0,0:0:0:45:kick2.wav
475,192,67325,1,0,0:0:0:0:
402,192,67386,1,0,0:0:0:0:
182,192,67386,1,0,0:0:0:0:
109,192,67448,1,0,0:0:0:65:jingle.wav
256,192,67448,1,0,0:0:0:50:drum2.wav
36,192,67448,1,0,0:0:0:0:
329,192,67448,1,0,0:0:0:0:
402,192,67510,1,0,0:0:0:0:
329,192,67571,1,0,0:0:0:65:jingle.wav
475,192,67571,1,0,0:0:0:45:kick2.wav
36,192,67571,1,0,0:0:0:0:
182,192,67571,1,0,0:0:0:0:
109,192,67633,1,0,0:0:0:0:
182,192,67695,1,0,0:0:0:30:hihat2.wav
402,192,67695,1,0,0:0:0:0:
36,192,67757,1,0,0:0:0:65:jingle.wav
256,192,67757,1,0,0:0:0:0:
329,192,67818,1,0,0:0:0:50:drum2.wav
475,192,67818,1,0,0:0:0:0:
402,192,67818,1,0,0:0:0:0:
182,192,67818,1,0,0:0:0:0:
109,192,67880,1,0,0:0:0:0:
256,192,67942,1,0,0:0:0:65:jingle.wav
36,192,67942,1,0,0:0:0:45:kick2.wav
475,192,67942,1,0,0:0:0:0:
402,192,68004,1,0,0:0:0:0:
109,192,68065,1,0,0:0:0:30:hihat2.wav
329,192,68065,1,0,0:0:0:0:
256,192,68127,1,0,0:0:0:65:jingle.wav
475,192,68127,1,0,0:0:0:0:
182,192,68189,1,0,0:0:0:50:drum2.wav
36,192,68189,1,0,0:0:0:0:
329,192,68189,1,0,0:0:0:0:
109,192,68189,1,0,0:0:0:0:
402,192,68250,1,0,0:0:0:0:
475,192,68312,1,0,0:0:0:65:jingle.wav
36,192,68312,1,0,0:0:0:45:kick2.wav
256,192,68312,1,0,0:0:0:0:
329,192,68374,1,0,0:0:0:0:
109,192,68374,1,0,0:0:0:0:
256,192,68436,1,0,0:0:0:65:jingle.wav
182,192,68436,1,0,0:0:0:50:drum2.wav
475,192,68436,1,0,0:0:0:0:
402,192,68436,1,0,0:0:0:0:
109,192,68497,1,0,0:0:0:0:
182,192,68559,1,0,0:0:0:65:jingle.wav
475,192,68559,1,0,0:0:0:45:kick2.wav
329,192,68559,1,0,0:0:0:0:
36,192,68559,1,0,0:0:0:0:
256,192,68621,1,0,0:0:0:0:
402,192,68683,1,0,0:0:0:30:hihat2.wav
182,192,68683,1,0,0:0:0:0:
329,192,68744,1,0,0:0:0:65:jingle.wav
109,192,68744,1,0,0:0:0:0:
256,192,68806,1,0,0:0:0:50:drum2.wav
36,192,68806,1,0,0:0:0:0:
475,192,68806,1,0,0:0:0:0:
402,192,68806,1,0,0:0:0:0:
182,192,68868,1,0,0:0:0:0:
109,192,68930,1,0,0:0:0:65:jingle.wav
36,192,68930,1,0,0:0:0:45:kick2.wav
329,192,68930,1,0,0:0:0:0:
402,192,68991,1,0,0:0:0:0:
182,192,69053,1,0,0:0:0:30:hihat2.wav
475,192,69053,1,0,0:0:0:65:jingle.wav
329,192,69115,1,0,0:0:0:0:
475,192,69176,1,0,0:0:0:50:drum2.wav
109,192,69176,1,0,0:0:0:0:
256,192,69176,1,0,0:0:0:0:
36,192,69176,1,0,0:0:0:0:
402,192,69238,1,0,0:0:0:65:jingle.wav
182,192,69238,1,0,0:0:0:0:
36,192,69300,1,0,0:0:0:45:kick2.wav
256,192,69300,1,0,0:0:0:0:
329,192,69300,1,0,0:0:0:0:
109,192,69362,1,0,0:0:0:0:
402,192,69362,1,0,0:0:0:0:
182,192,69423,1,0,0:0:0:65:jingle.wav
329,192,69423,1,0,0:0:0:50:drum2.wav
256,192,69423,1,0,0:0:0:0:
475,192,69423,1,0,0:0:0:0:
109,192,69485,1,0,0:0:0:0:
182,192,69547,1,0,0:0:0:65:jingle.wav
475,192,69547,1,0,0:0:0:45:kick2.wav
36,192,69547,1,0,0:0:0:35:kick3.wav
402,192,69547,1,0,0:0:0:0:
256,192,69609,1,0,0:0:0:0:
329,192,69670,1,0,0:0:0:50:drum2.wav
109,192,69670,1,0,0:0:0:0:
402,192,69670,1,0,0:0:0:0:
36,192,69732,1,0,0:0:0:35:drum2.wav
256,192,69732,1,0,0:0:0:0:
329,192,69794,1,0,0:0:0:65:jingle.wav
402,192,69794,1,0,0:0:0:45:kick2.wav
475,192,69794,1,0,0:0:0:35:kick3.wav
182,192,69794,1,0,0:0:0:0:
109,192,69855,1,0,0:0:0:0:
256,192,69917,1,0,0:0:0:50:drum2.wav
36,192,69917,1,0,0:0:0:0:
475,192,69917,1,0,0:0:0:0:
402,192,69979,1,0,0:0:0:35:drum2.wav
182,192,69979,1,0,0:0:0:0:
36,192,70041,1,0,0:0:0:65:jingle.wav
329,192,70041,1,0,0:0:0:45:kick2.wav
109,192,70041,1,0,0:0:0:35:kick3.wav
475,192,70041,1,0,0:0:0:0:
256,192,70102,1,0,0:0:0:0:
182,192,70164,1,0,0:0:0:50:drum2.wav
109,192,70164,1,0,0:0:0:0:
402,192,70164,1,0,0:0:0:0:
475,192,70226,1,0,0:0:0:35:drum2.wav
256,192,70226,1,0,0:0:0:0:
36,192,70288,1,0,0:0:0:65:jingle.wav
182,192,70288,1,0,0:0:0:45:kick2.wav
109,192,70288,1,0,0:0:0:35:kick3.wav
329,192,70288,1,0,0:0:0:0:
402,192,70349,1,0,0:0:0:0:
36,192,70411,1,0,0:0:0:50:drum2.wav
256,192,70411,1,0,0:0:0:0:
475,192,70411,1,0,0:0:0:0:
329,192,70473,1,0,0:0:0:35:drum2.wav
109,192,70473,1,0,0:0:0:0:
36,192,70534,1,0,0:0:0:65:jingle.wav
256,192,70534,1,0,0:0:0:65:crash.wav
402,192,70534,1,0,0:0:0:35:kick3.wav
182,192,70534,1,0,0:0:0:45:kick2.wav
475,192,70534,1,0,0:0:0:0:
109,192,70658,1,0,0:0:0:25:hihat2.wav
182,192,70720,1,0,0:0:0:0:
36,192,70781,1,0,0:0:0:40:kick3.wav
475,192,70781,1,0,0:0:0:0:
329,192,70781,1,0,0:0:0:0:
402,192,70905,1,0,0:0:0:25:hihat2.wav
329,192,70967,1,0,0:0:0:0:
36,192,71028,1,0,0:0:0:40:kick3.wav
475,192,71028,1,0,0:0:0:0:
182,192,71028,1,0,0:0:0:0:
109,192,71152,1,0,0:0:0:25:hihat2.wav
182,192,71213,1,0,0:0:0:0:
36,192,71275,1,0,0:0:0:40:kick3.wav
475,192,71275,1,0,0:0:0:0:
329,192,71275,1,0,0:0:0:0:
402,192,71399,1,0,0:0:0:25:hihat2.wav
329,192,71460,1,0,0:0:0:0:
36,192,71522,1,0,0:0:0:40:kick3.wav
475,192,71522,1,0,0:0:0:0:
182,192,71522,1,0,0:0:0:0:
109,192,71646,1,0,0:0:0:25:hihat2.wav
256,192,71707,1,0,0:0:0:0:
36,192,71769,1,0,0:0:0:40:kick3.wav
329,192,71769,1,0,0:0:0:0:
475,192,71769,1,0,0:0:0:0:
402,192,71892,1,0,0:0:0:25:hihat2.wav
256,192,71954,1,0,0:0:0:0:
36,192,72016,1,0,0:0:0:40:kick3.wav
182,192,72016,1,0,0:0:0:0:
475,192,72016,1,0,0:0:0:0:
109,192,72139,1,0,0:0:0:25:hihat2.wav
256,192,72201,1,0,0:0:0:0:
36,192,72263,1,0,0:0:0:40:kick3.wav
475,192,72263,1,0,0:0:0:0:
329,192,72263,1,0,0:0:0:0:
402,192,72386,1,0,0:0:0:25:hihat2.wav
256,192,72448,1,0,0:0:0:0:
475,192,72510,1,0,0:0:0:40:kick3.wav
109,192,72510,1,0,0:0:0:0:
36,192,72510,1,0,0:0:0:0:
182,192,72633,1,0,0:0:0:25:hihat2.wav
402,192,72695,1,0,0:0:0:65:jingle.wav
109,192,72695,1,0,0:0:0:0:
475,192,72757,1,0,0:0:0:40:kick3.wav
256,192,72757,1,0,0:0:0:0:
36,192,72757,1,0,0:0:0:0:
182,192,72880,1,0,0:0:0:65:jingle.wav
329,192,72880,1,0,0:0:0:25:hihat2.wav
402,192,72942,1,0,0:0:0:0:
36,192,73004,1,0,0:0:0:65:jingle.wav
475,192,73004,1,0,0:0:0:40:kick3.wav
109,192,73004,1,0,0:0:0:0:
256,192,73004,1,0,0:0:0:0:
182,192,73127,1,0,0:0:0:25:hihat2.wav
329,192,73189,1,0,0:0:0:65:jingle.wav
109,192,73189,1,0,0:0:0:0:
36,192,73250,1,0,0:0:0:40:kick3.wav
256,192,73250,1,0,0:0:0:0:
475,192,73250,1,0,0:0:0:0:
329,192,73374,1,0,0:0:0:65:jingle.wav
109,192,73374,1,0,0:0:0:25:hihat2.wav
402,192,73436,1,0,0:0:0:0:
475,192,73497,1,0,0:0:0:65:jingle.wav
36,192,73497,1,0,0:0:0:40:kick3.wav
182,192,73497,1,0,0:0:0:0:
256,192,73497,1,0,0:0:0:0:
109,192,73621,1,0,0:0:0:25:hihat2.wav
182,192,73683,1,0,0:0:0:0:
475,192,73744,1,0,0:0:0:65:jingle.wav
36,192,73744,1,0,0:0:0:40:kick3.wav
256,192,73744,1,0,0:0:0:0:
329,192,73744,1,0,0:0:0:0:
402,192,73868,1,0,0:0:0:25:hihat2.wav
329,192,73930,1,0,0:0:0:0:
475,192,73991,1,0,0:0:0:65:jingle.wav
36,192,73991,1,0,0:0:0:40:kick3.wav
256,192,73991,1,0,0:0:0:0:
182,192,73991,1,0,0:0:0:0:
109,192,74115,1,0,0:0:0:25:hihat2.wav
182,192,74176,1,0,0:0:0:0:
475,192,74238,1,0,0:0:0:65:jingle.wav
36,192,74238,1,0,0:0:0:40:kick3.wav
329,192,74238,1,0,0:0:0:0:
256,192,74238,1,0,0:0:0:0:
402,192,74362,1,0,0:0:0:25:hihat2.wav
329,192,74423,1,0,0:0:0:0:
475,192,74485,1,0,0:0:0:65:jingle.wav
36,192,74485,1,0,0:0:0:40:kick3.wav
182,192,74485,1,0,0:0:0:0:
256,192,74485,1,0,0:0:0:0:
329,192,74609,1,0,0:0:0:25:hihat2.wav
182,192,74670,1,0,0:0:0:0:
36,192,74732,1,0,0:0:0:40:kick3.wav
475,192,74732,1,0,0:0:0:0:
402,192,74732,1,0,0:0:0:0:
182,192,74855,1,0,0:0:0:25:hihat2.wav
329,192,74917,1,0,0:0:0:0:
36,192,74979,1,0,0:0:0:40:kick3.wav
475,192,74979,1,0,0:0:0:0:
109,192,74979,1,0,0:0:0:0:
329,192,75102,1,0,0:0:0:25:hihat2.wav
182,192,75164,1,0,0:0:0:0:
36,192,75226,1,0,0:0:0:65:jingle.wav
475,192,75226,1,0,0:0:0:40:kick3.wav
256,192,75226,1,0,0:0:0:0:
402,192,75226,1,0,0:0:0:0:
182,192,75349,1,0,0:0:0:65:jingle.wav
109,192,75349,1,0,0:0:0:25:hihat2.wav
329,192,75411,1,0,0:0:0:0:
36,192,75473,1,0,0:0:0:40:kick3.wav
475,192,75473,1,0,0:0:0:0:
256,192,75473,1,0,0:0:0:0:
109,192,75596,1,0,0:0:0:65:jingle.wav
402,192,75596,1,0,0:0:0:25:hihat2.wav
182,192,75658,1,0,0:0:0:0:
36,192,75720,1,0,0:0:0:40:kick3.wav
256,192,75720,1,0,0:0:0:0:
475,192,75720,1,0,0:0:0:0:
182,192,75843,1,0,0:0:0:65:jingle.wav
402,192,75843,1,0,0:0:0:25:hihat2.wav
329,192,75905,1,0,0:0:0:0:
36,192,75967,1,0,0:0:0:40:kick3.wav
475,192,75967,1,0,0:0:0:0:
256,192,75967,1,0,0:0:0:0:
109,192,76090,1,0,0:0:0:65:jingle.wav
329,192,76090,1,0,0:0:0:25:hihat2.wav
182,192,76152,1,0,0:0:0:0:
36,192,76213,1,0,0:0:0:40:kick3.wav
475,192,76213,1,0,0:0:0:0:
256,192,76213,1,0,0:0:0:0:
109,192,76337,1,0,0:0:0:65:jingle.wav
402,192,76337,1,0,0:0:0:25:hihat2.wav
329,192,76399,1,0,0:0:0:0:
36,192,76460,1,0,0:0:0:40:kick3.wav
182,192,76460,1,0,0:0:0:0:
475,192,76460,1,0,0:0:0:0:
256,192,76584,1,0,0:0:0:25:hihat2.wav
109,192,76646,1,0,0:0:0:0:
36,192,76707,1,0,0:0:0:40:kick3.wav
475,192,76707,1,0,0:0:0:0:
329,192,76707,1,0,0:0:0:0:
256,192,76831,1,0,0:0:0:25:hihat2.wav
402,192,76892,1,0,0:0:0:0:
36,192,76954,1,0,0:0:0:40:kick3.wav
182,192,76954,1,0,0:0:0:0:
475,192,76954,1,0,0:0:0:0:
256,192,77078,1,0,0:0:0:25:hihat2.wav
109,192,77139,1,0,0:0:0:0:
36,192,77201,1,0,0:0:0:40:kick3.wav
475,192,77201,1,0,0:0:0:0:
329,192,77201,1,0,0:0:0:0:
256,192,77325,1,0,0:0:0:25:hihat2.wav
402,192,77386,1,0,0:0:0:0:
36,192,77448,1,0,0:0:0:40:kick3.wav
475,192,77448,1,0,0:0:0:0:
182,192,77448,1,0,0:0:0:0:
329,192,77571,1,0,0:0:0:25:hihat2.wav
256,192,77633,1,0,0:0:0:0:
36,192,77695,1,0,0:0:0:40:kick3.wav
475,192,77695,1,0,0:0:0:0:
109,192,77695,1,0,0:0:0:0:
182,192,77818,1,0,0:0:0:25:hihat2.wav
256,192,77880,1,0,0:0:0:0:
36,192,77942,1,0,0:0:0:40:kick3.wav
475,192,77942,1,0,0:0:0:0:
402,192,77942,1,0,0:0:0:0:
329,192,78065,1,0,0:0:0:25:hihat2.wav
256,192,78127,1,0,0:0:0:0:
36,192,78189,1,0,0:0:0:40:kick3.wav
109,192,78189,1,0,0:0:0:40:drum2.wav
182,192,78189,1,0,0:0:0:0:
475,192,78250,1,0,0:0:0:40:drum2.wav
402,192,78250,1,0,0:0:0:0:
329,192,78250,1,0,0:0:0:0:
182,192,78312,1,0,0:0:0:40:drum2.wav
109,192,78312,1,0,0:0:0:0:
36,192,78312,1,0,0:0:0:0:
475,192,78374,1,0,0:0:0:40:drum2.wav
402,192,78374,1,0,0:0:0:0:
329,192,78374,1,0,0:0:0:0:
36,192,78436,1,0,0:0:0:45:kick3.wav
256,192,78436,1,0,0:0:0:45:crash.wav
109,192,78436,1,0,0:0:0:45:kick2.wav
182,192,78436,1,0,0:0:0:0:
329,192,78559,1,0,0:0:0:25:hihat1.wav
475,192,78559,1,0,0:0:0:0:
109,192,78559,1,0,0:0:0:0:
256,192,78621,1,0,0:0:0:25:hihat2.wav
402,192,78621,1,0,0:0:0:0:
182,192,78683,1,0,0:0:0:65:jingle.wav
36,192,78683,1,0,0:0:0:25:hihat2.wav
329,192,78683,1,0,0:0:0:45:kick3.wav
182,192,78806,1,0,0:0:0:65:jingle.wav
109,192,78806,1,0,0:0:0:25:hihat2.wav
402,192,78806,1,0,0:0:0:0:
256,192,78868,1,0,0:0:0:0:
109,192,78930,1,0,0:0:0:65:jingle.wav
475,192,78930,1,0,0:0:0:25:hihat2.wav
329,192,78930,1,0,0:0:0:45:kick3.wav
36,192,78930,1,0,0:0:0:45:drum2.wav
402,192,79053,1,0,0:0:0:65:jingle.wav
182,192,79053,1,0,0:0:0:25:hihat1.wav
36,192,79053,1,0,0:0:0:0:
109,192,79115,1,0,0:0:0:25:hihat2.wav
256,192,79115,1,0,0:0:0:0:
475,192,79176,1,0,0:0:0:25:hihat2.wav
329,192,79176,1,0,0:0:0:45:kick3.wav
182,192,79176,1,0,0:0:0:0:
329,192,79300,1,0,0:0:0:65:jingle.wav
109,192,79300,1,0,0:0:0:25:hihat2.wav
402,192,79300,1,0,0:0:0:0:
256,192,79362,1,0,0:0:0:0:
36,192,79423,1,0,0:0:0:25:hihat2.wav
402,192,79423,1,0,0:0:0:45:kick2.wav
475,192,79423,1,0,0:0:0:45:kick3.wav
182,192,79423,1,0,0:0:0:0:
109,192,79547,1,0,0:0:0:65:jingle.wav
329,192,79547,1,0,0:0:0:25:hihat1.wav
256,192,79547,1,0,0:0:0:0:
182,192,79609,1,0,0:0:0:25:hihat2.wav
402,192,79609,1,0,0:0:0:0:
475,192,79670,1,0,0:0:0:25:hihat2.wav
36,192,79670,1,0,0:0:0:45:kick3.wav
256,192,79670,1,0,0:0:0:0:
109,192,79794,1,0,0:0:0:65:jingle.wav
402,192,79794,1,0,0:0:0:25:hihat2.wav
329,192,79794,1,0,0:0:0:45:drum2.wav
36,192,79794,1,0,0:0:0:0:
256,192,79855,1,0,0:0:0:0:
36,192,79917,1,0,0:0:0:25:hihat1.wav
475,192,79917,1,0,0:0:0:45:kick3.wav
402,192,79917,1,0,0:0:0:45:drum2.wav
182,192,79917,1,0,0:0:0:0:
329,192,79979,1,0,0:0:0:25:hihat2.wav
475,192,80041,1,0,0:0:0:25:hihat1.wav
256,192,80041,1,0,0:0:0:0:
109,192,80041,1,0,0:0:0:0:
402,192,80102,1,0,0:0:0:25:hihat2.wav
109,192,80164,1,0,0:0:0:25:hihat1.wav
36,192,80164,1,0,0:0:0:45:kick3.wav
329,192,80164,1,0,0:0:0:45:drum2.wav
475,192,80164,1,0,0:0:0:0:
182,192,80226,1,0,0:0:0:0:
402,192,80288,1,0,0:0:0:25:hihat1.wav
256,192,80288,1,0,0:0:0:45:drum2.wav
329,192,80288,1,0,0:0:0:0:
36,192,80288,1,0,0:0:0:0:
109,192,80349,1,0,0:0:0:25:hihat2.wav
475,192,80411,1,0,0:0:0:45:kick3.wav
36,192,80411,1,0,0:0:0:45:kick2.wav
182,192,80411,1,0,0:0:0:0:
329,192,80411,1,0,0:0:0:0:
402,192,80534,1,0,0:0:0:25:hihat1.wav
182,192,80534,1,0,0:0:0:0:
256,192,80534,1,0,0:0:0:0:
329,192,80596,1,0,0:0:0:25:hihat2.wav
109,192,80596,1,0,0:0:0:0:
475,192,80658,1,0,0:0:0:65:jingle.wav
402,192,80658,1,0,0:0:0:25:hihat2.wav
36,192,80658,1,0,0:0:0:45:kick3.wav
182,192,80781,1,0,0:0:0:65:jingle.wav
475,192,80781,1,0,0:0:0:25:hihat2.wav
329,192,80781,1,0,0:0:0:0:
109,192,80843,1,0,0:0:0:0:
475,192,80905,1,0,0:0:0:25:hihat2.wav
36,192,80905,1,0,0:0:0:45:kick3.wav
256,192,80905,1,0,0:0:0:45:drum2.wav
402,192,80905,1,0,0:0:0:0:
109,192,81028,1,0,0:0:0:25:hihat1.wav
256,192,81028,1,0,0:0:0:0:
329,192,81028,1,0,0:0:0:0:
182,192,81090,1,0,0:0:0:25:hihat2.wav
402,192,81090,1,0,0:0:0:0:
475,192,81152,1,0,0:0:0:25:hihat2.wav
36,192,81152,1,0,0:0:0:45:kick3.wav
109,192,81152,1,0,0:0:0:0:
329,192,81275,1,0,0:0:0:65:jingle.wav
182,192,81275,1,0,0:0:0:25:hihat2.wav
36,192,81275,1,0,0:0:0:0:
402,192,81337,1,0,0:0:0:0:
109,192,81399,1,0,0:0:0:25:hihat2.wav
475,192,81399,1,0,0:0:0:45:kick3.wav
36,192,81399,1,0,0:0:0:45:kick2.wav
256,192,81399,1,0,0:0:0:0:
256,192,81522,1,0,0:0:0:65:jingle.wav
182,192,81522,1,0,0:0:0:25:hihat1.wav
402,192,81522,1,0,0:0:0:0:
109,192,81584,1,0,0:0:0:25:hihat2.wav
329,192,81584,1,0,0:0:0:0:
256,192,81646,1,0,0:0:0:25:hihat2.wav
36,192,81646,1,0,0:0:0:45:kick3.wav
475,192,81646,1,0,0:0:0:0:
36,192,81769,1,0,0:0:0:65:jingle.wav
109,192,81769,1,0,0:0:0:25:hihat2.wav
402,192,81769,1,0,0:0:0:45:drum2.wav
475,192,81769,1,0,0:0:0:0:
329,192,81831,1,0,0:0:0:0:
182,192,81892,1,0,0:0:0:25:hihat1.wav
475,192,81892,1,0,0:0:0:45:kick3.wav
109,192,81892,1,0,0:0:0:45:drum2.wav
256,192,81892,1,0,0:0:0:0:
402,192,81954,1,0,0:0:0:25:hihat2.wav
182,192,82016,1,0,0:0:0:65:jingle.wav
109,192,82016,1,0,0:0:0:25:hihat1.wav
36,192,82016,1,0,0:0:0:45:drum2.wav
329,192,82016,1,0,0:0:0:0:
475,192,82078,1,0,0:0:0:25:hihat2.wav
256,192,82139,1,0,0:0:0:25:hihat1.wav
36,192,82139,1,0,0:0:0:45:kick3.wav
329,192,82139,1,0,0:0:0:45:drum1.wav
402,192,82139,1,0,0:0:0:0:
109,192,82201,1,0,0:0:0:0:
182,192,82263,1,0,0:0:0:25:hihat1.wav
402,192,82263,1,0,0:0:0:45:drum2.wav
475,192,82263,1,0,0:0:0:0:
329,192,82263,1,0,0:0:0:0:
36,192,82325,1,0,0:0:0:25:hihat2.wav
475,192,82386,1,0,0:0:0:65:jingle.wav
182,192,82386,1,0,0:0:0:45:crash.wav
256,192,82386,1,0,0:0:0:45:kick3.wav
109,192,82386,1,0,0:0:0:45:drum1.wav
402,192,82386,1,0,0:0:0:45:kick2.wav
256,192,82510,1,0,0:0:0:25:hihat1.wav
36,192,82510,1,0,0:0:0:0:
329,192,82510,1,0,0:0:0:0:
182,192,82571,1,0,0:0:0:25:hihat2.wav
402,192,82571,1,0,0:0:0:0:
109,192,82633,1,0,0:0:0:25:hihat2.wav
475,192,82633,1,0,0:0:0:45:kick3.wav
329,192,82633,1,0,0:0:0:0:
182,192,82757,1,0,0:0:0:65:jingle.wav
402,192,82757,1,0,0:0:0:25:hihat2.wav
36,192,82757,1,0,0:0:0:0:
329,192,82818,1,0,0:0:0:0:
256,192,82880,1,0,0:0:0:25:hihat2.wav
36,192,82880,1,0,0:0:0:45:kick3.wav
475,192,82880,1,0,0:0:0:45:drum2.wav
109,192,82880,1,0,0:0:0:0:
475,192,83004,1,0,0:0:0:25:hihat1.wav
256,192,83004,1,0,0:0:0:0:
182,192,83004,1,0,0:0:0:0:
329,192,83065,1,0,0:0:0:25:hihat2.wav
109,192,83065,1,0,0:0:0:0:
36,192,83127,1,0,0:0:0:65:jingle.wav
182,192,83127,1,0,0:0:0:25:hihat2.wav
402,192,83127,1,0,0:0:0:45:kick3.wav
109,192,83250,1,0,0:0:0:25:hihat2.wav
329,192,83250,1,0,0:0:0:0:
475,192,83250,1,0,0:0:0:0:
182,192,83312,1,0,0:0:0:0:
36,192,83374,1,0,0:0:0:25:hihat2.wav
402,192,83374,1,0,0:0:0:45:kick3.wav
475,192,83374,1,0,0:0:0:45:kick2.wav
256,192,83374,1,0,0:0:0:0:
329,192,83497,1,0,0:0:0:25:hihat1.wav
182,192,83497,1,0,0:0:0:0:
256,192,83497,1,0,0:0:0:0:
475,192,83559,1,0,0:0:0:25:hihat2.wav
36,192,83559,1,0,0:0:0:0:
109,192,83621,1,0,0:0:0:25:hihat2.wav
402,192,83621,1,0,0:0:0:45:kick3.wav
256,192,83621,1,0,0:0:0:0:
109,192,83744,1,0,0:0:0:25:hihat2.wav
329,192,83744,1,0,0:0:0:45:drum2.wav
36,192,83744,1,0,0:0:0:0:
402,192,83744,1,0,0:0:0:0:
182,192,83806,1,0,0:0:0:0:
256,192,83868,1,0,0:0:0:25:hihat1.wav
36,192,83868,1,0,0:0:0:45:kick3.wav
475,192,83868,1,0,0:0:0:45:drum2.wav
329,192,83868,1,0,0:0:0:0:
109,192,83930,1,0,0:0:0:25:hihat2.wav
475,192,83991,1,0,0:0:0:25:hihat1.wav
182,192,83991,1,0,0:0:0:0:
402,192,83991,1,0,0:0:0:0:
329,192,84053,1,0,0:0:0:25:hihat2.wav
256,192,84115,1,0,0:0:0:25:hihat1.wav
475,192,84115,1,0,0:0:0:45:kick3.wav
36,192,84115,1,0,0:0:0:45:drum2.wav
109,192,84115,1,0,0:0:0:0:
402,192,84176,1,0,0:0:0:0:
182,192,84238,1,0,0:0:0:25:hihat1.wav
475,192,84238,1,0,0:0:0:45:drum2.wav
329,192,84238,1,0,0:0:0:0:
36,192,84238,1,0,0:0:0:0:
256,192,84300,1,0,0:0:0:25:hihat2.wav
329,192,84362,1,0,0:0:0:45:kick3.wav
36,192,84362,1,0,0:0:0:45:kick2.wav
402,192,84362,1,0,0:0:0:0:
109,192,84362,1,0,0:0:0:0:
329,192,84485,1,0,0:0:0:25:hihat1.wav
182,192,84485,1,0,0:0:0:0:
256,192,84485,1,0,0:0:0:0:
402,192,84547,1,0,0:0:0:25:hihat2.wav
36,192,84547,1,0,0:0:0:0:
475,192,84609,1,0,0:0:0:25:hihat2.wav
109,192,84609,1,0,0:0:0:45:kick3.wav
256,192,84609,1,0,0:0:0:0:
182,192,84732,1,0,0:0:0:25:hihat2.wav
109,192,84732,1,0,0:0:0:0:
402,192,84732,1,0,0:0:0:0:
256,192,84794,1,0,0:0:0:0:
475,192,84855,1,0,0:0:0:25:hihat2.wav
36,192,84855,1,0,0:0:0:45:kick3.wav
182,192,84855,1,0,0:0:0:45:drum2.wav
329,192,84855,1,0,0:0:0:0:
182,192,84979,1,0,0:0:0:25:hihat1.wav
329,192,84979,1,0,0:0:0:0:
256,192,84979,1,0,0:0:0:0:
109,192,85041,1,0,0:0:0:25:hihat2.wav
475,192,85041,1,0,0:0:0:0:
36,192,85102,1,0,0:0:0:25:hihat2.wav
256,192,85102,1,0,0:0:0:45:kick3.wav
402,192,85102,1,0,0:0:0:0:
109,192,85226,1,0,0:0:0:25:hihat2.wav
402,192,85226,1,0,0:0:0:0:
329,192,85226,1,0,0:0:0:0:
256,192,85288,1,0,0:0:0:0:
475,192,85349,1,0,0:0:0:25:hihat2.wav
182,192,85349,1,0,0:0:0:45:crash.wav
109,192,85349,1,0,0:0:0:45:kick3.wav
329,192,85349,1,0,0:0:0:45:kick2.wav
36,192,85349,1,0,0:0:0:0:
402,192,85473,1,0,0:0:0:25:hihat1.wav
256,192,85473,1,0,0:0:0:0:
109,192,85473,1,0,0:0:0:0:
36,192,85534,1,0,0:0:0:25:hihat2.wav
475,192,85534,1,0,0:0:0:0:
256,192,85596,1,0,0:0:0:25:hihat2.wav
182,192,85596,1,0,0:0:0:0:
329,192,85596,1,0,0:0:0:0:
475,192,85720,1,0,0:0:0:25:hihat2.wav
329,192,85720,1,0,0:0:0:45:drum2.wav
109,192,85720,1,0,0:0:0:0:
402,192,85720,1,0,0:0:0:0:
182,192,85781,1,0,0:0:0:0:
36,192,85843,1,0,0:0:0:25:hihat1.wav
256,192,85843,1,0,0:0:0:45:drum2.wav
475,192,85843,1,0,0:0:0:0:
402,192,85905,1,0,0:0:0:25:hihat2.wav
182,192,85967,1,0,0:0:0:25:hihat1.wav
36,192,85967,1,0,0:0:0:45:drum2.wav
329,192,85967,1,0,0:0:0:0:
109,192,85967,1,0,0:0:0:0:
256,192,86028,1,0,0:0:0:25:hihat2.wav
402,192,86090,1,0,0:0:0:25:hihat1.wav
475,192,86090,1,0,0:0:0:40:drum2.wav
329,192,86090,1,0,0:0:0:0:
109,192,86152,1,0,0:0:0:40:drum2.wav
182,192,86152,1,0,0:0:0:0:
36,192,86152,1,0,0:0:0:0:
329,192,86213,1,0,0:0:0:25:hihat1.wav
402,192,86213,1,0,0:0:0:40:drum2.wav
475,192,86213,1,0,0:0:0:0:
109,192,86275,1,0,0:0:0:25:hihat2.wav
36,192,86275,1,0,0:0:0:40:drum2.wav
182,192,86275,1,0,0:0:0:0:
329,192,86337,1,0,0:0:0:45:kick2.wav
256,192,86337,1,0,0:0:0:45:kick3.wav
475,192,86337,1,0,0:0:0:0:
402,192,86337,1,0,0:0:0:0:
329,192,93497,5,0,0:0:0:50:chi.wav
402,192,93868,1,0,0:0:0:50:chi.wav
329,192,94238,1,0,0:0:0:40:chime.wav
182,192,94238,1,0,0:0:0:40:jingle.wav
36,192,94238,1,0,0:0:0:0:
475,192,94238,1,0,0:0:0:50:chi.wav
109,192,96213,1,0,0:0:0:30:jingle.wav
182,192,96213,1,0,0:0:0:0:
36,192,98189,5,0,0:0:0:30:jingle.wav
109,192,98189,1,0,0:0:0:0:
256,192,99331,5,0,0:0:0:35:chi.wav
182,192,99670,1,0,0:0:0:35:chi.wav
109,192,99994,1,0,0:0:0:35:chi.wav
256,192,100411,1,0,0:0:0:35:chi.wav
329,192,101028,1,0,0:0:0:35:chi.wav
402,192,101800,1,0,0:0:0:35:chi.wav
109,192,102139,1,0,0:0:0:30:jingle.wav
256,192,102139,1,0,0:0:0:0:
36,192,104115,1,0,0:0:0:30:jingle.wav
182,192,104115,1,0,0:0:0:0:
402,192,105102,1,0,0:0:0:35:chi.wav
475,192,105288,1,0,0:0:0:35:chi.wav
329,192,105473,1,0,0:0:0:35:chi.wav
256,192,105689,1,0,0:0:0:35:chi.wav
182,192,105967,1,0,0:0:0:35:chi.wav
329,192,106090,1,0,0:0:0:30:jingle.wav
475,192,106090,1,0,0:0:0:0:
109,192,106460,1,0,0:0:0:35:chi.wav
36,192,108065,1,0,0:0:0:35:chi.wav
109,192,108312,1,0,0:0:0:35:chi.wav
182,192,108621,1,0,0:0:0:35:chi.wav
475,192,108960,1,0,0:0:0:35:chi.wav
402,192,109300,1,0,0:0:0:35:chi.wav
329,192,109670,1,0,0:0:0:35:chi.wav
182,192,110010,1,0,0:0:0:35:chi.wav
36,192,110041,1,0,0:0:0:30:jingle.wav
256,192,110041,1,0,0:0:0:35:chi.wav
402,192,110041,1,0,0:0:0:0:
109,192,112016,1,0,0:0:0:30:jingle.wav
182,192,112016,1,0,0:0:0:0:
256,192,112633,1,0,0:0:0:35:chi.wav
329,192,112880,1,0,0:0:0:35:chi.wav
256,192,113158,1,0,0:0:0:35:chi.wav
182,192,113497,1,0,0:0:0:35:chi.wav
109,192,113883,1,0,0:0:0:35:chi.wav
256,192,113991,1,0,0:0:0:30:jingle.wav
402,192,113991,1,0,0:0:0:0:
36,192,114562,1,0,0:0:0:35:chi.wav
109,192,116831,1,0,0:0:0:35:chi.wav
36,192,117155,1,0,0:0:0:35:chi.wav
182,192,117571,1,0,0:0:0:35:chi.wav
402,192,117942,1,0,0:0:0:30:jingle.wav
256,192,117942,1,0,0:0:0:35:chi.wav
109,192,117942,1,0,0:0:0:0:
182,192,119547,1,0,0:0:0:35:chi.wav
256,192,119732,1,0,0:0:0:35:chi.wav
182,192,119917,1,0,0:0:0:30:jingle.wav
329,192,119917,1,0,0:0:0:35:chi.wav
475,192,119917,1,0,0:0:0:0:
109,192,121152,1,0,0:0:0:35:chi.wav
182,192,121522,1,0,0:0:0:35:chi.wav
36,192,121892,1,0,0:0:0:30:jingle.wav
329,192,121892,1,0,0:0:0:35:chi.wav
256,192,121892,1,0,0:0:0:0:
402,192,122263,1,0,0:0:0:35:chi.wav
182,192,122633,1,0,0:0:0:30:jingle.wav
475,192,122633,1,0,0:0:0:35:chi.wav
256,192,122633,1,0,0:0:0:0:
36,192,125843,5,0,0:0:0:30:jingle.wav
182,192,125843,1,0,0:0:0:35:chi.wav
475,192,125843,1,0,0:0:0:0:
329,192,125843,1,0,0:0:0:25:chime.wav
402,192,126337,1,0,0:0:0:35:chi.wav
475,192,126707,1,0,0:0:0:35:chi.wav
329,192,127078,1,0,0:0:0:35:chi.wav
182,192,127571,1,0,0:0:0:35:chi.wav
256,192,127695,1,0,0:0:0:35:chi.wav
109,192,127818,1,0,0:0:0:30:jingle.wav
402,192,127818,1,0,0:0:0:0:
182,192,128065,1,0,0:0:0:35:chi.wav
109,192,129053,1,0,0:0:0:35:chi.wav
36,192,129176,1,0,0:0:0:35:chi.wav
36,192,129794,1,0,0:0:0:30:jingle.wav
329,192,129794,1,0,0:0:0:0:
182,192,130288,1,0,0:0:0:35:chi.wav
109,192,130534,1,0,0:0:0:30:jingle.wav
402,192,130534,1,0,0:0:0:0:
256,192,130658,1,0,0:0:0:35:chi.wav
329,192,131028,1,0,0:0:0:35:chi.wav
256,192,131460,1,0,0:0:0:35:chi.wav
402,192,131522,1,0,0:0:0:35:chi.wav
475,192,132263,1,0,0:0:0:35:chi.wav
329,192,133004,1,0,0:0:0:35:chi.wav
182,192,133744,1,0,0:0:0:30:jingle.wav
36,192,133744,1,0,0:0:0:0:
402,192,134223,1,0,0:0:0:35:chi.wav
475,192,134269,1,0,0:0:0:35:chi.wav
402,192,134609,1,0,0:0:0:35:chi.wav
329,192,134979,1,0,0:0:0:35:chi.wav
329,192,135689,1,0,0:0:0:35:chi.wav
182,192,135720,1,0,0:0:0:30:jingle.wav
402,192,135720,1,0,0:0:0:35:chi.wav
109,192,135720,1,0,0:0:0:0:
329,192,136090,1,0,0:0:0:35:chi.wav
36,192,136584,1,0,0:0:0:35:chi.wav
109,192,136625,1,0,0:0:0:35:chi.wav
182,192,136666,1,0,0:0:0:35:chi.wav
256,192,136707,1,0,0:0:0:35:chi.wav
182,192,137078,1,0,0:0:0:35:chi.wav
109,192,137325,1,0,0:0:0:35:chi.wav
36,192,137448,1,0,0:0:0:35:chi.wav
182,192,137695,1,0,0:0:0:30:jingle.wav
256,192,137695,1,0,0:0:0:35:chi.wav
475,192,137695,1,0,0:0:0:0:
329,192,138065,1,0,0:0:0:30:jingle.wav
402,192,138405,1,0,0:0:0:30:jingle.wav
475,192,138436,1,0,0:0:0:30:jingle.wav
36,192,138436,1,0,0:0:0:0:
109,192,138652,1,0,0:0:0:35:chi.wav
256,192,138683,1,0,0:0:0:35:chi.wav
402,192,139053,1,0,0:0:0:35:chi.wav
402,192,139423,1,0,0:0:0:35:chi.wav
329,192,139917,1,0,0:0:0:35:chi.wav
182,192,140380,1,0,0:0:0:35:chi.wav
256,192,140411,1,0,0:0:0:35:chi.wav
109,192,140905,1,0,0:0:0:35:chi.wav
36,192,141399,1,0,0:0:0:20:kick2.wav
182,192,141646,1,0,0:0:0:35:jingle.wav
36,192,141646,1,0,0:0:0:30:kick2.wav
329,192,141646,1,0,0:0:0:0:
36,192,141892,1,0,0:0:0:20:kick2.wav
402,192,142139,1,0,0:0:0:40:chi.wav
256,192,142263,1,0,0:0:0:40:chi.wav
402,192,142510,1,0,0:0:0:40:chi.wav
256,192,142757,1,0,0:0:0:40:chi.wav
402,192,142880,1,0,0:0:0:40:chi.wav
256,192,143004,1,0,0:0:0:40:chi.wav
402,192,143250,1,0,0:0:0:40:chi.wav
256,192,143374,1,0,0:0:0:40:chi.wav
109,192,143467,1,0,0:0:0:40:chi.wav
182,192,143497,1,0,0:0:0:40:chi.wav
36,192,143621,1,0,0:0:0:35:jingle.wav
329,192,143621,1,0,0:0:0:0:
256,192,143991,1,0,0:0:0:40:chi.wav
109,192,144238,1,0,0:0:0:40:chi.wav
256,192,144362,1,0,0:0:0:40:chi.wav
109,192,144485,1,0,0:0:0:40:chi.wav
36,192,144732,1,0,0:0:0:40:chi.wav
36,192,145596,1,0,0:0:0:35:jingle.wav
109,192,145596,1,0,0:0:0:0:
256,192,145967,1,0,0:0:0:35:jingle.wav
475,192,146090,1,0,0:0:0:45:chi.wav
329,192,146213,1,0,0:0:0:45:chi.wav
109,192,146337,1,0,0:0:0:35:jingle.wav
182,192,146337,1,0,0:0:0:0:
329,192,146460,1,0,0:0:0:45:chi.wav
475,192,146831,1,0,0:0:0:45:chi.wav
329,192,146954,1,0,0:0:0:45:chi.wav
475,192,147201,1,0,0:0:0:45:chi.wav
36,192,147448,1,0,0:0:0:45:chi.wav
182,192,147571,1,0,0:0:0:45:chi.wav
36,192,147695,1,0,0:0:0:45:chi.wav
182,192,147942,1,0,0:0:0:45:chi.wav
36,192,148189,1,0,0:0:0:45:chi.wav
182,192,148312,1,0,0:0:0:45:chi.wav
36,192,148436,1,0,0:0:0:45:chi.wav
182,192,148683,1,0,0:0:0:45:chi.wav
36,192,148930,1,0,0:0:0:45:chi.wav
182,192,149176,1,0,0:0:0:45:chi.wav
36,192,149300,1,0,0:0:0:25:kick2.wav
329,192,149423,1,0,0:0:0:45:chi.wav
256,192,149547,1,0,0:0:0:40:jingle.wav
36,192,149547,1,0,0:0:0:35:kick2.wav
475,192,149547,1,0,0:0:0:0:
36,192,149794,1,0,0:0:0:25:kick2.wav
329,192,150905,1,0,0:0:0:50:chi.wav
402,192,151275,1,0,0:0:0:50:chi.wav
256,192,151522,1,0,0:0:0:40:jingle.wav
109,192,151522,1,0,0:0:0:0:
182,192,152263,1,0,0:0:0:40:jingle.wav
475,192,152880,1,0,0:0:0:50:chi.wav
402,192,153250,1,0,0:0:0:50:chi.wav
329,192,153497,1,0,0:0:0:40:jingle.wav
182,192,153497,1,0,0:0:0:0:
109,192,154238,1,0,0:0:0:40:jingle.wav
36,192,154732,1,0,0:0:0:40:jingle.wav
256,192,154732,1,0,0:0:0:50:chi.wav
109,192,155102,1,0,0:0:0:40:jingle.wav
329,192,155102,1,0,0:0:0:50:chi.wav
182,192,155473,1,0,0:0:0:40:jingle.wav
402,192,155473,1,0,0:0:0:50:chi.wav
256,192,155473,1,0,0:0:0:0:
475,192,156213,1,0,0:0:0:50:chi.wav
109,192,156460,1,0,0:0:0:40:jingle.wav
36,192,157201,1,0,0:0:0:25:kick2.wav
182,192,157371,1,0,0:0:0:50:chi.wav
475,192,157448,1,0,0:0:0:40:jingle.wav
109,192,157448,1,0,0:0:0:40:chime.wav
36,192,157448,1,0,0:0:0:35:kick2.wav
256,192,157448,1,0,0:0:0:50:chi.wav
329,192,157525,1,0,0:0:0:50:chi.wav
402,192,157602,1,0,0:0:0:50:chi.wav
36,192,157695,1,0,0:0:0:25:kick2.wav
475,192,157726,1,0,0:0:0:50:chi.wav
109,192,160658,5,0,0:0:0:20:kick2.wav
109,192,160781,1,0,0:0:0:20:kick2.wav
256,192,160905,1,0,0:0:0:25:kick2.wav
256,192,161028,1,0,0:0:0:25:kick2.wav
402,192,161152,1,0,0:0:0:30:kick2.wav
402,192,161275,1,0,0:0:0:30:kick2.wav
36,192,161399,1,0,0:0:0:45:kick3.wav
182,192,161399,1,0,0:0:0:35:kick2.wav
256,192,161399,1,0,0:0:0:0:
329,192,161399,1,0,0:0:0:0:
475,192,161399,1,0,0:0:0:0:
109,192,161399,1,0,0:0:0:0:
256,192,161522,1,0,0:0:0:0:
109,192,161522,1,0,0:0:0:0:
402,192,161522,1,0,0:0:0:0:
182,192,161646,1,0,0:0:0:45:kick3.wav
36,192,161646,1,0,0:0:0:45:drum2.wav
475,192,161646,1,0,0:0:0:0:
256,192,161646,1,0,0:0:0:0:
329,192,161646,1,0,0:0:0:0:
109,192,161769,1,0,0:0:0:0:
329,192,161769,1,0,0:0:0:0:
402,192,161769,1,0,0:0:0:0:
182,192,161892,1,0,0:0:0:45:kick3.wav
329,192,161892,1,0,0:0:0:35:kick2.wav
475,192,161892,1,0,0:0:0:0:
36,192,161892,1,0,0:0:0:0:
256,192,161892,1,0,0:0:0:0:
256,192,162016,1,0,0:0:0:45:drum1.wav
182,192,162016,1,0,0:0:0:0:
402,192,162016,1,0,0:0:0:0:
109,192,162016,1,0,0:0:0:0:
36,192,162139,1,0,0:0:0:45:kick3.wav
109,192,162139,1,0,0:0:0:0:
329,192,162139,1,0,0:0:0:0:
475,192,162139,1,0,0:0:0:0:
256,192,162201,1,0,0:0:0:0:
402,192,162263,1,0,0:0:0:45:drum1.wav
182,192,162263,1,0,0:0:0:0:
475,192,162263,1,0,0:0:0:0:
36,192,162263,1,0,0:0:0:0:
329,192,162325,1,0,0:0:0:0:
109,192,162386,1,0,0:0:0:45:kick3.wav
36,192,162386,1,0,0:0:0:35:kick2.wav
256,192,162386,1,0,0:0:0:0:
402,192,162386,1,0,0:0:0:0:
329,192,162510,1,0,0:0:0:0:
182,192,162510,1,0,0:0:0:0:
475,192,162510,1,0,0:0:0:0:
109,192,162633,1,0,0:0:0:45:kick3.wav
402,192,162633,1,0,0:0:0:45:drum2.wav
475,192,162633,1,0,0:0:0:0:
256,192,162633,1,0,0:0:0:0:
36,192,162633,1,0,0:0:0:0:
329,192,162757,1,0,0:0:0:0:
182,192,162757,1,0,0:0:0:0:
36,192,162757,1,0,0:0:0:0:
109,192,162880,1,0,0:0:0:35:kick2.wav
402,192,162880,1,0,0:0:0:45:kick3.wav
36,192,162880,1,0,0:0:0:0:
475,192,162880,1,0,0:0:0:0:
256,192,162880,1,0,0:0:0:0:
329,192,163004,5,0,0:0:0:45:drum1.wav
475,192,163004,1,0,0:0:0:0:
182,192,163004,1,0,0:0:0:0:
109,192,163004,1,0,0:0:0:0:
402,192,163127,1,0,0:0:0:45:kick3.wav
329,192,163127,1,0,0:0:0:0:
256,192,163127,1,0,0:0:0:0:
36,192,163127,1,0,0:0:0:0:
182,192,163189,1,0,0:0:0:0:
109,192,163250,1,0,0:0:0:45:drum1.wav
36,192,163250,1,0,0:0:0:0:
329,192,163250,1,0,0:0:0:0:
475,192,163250,1,0,0:0:0:0:
256,192,163312,1,0,0:0:0:0:
182,192,163374,5,0,0:0:0:45:kick3.wav
402,192,163374,1,0,0:0:0:45:drum2.wav
36,192,163374,1,0,0:0:0:0:
109,192,163374,1,0,0:0:0:0:
475,192,163374,1,0,0:0:0:0:
182,192,163497,1,0,0:0:0:45:kick3.wav
402,192,163497,1,0,0:0:0:45:drum2.wav
109,192,163497,1,0,0:0:0:0:
256,192,163497,1,0,0:0:0:0:
36,192,163621,1,0,0:0:0:45:kick3.wav
329,192,163621,1,0,0:0:0:45:drum2.wav
475,192,163621,1,0,0:0:0:0:
256,192,163621,1,0,0:0:0:0:
182,192,163621,1,0,0:0:0:0:
329,192,163744,1,0,0:0:0:45:kick3.wav
109,192,163744,1,0,0:0:0:45:drum2.wav
402,192,163744,1,0,0:0:0:0:
256,192,163744,1,0,0:0:0:0:
36,192,163868,1,0,0:0:0:45:kick3.wav
182,192,163868,1,0,0:0:0:45:drum2.wav
256,192,163868,1,0,0:0:0:0:
402,192,163868,1,0,0:0:0:0:
109,192,163868,1,0,0:0:0:0:
329,192,163991,1,0,0:0:0:45:kick3.wav
256,192,163991,1,0,0:0:0:45:drum2.wav
182,192,163991,1,0,0:0:0:0:
475,192,163991,1,0,0:0:0:0:
329,192,164115,1,0,0:0:0:45:kick3.wav
36,192,164115,1,0,0:0:0:45:drum2.wav
402,192,164115,1,0,0:0:0:0:
109,192,164115,1,0,0:0:0:0:
256,192,164115,1,0,0:0:0:0:
402,192,164238,1,0,0:0:0:45:kick3.wav
475,192,164238,1,0,0:0:0:45:drum2.wav
182,192,164238,1,0,0:0:0:0:
329,192,164238,1,0,0:0:0:0:
256,192,164362,1,0,0:0:0:40:drum2.wav
402,192,164362,1,0,0:0:0:0:
329,192,164362,1,0,0:0:0:0:
182,192,164423,1,0,0:0:0:40:drum2.wav
109,192,164423,1,0,0:0:0:0:
36,192,164423,1,0,0:0:0:0:
329,192,164485,1,0,0:0:0:40:drum2.wav
402,192,164485,1,0,0:0:0:0:
475,192,164485,1,0,0:0:0:0:
182,192,164547,1,0,0:0:0:40:drum2.wav
256,192,164547,1,0,0:0:0:0:
109,192,164547,1,0,0:0:0:0:
475,192,164609,1,0,0:0:0:40:drum2.wav
402,192,164609,1,0,0:0:0:0:
36,192,164609,1,0,0:0:0:0:
256,192,164670,1,0,0:0:0:40:drum2.wav
329,192,164670,1,0,0:0:0:0:
182,192,164670,1,0,0:0:0:0:
475,192,164732,1,0,0:0:0:40:drum2.wav
36,192,164732,1,0,0:0:0:0:
109,192,164732,1,0,0:0:0:0:
402,192,164794,1,0,0:0:0:40:drum2.wav
329,192,164794,1,0,0:0:0:0:
256,192,164794,1,0,0:0:0:0:
109,192,164855,1,0,0:0:0:40:drum2.wav
36,192,164855,1,0,0:0:0:0:
182,192,164855,1,0,0:0:0:0:
402,192,164917,1,0,0:0:0:40:drum2.wav
475,192,164917,1,0,0:0:0:0:
329,192,164917,1,0,0:0:0:0:
182,192,164979,1,0,0:0:0:35:drum2.wav
109,192,164979,1,0,0:0:0:0:
36,192,164979,1,0,0:0:0:0:
256,192,165010,1,0,0:0:0:35:drum2.wav
329,192,165041,1,0,0:0:0:35:drum2.wav
402,192,165071,1,0,0:0:0:35:drum2.wav
36,192,165102,1,0,0:0:0:40:drum2.wav
475,192,165102,1,0,0:0:0:0:
109,192,165102,1,0,0:0:0:0:
182,192,165164,1,0,0:0:0:40:drum2.wav
329,192,165164,1,0,0:0:0:0:
256,192,165164,1,0,0:0:0:0:
402,192,165226,1,0,0:0:0:30:drum2.wav
36,192,165226,1,0,0:0:0:0:
475,192,165226,1,0,0:0:0:0:
109,192,165246,1,0,0:0:0:30:drum2.wav
182,192,165267,1,0,0:0:0:30:drum2.wav
256,192,165288,1,0,0:0:0:30:drum2.wav
329,192,165308,1,0,0:0:0:30:drum2.wav
402,192,165329,1,0,0:0:0:30:drum2.wav
475,192,165349,1,0,0:0:0:0:
182,192,166213,1,0,0:0:0:0:
182,192,166522,1,0,0:0:0:0:
329,192,166769,1,0,0:0:0:0:
329,192,166923,1,0,0:0:0:0:
256,192,167062,128,0,167325:0:0:0:60:jingle.wav
475,192,167325,5,0,0:0:0:35:drum1.wav
402,192,167325,1,0,0:0:0:0:
182,192,167325,1,0,0:0:0:0:
109,192,167325,1,0,0:0:0:0:
329,192,167325,1,0,0:0:0:0:
256,192,167386,1,0,0:0:0:35:drum1.wav
36,192,167386,1,0,0:0:0:0:
182,192,167448,1,0,0:0:0:35:drum1.wav
402,192,167448,1,0,0:0:0:0:
109,192,167510,1,0,0:0:0:35:drum1.wav
329,192,167510,1,0,0:0:0:0:
256,192,167571,1,0,0:0:0:35:drum1.wav
36,192,167571,1,0,0:0:0:0:
475,192,167571,1,0,0:0:0:0:
402,192,167633,1,0,0:0:0:35:drum1.wav
182,192,167633,1,0,0:0:0:0:
329,192,167695,1,0,0:0:0:35:drum1.wav
109,192,167695,1,0,0:0:0:0:
256,192,167757,1,0,0:0:0:35:drum1.wav
402,192,167757,1,0,0:0:0:0:
36,192,167818,1,0,0:0:0:35:drum1.wav
182,192,167818,1,0,0:0:0:0:
475,192,167818,1,0,0:0:0:0:
329,192,167880,1,0,0:0:0:35:drum1.wav
109,192,167880,1,0,0:0:0:0:
402,192,167942,1,0,0:0:0:35:drum1.wav
182,192,167942,1,0,0:0:0:0:
109,192,168004,1,0,0:0:0:35:drum1.wav
256,192,168004,1,0,0:0:0:0:
36,192,168065,1,0,0:0:0:35:drum1.wav
329,192,168065,1,0,0:0:0:0:
475,192,168065,1,0,0:0:0:0:
402,192,168127,1,0,0:0:0:35:drum1.wav
182,192,168127,1,0,0:0:0:0:
329,192,168189,1,0,0:0:0:35:drum1.wav
109,192,168189,1,0,0:0:0:0:
402,192,168250,1,0,0:0:0:35:drum1.wav
256,192,168250,1,0,0:0:0:0:
475,192,168312,1,0,0:0:0:35:drum1.wav
182,192,168312,1,0,0:0:0:0:
36,192,168312,1,0,0:0:0:0:
109,192,168312,1,0,0:0:0:0:
256,192,168374,1,0,0:0:0:35:drum1.wav
329,192,168374,1,0,0:0:0:0:
182,192,168436,1,0,0:0:0:35:drum1.wav
402,192,168436,1,0,0:0:0:0:
109,192,168497,1,0,0:0:0:35:drum1.wav
329,192,168497,1,0,0:0:0:0:
475,192,168559,1,0,0:0:0:35:drum1.wav
256,192,168559,1,0,0:0:0:0:
36,192,168559,1,0,0:0:0:0:
402,192,168621,1,0,0:0:0:35:drum1.wav
182,192,168621,1,0,0:0:0:0:
329,192,168683,1,0,0:0:0:35:drum1.wav
109,192,168683,1,0,0:0:0:0:
256,192,168744,1,0,0:0:0:35:drum1.wav
182,192,168744,1,0,0:0:0:0:
402,192,168806,1,0,0:0:0:45:kick3.wav
36,192,168806,1,0,0:0:0:35:drum1.wav
109,192,168806,1,0,0:0:0:35:kick2.wav
475,192,168806,1,0,0:0:0:0:
256,192,168868,1,0,0:0:0:0:
329,192,168930,1,0,0:0:0:0:
475,192,168991,1,0,0:0:0:35:kick2.wav
109,192,168991,1,0,0:0:0:45:kick3.wav
36,192,168991,1,0,0:0:0:35:drum1.wav
182,192,168991,1,0,0:0:0:0:
256,192,169053,1,0,0:0:0:0:
182,192,169115,1,0,0:0:0:0:
329,192,169176,1,0,0:0:0:35:kick2.wav
475,192,169176,1,0,0:0:0:45:kick3.wav
36,192,169176,1,0,0:0:0:35:drum1.wav
402,192,169176,1,0,0:0:0:0:
256,192,169238,1,0,0:0:0:0:
36,192,169300,5,0,0:0:0:35:drum1.wav
109,192,169300,1,0,0:0:0:0:
182,192,169300,1,0,0:0:0:0:
402,192,169300,1,0,0:0:0:0:
475,192,169362,1,0,0:0:0:35:drum1.wav
256,192,169362,1,0,0:0:0:0:
329,192,169423,1,0,0:0:0:35:drum1.wav
109,192,169423,1,0,0:0:0:0:
182,192,169485,1,0,0:0:0:35:drum1.wav
402,192,169485,1,0,0:0:0:0:
256,192,169547,1,0,0:0:0:35:drum1.wav
36,192,169547,1,0,0:0:0:0:
475,192,169547,1,0,0:0:0:0:
329,192,169609,1,0,0:0:0:35:drum1.wav
109,192,169609,1,0,0:0:0:0:
402,192,169670,1,0,0:0:0:35:drum1.wav
182,192,169670,1,0,0:0:0:0:
109,192,169732,1,0,0:0:0:35:drum1.wav
256,192,169732,1,0,0:0:0:0:
475,192,169794,1,0,0:0:0:35:drum1.wav
36,192,169794,1,0,0:0:0:0:
329,192,169794,1,0,0:0:0:0:
182,192,169855,1,0,0:0:0:35:drum1.wav
402,192,169855,1,0,0:0:0:0:
109,192,169917,1,0,0:0:0:35:drum1.wav
329,192,169917,1,0,0:0:0:0:
402,192,169979,1,0,0:0:0:35:drum1.wav
256,192,169979,1,0,0:0:0:0:
475,192,170041,1,0,0:0:0:35:drum1.wav
36,192,170041,1,0,0:0:0:0:
182,192,170041,1,0,0:0:0:0:
109,192,170102,1,0,0:0:0:35:drum1.wav
329,192,170102,1,0,0:0:0:0:
182,192,170164,1,0,0:0:0:35:drum1.wav
402,192,170164,1,0,0:0:0:0:
109,192,170226,1,0,0:0:0:35:drum1.wav
256,192,170226,1,0,0:0:0:0:
36,192,170288,1,0,0:0:0:35:drum1.wav
329,192,170288,1,0,0:0:0:0:
475,192,170288,1,0,0:0:0:0:
402,192,170288,1,0,0:0:0:0:
182,192,170349,1,0,0:0:0:35:drum1.wav
256,192,170349,1,0,0:0:0:0:
109,192,170411,1,0,0:0:0:35:drum1.wav
329,192,170411,1,0,0:0:0:0:
182,192,170473,1,0,0:0:0:35:drum1.wav
402,192,170473,1,0,0:0:0:0:
475,192,170534,1,0,0:0:0:35:drum1.wav
36,192,170534,1,0,0:0:0:0:
256,192,170534,1,0,0:0:0:0:
109,192,170596,1,0,0:0:0:35:drum1.wav
329,192,170596,1,0,0:0:0:0:
402,192,170658,1,0,0:0:0:35:drum1.wav
182,192,170658,1,0,0:0:0:0:
475,192,170720,1,0,0:0:0:35:drum1.wav
256,192,170720,1,0,0:0:0:0:
36,192,170781,1,0,0:0:0:45:kick3.wav
182,192,170781,1,0,0:0:0:35:drum1.wav
329,192,170781,1,0,0:0:0:35:kick2.wav
109,192,170781,1,0,0:0:0:0:
402,192,170843,1,0,0:0:0:0:
256,192,170905,1,0,0:0:0:0:
182,192,170905,1,0,0:0:0:0:
109,192,170967,1,0,0:0:0:0:
36,192,171028,1,0,0:0:0:45:kick3.wav
402,192,171028,1,0,0:0:0:35:drum1.wav
475,192,171028,1,0,0:0:0:35:kick2.wav
329,192,171028,1,0,0:0:0:0:
182,192,171090,1,0,0:0:0:0:
329,192,171152,1,0,0:0:0:0:
256,192,171152,1,0,0:0:0:0:
402,192,171213,1,0,0:0:0:0:
475,192,171275,1,0,0:0:0:35:drum1.wav
36,192,171275,1,0,0:0:0:0:
256,192,171275,1,0,0:0:0:0:
109,192,171275,1,0,0:0:0:0:
402,192,171337,1,0,0:0:0:35:drum1.wav
182,192,171337,1,0,0:0:0:0:
329,192,171399,1,0,0:0:0:35:drum1.wav
109,192,171399,1,0,0:0:0:0:
256,192,171460,1,0,0:0:0:35:drum1.wav
36,192,171460,1,0,0:0:0:0:
475,192,171522,1,0,0:0:0:35:drum1.wav
402,192,171522,1,0,0:0:0:0:
182,192,171522,1,0,0:0:0:0:
329,192,171584,1,0,0:0:0:35:drum1.wav
109,192,171584,1,0,0:0:0:0:
256,192,171646,1,0,0:0:0:35:drum1.wav
402,192,171646,1,0,0:0:0:0:
182,192,171707,1,0,0:0:0:35:drum1.wav
109,192,171707,1,0,0:0:0:0:
475,192,171769,1,0,0:0:0:35:drum1.wav
36,192,171769,1,0,0:0:0:0:
256,192,171769,1,0,0:0:0:0:
402,192,171831,1,0,0:0:0:35:drum1.wav
182,192,171831,1,0,0:0:0:0:
109,192,171892,1,0,0:0:0:35:drum1.wav
329,192,171892,1,0,0:0:0:0:
256,192,171954,1,0,0:0:0:35:drum1.wav
36,192,171954,1,0,0:0:0:0:
475,192,172016,1,0,0:0:0:35:drum1.wav
182,192,172016,1,0,0:0:0:0:
402,192,172016,1,0,0:0:0:0:
109,192,172078,1,0,0:0:0:35:drum1.wav
329,192,172078,1,0,0:0:0:0:
256,192,172139,1,0,0:0:0:35:drum1.wav
402,192,172139,1,0,0:0:0:0:
109,192,172201,1,0,0:0:0:35:drum1.wav
182,192,172201,1,0,0:0:0:0:
402,192,172263,1,0,0:0:0:35:drum1.wav
329,192,172263,1,0,0:0:0:0:
36,192,172263,1,0,0:0:0:0:
475,192,172263,1,0,0:0:0:0:
182,192,172325,1,0,0:0:0:35:drum1.wav
256,192,172325,1,0,0:0:0:0:
109,192,172386,1,0,0:0:0:35:drum1.wav
402,192,172386,1,0,0:0:0:0:
329,192,172448,1,0,0:0:0:35:drum1.wav
36,192,172448,1,0,0:0:0:0:
256,192,172510,1,0,0:0:0:35:drum1.wav
182,192,172510,1,0,0:0:0:0:
475,192,172510,1,0,0:0:0:0:
402,192,172571,1,0,0:0:0:35:drum1.wav
109,192,172571,1,0,0:0:0:0:
36,192,172633,1,0,0:0:0:35:drum1.wav
329,192,172633,1,0,0:0:0:0:
402,192,172695,1,0,0:0:0:35:drum1.wav
256,192,172695,1,0,0:0:0:0:
182,192,172757,1,0,0:0:0:45:kick3.wav
36,192,172757,1,0,0:0:0:35:drum1.wav
475,192,172757,1,0,0:0:0:35:kick2.wav
109,192,172757,1,0,0:0:0:0:
329,192,172818,1,0,0:0:0:0:
109,192,172880,1,0,0:0:0:35:drum1.wav
402,192,172880,1,0,0:0:0:0:
36,192,172942,1,0,0:0:0:45:kick3.wav
475,192,172942,1,0,0:0:0:35:drum1.wav
329,192,172942,1,0,0:0:0:35:kick2.wav
256,192,172942,1,0,0:0:0:0:
182,192,173004,1,0,0:0:0:0:
475,192,173065,1,0,0:0:0:35:drum1.wav
402,192,173065,1,0,0:0:0:0:
256,192,173127,1,0,0:0:0:45:kick3.wav
329,192,173127,1,0,0:0:0:35:drum1.wav
109,192,173127,1,0,0:0:0:35:kick2.wav
36,192,173127,1,0,0:0:0:0:
182,192,173189,1,0,0:0:0:0:
36,192,173250,1,0,0:0:0:35:drum1.wav
475,192,173250,1,0,0:0:0:0:
402,192,173250,1,0,0:0:0:0:
256,192,173250,1,0,0:0:0:0:
109,192,173312,1,0,0:0:0:35:drum1.wav
329,192,173312,1,0,0:0:0:0:
182,192,173374,1,0,0:0:0:35:drum1.wav
402,192,173374,1,0,0:0:0:0:
256,192,173436,1,0,0:0:0:35:drum1.wav
475,192,173436,1,0,0:0:0:0:
36,192,173497,1,0,0:0:0:35:drum1.wav
109,192,173497,1,0,0:0:0:0:
329,192,173497,1,0,0:0:0:0:
402,192,173559,1,0,0:0:0:35:drum1.wav
182,192,173559,1,0,0:0:0:0:
256,192,173621,1,0,0:0:0:35:drum1.wav
109,192,173621,1,0,0:0:0:0:
329,192,173683,1,0,0:0:0:35:drum1.wav
402,192,173683,1,0,0:0:0:0:
36,192,173744,1,0,0:0:0:35:drum1.wav
475,192,173744,1,0,0:0:0:0:
256,192,173744,1,0,0:0:0:0:
329,192,173806,1,0,0:0:0:35:drum1.wav
109,192,173806,1,0,0:0:0:0:
182,192,173868,1,0,0:0:0:35:drum1.wav
402,192,173868,1,0,0:0:0:0:
256,192,173930,1,0,0:0:0:35:drum1.wav
475,192,173930,1,0,0:0:0:0:
109,192,173991,1,0,0:0:0:35:drum1.wav
329,192,173991,1,0,0:0:0:0:
36,192,173991,1,0,0:0:0:0:
402,192,174053,1,0,0:0:0:35:drum1.wav
182,192,174053,1,0,0:0:0:0:
256,192,174115,1,0,0:0:0:35:drum1.wav
109,192,174115,1,0,0:0:0:0:
402,192,174176,1,0,0:0:0:35:drum1.wav
329,192,174176,1,0,0:0:0:0:
256,192,174238,1,0,0:0:0:35:drum1.wav
36,192,174238,1,0,0:0:0:0:
182,192,174238,1,0,0:0:0:0:
475,192,174238,1,0,0:0:0:0:
329,192,174300,1,0,0:0:0:35:drum1.wav
109,192,174300,1,0,0:0:0:0:
182,192,174362,1,0,0:0:0:35:drum1.wav
402,192,174362,1,0,0:0:0:0:
109,192,174423,1,0,0:0:0:35:drum1.wav
256,192,174423,1,0,0:0:0:0:
402,192,174485,1,0,0:0:0:35:drum1.wav
36,192,174485,1,0,0:0:0:0:
475,192,174485,1,0,0:0:0:0:
329,192,174547,1,0,0:0:0:35:drum1.wav
182,192,174547,1,0,0:0:0:0:
109,192,174609,1,0,0:0:0:35:drum1.wav
475,192,174609,1,0,0:0:0:0:
402,192,174670,1,0,0:0:0:35:drum1.wav
256,192,174670,1,0,0:0:0:0:
109,192,174732,1,0,0:0:0:45:kick3.wav
36,192,174732,1,0,0:0:0:35:drum1.wav
329,192,174732,1,0,0:0:0:35:kick2.wav
182,192,174732,1,0,0:0:0:0:
402,192,174794,1,0,0:0:0:0:
475,192,174855,1,0,0:0:0:30:drum1.wav
36,192,174855,1,0,0:0:0:0:
109,192,174886,1,0,0:0:0:30:drum1.wav
182,192,174917,1,0,0:0:0:30:drum1.wav
256,192,174948,1,0,0:0:0:30:drum1.wav
475,192,174979,1,0,0:0:0:45:kick3.wav
329,192,174979,1,0,0:0:0:35:drum1.wav
402,192,174979,1,0,0:0:0:35:kick2.wav
109,192,175041,1,0,0:0:0:0:
36,192,175102,1,0,0:0:0:25:drum1.wav
475,192,175102,1,0,0:0:0:0:
402,192,175123,1,0,0:0:0:25:drum1.wav
329,192,175143,1,0,0:0:0:25:drum1.wav
256,192,175164,1,0,0:0:0:25:drum1.wav
182,192,175185,1,0,0:0:0:25:drum1.wav
109,192,175205,1,0,0:0:0:25:drum1.wav
36,192,175226,1,0,0:0:0:35:drum1.wav
402,192,175226,1,0,0:0:0:0:
475,192,175226,1,0,0:0:0:0:
329,192,175288,1,0,0:0:0:35:drum1.wav
256,192,175288,1,0,0:0:0:0:
182,192,175349,1,0,0:0:0:35:drum1.wav
402,192,175349,1,0,0:0:0:0:
329,192,175411,1,0,0:0:0:35:drum1.wav
109,192,175411,1,0,0:0:0:0:
256,192,175473,1,0,0:0:0:35:drum1.wav
475,192,175473,1,0,0:0:0:0:
36,192,175473,1,0,0:0:0:0:
402,192,175534,1,0,0:0:0:35:drum1.wav
182,192,175534,1,0,0:0:0:0:
329,192,175596,1,0,0:0:0:35:drum1.wav
109,192,175596,1,0,0:0:0:0:
402,192,175658,1,0,0:0:0:35:drum1.wav
182,192,175658,1,0,0:0:0:0:
36,192,175720,1,0,0:0:0:35:drum1.wav
256,192,175720,1,0,0:0:0:0:
475,192,175720,1,0,0:0:0:0:
329,192,175781,1,0,0:0:0:35:drum1.wav
109,192,175781,1,0,0:0:0:0:
182,192,175843,1,0,0:0:0:35:drum1.wav
402,192,175843,1,0,0:0:0:0:
329,192,175905,1,0,0:0:0:35:drum1.wav
109,192,175905,1,0,0:0:0:0:
475,192,175967,1,0,0:0:0:35:drum1.wav
256,192,175967,1,0,0:0:0:0:
36,192,175967,1,0,0:0:0:0:
182,192,176028,1,0,0:0:0:35:drum1.wav
402,192,176028,1,0,0:0:0:0:
329,192,176090,1,0,0:0:0:35:drum1.wav
109,192,176090,1,0,0:0:0:0:
402,192,176152,1,0,0:0:0:35:drum1.wav
182,192,176152,1,0,0:0:0:0:
475,192,176213,1,0,0:0:0:35:drum1.wav
256,192,176213,1,0,0:0:0:0:
109,192,176213,1,0,0:0:0:0:
36,192,176213,1,0,0:0:0:0:
402,192,176275,1,0,0:0:0:35:drum1.wav
329,192,176275,1,0,0:0:0:0:
109,192,176337,1,0,0:0:0:35:drum1.wav
182,192,176337,1,0,0:0:0:0:
329,192,176399,1,0,0:0:0:35:drum1.wav
256,192,176399,1,0,0:0:0:0:
402,192,176460,1,0,0:0:0:35:drum1.wav
36,192,176460,1,0,0:0:0:0:
475,192,176460,1,0,0:0:0:0:
182,192,176522,1,0,0:0:0:35:drum1.wav
109,192,176522,1,0,0:0:0:0:
329,192,176584,1,0,0:0:0:35:drum1.wav
402,192,176584,1,0,0:0:0:0:
256,192,176646,1,0,0:0:0:35:drum1.wav
182,192,176646,1,0,0:0:0:0:
109,192,176707,1,0,0:0:0:45:kick3.wav
329,192,176707,1,0,0:0:0:35:drum1.wav
475,192,176707,1,0,0:0:0:35:kick2.wav
36,192,176707,1,0,0:0:0:0:
256,192,176769,1,0,0:0:0:0:
182,192,176831,1,0,0:0:0:0:
109,192,176892,1,0,0:0:0:35:drum1.wav
36,192,176892,1,0,0:0:0:45:kick3.wav
402,192,176892,1,0,0:0:0:35:kick2.wav
329,192,176892,1,0,0:0:0:0:
256,192,176954,1,0,0:0:0:0:
329,192,177016,1,0,0:0:0:0:
475,192,177078,1,0,0:0:0:35:drum1.wav
182,192,177078,1,0,0:0:0:45:kick3.wav
402,192,177078,1,0,0:0:0:35:kick2.wav
109,192,177078,1,0,0:0:0:0:
256,192,177139,1,0,0:0:0:0:
475,192,177201,1,0,0:0:0:35:drum1.wav
36,192,177201,1,0,0:0:0:0:
329,192,177201,1,0,0:0:0:0:
182,192,177201,1,0,0:0:0:0:
109,192,177263,1,0,0:0:0:35:drum1.wav
402,192,177263,1,0,0:0:0:0:
182,192,177325,1,0,0:0:0:35:drum1.wav
329,192,177325,1,0,0:0:0:0:
109,192,177386,1,0,0:0:0:35:drum1.wav
402,192,177386,1,0,0:0:0:0:
36,192,177448,1,0,0:0:0:35:drum1.wav
475,192,177448,1,0,0:0:0:0:
256,192,177448,1,0,0:0:0:0:
182,192,177510,1,0,0:0:0:35:drum1.wav
329,192,177510,1,0,0:0:0:0:
109,192,177571,1,0,0:0:0:35:drum1.wav
402,192,177571,1,0,0:0:0:0:
329,192,177633,1,0,0:0:0:35:drum1.wav
182,192,177633,1,0,0:0:0:0:
36,192,177695,1,0,0:0:0:35:drum1.wav
475,192,177695,1,0,0:0:0:0:
256,192,177695,1,0,0:0:0:0:
402,192,177757,1,0,0:0:0:35:drum1.wav
109,192,177757,1,0,0:0:0:0:
329,192,177818,1,0,0:0:0:35:drum1.wav
182,192,177818,1,0,0:0:0:0:
109,192,177880,1,0,0:0:0:35:drum1.wav
402,192,177880,1,0,0:0:0:0:
475,192,177942,1,0,0:0:0:35:drum1.wav
36,192,177942,1,0,0:0:0:0:
256,192,177942,1,0,0:0:0:0:
329,192,178004,1,0,0:0:0:35:drum1.wav
182,192,178004,1,0,0:0:0:0:
402,192,178065,1,0,0:0:0:35:drum1.wav
109,192,178065,1,0,0:0:0:0:
329,192,178127,1,0,0:0:0:35:drum1.wav
182,192,178127,1,0,0:0:0:0:
475,192,178189,1,0,0:0:0:35:drum1.wav
36,192,178189,1,0,0:0:0:0:
256,192,178189,1,0,0:0:0:0:
402,192,178189,1,0,0:0:0:0:
109,192,178250,1,0,0:0:0:35:drum1.wav
182,192,178250,1,0,0:0:0:0:
329,192,178312,1,0,0:0:0:35:drum1.wav
402,192,178312,1,0,0:0:0:0:
182,192,178374,1,0,0:0:0:35:drum1.wav
256,192,178374,1,0,0:0:0:0:
475,192,178436,1,0,0:0:0:35:drum1.wav
36,192,178436,1,0,0:0:0:0:
109,192,178436,1,0,0:0:0:0:
402,192,178497,1,0,0:0:0:35:drum1.wav
329,192,178497,1,0,0:0:0:0:
109,192,178559,1,0,0:0:0:35:drum1.wav
182,192,178559,1,0,0:0:0:0:
329,192,178621,1,0,0:0:0:35:drum1.wav
256,192,178621,1,0,0:0:0:0:
182,192,178683,1,0,0:0:0:45:kick3.wav
475,192,178683,1,0,0:0:0:35:drum1.wav
402,192,178683,1,0,0:0:0:35:kick2.wav
36,192,178683,1,0,0:0:0:0:
109,192,178744,1,0,0:0:0:0:
402,192,178806,1,0,0:0:0:0:
182,192,178806,1,0,0:0:0:0:
256,192,178868,1,0,0:0:0:0:
36,192,178930,1,0,0:0:0:45:kick3.wav
475,192,178930,1,0,0:0:0:35:drum1.wav
329,192,178930,1,0,0:0:0:35:kick2.wav
109,192,178930,1,0,0:0:0:0:
402,192,178991,1,0,0:0:0:0:
329,192,179053,1,0,0:0:0:0:
109,192,179053,1,0,0:0:0:0:
256,192,179115,1,0,0:0:0:0:
36,192,179176,1,0,0:0:0:35:drum1.wav
402,192,179176,1,0,0:0:0:0:
182,192,179176,1,0,0:0:0:0:
475,192,179176,1,0,0:0:0:0:
329,192,179238,1,0,0:0:0:35:drum1.wav
109,192,179238,1,0,0:0:0:0:
182,192,179300,1,0,0:0:0:35:drum1.wav
402,192,179300,1,0,0:0:0:0:
109,192,179362,1,0,0:0:0:35:drum1.wav
256,192,179362,1,0,0:0:0:0:
475,192,179423,1,0,0:0:0:35:drum1.wav
329,192,179423,1,0,0:0:0:0:
36,192,179423,1,0,0:0:0:0:
402,192,179485,1,0,0:0:0:35:drum1.wav
182,192,179485,1,0,0:0:0:0:
329,192,179547,1,0,0:0:0:35:drum1.wav
109,192,179547,1,0,0:0:0:0:
256,192,179609,1,0,0:0:0:35:drum1.wav
402,192,179609,1,0,0:0:0:0:
36,192,179670,1,0,0:0:0:35:drum1.wav
182,192,179670,1,0,0:0:0:0:
475,192,179670,1,0,0:0:0:0:
329,192,179732,1,0,0:0:0:35:drum1.wav
109,192,179732,1,0,0:0:0:0:
182,192,179794,1,0,0:0:0:35:drum1.wav
402,192,179794,1,0,0:0:0:0:
256,192,179855,1,0,0:0:0:35:drum1.wav
109,192,179855,1,0,0:0:0:0:
329,192,179917,1,0,0:0:0:35:drum1.wav
475,192,179917,1,0,0:0:0:0:
36,192,179917,1,0,0:0:0:0:
402,192,179979,1,0,0:0:0:35:drum1.wav
182,192,179979,1,0,0:0:0:0:
329,192,180041,1,0,0:0:0:35:drum1.wav
109,192,180041,1,0,0:0:0:0:
402,192,180102,1,0,0:0:0:35:drum1.wav
256,192,180102,1,0,0:0:0:0:
182,192,180164,1,0,0:0:0:35:drum1.wav
109,192,180164,1,0,0:0:0:0:
475,192,180164,1,0,0:0:0:0:
36,192,180164,1,0,0:0:0:0:
402,192,180226,1,0,0:0:0:35:drum1.wav
329,192,180226,1,0,0:0:0:0:
182,192,180288,1,0,0:0:0:35:drum1.wav
109,192,180288,1,0,0:0:0:0:
329,192,180349,1,0,0:0:0:35:drum1.wav
256,192,180349,1,0,0:0:0:0:
402,192,180411,1,0,0:0:0:35:drum1.wav
36,192,180411,1,0,0:0:0:0:
475,192,180411,1,0,0:0:0:0:
256,192,180473,1,0,0:0:0:35:drum1.wav
182,192,180473,1,0,0:0:0:0:
329,192,180534,1,0,0:0:0:35:drum1.wav
402,192,180534,1,0,0:0:0:0:
182,192,180596,1,0,0:0:0:35:drum1.wav
109,192,180596,1,0,0:0:0:0:
36,192,180658,1,0,0:0:0:35:drum1.wav
402,192,180658,1,0,0:0:0:0:
475,192,180658,1,0,0:0:0:0:
329,192,180720,1,0,0:0:0:45:kick3.wav
182,192,180720,1,0,0:0:0:35:drum1.wav
256,192,180720,1,0,0:0:0:35:kick2.wav
109,192,180781,1,0,0:0:0:0:
36,192,180843,1,0,0:0:0:45:kick3.wav
329,192,180843,1,0,0:0:0:35:drum1.wav
475,192,180843,1,0,0:0:0:35:kick2.wav
182,192,180905,1,0,0:0:0:0:
402,192,180967,1,0,0:0:0:35:drum1.wav
256,192,180967,1,0,0:0:0:0:
475,192,181028,1,0,0:0:0:35:kick2.wav
36,192,181028,1,0,0:0:0:45:kick3.wav
109,192,181028,1,0,0:0:0:35:drum1.wav
329,192,181028,1,0,0:0:0:0:
182,192,181090,1,0,0:0:0:0:
256,192,181152,1,0,0:0:0:35:drum1.wav
475,192,181152,1,0,0:0:0:0:
402,192,181152,1,0,0:0:0:0:
36,192,181152,1,0,0:0:0:0:
109,192,181213,1,0,0:0:0:35:drum1.wav
329,192,181213,1,0,0:0:0:0:
402,192,181275,1,0,0:0:0:35:drum1.wav
182,192,181275,1,0,0:0:0:0:
256,192,181337,1,0,0:0:0:35:drum1.wav
475,192,181337,1,0,0:0:0:0:
36,192,181399,1,0,0:0:0:35:drum1.wav
109,192,181399,1,0,0:0:0:0:
329,192,181399,1,0,0:0:0:0:
182,192,181460,1,0,0:0:0:35:drum1.wav
402,192,181460,1,0,0:0:0:0:
109,192,181522,1,0,0:0:0:35:drum1.wav
329,192,181522,1,0,0:0:0:0:
256,192,181584,1,0,0:0:0:35:drum1.wav
36,192,181584,1,0,0:0:0:0:
475,192,181646,1,0,0:0:0:35:drum1.wav
182,192,181646,1,0,0:0:0:0:
402,192,181646,1,0,0:0:0:0:
329,192,181707,1,0,0:0:0:35:drum1.wav
109,192,181707,1,0,0:0:0:0:
402,192,181769,1,0,0:0:0:35:drum1.wav
182,192,181769,1,0,0:0:0:0:
256,192,181831,1,0,0:0:0:35:drum1.wav
475,192,181831,1,0,0:0:0:0:
36,192,181892,1,0,0:0:0:35:drum1.wav
329,192,181892,1,0,0:0:0:0:
109,192,181892,1,0,0:0:0:0:
402,192,181954,1,0,0:0:0:35:drum1.wav
182,192,181954,1,0,0:0:0:0:
329,192,182016,1,0,0:0:0:35:drum1.wav
109,192,182016,1,0,0:0:0:0:
256,192,182078,1,0,0:0:0:35:drum1.wav
36,192,182078,1,0,0:0:0:0:
475,192,182139,1,0,0:0:0:35:drum1.wav
182,192,182139,1,0,0:0:0:0:
329,192,182139,1,0,0:0:0:0:
402,192,182139,1,0,0:0:0:0:
256,192,182201,1,0,0:0:0:35:drum1.wav
109,192,182201,1,0,0:0:0:0:
402,192,182263,1,0,0:0:0:35:drum1.wav
36,192,182263,1,0,0:0:0:0:
182,192,182325,1,0,0:0:0:35:drum1.wav
329,192,182325,1,0,0:0:0:0:
475,192,182386,1,0,0:0:0:35:drum1.wav
36,192,182386,1,0,0:0:0:0:
109,192,182386,1,0,0:0:0:0:
402,192,182448,1,0,0:0:0:35:drum1.wav
256,192,182448,1,0,0:0:0:0:
109,192,182510,1,0,0:0:0:35:drum1.wav
182,192,182510,1,0,0:0:0:0:
329,192,182571,1,0,0:0:0:35:drum1.wav
402,192,182571,1,0,0:0:0:0:
182,192,182633,1,0,0:0:0:30:drum1.wav
109,192,182633,1,0,0:0:0:0:
36,192,182633,1,0,0:0:0:0:
475,192,182633,1,0,0:0:0:0:
256,192,182664,1,0,0:0:0:30:drum1.wav
329,192,182695,1,0,0:0:0:30:drum1.wav
402,192,182726,1,0,0:0:0:30:drum1.wav
36,192,182757,1,0,0:0:0:25:drum1.wav
109,192,182757,1,0,0:0:0:0:
475,192,182757,1,0,0:0:0:0:
182,192,182777,1,0,0:0:0:25:drum1.wav
256,192,182798,1,0,0:0:0:25:drum1.wav
329,192,182818,1,0,0:0:0:30:drum1.wav
402,192,182849,1,0,0:0:0:30:drum1.wav
36,192,182880,1,0,0:0:0:25:drum1.wav
475,192,182880,1,0,0:0:0:0:
109,192,182901,1,0,0:0:0:25:drum1.wav
182,192,182921,1,0,0:0:0:25:drum1.wav
256,192,182942,1,0,0:0:0:25:drum1.wav
329,192,182962,1,0,0:0:0:25:drum1.wav
402,192,182983,1,0,0:0:0:25:drum1.wav
475,192,183004,1,0,0:0:0:20:drum1.wav
36,192,183019,1,0,0:0:0:20:drum1.wav
109,192,183034,1,0,0:0:0:20:drum1.wav
182,192,183050,1,0,0:0:0:20:drum1.wav
256,192,183065,1,0,0:0:0:20:drum1.wav
329,192,183081,1,0,0:0:0:20:drum1.wav
402,192,183096,1,0,0:0:0:20:drum1.wav
475,192,183112,1,0,0:0:0:20:drum1.wav
36,192,183127,1,0,0:0:0:65:jingle.wav
109,192,183189,1,0,0:0:0:65:jingle.wav
182,192,183250,1,0,0:0:0:65:jingle.wav
256,192,183312,1,0,0:0:0:65:jingle.wav
329,192,183374,1,0,0:0:0:65:jingle.wav
402,192,183456,1,0,0:0:0:65:jingle.wav
475,192,183539,1,0,0:0:0:65:jingle.wav
109,192,183621,1,0,0:0:0:65:jingle.wav
182,192,183621,1,0,0:0:0:35:drum1.wav
256,192,183621,1,0,0:0:0:0:
329,192,183621,1,0,0:0:0:0:
402,192,183683,1,0,0:0:0:35:drum1.wav
36,192,183683,1,0,0:0:0:0:
182,192,183744,1,0,0:0:0:35:drum1.wav
475,192,183744,1,0,0:0:0:0:
109,192,183806,1,0,0:0:0:35:drum1.wav
329,192,183806,1,0,0:0:0:0:
36,192,183868,1,0,0:0:0:35:drum1.wav
475,192,183868,1,0,0:0:0:0:
256,192,183868,1,0,0:0:0:0:
182,192,183930,1,0,0:0:0:35:drum1.wav
402,192,183930,1,0,0:0:0:0:
329,192,183991,1,0,0:0:0:35:drum1.wav
36,192,183991,1,0,0:0:0:0:
475,192,184053,1,0,0:0:0:35:drum1.wav
109,192,184053,1,0,0:0:0:0:
256,192,184115,1,0,0:0:0:35:drum1.wav
182,192,184115,1,0,0:0:0:0:
402,192,184115,1,0,0:0:0:0:
329,192,184115,1,0,0:0:0:0:
109,192,184176,1,0,0:0:0:35:drum1.wav
475,192,184176,1,0,0:0:0:0:
36,192,184238,1,0,0:0:0:35:drum1.wav
329,192,184238,1,0,0:0:0:0:
182,192,184300,1,0,0:0:0:35:drum1.wav
402,192,184300,1,0,0:0:0:0:
36,192,184362,1,0,0:0:0:35:drum1.wav
256,192,184362,1,0,0:0:0:0:
475,192,184362,1,0,0:0:0:0:
109,192,184423,1,0,0:0:0:35:drum1.wav
329,192,184423,1,0,0:0:0:0:
182,192,184485,1,0,0:0:0:35:drum1.wav
475,192,184485,1,0,0:0:0:0:
402,192,184547,1,0,0:0:0:35:drum1.wav
36,192,184547,1,0,0:0:0:0:
329,192,184609,1,0,0:0:0:65:jingle.wav
256,192,184609,1,0,0:0:0:45:kick3.wav
182,192,184609,1,0,0:0:0:35:drum1.wav
109,192,184609,1,0,0:0:0:35:kick2.wav
402,192,184670,1,0,0:0:0:65:jingle.wav
475,192,184670,1,0,0:0:0:0:
36,192,184732,1,0,0:0:0:0:
256,192,184794,1,0,0:0:0:45:kick3.wav
329,192,184794,1,0,0:0:0:35:drum1.wav
475,192,184794,1,0,0:0:0:35:kick2.wav
182,192,184794,1,0,0:0:0:0:
109,192,184855,1,0,0:0:0:0:
256,192,184917,1,0,0:0:0:0:
36,192,184979,1,0,0:0:0:45:kick3.wav
329,192,184979,1,0,0:0:0:35:drum1.wav
402,192,184979,1,0,0:0:0:35:kick2.wav
109,192,184979,1,0,0:0:0:65:jingle.wav
182,192,185041,1,0,0:0:0:0:
256,192,185102,1,0,0:0:0:35:drum1.wav
475,192,185102,1,0,0:0:0:0:
36,192,185102,1,0,0:0:0:0:
402,192,185102,1,0,0:0:0:0:
109,192,185164,1,0,0:0:0:35:drum1.wav
329,192,185164,1,0,0:0:0:0:
182,192,185226,1,0,0:0:0:35:drum1.wav
402,192,185226,1,0,0:0:0:0:
475,192,185288,1,0,0:0:0:35:drum1.wav
256,192,185288,1,0,0:0:0:0:
36,192,185349,1,0,0:0:0:65:jingle.wav
109,192,185349,1,0,0:0:0:35:drum1.wav
329,192,185349,1,0,0:0:0:0:
182,192,185349,1,0,0:0:0:0:
256,192,185411,1,0,0:0:0:35:drum1.wav
475,192,185411,1,0,0:0:0:0:
182,192,185473,1,0,0:0:0:35:drum1.wav
402,192,185473,1,0,0:0:0:0:
329,192,185534,1,0,0:0:0:35:drum1.wav
109,192,185534,1,0,0:0:0:0:
256,192,185596,1,0,0:0:0:35:drum1.wav
36,192,185596,1,0,0:0:0:0:
475,192,185596,1,0,0:0:0:0:
329,192,185658,1,0,0:0:0:35:drum1.wav
109,192,185658,1,0,0:0:0:0:
182,192,185720,1,0,0:0:0:35:drum1.wav
402,192,185720,1,0,0:0:0:0:
475,192,185781,1,0,0:0:0:35:drum1.wav
256,192,185781,1,0,0:0:0:0:
329,192,185843,1,0,0:0:0:35:drum1.wav
36,192,185843,1,0,0:0:0:0:
109,192,185843,1,0,0:0:0:0:
256,192,185905,1,0,0:0:0:35:drum1.wav
475,192,185905,1,0,0:0:0:0:
182,192,185967,1,0,0:0:0:35:drum1.wav
402,192,185967,1,0,0:0:0:0:
109,192,186028,1,0,0:0:0:35:drum1.wav
329,192,186028,1,0,0:0:0:0:
36,192,186090,1,0,0:0:0:65:jingle.wav
475,192,186090,1,0,0:0:0:35:drum1.wav
402,192,186090,1,0,0:0:0:0:
256,192,186090,1,0,0:0:0:0:
109,192,186152,1,0,0:0:0:35:drum1.wav
182,192,186152,1,0,0:0:0:0:
36,192,186213,1,0,0:0:0:65:jingle.wav
402,192,186213,1,0,0:0:0:35:drum1.wav
329,192,186213,1,0,0:0:0:0:
256,192,186275,1,0,0:0:0:35:drum1.wav
182,192,186275,1,0,0:0:0:0:
475,192,186337,1,0,0:0:0:65:jingle.wav
402,192,186337,1,0,0:0:0:35:drum1.wav
109,192,186337,1,0,0:0:0:0:
36,192,186337,1,0,0:0:0:0:
256,192,186399,1,0,0:0:0:35:drum1.wav
329,192,186399,1,0,0:0:0:0:
182,192,186460,1,0,0:0:0:65:jingle.wav
109,192,186460,1,0,0:0:0:35:drum1.wav
475,192,186460,1,0,0:0:0:0:
402,192,186522,1,0,0:0:0:35:drum1.wav
329,192,186522,1,0,0:0:0:0:
256,192,186584,1,0,0:0:0:45:kick3.wav
475,192,186584,1,0,0:0:0:35:drum1.wav
36,192,186584,1,0,0:0:0:35:kick2.wav
182,192,186584,1,0,0:0:0:0:
402,192,186646,1,0,0:0:0:0:
36,192,186707,1,0,0:0:0:65:jingle.wav
329,192,186707,1,0,0:0:0:0:
109,192,186707,1,0,0:0:0:0:
182,192,186769,1,0,0:0:0:0:
36,192,186831,1,0,0:0:0:45:kick3.wav
475,192,186831,1,0,0:0:0:35:drum1.wav
402,192,186831,1,0,0:0:0:35:kick2.wav
256,192,186831,1,0,0:0:0:0:
109,192,186892,1,0,0:0:0:0:
329,192,186954,1,0,0:0:0:65:jingle.wav
182,192,186954,1,0,0:0:0:0:
475,192,186954,1,0,0:0:0:0:
256,192,187016,1,0,0:0:0:0:
109,192,187078,1,0,0:0:0:35:drum1.wav
36,192,187078,1,0,0:0:0:0:
475,192,187078,1,0,0:0:0:0:
402,192,187078,1,0,0:0:0:0:
256,192,187139,1,0,0:0:0:35:drum1.wav
329,192,187139,1,0,0:0:0:0:
109,192,187201,1,0,0:0:0:35:drum1.wav
182,192,187201,1,0,0:0:0:0:
329,192,187263,1,0,0:0:0:35:drum1.wav
402,192,187263,1,0,0:0:0:0:
256,192,187325,1,0,0:0:0:65:jingle.wav
109,192,187325,1,0,0:0:0:35:drum1.wav
475,192,187325,1,0,0:0:0:0:
36,192,187325,1,0,0:0:0:0:
182,192,187386,1,0,0:0:0:35:drum1.wav
402,192,187386,1,0,0:0:0:0:
36,192,187448,1,0,0:0:0:35:drum1.wav
329,192,187448,1,0,0:0:0:0:
256,192,187510,1,0,0:0:0:35:drum1.wav
109,192,187510,1,0,0:0:0:0:
475,192,187571,1,0,0:0:0:35:drum1.wav
402,192,187571,1,0,0:0:0:0:
182,192,187571,1,0,0:0:0:0:
329,192,187633,1,0,0:0:0:35:drum1.wav
109,192,187633,1,0,0:0:0:0:
475,192,187695,1,0,0:0:0:35:drum1.wav
182,192,187695,1,0,0:0:0:0:
402,192,187757,1,0,0:0:0:35:drum1.wav
256,192,187757,1,0,0:0:0:0:
329,192,187818,1,0,0:0:0:35:drum1.wav
109,192,187818,1,0,0:0:0:0:
36,192,187818,1,0,0:0:0:0:
402,192,187880,1,0,0:0:0:35:drum1.wav
182,192,187880,1,0,0:0:0:0:
329,192,187942,1,0,0:0:0:35:drum1.wav
36,192,187942,1,0,0:0:0:0:
109,192,188004,1,0,0:0:0:35:drum1.wav
256,192,188004,1,0,0:0:0:0:
182,192,188065,1,0,0:0:0:35:drum1.wav
329,192,188065,1,0,0:0:0:0:
475,192,188065,1,0,0:0:0:0:
402,192,188065,1,0,0:0:0:0:
256,192,188127,1,0,0:0:0:35:drum1.wav
36,192,188127,1,0,0:0:0:0:
402,192,188189,1,0,0:0:0:35:drum1.wav
109,192,188189,1,0,0:0:0:0:
329,192,188250,1,0,0:0:0:35:drum1.wav
182,192,188250,1,0,0:0:0:0:
36,192,188312,1,0,0:0:0:35:drum1.wav
475,192,188312,1,0,0:0:0:0:
256,192,188312,1,0,0:0:0:0:
109,192,188374,1,0,0:0:0:35:drum1.wav
402,192,188374,1,0,0:0:0:0:
256,192,188436,1,0,0:0:0:35:drum1.wav
329,192,188436,1,0,0:0:0:0:
182,192,188497,1,0,0:0:0:35:drum1.wav
109,192,188497,1,0,0:0:0:0:
402,192,188559,1,0,0:0:0:65:jingle.wav
329,192,188559,1,0,0:0:0:45:kick3.wav
36,192,188559,1,0,0:0:0:35:drum1.wav
475,192,188559,1,0,0:0:0:35:kick2.wav
256,192,188621,1,0,0:0:0:0:
109,192,188683,1,0,0:0:0:65:jingle.wav
475,192,188683,1,0,0:0:0:35:drum1.wav
182,192,188683,1,0,0:0:0:0:
402,192,188744,1,0,0:0:0:45:kick3.wav
36,192,188744,1,0,0:0:0:35:drum1.wav
329,192,188744,1,0,0:0:0:35:kick2.wav
182,192,188806,1,0,0:0:0:0:
256,192,188868,1,0,0:0:0:65:jingle.wav
329,192,188868,1,0,0:0:0:35:drum1.wav
109,192,188930,1,0,0:0:0:65:jingle.wav
475,192,188930,1,0,0:0:0:45:kick3.wav
36,192,188930,1,0,0:0:0:35:drum1.wav
402,192,188930,1,0,0:0:0:35:kick2.wav
182,192,188991,1,0,0:0:0:0:
256,192,189053,1,0,0:0:0:35:drum1.wav
36,192,189053,1,0,0:0:0:0:
475,192,189053,1,0,0:0:0:0:
329,192,189053,1,0,0:0:0:0:
402,192,189115,1,0,0:0:0:35:drum1.wav
182,192,189115,1,0,0:0:0:0:
109,192,189176,1,0,0:0:0:35:drum1.wav
329,192,189176,1,0,0:0:0:0:
256,192,189238,1,0,0:0:0:35:drum1.wav
36,192,189238,1,0,0:0:0:0:
475,192,189300,1,0,0:0:0:35:drum1.wav
402,192,189300,1,0,0:0:0:0:
182,192,189300,1,0,0:0:0:0:
36,192,189362,1,0,0:0:0:35:drum1.wav
256,192,189362,1,0,0:0:0:0:
109,192,189423,1,0,0:0:0:35:drum1.wav
329,192,189423,1,0,0:0:0:0:
402,192,189485,1,0,0:0:0:35:drum1.wav
182,192,189485,1,0,0:0:0:0:
256,192,189547,1,0,0:0:0:35:drum1.wav
36,192,189547,1,0,0:0:0:0:
475,192,189547,1,0,0:0:0:0:
402,192,189609,1,0,0:0:0:35:drum1.wav
182,192,189609,1,0,0:0:0:0:
109,192,189670,1,0,0:0:0:35:drum1.wav
329,192,189670,1,0,0:0:0:0:
256,192,189732,1,0,0:0:0:35:drum1.wav
36,192,189732,1,0,0:0:0:0:
182,192,189794,1,0,0:0:0:35:drum1.wav
402,192,189794,1,0,0:0:0:0:
475,192,189794,1,0,0:0:0:0:
109,192,189855,1,0,0:0:0:35:drum1.wav
256,192,189855,1,0,0:0:0:0:
36,192,189917,1,0,0:0:0:65:jingle.wav
182,192,189917,1,0,0:0:0:35:drum1.wav
329,192,189917,1,0,0:0:0:0:
256,192,189979,1,0,0:0:0:65:jingle.wav
475,192,189979,1,0,0:0:0:35:drum1.wav
402,192,189979,1,0,0:0:0:0:
329,192,190041,1,0,0:0:0:65:jingle.wav
36,192,190041,1,0,0:0:0:35:drum1.wav
182,192,190041,1,0,0:0:0:0:
109,192,190041,1,0,0:0:0:0:
475,192,190102,1,0,0:0:0:35:drum1.wav
256,192,190102,1,0,0:0:0:0:
329,192,190164,1,0,0:0:0:35:drum1.wav
109,192,190164,1,0,0:0:0:0:
402,192,190226,1,0,0:0:0:35:drum1.wav
182,192,190226,1,0,0:0:0:0:
475,192,190288,1,0,0:0:0:35:drum1.wav
36,192,190288,1,0,0:0:0:0:
256,192,190288,1,0,0:0:0:0:
109,192,190349,1,0,0:0:0:35:drum1.wav
329,192,190349,1,0,0:0:0:0:
402,192,190411,1,0,0:0:0:35:drum1.wav
182,192,190411,1,0,0:0:0:0:
36,192,190473,1,0,0:0:0:35:drum1.wav
256,192,190473,1,0,0:0:0:0:
402,192,190534,1,0,0:0:0:45:kick3.wav
182,192,190534,1,0,0:0:0:35:drum1.wav
475,192,190534,1,0,0:0:0:35:kick2.wav
329,192,190534,1,0,0:0:0:0:
109,192,190596,1,0,0:0:0:0:
475,192,190658,1,0,0:0:0:30:drum1.wav
36,192,190658,1,0,0:0:0:0:
402,192,190689,1,0,0:0:0:30:drum1.wav
329,192,190720,1,0,0:0:0:30:drum1.wav
256,192,190750,1,0,0:0:0:30:drum1.wav
36,192,190781,1,0,0:0:0:45:kick3.wav
182,192,190781,1,0,0:0:0:35:drum1.wav
109,192,190781,1,0,0:0:0:35:kick2.wav
402,192,190843,1,0,0:0:0:0:
475,192,190905,1,0,0:0:0:25:drum1.wav
36,192,190905,1,0,0:0:0:0:
109,192,190925,1,0,0:0:0:25:drum1.wav
182,192,190946,1,0,0:0:0:25:drum1.wav
256,192,190967,1,0,0:0:0:25:drum1.wav
329,192,190987,1,0,0:0:0:25:drum1.wav
402,192,191008,1,0,0:0:0:25:drum1.wav
36,192,191028,1,0,0:0:0:35:drum1.wav
109,192,191028,1,0,0:0:0:0:
475,192,191028,1,0,0:0:0:0:
182,192,191090,1,0,0:0:0:35:drum1.wav
256,192,191090,1,0,0:0:0:0:
402,192,191152,1,0,0:0:0:35:drum1.wav
475,192,191152,1,0,0:0:0:0:
182,192,191213,1,0,0:0:0:65:jingle.wav
329,192,191213,1,0,0:0:0:35:drum1.wav
109,192,191213,1,0,0:0:0:0:
402,192,191275,1,0,0:0:0:35:drum1.wav
36,192,191275,1,0,0:0:0:0:
256,192,191275,1,0,0:0:0:0:
475,192,191337,1,0,0:0:0:35:drum1.wav
182,192,191337,1,0,0:0:0:0:
36,192,191399,1,0,0:0:0:65:jingle.wav
109,192,191399,1,0,0:0:0:35:drum1.wav
329,192,191399,1,0,0:0:0:0:
182,192,191460,1,0,0:0:0:35:drum1.wav
402,192,191460,1,0,0:0:0:0:
256,192,191522,1,0,0:0:0:35:drum1.wav
109,192,191522,1,0,0:0:0:0:
475,192,191522,1,0,0:0:0:0:
36,192,191584,1,0,0:0:0:35:drum1.wav
329,192,191584,1,0,0:0:0:0:
182,192,191646,1,0,0:0:0:65:jingle.wav
402,192,191646,1,0,0:0:0:35:drum1.wav
475,192,191646,1,0,0:0:0:0:
329,192,191707,1,0,0:0:0:35:drum1.wav
109,192,191707,1,0,0:0:0:0:
256,192,191769,1,0,0:0:0:35:drum1.wav
402,192,191769,1,0,0:0:0:0:
36,192,191769,1,0,0:0:0:0:
182,192,191831,1,0,0:0:0:35:drum1.wav
475,192,191831,1,0,0:0:0:0:
109,192,191892,1,0,0:0:0:65:jingle.wav
36,192,191892,1,0,0:0:0:35:drum1.wav
329,192,191892,1,0,0:0:0:0:
182,192,191954,1,0,0:0:0:35:drum1.wav
402,192,191954,1,0,0:0:0:0:
109,192,192016,1,0,0:0:0:35:drum1.wav
475,192,192016,1,0,0:0:0:0:
256,192,192016,1,0,0:0:0:0:
36,192,192016,1,0,0:0:0:0:
402,192,192078,1,0,0:0:0:35:drum1.wav
329,192,192078,1,0,0:0:0:0:
256,192,192139,1,0,0:0:0:35:drum1.wav
182,192,192139,1,0,0:0:0:0:
109,192,192201,1,0,0:0:0:35:drum1.wav
36,192,192201,1,0,0:0:0:0:
329,192,192263,1,0,0:0:0:35:drum1.wav
402,192,192263,1,0,0:0:0:0:
475,192,192263,1,0,0:0:0:0:
109,192,192325,1,0,0:0:0:35:drum1.wav
182,192,192325,1,0,0:0:0:0:
329,192,192386,1,0,0:0:0:35:drum1.wav
256,192,192386,1,0,0:0:0:0:
402,192,192448,1,0,0:0:0:35:drum1.wav
475,192,192448,1,0,0:0:0:0:
36,192,192510,1,0,0:0:0:45:kick3.wav
109,192,192510,1,0,0:0:0:35:drum1.wav
329,192,192510,1,0,0:0:0:35:kick2.wav
182,192,192510,1,0,0:0:0:0:
256,192,192571,1,0,0:0:0:0:
109,192,192633,1,0,0:0:0:0:
329,192,192695,1,0,0:0:0:45:kick3.wav
475,192,192695,1,0,0:0:0:35:drum1.wav
36,192,192695,1,0,0:0:0:35:kick2.wav
402,192,192695,1,0,0:0:0:0:
182,192,192757,1,0,0:0:0:0:
256,192,192818,1,0,0:0:0:0:
402,192,192880,1,0,0:0:0:45:kick3.wav
36,192,192880,1,0,0:0:0:35:drum1.wav
329,192,192880,1,0,0:0:0:35:kick2.wav
109,192,192880,1,0,0:0:0:0:
182,192,192942,1,0,0:0:0:0:
329,192,193004,1,0,0:0:0:35:drum1.wav
256,192,193004,1,0,0:0:0:0:
475,192,193004,1,0,0:0:0:0:
36,192,193004,1,0,0:0:0:0:
182,192,193065,1,0,0:0:0:35:drum1.wav
402,192,193065,1,0,0:0:0:0:
329,192,193127,1,0,0:0:0:35:drum1.wav
109,192,193127,1,0,0:0:0:0:
36,192,193189,1,0,0:0:0:35:drum1.wav
256,192,193189,1,0,0:0:0:0:
182,192,193250,1,0,0:0:0:35:drum1.wav
475,192,193250,1,0,0:0:0:0:
402,192,193250,1,0,0:0:0:0:
36,192,193312,1,0,0:0:0:65:jingle.wav
329,192,193312,1,0,0:0:0:35:drum1.wav
109,192,193312,1,0,0:0:0:0:
256,192,193374,1,0,0:0:0:65:jingle.wav
402,192,193374,1,0,0:0:0:35:drum1.wav
475,192,193374,1,0,0:0:0:0:
182,192,193436,1,0,0:0:0:35:drum1.wav
109,192,193436,1,0,0:0:0:0:
36,192,193497,1,0,0:0:0:35:drum1.wav
329,192,193497,1,0,0:0:0:0:
475,192,193497,1,0,0:0:0:0:
182,192,193559,1,0,0:0:0:35:drum1.wav
256,192,193559,1,0,0:0:0:0:
36,192,193621,1,0,0:0:0:65:jingle.wav
109,192,193621,1,0,0:0:0:35:drum1.wav
329,192,193621,1,0,0:0:0:0:
402,192,193683,1,0,0:0:0:35:drum1.wav
182,192,193683,1,0,0:0:0:0:
475,192,193744,1,0,0:0:0:35:drum1.wav
36,192,193744,1,0,0:0:0:0:
256,192,193744,1,0,0:0:0:0:
109,192,193806,1,0,0:0:0:35:drum1.wav
329,192,193806,1,0,0:0:0:0:
402,192,193868,1,0,0:0:0:65:jingle.wav
475,192,193868,1,0,0:0:0:35:drum1.wav
182,192,193868,1,0,0:0:0:0:
256,192,193930,1,0,0:0:0:35:drum1.wav
329,192,193930,1,0,0:0:0:0:
402,192,193991,1,0,0:0:0:35:drum1.wav
36,192,193991,1,0,0:0:0:0:
109,192,193991,1,0,0:0:0:0:
475,192,193991,1,0,0:0:0:0:
256,192,194053,1,0,0:0:0:35:drum1.wav
182,192,194053,1,0,0:0:0:0:
329,192,194115,1,0,0:0:0:35:drum1.wav
402,192,194115,1,0,0:0:0:0:
182,192,194176,1,0,0:0:0:35:drum1.wav
109,192,194176,1,0,0:0:0:0:
36,192,194238,1,0,0:0:0:35:drum1.wav
475,192,194238,1,0,0:0:0:0:
402,192,194238,1,0,0:0:0:0:
329,192,194300,1,0,0:0:0:35:drum1.wav
256,192,194300,1,0,0:0:0:0:
182,192,194362,1,0,0:0:0:35:drum1.wav
109,192,194362,1,0,0:0:0:0:
402,192,194423,1,0,0:0:0:35:drum1.wav
329,192,194423,1,0,0:0:0:0:
256,192,194485,1,0,0:0:0:45:kick3.wav
182,192,194485,1,0,0:0:0:35:drum1.wav
475,192,194485,1,0,0:0:0:35:kick2.wav
36,192,194485,1,0,0:0:0:0:
109,192,194547,1,0,0:0:0:0:
182,192,194609,1,0,0:0:0:0:
402,192,194609,1,0,0:0:0:0:
329,192,194670,1,0,0:0:0:0:
256,192,194732,1,0,0:0:0:45:kick3.wav
109,192,194732,1,0,0:0:0:35:drum1.wav
36,192,194732,1,0,0:0:0:35:kick2.wav
475,192,194732,1,0,0:0:0:0:
402,192,194794,1,0,0:0:0:0:
182,192,194855,1,0,0:0:0:0:
329,192,194855,1,0,0:0:0:0:
109,192,194917,1,0,0:0:0:0:
329,192,194979,1,0,0:0:0:65:jingle.wav
256,192,194979,1,0,0:0:0:35:drum1.wav
475,192,194979,1,0,0:0:0:0:
36,192,194979,1,0,0:0:0:0:
402,192,195041,1,0,0:0:0:35:drum1.wav
182,192,195041,1,0,0:0:0:0:
329,192,195102,1,0,0:0:0:35:drum1.wav
109,192,195102,1,0,0:0:0:0:
36,192,195164,1,0,0:0:0:35:drum1.wav
256,192,195164,1,0,0:0:0:0:
182,192,195226,1,0,0:0:0:35:drum1.wav
402,192,195226,1,0,0:0:0:0:
475,192,195226,1,0,0:0:0:0:
109,192,195288,1,0,0:0:0:35:drum1.wav
329,192,195288,1,0,0:0:0:0:
475,192,195349,1,0,0:0:0:65:jingle.wav
36,192,195349,1,0,0:0:0:35:drum1.wav
182,192,195349,1,0,0:0:0:0:
402,192,195411,1,0,0:0:0:35:drum1.wav
256,192,195411,1,0,0:0:0:0:
109,192,195473,1,0,0:0:0:35:drum1.wav
329,192,195473,1,0,0:0:0:0:
36,192,195473,1,0,0:0:0:0:
402,192,195534,1,0,0:0:0:35:drum1.wav
182,192,195534,1,0,0:0:0:0:
475,192,195596,1,0,0:0:0:65:jingle.wav
329,192,195596,1,0,0:0:0:35:drum1.wav
36,192,195596,1,0,0:0:0:0:
109,192,195658,1,0,0:0:0:35:drum1.wav
256,192,195658,1,0,0:0:0:0:
402,192,195720,1,0,0:0:0:35:drum1.wav
182,192,195720,1,0,0:0:0:0:
475,192,195720,1,0,0:0:0:0:
109,192,195781,1,0,0:0:0:35:drum1.wav
329,192,195781,1,0,0:0:0:0:
36,192,195843,1,0,0:0:0:65:jingle.wav
475,192,195843,1,0,0:0:0:35:drum1.wav
182,192,195843,1,0,0:0:0:0:
402,192,195905,1,0,0:0:0:35:drum1.wav
256,192,195905,1,0,0:0:0:0:
329,192,195967,1,0,0:0:0:35:drum1.wav
36,192,195967,1,0,0:0:0:0:
182,192,195967,1,0,0:0:0:0:
109,192,195967,1,0,0:0:0:0:
256,192,196028,1,0,0:0:0:35:drum1.wav
475,192,196028,1,0,0:0:0:0:
402,192,196090,1,0,0:0:0:35:drum1.wav
109,192,196090,1,0,0:0:0:0:
182,192,196152,1,0,0:0:0:35:drum1.wav
329,192,196152,1,0,0:0:0:0:
256,192,196213,1,0,0:0:0:65:jingle.wav
475,192,196213,1,0,0:0:0:35:drum1.wav
402,192,196213,1,0,0:0:0:0:
36,192,196213,1,0,0:0:0:0:
329,192,196275,1,0,0:0:0:35:drum1.wav
109,192,196275,1,0,0:0:0:0:
182,192,196337,1,0,0:0:0:35:drum1.wav
475,192,196337,1,0,0:0:0:0:
402,192,196399,1,0,0:0:0:35:drum1.wav
256,192,196399,1,0,0:0:0:0:
109,192,196460,1,0,0:0:0:65:jingle.wav
36,192,196460,1,0,0:0:0:35:drum1.wav
329,192,196460,1,0,0:0:0:0:
475,192,196522,1,0,0:0:0:45:kick3.wav
182,192,196522,1,0,0:0:0:35:drum1.wav
402,192,196522,1,0,0:0:0:35:kick2.wav
36,192,196584,1,0,0:0:0:65:jingle.wav
256,192,196584,1,0,0:0:0:0:
475,192,196646,1,0,0:0:0:45:kick3.wav
109,192,196646,1,0,0:0:0:35:drum1.wav
329,192,196646,1,0,0:0:0:35:kick2.wav
182,192,196707,1,0,0:0:0:0:
109,192,196769,1,0,0:0:0:35:drum1.wav
329,192,196769,1,0,0:0:0:0:
36,192,196831,1,0,0:0:0:65:jingle.wav
256,192,196831,1,0,0:0:0:45:kick3.wav
475,192,196831,1,0,0:0:0:35:drum1.wav
402,192,196831,1,0,0:0:0:35:kick2.wav
182,192,196892,1,0,0:0:0:0:
329,192,196954,1,0,0:0:0:35:drum1.wav
36,192,196954,1,0,0:0:0:0:
109,192,196954,1,0,0:0:0:0:
475,192,196954,1,0,0:0:0:0:
256,192,197016,1,0,0:0:0:35:drum1.wav
182,192,197016,1,0,0:0:0:0:
402,192,197078,1,0,0:0:0:35:drum1.wav
329,192,197078,1,0,0:0:0:0:
109,192,197139,1,0,0:0:0:35:drum1.wav
182,192,197139,1,0,0:0:0:0:
475,192,197201,1,0,0:0:0:65:jingle.wav
36,192,197201,1,0,0:0:0:35:drum1.wav
256,192,197201,1,0,0:0:0:0:
402,192,197201,1,0,0:0:0:0:
329,192,197263,1,0,0:0:0:35:drum1.wav
109,192,197263,1,0,0:0:0:0:
182,192,197325,1,0,0:0:0:35:drum1.wav
402,192,197325,1,0,0:0:0:0:
109,192,197386,1,0,0:0:0:35:drum1.wav
329,192,197386,1,0,0:0:0:0:
256,192,197448,1,0,0:0:0:35:drum1.wav
475,192,197448,1,0,0:0:0:0:
36,192,197448,1,0,0:0:0:0:
402,192,197510,1,0,0:0:0:35:drum1.wav
182,192,197510,1,0,0:0:0:0:
329,192,197571,1,0,0:0:0:35:drum1.wav
109,192,197571,1,0,0:0:0:0:
182,192,197633,1,0,0:0:0:35:drum1.wav
402,192,197633,1,0,0:0:0:0:
475,192,197695,1,0,0:0:0:35:drum1.wav
256,192,197695,1,0,0:0:0:0:
36,192,197695,1,0,0:0:0:0:
329,192,197757,1,0,0:0:0:35:drum1.wav
109,192,197757,1,0,0:0:0:0:
475,192,197818,1,0,0:0:0:65:jingle.wav
402,192,197818,1,0,0:0:0:35:drum1.wav
182,192,197818,1,0,0:0:0:0:
36,192,197880,1,0,0:0:0:65:jingle.wav
109,192,197880,1,0,0:0:0:35:drum1.wav
256,192,197880,1,0,0:0:0:0:
182,192,197942,1,0,0:0:0:65:jingle.wav
329,192,197942,1,0,0:0:0:35:drum1.wav
475,192,197942,1,0,0:0:0:0:
402,192,197942,1,0,0:0:0:0:
36,192,198004,1,0,0:0:0:35:drum1.wav
256,192,198004,1,0,0:0:0:0:
109,192,198065,1,0,0:0:0:35:drum1.wav
329,192,198065,1,0,0:0:0:0:
182,192,198127,1,0,0:0:0:35:drum1.wav
402,192,198127,1,0,0:0:0:0:
36,192,198189,1,0,0:0:0:35:drum1.wav
475,192,198189,1,0,0:0:0:0:
256,192,198189,1,0,0:0:0:0:
329,192,198250,1,0,0:0:0:35:drum1.wav
109,192,198250,1,0,0:0:0:0:
256,192,198312,1,0,0:0:0:35:drum1.wav
402,192,198312,1,0,0:0:0:0:
182,192,198374,1,0,0:0:0:35:drum1.wav
109,192,198374,1,0,0:0:0:0:
475,192,198436,1,0,0:0:0:30:drum1.wav
329,192,198436,1,0,0:0:0:0:
402,192,198436,1,0,0:0:0:0:
36,192,198436,1,0,0:0:0:0:
256,192,198467,1,0,0:0:0:30:drum1.wav
182,192,198497,1,0,0:0:0:30:drum1.wav
109,192,198528,1,0,0:0:0:30:drum1.wav
402,192,198559,1,0,0:0:0:25:drum1.wav
475,192,198559,1,0,0:0:0:0:
36,192,198559,1,0,0:0:0:0:
329,192,198580,1,0,0:0:0:25:drum1.wav
256,192,198600,1,0,0:0:0:25:drum1.wav
182,192,198621,1,0,0:0:0:30:drum1.wav
109,192,198652,1,0,0:0:0:30:drum1.wav
36,192,198683,1,0,0:0:0:25:drum1.wav
475,192,198683,1,0,0:0:0:0:
402,192,198703,1,0,0:0:0:25:drum1.wav
329,192,198724,1,0,0:0:0:25:drum1.wav
256,192,198744,1,0,0:0:0:25:drum1.wav
182,192,198765,1,0,0:0:0:25:drum1.wav
109,192,198785,1,0,0:0:0:25:drum1.wav
36,192,198806,1,0,0:0:0:20:drum1.wav
475,192,198821,1,0,0:0:0:20:drum1.wav
402,192,198837,1,0,0:0:0:20:drum1.wav
329,192,198852,1,0,0:0:0:20:drum1.wav
256,192,198868,1,0,0:0:0:20:drum1.wav
182,192,198883,1,0,0:0:0:20:drum1.wav
109,192,198899,1,0,0:0:0:20:drum1.wav
36,192,198914,1,0,0:0:0:20:drum1.wav
475,192,198930,128,0,201892:0:0:0:45:kick2.wav
402,192,198930,1,0,0:0:0:65:crash.wav
36,192,200905,128,0,201892:0:0:0:100:
256,192,201892,1,0,0:0:0:40:drum2.wav
182,192,201892,1,0,0:0:0:0:
329,192,201892,1,0,0:0:0:0:
36,192,201954,1,0,0:0:0:40:drum2.wav
109,192,201954,1,0,0:0:0:0:
475,192,201954,1,0,0:0:0:0:
329,192,202016,1,0,0:0:0:40:drum2.wav
402,192,202016,1,0,0:0:0:0:
256,192,202016,1,0,0:0:0:0:
109,192,202078,1,0,0:0:0:40:drum2.wav
36,192,202078,1,0,0:0:0:0:
182,192,202078,1,0,0:0:0:0:
402,192,202139,1,0,0:0:0:40:drum2.wav
475,192,202139,1,0,0:0:0:0:
329,192,202139,1,0,0:0:0:0:
182,192,202201,1,0,0:0:0:40:drum2.wav
109,192,202201,1,0,0:0:0:0:
256,192,202201,1,0,0:0:0:0:
36,192,202263,1,0,0:0:0:40:drum2.wav
402,192,202263,1,0,0:0:0:0:
475,192,202263,1,0,0:0:0:0:
256,192,202325,1,0,0:0:0:40:drum2.wav
182,192,202325,1,0,0:0:0:0:
329,192,202325,1,0,0:0:0:0:
109,192,202386,1,0,0:0:0:35:drum2.wav
475,192,202386,1,0,0:0:0:0:
36,192,202386,1,0,0:0:0:0:
402,192,202417,1,0,0:0:0:35:drum2.wav
329,192,202448,1,0,0:0:0:35:drum2.wav
256,192,202479,1,0,0:0:0:35:drum2.wav
182,192,202510,1,0,0:0:0:40:drum2.wav
109,192,202510,1,0,0:0:0:0:
402,192,202571,1,0,0:0:0:35:drum2.wav
475,192,202571,1,0,0:0:0:0:
36,192,202571,1,0,0:0:0:0:
109,192,202602,1,0,0:0:0:35:drum2.wav
182,192,202633,1,0,0:0:0:35:drum2.wav
256,192,202664,1,0,0:0:0:35:drum2.wav
329,192,202695,1,0,0:0:0:40:drum2.wav
402,192,202695,1,0,0:0:0:0:
109,192,202757,1,0,0:0:0:30:drum2.wav
36,192,202757,1,0,0:0:0:0:
475,192,202772,1,0,0:0:0:30:drum2.wav
402,192,202788,1,0,0:0:0:30:drum2.wav
329,192,202803,1,0,0:0:0:30:drum2.wav
256,192,202818,1,0,0:0:0:30:drum2.wav
182,192,202834,1,0,0:0:0:30:drum2.wav
109,192,202849,1,0,0:0:0:30:drum2.wav
36,192,202865,1,0,0:0:0:30:drum2.wav
402,192,202880,1,0,0:0:0:65:crash.wav
475,192,202880,1,0,0:0:0:45:kick2.wav
182,192,203004,1,0,0:0:0:30:hihat2.wav
329,192,203004,1,0,0:0:0:0:
256,192,203004,1,0,0:0:0:0:
109,192,203065,1,0,0:0:0:65:jingle.wav
402,192,203127,1,0,0:0:0:50:drum2.wav
256,192,203127,1,0,0:0:0:0:
475,192,203127,1,0,0:0:0:0:
36,192,203127,1,0,0:0:0:0:
36,192,203250,1,0,0:0:0:65:jingle.wav
402,192,203250,1,0,0:0:0:45:kick2.wav
182,192,203250,1,0,0:0:0:0:
329,192,203250,1,0,0:0:0:0:
475,192,203374,1,0,0:0:0:30:hihat2.wav
256,192,203374,1,0,0:0:0:0:
109,192,203374,1,0,0:0:0:0:
329,192,203436,1,0,0:0:0:65:jingle.wav
182,192,203497,1,0,0:0:0:50:drum2.wav
475,192,203497,1,0,0:0:0:0:
402,192,203497,1,0,0:0:0:0:
36,192,203497,1,0,0:0:0:0:
402,192,203621,1,0,0:0:0:65:jingle.wav
329,192,203621,1,0,0:0:0:45:kick2.wav
36,192,203621,1,0,0:0:0:0:
109,192,203621,1,0,0:0:0:0:
256,192,203683,1,0,0:0:0:0:
475,192,203744,1,0,0:0:0:65:jingle.wav
402,192,203744,1,0,0:0:0:50:drum2.wav
182,192,203744,1,0,0:0:0:0:
109,192,203744,1,0,0:0:0:0:
329,192,203806,1,0,0:0:0:0:
182,192,203868,1,0,0:0:0:65:jingle.wav
36,192,203868,1,0,0:0:0:45:kick2.wav
475,192,203868,1,0,0:0:0:0:
256,192,203868,1,0,0:0:0:0:
329,192,203991,1,0,0:0:0:30:hihat2.wav
109,192,203991,1,0,0:0:0:0:
402,192,203991,1,0,0:0:0:0:
182,192,204053,1,0,0:0:0:65:jingle.wav
329,192,204115,1,0,0:0:0:50:drum2.wav
256,192,204115,1,0,0:0:0:0:
475,192,204115,1,0,0:0:0:0:
36,192,204115,1,0,0:0:0:0:
329,192,204238,1,0,0:0:0:65:jingle.wav
402,192,204238,1,0,0:0:0:45:kick2.wav
36,192,204238,1,0,0:0:0:0:
182,192,204238,1,0,0:0:0:0:
109,192,204362,1,0,0:0:0:30:hihat2.wav
256,192,204362,1,0,0:0:0:0:
475,192,204362,1,0,0:0:0:0:
402,192,204423,1,0,0:0:0:65:jingle.wav
256,192,204485,1,0,0:0:0:50:drum2.wav
182,192,204485,1,0,0:0:0:0:
36,192,204485,1,0,0:0:0:0:
329,192,204485,1,0,0:0:0:0:
109,192,204609,1,0,0:0:0:65:jingle.wav
475,192,204609,1,0,0:0:0:45:kick2.wav
402,192,204609,1,0,0:0:0:0:
182,192,204609,1,0,0:0:0:0:
256,192,204670,1,0,0:0:0:0:
109,192,204732,1,0,0:0:0:65:jingle.wav
402,192,204732,1,0,0:0:0:50:drum2.wav
329,192,204732,1,0,0:0:0:0:
36,192,204732,1,0,0:0:0:0:
182,192,204794,1,0,0:0:0:0:
475,192,204855,1,0,0:0:0:65:jingle.wav
329,192,204855,1,0,0:0:0:45:kick2.wav
36,192,204855,1,0,0:0:0:0:
256,192,204855,1,0,0:0:0:0:
182,192,204979,1,0,0:0:0:30:hihat2.wav
402,192,204979,1,0,0:0:0:0:
109,192,204979,1,0,0:0:0:0:
329,192,205041,1,0,0:0:0:65:jingle.wav
475,192,205102,1,0,0:0:0:50:drum2.wav
182,192,205102,1,0,0:0:0:0:
36,192,205102,1,0,0:0:0:0:
256,192,205102,1,0,0:0:0:0:
329,192,205226,1,0,0:0:0:65:jingle.wav
36,192,205226,1,0,0:0:0:45:kick2.wav
109,192,205226,1,0,0:0:0:0:
475,192,205226,1,0,0:0:0:0:
402,192,205349,1,0,0:0:0:30:hihat2.wav
182,192,205349,1,0,0:0:0:0:
256,192,205349,1,0,0:0:0:0:
109,192,205411,1,0,0:0:0:65:jingle.wav
256,192,205473,1,0,0:0:0:50:drum2.wav
329,192,205473,1,0,0:0:0:0:
475,192,205473,1,0,0:0:0:0:
36,192,205473,1,0,0:0:0:0:
109,192,205596,1,0,0:0:0:65:jingle.wav
402,192,205596,1,0,0:0:0:45:kick2.wav
36,192,205596,1,0,0:0:0:0:
475,192,205596,1,0,0:0:0:0:
182,192,205720,1,0,0:0:0:30:hihat2.wav
329,192,205720,1,0,0:0:0:0:
256,192,205720,1,0,0:0:0:0:
402,192,205781,1,0,0:0:0:65:jingle.wav
109,192,205843,1,0,0:0:0:50:drum2.wav
329,192,205843,1,0,0:0:0:0:
475,192,205843,1,0,0:0:0:0:
36,192,205843,1,0,0:0:0:0:
182,192,205967,1,0,0:0:0:65:jingle.wav
402,192,205967,1,0,0:0:0:45:kick2.wav
256,192,205967,1,0,0:0:0:0:
36,192,205967,1,0,0:0:0:0:
109,192,206090,1,0,0:0:0:30:hihat2.wav
329,192,206090,1,0,0:0:0:0:
475,192,206090,1,0,0:0:0:0:
182,192,206152,1,0,0:0:0:65:jingle.wav
475,192,206213,1,0,0:0:0:50:drum2.wav
402,192,206213,1,0,0:0:0:0:
256,192,206213,1,0,0:0:0:0:
36,192,206213,1,0,0:0:0:0:
182,192,206337,1,0,0:0:0:65:jingle.wav
36,192,206337,1,0,0:0:0:45:kick2.wav
329,192,206337,1,0,0:0:0:35:kick3.wav
256,192,206337,1,0,0:0:0:0:
329,192,206460,1,0,0:0:0:50:drum2.wav
402,192,206460,1,0,0:0:0:0:
475,192,206460,1,0,0:0:0:0:
109,192,206460,1,0,0:0:0:0:
256,192,206522,1,0,0:0:0:65:jingle.wav
36,192,206584,1,0,0:0:0:45:kick2.wav
109,192,206584,1,0,0:0:0:35:kick3.wav
182,192,206584,1,0,0:0:0:0:
475,192,206584,1,0,0:0:0:0:
329,192,206646,1,0,0:0:0:0:
475,192,206707,1,0,0:0:0:65:jingle.wav
182,192,206707,1,0,0:0:0:50:drum2.wav
36,192,206707,1,0,0:0:0:0:
402,192,206707,1,0,0:0:0:0:
256,192,206769,1,0,0:0:0:0:
109,192,206831,1,0,0:0:0:65:jingle.wav
36,192,206831,1,0,0:0:0:45:kick2.wav
329,192,206831,1,0,0:0:0:0:
475,192,206831,1,0,0:0:0:0:
402,192,206954,1,0,0:0:0:30:hihat2.wav
182,192,206954,1,0,0:0:0:0:
256,192,206954,1,0,0:0:0:0:
109,192,207016,1,0,0:0:0:65:jingle.wav
402,192,207078,1,0,0:0:0:50:drum2.wav
36,192,207078,1,0,0:0:0:0:
475,192,207078,1,0,0:0:0:0:
329,192,207078,1,0,0:0:0:0:
475,192,207201,1,0,0:0:0:65:jingle.wav
36,192,207201,1,0,0:0:0:45:kick2.wav
182,192,207201,1,0,0:0:0:0:
256,192,207201,1,0,0:0:0:0:
402,192,207325,1,0,0:0:0:30:hihat2.wav
109,192,207325,1,0,0:0:0:0:
329,192,207325,1,0,0:0:0:0:
256,192,207386,1,0,0:0:0:65:jingle.wav
36,192,207448,1,0,0:0:0:50:drum2.wav
475,192,207448,1,0,0:0:0:0:
182,192,207448,1,0,0:0:0:0:
329,192,207448,1,0,0:0:0:0:
256,192,207571,1,0,0:0:0:65:jingle.wav
402,192,207571,1,0,0:0:0:45:kick2.wav
109,192,207571,1,0,0:0:0:0:
475,192,207571,1,0,0:0:0:0:
182,192,207633,1,0,0:0:0:0:
402,192,207695,1,0,0:0:0:65:jingle.wav
109,192,207695,1,0,0:0:0:50:drum2.wav
329,192,207695,1,0,0:0:0:0:
36,192,207695,1,0,0:0:0:0:
256,192,207757,1,0,0:0:0:0:
182,192,207818,1,0,0:0:0:65:jingle.wav
36,192,207818,1,0,0:0:0:45:kick2.wav
475,192,207818,1,0,0:0:0:0:
402,192,207818,1,0,0:0:0:0:
329,192,207942,1,0,0:0:0:30:hihat2.wav
256,192,207942,1,0,0:0:0:0:
109,192,207942,1,0,0:0:0:0:
402,192,208004,1,0,0:0:0:65:jingle.wav
182,192,208065,1,0,0:0:0:50:drum2.wav
475,192,208065,1,0,0:0:0:0:
36,192,208065,1,0,0:0:0:0:
109,192,208065,1,0,0:0:0:0:
329,192,208189,1,0,0:0:0:65:jingle.wav
256,192,208189,1,0,0:0:0:45:kick2.wav
36,192,208189,1,0,0:0:0:0:
475,192,208189,1,0,0:0:0:0:
109,192,208312,1,0,0:0:0:30:hihat2.wav
402,192,208312,1,0,0:0:0:0:
182,192,208312,1,0,0:0:0:0:
256,192,208374,1,0,0:0:0:65:jingle.wav
329,192,208436,1,0,0:0:0:50:drum2.wav
182,192,208436,1,0,0:0:0:0:
475,192,208436,1,0,0:0:0:0:
36,192,208436,1,0,0:0:0:0:
256,192,208559,1,0,0:0:0:65:jingle.wav
402,192,208559,1,0,0:0:0:45:kick2.wav
36,192,208559,1,0,0:0:0:0:
109,192,208559,1,0,0:0:0:0:
329,192,208621,1,0,0:0:0:0:
402,192,208683,1,0,0:0:0:65:jingle.wav
109,192,208683,1,0,0:0:0:50:drum2.wav
475,192,208683,1,0,0:0:0:0:
182,192,208683,1,0,0:0:0:0:
256,192,208744,1,0,0:0:0:0:
182,192,208806,1,0,0:0:0:65:jingle.wav
402,192,208806,1,0,0:0:0:45:kick2.wav
36,192,208806,1,0,0:0:0:0:
329,192,208806,1,0,0:0:0:0:
256,192,208930,1,0,0:0:0:30:hihat2.wav
475,192,208930,1,0,0:0:0:0:
109,192,208930,1,0,0:0:0:0:
402,192,208991,1,0,0:0:0:65:jingle.wav
256,192,209053,1,0,0:0:0:50:drum2.wav
329,192,209053,1,0,0:0:0:0:
182,192,209053,1,0,0:0:0:0:
36,192,209053,1,0,0:0:0:0:
402,192,209176,1,0,0:0:0:65:jingle.wav
182,192,209176,1,0,0:0:0:45:kick2.wav
109,192,209176,1,0,0:0:0:0:
475,192,209176,1,0,0:0:0:0:
36,192,209300,1,0,0:0:0:65:jingle.wav
329,192,209300,1,0,0:0:0:30:hihat2.wav
256,192,209300,1,0,0:0:0:0:
475,192,209423,1,0,0:0:0:50:drum2.wav
256,192,209423,1,0,0:0:0:0:
182,192,209423,1,0,0:0:0:0:
402,192,209423,1,0,0:0:0:0:
109,192,209485,1,0,0:0:0:65:jingle.wav
182,192,209547,1,0,0:0:0:45:kick2.wav
36,192,209547,1,0,0:0:0:0:
475,192,209547,1,0,0:0:0:0:
329,192,209547,1,0,0:0:0:0:
256,192,209609,1,0,0:0:0:0:
329,192,209670,1,0,0:0:0:65:jingle.wav
36,192,209670,1,0,0:0:0:50:drum2.wav
109,192,209670,1,0,0:0:0:0:
402,192,209670,1,0,0:0:0:0:
182,192,209732,1,0,0:0:0:0:
36,192,209794,1,0,0:0:0:65:jingle.wav
402,192,209794,1,0,0:0:0:45:kick2.wav
475,192,209794,1,0,0:0:0:35:kick3.wav
256,192,209794,1,0,0:0:0:0:
182,192,209917,1,0,0:0:0:50:drum2.wav
256,192,209917,1,0,0:0:0:0:
109,192,209917,1,0,0:0:0:0:
329,192,209979,1,0,0:0:0:35:drum2.wav
402,192,209979,1,0,0:0:0:0:
475,192,210041,1,0,0:0:0:65:jingle.wav
109,192,210041,1,0,0:0:0:45:kick2.wav
182,192,210041,1,0,0:0:0:35:kick3.wav
36,192,210041,1,0,0:0:0:0:
402,192,210164,1,0,0:0:0:50:drum2.wav
329,192,210164,1,0,0:0:0:0:
256,192,210164,1,0,0:0:0:0:
182,192,210226,1,0,0:0:0:35:drum2.wav
109,192,210226,1,0,0:0:0:0:
36,192,210288,1,0,0:0:0:65:jingle.wav
329,192,210288,1,0,0:0:0:45:kick2.wav
402,192,210288,1,0,0:0:0:35:kick3.wav
475,192,210288,1,0,0:0:0:0:
109,192,210411,1,0,0:0:0:50:drum2.wav
36,192,210411,1,0,0:0:0:0:
182,192,210411,1,0,0:0:0:0:
329,192,210473,1,0,0:0:0:35:drum2.wav
256,192,210473,1,0,0:0:0:0:
109,192,210534,1,0,0:0:0:65:jingle.wav
36,192,210534,1,0,0:0:0:45:kick2.wav
475,192,210534,1,0,0:0:0:35:kick3.wav
402,192,210534,1,0,0:0:0:0:
475,192,210658,1,0,0:0:0:50:drum2.wav
402,192,210658,1,0,0:0:0:0:
329,192,210658,1,0,0:0:0:0:
182,192,210720,1,0,0:0:0:35:drum2.wav
256,192,210720,1,0,0:0:0:0:
36,192,210781,1,0,0:0:0:65:jingle.wav
475,192,210781,1,0,0:0:0:45:kick2.wav
329,192,210781,1,0,0:0:0:35:kick3.wav
109,192,210781,1,0,0:0:0:0:
256,192,210905,1,0,0:0:0:30:hihat2.wav
182,192,210905,1,0,0:0:0:0:
402,192,210905,1,0,0:0:0:0:
109,192,210967,1,0,0:0:0:65:jingle.wav
475,192,211028,1,0,0:0:0:50:drum2.wav
256,192,211028,1,0,0:0:0:0:
36,192,211028,1,0,0:0:0:0:
329,192,211028,1,0,0:0:0:0:
182,192,211152,1,0,0:0:0:65:jingle.wav
402,192,211152,1,0,0:0:0:45:kick2.wav
475,192,211152,1,0,0:0:0:0:
109,192,211152,1,0,0:0:0:0:
256,192,211275,1,0,0:0:0:30:hihat2.wav
329,192,211275,1,0,0:0:0:0:
36,192,211275,1,0,0:0:0:0:
109,192,211337,1,0,0:0:0:65:jingle.wav
256,192,211399,1,0,0:0:0:50:drum2.wav
402,192,211399,1,0,0:0:0:0:
182,192,211399,1,0,0:0:0:0:
475,192,211399,1,0,0:0:0:0:
109,192,211522,1,0,0:0:0:65:jingle.wav
402,192,211522,1,0,0:0:0:45:kick2.wav
36,192,211522,1,0,0:0:0:0:
329,192,211522,1,0,0:0:0:0:
256,192,211584,1,0,0:0:0:0:
182,192,211646,1,0,0:0:0:65:jingle.wav
475,192,211646,1,0,0:0:0:50:drum2.wav
109,192,211646,1,0,0:0:0:0:
36,192,211646,1,0,0:0:0:0:
329,192,211707,1,0,0:0:0:0:
182,192,211769,1,0,0:0:0:65:jingle.wav
36,192,211769,1,0,0:0:0:45:kick2.wav
475,192,211769,1,0,0:0:0:0:
402,192,211769,1,0,0:0:0:0:
329,192,211892,1,0,0:0:0:30:hihat2.wav
256,192,211892,1,0,0:0:0:0:
109,192,211892,1,0,0:0:0:0:
402,192,211954,1,0,0:0:0:65:jingle.wav
36,192,212016,1,0,0:0:0:50:drum2.wav
256,192,212016,1,0,0:0:0:0:
182,192,212016,1,0,0:0:0:0:
475,192,212016,1,0,0:0:0:0:
109,192,212139,1,0,0:0:0:65:jingle.wav
329,192,212139,1,0,0:0:0:45:kick2.wav
36,192,212139,1,0,0:0:0:0:
402,192,212139,1,0,0:0:0:0:
182,192,212263,1,0,0:0:0:30:hihat2.wav
256,192,212263,1,0,0:0:0:0:
475,192,212263,1,0,0:0:0:0:
402,192,212325,1,0,0:0:0:65:jingle.wav
329,192,212386,1,0,0:0:0:50:drum2.wav
109,192,212386,1,0,0:0:0:0:
36,192,212386,1,0,0:0:0:0:
256,192,212386,1,0,0:0:0:0:
402,192,212510,1,0,0:0:0:65:jingle.wav
109,192,212510,1,0,0:0:0:45:kick2.wav
475,192,212510,1,0,0:0:0:0:
182,192,212510,1,0,0:0:0:0:
256,192,212571,1,0,0:0:0:0:
36,192,212633,1,0,0:0:0:65:jingle.wav
329,192,212633,1,0,0:0:0:50:drum2.wav
475,192,212633,1,0,0:0:0:0:
402,192,212633,1,0,0:0:0:0:
182,192,212695,1,0,0:0:0:0:
36,192,212757,1,0,0:0:0:65:jingle.wav
109,192,212757,1,0,0:0:0:45:kick2.wav
475,192,212757,1,0,0:0:0:0:
329,192,212757,1,0,0:0:0:0:
402,192,212880,1,0,0:0:0:30:hihat2.wav
182,192,212880,1,0,0:0:0:0:
256,192,212880,1,0,0:0:0:0:
109,192,212942,1,0,0:0:0:65:jingle.wav
475,192,213004,1,0,0:0:0:50:drum2.wav
256,192,213004,1,0,0:0:0:0:
36,192,213004,1,0,0:0:0:0:
329,192,213004,1,0,0:0:0:0:
402,192,213127,1,0,0:0:0:65:jingle.wav
475,192,213127,1,0,0:0:0:45:kick2.wav
36,192,213127,1,0,0:0:0:0:
182,192,213127,1,0,0:0:0:0:
329,192,213250,1,0,0:0:0:30:hihat2.wav
109,192,213250,1,0,0:0:0:0:
256,192,213250,1,0,0:0:0:0:
182,192,213312,1,0,0:0:0:65:jingle.wav
475,192,213374,1,0,0:0:0:50:drum2.wav
256,192,213374,1,0,0:0:0:0:
402,192,213374,1,0,0:0:0:0:
36,192,213374,1,0,0:0:0:0:
109,192,213497,1,0,0:0:0:65:jingle.wav
36,192,213497,1,0,0:0:0:45:kick2.wav
329,192,213497,1,0,0:0:0:0:
475,192,213497,1,0,0:0:0:0:
182,192,213621,1,0,0:0:0:30:hihat2.wav
256,192,213621,1,0,0:0:0:0:
402,192,213621,1,0,0:0:0:0:
329,192,213683,1,0,0:0:0:65:jingle.wav
475,192,213744,1,0,0:0:0:50:drum2.wav
109,192,213744,1,0,0:0:0:0:
36,192,213744,1,0,0:0:0:0:
256,192,213744,1,0,0:0:0:0:
402,192,213868,1,0,0:0:0:65:jingle.wav
475,192,213868,1,0,0:0:0:45:kick2.wav
36,192,213868,1,0,0:0:0:0:
182,192,213868,1,0,0:0:0:0:
109,192,213991,1,0,0:0:0:30:hihat2.wav
329,192,213991,1,0,0:0:0:0:
256,192,213991,1,0,0:0:0:0:
402,192,214053,1,0,0:0:0:65:jingle.wav
36,192,214115,1,0,0:0:0:50:drum2.wav
475,192,214115,1,0,0:0:0:0:
256,192,214115,1,0,0:0:0:0:
182,192,214115,1,0,0:0:0:0:
36,192,214238,1,0,0:0:0:65:jingle.wav
109,192,214238,1,0,0:0:0:35:kick3.wav
402,192,214238,1,0,0:0:0:45:kick2.wav
329,192,214238,1,0,0:0:0:0:
182,192,214362,1,0,0:0:0:50:drum2.wav
329,192,214362,1,0,0:0:0:0:
256,192,214362,1,0,0:0:0:0:
475,192,214362,1,0,0:0:0:0:
109,192,214423,1,0,0:0:0:65:jingle.wav
36,192,214485,1,0,0:0:0:35:kick3.wav
475,192,214485,1,0,0:0:0:45:kick2.wav
256,192,214485,1,0,0:0:0:0:
402,192,214485,1,0,0:0:0:0:
329,192,214547,1,0,0:0:0:0:
475,192,214609,1,0,0:0:0:65:jingle.wav
109,192,214609,1,0,0:0:0:50:drum2.wav
36,192,214609,1,0,0:0:0:0:
402,192,214609,1,0,0:0:0:0:
182,192,214670,1,0,0:0:0:0:
36,192,214732,1,0,0:0:0:65:jingle.wav
329,192,214732,1,0,0:0:0:45:kick2.wav
256,192,214732,1,0,0:0:0:0:
475,192,214732,1,0,0:0:0:0:
402,192,214855,1,0,0:0:0:30:hihat2.wav
182,192,214855,1,0,0:0:0:0:
109,192,214855,1,0,0:0:0:0:
329,192,214917,1,0,0:0:0:65:jingle.wav
256,192,214979,1,0,0:0:0:50:drum2.wav
36,192,214979,1,0,0:0:0:0:
475,192,214979,1,0,0:0:0:0:
109,192,214979,1,0,0:0:0:0:
329,192,215102,1,0,0:0:0:65:jingle.wav
475,192,215102,1,0,0:0:0:45:kick2.wav
182,192,215102,1,0,0:0:0:0:
36,192,215102,1,0,0:0:0:0:
109,192,215226,1,0,0:0:0:30:hihat2.wav
402,192,215226,1,0,0:0:0:0:
256,192,215226,1,0,0:0:0:0:
182,192,215288,1,0,0:0:0:65:jingle.wav
36,192,215349,1,0,0:0:0:50:drum2.wav
475,192,215349,1,0,0:0:0:0:
329,192,215349,1,0,0:0:0:0:
256,192,215349,1,0,0:0:0:0:
402,192,215473,1,0,0:0:0:65:jingle.wav
329,192,215473,1,0,0:0:0:45:kick2.wav
36,192,215473,1,0,0:0:0:0:
182,192,215473,1,0,0:0:0:0:
256,192,215534,1,0,0:0:0:0:
109,192,215596,1,0,0:0:0:65:jingle.wav
182,192,215596,1,0,0:0:0:50:drum2.wav
475,192,215596,1,0,0:0:0:0:
402,192,215596,1,0,0:0:0:0:
329,192,215658,1,0,0:0:0:0:
475,192,215720,1,0,0:0:0:65:jingle.wav
36,192,215720,1,0,0:0:0:45:kick2.wav
182,192,215720,1,0,0:0:0:0:
256,192,215720,1,0,0:0:0:0:
329,192,215843,1,0,0:0:0:30:hihat2.wav
402,192,215843,1,0,0:0:0:0:
109,192,215843,1,0,0:0:0:0:
182,192,215905,1,0,0:0:0:65:jingle.wav
256,192,215967,1,0,0:0:0:50:drum2.wav
475,192,215967,1,0,0:0:0:0:
402,192,215967,1,0,0:0:0:0:
36,192,215967,1,0,0:0:0:0:
36,192,216090,1,0,0:0:0:65:jingle.wav
329,192,216090,1,0,0:0:0:45:kick2.wav
475,192,216090,1,0,0:0:0:0:
182,192,216090,1,0,0:0:0:0:
109,192,216213,1,0,0:0:0:30:hihat2.wav
402,192,216213,1,0,0:0:0:0:
256,192,216213,1,0,0:0:0:0:
329,192,216275,1,0,0:0:0:65:jingle.wav
182,192,216337,1,0,0:0:0:50:drum2.wav
475,192,216337,1,0,0:0:0:0:
36,192,216337,1,0,0:0:0:0:
256,192,216337,1,0,0:0:0:0:
109,192,216460,1,0,0:0:0:65:jingle.wav
329,192,216460,1,0,0:0:0:45:kick2.wav
182,192,216460,1,0,0:0:0:0:
475,192,216460,1,0,0:0:0:0:
256,192,216522,1,0,0:0:0:0:
109,192,216584,1,0,0:0:0:65:jingle.wav
36,192,216584,1,0,0:0:0:50:drum2.wav
402,192,216584,1,0,0:0:0:0:
329,192,216584,1,0,0:0:0:0:
182,192,216646,1,0,0:0:0:0:
256,192,216707,1,0,0:0:0:65:jingle.wav
36,192,216707,1,0,0:0:0:45:kick2.wav
475,192,216707,1,0,0:0:0:0:
402,192,216707,1,0,0:0:0:0:
329,192,216831,1,0,0:0:0:30:hihat2.wav
109,192,216831,1,0,0:0:0:0:
182,192,216831,1,0,0:0:0:0:
402,192,216892,1,0,0:0:0:65:jingle.wav
36,192,216954,1,0,0:0:0:50:drum2.wav
256,192,216954,1,0,0:0:0:0:
475,192,216954,1,0,0:0:0:0:
182,192,216954,1,0,0:0:0:0:
475,192,217078,1,0,0:0:0:65:jingle.wav
402,192,217078,1,0,0:0:0:45:kick2.wav
36,192,217078,1,0,0:0:0:0:
109,192,217078,1,0,0:0:0:0:
182,192,217201,1,0,0:0:0:30:hihat2.wav
329,192,217201,1,0,0:0:0:65:jingle.wav
256,192,217201,1,0,0:0:0:0:
475,192,217325,1,0,0:0:0:0:
109,192,217325,1,0,0:0:0:50:drum2.wav
36,192,217325,1,0,0:0:0:0:
329,192,217325,1,0,0:0:0:0:
256,192,217386,1,0,0:0:0:65:jingle.wav
182,192,217448,1,0,0:0:0:45:kick2.wav
109,192,217448,1,0,0:0:0:0:
402,192,217448,1,0,0:0:0:0:
475,192,217448,1,0,0:0:0:0:
256,192,217510,1,0,0:0:0:0:
402,192,217571,1,0,0:0:0:65:jingle.wav
109,192,217571,1,0,0:0:0:50:drum2.wav
329,192,217571,1,0,0:0:0:0:
36,192,217571,1,0,0:0:0:0:
182,192,217633,1,0,0:0:0:0:
256,192,217695,1,0,0:0:0:65:jingle.wav
36,192,217695,1,0,0:0:0:45:kick2.wav
475,192,217695,1,0,0:0:0:45:kick3.wav
402,192,217695,1,0,0:0:0:0:
329,192,217777,1,0,0:0:0:0:
109,192,217818,1,0,0:0:0:50:drum2.wav
36,192,217818,1,0,0:0:0:0:
402,192,217860,1,0,0:0:0:0:
182,192,217880,1,0,0:0:0:35:drum2.wav
36,192,217942,1,0,0:0:0:65:jingle.wav
475,192,217942,1,0,0:0:0:45:kick2.wav
256,192,217942,1,0,0:0:0:45:kick3.wav
329,192,217942,1,0,0:0:0:0:
182,192,218024,1,0,0:0:0:0:
475,192,218065,1,0,0:0:0:50:drum2.wav
402,192,218065,1,0,0:0:0:0:
109,192,218106,1,0,0:0:0:0:
329,192,218127,1,0,0:0:0:35:drum2.wav
36,192,218189,1,0,0:0:0:65:jingle.wav
182,192,218189,1,0,0:0:0:45:kick2.wav
475,192,218189,1,0,0:0:0:45:kick3.wav
256,192,218189,1,0,0:0:0:0:
402,192,218271,1,0,0:0:0:0:
182,192,218312,1,0,0:0:0:35:drum2.wav
329,192,218353,1,0,0:0:0:0:
36,192,218374,1,0,0:0:0:45:kick2.wav
109,192,218374,1,0,0:0:0:45:kick3.wav
475,192,218374,1,0,0:0:0:0:
256,192,218436,1,0,0:0:0:65:jingle.wav
36,192,218497,1,0,0:0:0:35:drum2.wav
182,192,218518,1,0,0:0:0:0:
402,192,218559,1,0,0:0:0:45:kick2.wav
475,192,218559,1,0,0:0:0:45:kick3.wav
329,192,218559,1,0,0:0:0:0:
109,192,218600,1,0,0:0:0:0:
256,192,218621,1,0,0:0:0:0:
475,192,218683,5,0,0:0:0:65:jingle.wav
329,192,218683,1,0,0:0:0:30:drum2.wav
182,192,218683,1,0,0:0:0:45:kick3.wav
36,192,218683,1,0,0:0:0:0:
402,192,218744,1,0,0:0:0:30:drum2.wav
109,192,218744,1,0,0:0:0:0:
182,192,218806,1,0,0:0:0:30:drum2.wav
329,192,218806,1,0,0:0:0:0:
36,192,218868,1,0,0:0:0:65:jingle.wav
256,192,218868,1,0,0:0:0:30:drum2.wav
475,192,218868,1,0,0:0:0:0:
109,192,218930,1,0,0:0:0:30:drum2.wav
402,192,218930,1,0,0:0:0:0:
329,192,218991,1,0,0:0:0:30:drum2.wav
182,192,218991,1,0,0:0:0:0:
475,192,219053,1,0,0:0:0:65:jingle.wav
36,192,219053,1,0,0:0:0:30:drum2.wav
256,192,219053,1,0,0:0:0:45:kick3.wav
329,192,219115,1,0,0:0:0:30:drum2.wav
182,192,219115,1,0,0:0:0:0:
109,192,219176,1,0,0:0:0:30:drum2.wav
402,192,219176,1,0,0:0:0:0:
36,192,219238,1,0,0:0:0:65:jingle.wav
256,192,219238,1,0,0:0:0:30:drum2.wav
475,192,219238,1,0,0:0:0:0:
329,192,219300,1,0,0:0:0:30:drum2.wav
182,192,219300,1,0,0:0:0:0:
109,192,219362,1,0,0:0:0:30:drum2.wav
402,192,219362,1,0,0:0:0:0:
256,192,219423,1,0,0:0:0:65:jingle.wav
36,192,219423,1,0,0:0:0:30:drum2.wav
475,192,219423,1,0,0:0:0:45:kick3.wav
329,192,219485,1,0,0:0:0:30:drum2.wav
182,192,219485,1,0,0:0:0:0:
402,192,219547,1,0,0:0:0:65:jingle.wav
36,192,219547,1,0,0:0:0:30:drum2.wav
256,192,219609,1,0,0:0:0:30:drum2.wav
109,192,219609,1,0,0:0:0:0:
402,192,219670,1,0,0:0:0:65:jingle.wav
475,192,219670,1,0,0:0:0:45:kick2.wav
329,192,219670,1,0,0:0:0:0:
182,192,219670,1,0,0:0:0:0:
109,192,219732,1,0,0:0:0:0:
36,192,219794,1,0,0:0:0:30:hihat2.wav
329,192,219794,1,0,0:0:0:0:
256,192,219855,1,0,0:0:0:65:jingle.wav
182,192,219855,1,0,0:0:0:0:
109,192,219917,1,0,0:0:0:50:drum2.wav
402,192,219917,1,0,0:0:0:0:
36,192,219917,1,0,0:0:0:0:
475,192,219917,1,0,0:0:0:0:
256,192,219979,1,0,0:0:0:0:
182,192,220041,1,0,0:0:0:65:jingle.wav
36,192,220041,1,0,0:0:0:45:kick2.wav
329,192,220041,1,0,0:0:0:0:
402,192,220102,1,0,0:0:0:0:
475,192,220164,1,0,0:0:0:30:hihat2.wav
182,192,220164,1,0,0:0:0:0:
256,192,220226,1,0,0:0:0:65:jingle.wav
329,192,220226,1,0,0:0:0:0:
402,192,220288,1,0,0:0:0:50:drum2.wav
109,192,220288,1,0,0:0:0:0:
36,192,220288,1,0,0:0:0:0:
475,192,220288,1,0,0:0:0:0:
182,192,220349,1,0,0:0:0:0:
402,192,220411,1,0,0:0:0:65:jingle.wav
36,192,220411,1,0,0:0:0:45:kick2.wav
256,192,220411,1,0,0:0:0:0:
329,192,220473,1,0,0:0:0:0:
109,192,220473,1,0,0:0:0:0:
402,192,220534,1,0,0:0:0:65:jingle.wav
256,192,220534,1,0,0:0:0:50:drum2.wav
475,192,220534,1,0,0:0:0:0:
182,192,220534,1,0,0:0:0:0:
109,192,220596,1,0,0:0:0:0:
475,192,220658,1,0,0:0:0:65:jingle.wav
329,192,220658,1,0,0:0:0:30:drum2.wav
256,192,220658,1,0,0:0:0:45:kick3.wav
36,192,220658,1,0,0:0:0:0:
182,192,220720,1,0,0:0:0:30:drum2.wav
402,192,220720,1,0,0:0:0:0:
329,192,220781,1,0,0:0:0:30:drum2.wav
109,192,220781,1,0,0:0:0:0:
256,192,220843,1,0,0:0:0:65:jingle.wav
36,192,220843,1,0,0:0:0:30:drum2.wav
475,192,220843,1,0,0:0:0:0:
182,192,220905,1,0,0:0:0:30:drum2.wav
402,192,220905,1,0,0:0:0:0:
329,192,220967,1,0,0:0:0:30:drum2.wav
109,192,220967,1,0,0:0:0:0:
256,192,221028,1,0,0:0:0:65:jingle.wav
475,192,221028,1,0,0:0:0:30:drum2.wav
36,192,221028,1,0,0:0:0:45:kick3.wav
329,192,221090,1,0,0:0:0:30:drum2.wav
109,192,221090,1,0,0:0:0:0:
182,192,221152,1,0,0:0:0:30:drum2.wav
402,192,221152,1,0,0:0:0:0:
256,192,221213,1,0,0:0:0:65:jingle.wav
475,192,221213,1,0,0:0:0:30:drum2.wav
36,192,221213,1,0,0:0:0:0:
329,192,221275,1,0,0:0:0:30:drum2.wav
109,192,221275,1,0,0:0:0:0:
182,192,221337,1,0,0:0:0:30:drum2.wav
402,192,221337,1,0,0:0:0:0:
256,192,221399,1,0,0:0:0:65:jingle.wav
36,192,221399,1,0,0:0:0:30:drum2.wav
475,192,221399,1,0,0:0:0:45:kick3.wav
402,192,221460,1,0,0:0:0:30:drum2.wav
109,192,221460,1,0,0:0:0:0:
182,192,221522,1,0,0:0:0:30:drum2.wav
329,192,221522,1,0,0:0:0:0:
256,192,221584,1,0,0:0:0:65:jingle.wav
402,192,221584,1,0,0:0:0:30:drum2.wav
109,192,221584,1,0,0:0:0:0:
329,192,221646,1,0,0:0:0:50:drum2.wav
182,192,221646,1,0,0:0:0:0:
36,192,221646,1,0,0:0:0:0:
475,192,221646,1,0,0:0:0:0:
256,192,221707,1,0,0:0:0:0:
402,192,221769,1,0,0:0:0:65:jingle.wav
109,192,221769,1,0,0:0:0:45:kick2.wav
36,192,221769,1,0,0:0:0:0:
329,192,221831,1,0,0:0:0:0:
182,192,221892,1,0,0:0:0:30:hihat2.wav
475,192,221892,1,0,0:0:0:0:
36,192,221954,1,0,0:0:0:65:jingle.wav
256,192,221954,1,0,0:0:0:0:
182,192,222016,1,0,0:0:0:50:drum2.wav
109,192,222016,1,0,0:0:0:0:
329,192,222016,1,0,0:0:0:0:
402,192,222016,1,0,0:0:0:0:
475,192,222078,1,0,0:0:0:0:
109,192,222139,1,0,0:0:0:65:jingle.wav
329,192,222139,1,0,0:0:0:45:kick2.wav
36,192,222139,1,0,0:0:0:45:kick3.wav
256,192,222201,1,0,0:0:0:0:
402,192,222263,1,0,0:0:0:0:
182,192,222263,1,0,0:0:0:50:drum2.wav
475,192,222263,1,0,0:0:0:0:
36,192,222263,1,0,0:0:0:0:
329,192,222325,1,0,0:0:0:65:jingle.wav
109,192,222325,1,0,0:0:0:0:
256,192,222386,1,0,0:0:0:45:kick2.wav
182,192,222386,1,0,0:0:0:0:
475,192,222386,1,0,0:0:0:45:kick3.wav
402,192,222448,1,0,0:0:0:0:
109,192,222448,1,0,0:0:0:0:
329,192,222510,1,0,0:0:0:65:jingle.wav
36,192,222510,1,0,0:0:0:50:drum2.wav
182,192,222510,1,0,0:0:0:0:
256,192,222510,1,0,0:0:0:0:
402,192,222571,1,0,0:0:0:0:
475,192,222633,1,0,0:0:0:65:jingle.wav
36,192,222633,1,0,0:0:0:30:drum2.wav
256,192,222633,1,0,0:0:0:45:kick3.wav
109,192,222633,1,0,0:0:0:0:
402,192,222695,1,0,0:0:0:30:drum2.wav
182,192,222695,1,0,0:0:0:0:
109,192,222757,1,0,0:0:0:30:drum2.wav
329,192,222757,1,0,0:0:0:0:
256,192,222818,1,0,0:0:0:65:jingle.wav
36,192,222818,1,0,0:0:0:30:drum2.wav
475,192,222818,1,0,0:0:0:0:
182,192,222880,1,0,0:0:0:30:drum2.wav
329,192,222880,1,0,0:0:0:0:
109,192,222942,1,0,0:0:0:30:drum2.wav
402,192,222942,1,0,0:0:0:0:
475,192,223004,1,0,0:0:0:65:jingle.wav
36,192,223004,1,0,0:0:0:30:drum2.wav
256,192,223004,1,0,0:0:0:45:kick3.wav
109,192,223065,1,0,0:0:0:30:drum2.wav
329,192,223065,1,0,0:0:0:0:
402,192,223127,1,0,0:0:0:30:drum2.wav
182,192,223127,1,0,0:0:0:0:
256,192,223189,1,0,0:0:0:65:jingle.wav
36,192,223189,1,0,0:0:0:30:drum2.wav
475,192,223189,1,0,0:0:0:0:
109,192,223250,1,0,0:0:0:30:drum2.wav
402,192,223250,1,0,0:0:0:0:
329,192,223312,1,0,0:0:0:30:drum2.wav
182,192,223312,1,0,0:0:0:0:
475,192,223374,1,0,0:0:0:65:jingle.wav
256,192,223374,1,0,0:0:0:30:drum2.wav
36,192,223374,1,0,0:0:0:45:kick3.wav
402,192,223436,1,0,0:0:0:30:drum2.wav
182,192,223436,1,0,0:0:0:0:
109,192,223497,1,0,0:0:0:65:jingle.wav
329,192,223497,1,0,0:0:0:30:drum2.wav
256,192,223559,1,0,0:0:0:30:drum2.wav
402,192,223559,1,0,0:0:0:0:
109,192,223621,1,0,0:0:0:65:jingle.wav
36,192,223621,1,0,0:0:0:45:kick2.wav
475,192,223621,1,0,0:0:0:0:
182,192,223621,1,0,0:0:0:0:
329,192,223683,1,0,0:0:0:0:
402,192,223744,1,0,0:0:0:30:hihat2.wav
182,192,223744,1,0,0:0:0:0:
329,192,223806,1,0,0:0:0:65:jingle.wav
109,192,223806,1,0,0:0:0:0:
182,192,223868,1,0,0:0:0:50:drum2.wav
475,192,223868,1,0,0:0:0:0:
36,192,223868,1,0,0:0:0:0:
256,192,223868,1,0,0:0:0:0:
402,192,223930,1,0,0:0:0:0:
329,192,223991,1,0,0:0:0:65:jingle.wav
256,192,223991,1,0,0:0:0:45:kick2.wav
36,192,223991,1,0,0:0:0:0:
182,192,224053,1,0,0:0:0:0:
109,192,224115,1,0,0:0:0:30:hihat2.wav
329,192,224115,1,0,0:0:0:0:
182,192,224176,1,0,0:0:0:65:jingle.wav
402,192,224176,1,0,0:0:0:0:
36,192,224238,1,0,0:0:0:50:drum2.wav
475,192,224238,1,0,0:0:0:0:
256,192,224238,1,0,0:0:0:0:
329,192,224238,1,0,0:0:0:0:
109,192,224300,1,0,0:0:0:0:
182,192,224362,1,0,0:0:0:65:jingle.wav
402,192,224362,1,0,0:0:0:45:kick2.wav
475,192,224362,1,0,0:0:0:0:
109,192,224423,1,0,0:0:0:0:
329,192,224423,1,0,0:0:0:0:
36,192,224485,1,0,0:0:0:65:jingle.wav
182,192,224485,1,0,0:0:0:50:drum2.wav
256,192,224485,1,0,0:0:0:0:
475,192,224485,1,0,0:0:0:0:
402,192,224547,1,0,0:0:0:0:
109,192,224609,1,0,0:0:0:65:jingle.wav
36,192,224609,1,0,0:0:0:30:drum2.wav
182,192,224609,1,0,0:0:0:45:kick3.wav
329,192,224609,1,0,0:0:0:0:
256,192,224670,1,0,0:0:0:30:drum2.wav
475,192,224670,1,0,0:0:0:0:
182,192,224732,1,0,0:0:0:30:drum2.wav
402,192,224732,1,0,0:0:0:0:
36,192,224794,1,0,0:0:0:65:jingle.wav
109,192,224794,1,0,0:0:0:30:drum2.wav
329,192,224794,1,0,0:0:0:0:
256,192,224855,1,0,0:0:0:30:drum2.wav
475,192,224855,1,0,0:0:0:0:
182,192,224917,1,0,0:0:0:30:drum2.wav
402,192,224917,1,0,0:0:0:0:
36,192,224979,1,0,0:0:0:65:jingle.wav
329,192,224979,1,0,0:0:0:30:drum2.wav
109,192,224979,1,0,0:0:0:45:kick3.wav
256,192,225041,1,0,0:0:0:30:drum2.wav
182,192,225041,1,0,0:0:0:0:
402,192,225102,1,0,0:0:0:65:jingle.wav
109,192,225102,1,0,0:0:0:30:drum2.wav
475,192,225102,1,0,0:0:0:0:
256,192,225164,1,0,0:0:0:30:drum2.wav
36,192,225164,1,0,0:0:0:0:
329,192,225226,1,0,0:0:0:30:drum2.wav
109,192,225226,1,0,0:0:0:0:
182,192,225288,1,0,0:0:0:65:jingle.wav
402,192,225288,1,0,0:0:0:30:drum2.wav
475,192,225288,1,0,0:0:0:0:
36,192,225349,1,0,0:0:0:30:drum2.wav
256,192,225349,1,0,0:0:0:45:kick3.wav
329,192,225411,1,0,0:0:0:30:drum2.wav
109,192,225411,1,0,0:0:0:0:
182,192,225473,1,0,0:0:0:65:jingle.wav
475,192,225473,1,0,0:0:0:30:drum2.wav
402,192,225473,1,0,0:0:0:0:
256,192,225534,1,0,0:0:0:30:drum2.wav
329,192,225534,1,0,0:0:0:0:
475,192,225596,1,0,0:0:0:65:jingle.wav
36,192,225596,1,0,0:0:0:45:kick2.wav
109,192,225596,1,0,0:0:0:45:kick3.wav
182,192,225596,1,0,0:0:0:0:
402,192,225658,1,0,0:0:0:0:
36,192,225720,1,0,0:0:0:50:drum2.wav
182,192,225720,1,0,0:0:0:0:
329,192,225720,1,0,0:0:0:0:
475,192,225781,1,0,0:0:0:35:drum2.wav
256,192,225781,1,0,0:0:0:0:
402,192,225843,1,0,0:0:0:65:jingle.wav
36,192,225843,1,0,0:0:0:45:kick2.wav
109,192,225843,1,0,0:0:0:45:kick3.wav
329,192,225843,1,0,0:0:0:0:
182,192,225905,1,0,0:0:0:0:
256,192,225967,1,0,0:0:0:50:drum2.wav
402,192,225967,1,0,0:0:0:0:
475,192,225967,1,0,0:0:0:0:
109,192,226028,1,0,0:0:0:35:drum2.wav
182,192,226028,1,0,0:0:0:0:
329,192,226090,1,0,0:0:0:65:jingle.wav
475,192,226090,1,0,0:0:0:45:kick2.wav
402,192,226090,1,0,0:0:0:45:kick3.wav
36,192,226090,1,0,0:0:0:0:
109,192,226152,1,0,0:0:0:0:
182,192,226213,1,0,0:0:0:50:drum2.wav
329,192,226213,1,0,0:0:0:0:
475,192,226213,1,0,0:0:0:0:
36,192,226275,1,0,0:0:0:35:drum2.wav
256,192,226275,1,0,0:0:0:0:
182,192,226337,1,0,0:0:0:65:jingle.wav
402,192,226337,1,0,0:0:0:45:kick2.wav
109,192,226337,1,0,0:0:0:45:kick3.wav
475,192,226337,1,0,0:0:0:0:
329,192,226399,1,0,0:0:0:0:
36,192,226460,1,0,0:0:0:50:drum2.wav
109,192,226460,1,0,0:0:0:0:
256,192,226460,1,0,0:0:0:0:
402,192,226522,1,0,0:0:0:35:drum2.wav
329,192,226522,1,0,0:0:0:0:
36,192,226584,1,0,0:0:0:65:jingle.wav
182,192,226584,1,0,0:0:0:30:drum2.wav
475,192,226584,1,0,0:0:0:45:kick3.wav
109,192,226584,1,0,0:0:0:0:
256,192,226646,1,0,0:0:0:30:drum2.wav
329,192,226646,1,0,0:0:0:0:
182,192,226707,1,0,0:0:0:30:drum2.wav
402,192,226707,1,0,0:0:0:0:
109,192,226769,1,0,0:0:0:65:jingle.wav
36,192,226769,1,0,0:0:0:30:drum2.wav
329,192,226769,1,0,0:0:0:0:
256,192,226831,1,0,0:0:0:30:drum2.wav
475,192,226831,1,0,0:0:0:0:
109,192,226892,1,0,0:0:0:30:drum2.wav
182,192,226892,1,0,0:0:0:0:
402,192,226954,1,0,0:0:0:65:jingle.wav
36,192,226954,1,0,0:0:0:30:drum2.wav
329,192,226954,1,0,0:0:0:45:kick3.wav
182,192,227016,1,0,0:0:0:30:drum2.wav
256,192,227016,1,0,0:0:0:0:
109,192,227078,1,0,0:0:0:30:drum2.wav
329,192,227078,1,0,0:0:0:0:
182,192,227139,1,0,0:0:0:65:jingle.wav
402,192,227139,1,0,0:0:0:30:drum2.wav
475,192,227139,1,0,0:0:0:0:
36,192,227201,1,0,0:0:0:30:drum2.wav
256,192,227201,1,0,0:0:0:0:
329,192,227263,1,0,0:0:0:30:drum2.wav
402,192,227263,1,0,0:0:0:0:
182,192,227325,1,0,0:0:0:65:jingle.wav
475,192,227325,1,0,0:0:0:30:drum2.wav
109,192,227325,1,0,0:0:0:45:kick3.wav
36,192,227386,1,0,0:0:0:30:drum2.wav
256,192,227386,1,0,0:0:0:0:
109,192,227448,1,0,0:0:0:65:jingle.wav
329,192,227448,1,0,0:0:0:30:drum2.wav
402,192,227510,1,0,0:0:0:30:drum2.wav
182,192,227510,1,0,0:0:0:0:
36,192,227571,1,0,0:0:0:65:jingle.wav
256,192,227571,1,0,0:0:0:45:kick2.wav
109,192,227571,1,0,0:0:0:0:
475,192,227571,1,0,0:0:0:0:
329,192,227633,1,0,0:0:0:0:
402,192,227695,1,0,0:0:0:30:hihat2.wav
182,192,227695,1,0,0:0:0:0:
329,192,227757,1,0,0:0:0:65:jingle.wav
109,192,227757,1,0,0:0:0:0:
36,192,227818,1,0,0:0:0:50:drum2.wav
182,192,227818,1,0,0:0:0:0:
256,192,227818,1,0,0:0:0:0:
475,192,227818,1,0,0:0:0:0:
402,192,227880,1,0,0:0:0:0:
36,192,227942,1,0,0:0:0:65:jingle.wav
329,192,227942,1,0,0:0:0:45:kick2.wav
256,192,227942,1,0,0:0:0:0:
182,192,228004,1,0,0:0:0:0:
329,192,228065,1,0,0:0:0:30:hihat2.wav
109,192,228065,1,0,0:0:0:0:
402,192,228127,1,0,0:0:0:65:jingle.wav
182,192,228127,1,0,0:0:0:0:
329,192,228189,1,0,0:0:0:50:drum2.wav
256,192,228189,1,0,0:0:0:0:
36,192,228189,1,0,0:0:0:0:
475,192,228189,1,0,0:0:0:0:
109,192,228250,1,0,0:0:0:0:
182,192,228312,1,0,0:0:0:65:jingle.wav
402,192,228312,1,0,0:0:0:45:kick2.wav
329,192,228312,1,0,0:0:0:0:
36,192,228374,1,0,0:0:0:0:
256,192,228374,1,0,0:0:0:0:
109,192,228436,1,0,0:0:0:65:jingle.wav
475,192,228436,1,0,0:0:0:50:drum2.wav
402,192,228436,1,0,0:0:0:0:
182,192,228436,1,0,0:0:0:0:
329,192,228497,1,0,0:0:0:0:
109,192,228559,1,0,0:0:0:65:jingle.wav
36,192,228559,1,0,0:0:0:30:drum2.wav
256,192,228559,1,0,0:0:0:45:kick3.wav
475,192,228559,1,0,0:0:0:0:
402,192,228621,1,0,0:0:0:30:drum2.wav
182,192,228621,1,0,0:0:0:0:
109,192,228683,1,0,0:0:0:30:drum2.wav
329,192,228683,1,0,0:0:0:0:
36,192,228744,1,0,0:0:0:65:jingle.wav
182,192,228744,1,0,0:0:0:30:drum2.wav
475,192,228744,1,0,0:0:0:0:
256,192,228806,1,0,0:0:0:30:drum2.wav
329,192,228806,1,0,0:0:0:0:
109,192,228868,1,0,0:0:0:30:drum2.wav
402,192,228868,1,0,0:0:0:0:
36,192,228930,1,0,0:0:0:65:jingle.wav
256,192,228930,1,0,0:0:0:30:drum2.wav
475,192,228930,1,0,0:0:0:45:kick3.wav
109,192,228991,1,0,0:0:0:30:drum2.wav
329,192,228991,1,0,0:0:0:0:
182,192,229053,1,0,0:0:0:30:drum2.wav
402,192,229053,1,0,0:0:0:0:
329,192,229115,1,0,0:0:0:65:jingle.wav
36,192,229115,1,0,0:0:0:30:drum2.wav
475,192,229115,1,0,0:0:0:0:
182,192,229176,1,0,0:0:0:30:drum2.wav
256,192,229176,1,0,0:0:0:0:
402,192,229238,1,0,0:0:0:30:drum2.wav
109,192,229238,1,0,0:0:0:0:
475,192,229300,1,0,0:0:0:65:jingle.wav
36,192,229300,1,0,0:0:0:30:drum2.wav
256,192,229300,1,0,0:0:0:45:kick3.wav
329,192,229362,1,0,0:0:0:30:drum2.wav
182,192,229362,1,0,0:0:0:0:
402,192,229423,1,0,0:0:0:30:drum2.wav
109,192,229423,1,0,0:0:0:0:
475,192,229485,1,0,0:0:0:65:jingle.wav
256,192,229485,1,0,0:0:0:30:drum2.wav
36,192,229485,1,0,0:0:0:0:
109,192,229547,1,0,0:0:0:50:drum2.wav
402,192,229547,1,0,0:0:0:0:
329,192,229547,1,0,0:0:0:0:
182,192,229547,1,0,0:0:0:0:
256,192,229609,1,0,0:0:0:0:
36,192,229670,1,0,0:0:0:65:jingle.wav
182,192,229670,1,0,0:0:0:45:kick2.wav
475,192,229670,1,0,0:0:0:0:
402,192,229732,1,0,0:0:0:0:
109,192,229794,1,0,0:0:0:30:hihat2.wav
329,192,229794,1,0,0:0:0:0:
402,192,229855,1,0,0:0:0:65:jingle.wav
182,192,229855,1,0,0:0:0:0:
256,192,229917,1,0,0:0:0:50:drum2.wav
36,192,229917,1,0,0:0:0:0:
109,192,229917,1,0,0:0:0:0:
475,192,229917,1,0,0:0:0:0:
329,192,229979,1,0,0:0:0:0:
182,192,230041,1,0,0:0:0:65:jingle.wav
402,192,230041,1,0,0:0:0:45:kick2.wav
36,192,230041,1,0,0:0:0:45:kick3.wav
475,192,230102,1,0,0:0:0:0:
256,192,230164,1,0,0:0:0:50:drum2.wav
109,192,230164,1,0,0:0:0:0:
329,192,230164,1,0,0:0:0:0:
182,192,230164,1,0,0:0:0:0:
402,192,230226,1,0,0:0:0:65:jingle.wav
36,192,230226,1,0,0:0:0:0:
182,192,230288,1,0,0:0:0:45:kick2.wav
475,192,230288,1,0,0:0:0:45:kick3.wav
256,192,230288,1,0,0:0:0:0:
109,192,230349,1,0,0:0:0:0:
329,192,230349,1,0,0:0:0:0:
402,192,230411,1,0,0:0:0:65:jingle.wav
36,192,230411,1,0,0:0:0:50:drum2.wav
256,192,230411,1,0,0:0:0:0:
475,192,230411,1,0,0:0:0:0:
182,192,230473,1,0,0:0:0:0:
475,192,230534,1,0,0:0:0:65:jingle.wav
329,192,230534,1,0,0:0:0:30:drum2.wav
36,192,230534,1,0,0:0:0:45:kick3.wav
402,192,230534,1,0,0:0:0:0:
109,192,230596,1,0,0:0:0:30:drum2.wav
256,192,230596,1,0,0:0:0:0:
182,192,230658,1,0,0:0:0:30:drum2.wav
402,192,230658,1,0,0:0:0:0:
329,192,230720,1,0,0:0:0:65:jingle.wav
109,192,230720,1,0,0:0:0:30:drum2.wav
36,192,230720,1,0,0:0:0:0:
256,192,230781,1,0,0:0:0:30:drum2.wav
475,192,230781,1,0,0:0:0:0:
329,192,230843,1,0,0:0:0:30:drum2.wav
182,192,230843,1,0,0:0:0:0:
36,192,230905,1,0,0:0:0:65:jingle.wav
475,192,230905,1,0,0:0:0:30:drum2.wav
109,192,230905,1,0,0:0:0:45:kick3.wav
402,192,230967,1,0,0:0:0:30:drum2.wav
256,192,230967,1,0,0:0:0:0:
329,192,231028,1,0,0:0:0:30:drum2.wav
109,192,231028,1,0,0:0:0:0:
402,192,231090,1,0,0:0:0:65:jingle.wav
182,192,231090,1,0,0:0:0:30:drum2.wav
475,192,231090,1,0,0:0:0:0:
36,192,231152,1,0,0:0:0:30:drum2.wav
256,192,231152,1,0,0:0:0:0:
329,192,231213,1,0,0:0:0:30:drum2.wav
182,192,231213,1,0,0:0:0:0:
402,192,231275,1,0,0:0:0:65:jingle.wav
109,192,231275,1,0,0:0:0:30:drum2.wav
475,192,231275,1,0,0:0:0:45:kick3.wav
256,192,231337,1,0,0:0:0:30:drum2.wav
36,192,231337,1,0,0:0:0:0:
109,192,231399,1,0,0:0:0:65:jingle.wav
329,192,231399,1,0,0:0:0:30:drum2.wav
402,192,231460,1,0,0:0:0:30:drum2.wav
182,192,231460,1,0,0:0:0:0:
329,192,231522,1,0,0:0:0:65:jingle.wav
36,192,231522,1,0,0:0:0:45:kick2.wav
256,192,231522,1,0,0:0:0:0:
475,192,231522,1,0,0:0:0:0:
109,192,231584,1,0,0:0:0:0:
256,192,231646,1,0,0:0:0:30:hihat2.wav
182,192,231646,1,0,0:0:0:0:
402,192,231707,1,0,0:0:0:65:jingle.wav
329,192,231707,1,0,0:0:0:0:
182,192,231769,1,0,0:0:0:50:drum2.wav
36,192,231769,1,0,0:0:0:0:
109,192,231769,1,0,0:0:0:0:
475,192,231769,1,0,0:0:0:0:
256,192,231831,1,0,0:0:0:0:
475,192,231892,1,0,0:0:0:65:jingle.wav
109,192,231892,1,0,0:0:0:45:kick2.wav
36,192,231892,1,0,0:0:0:0:
402,192,231954,1,0,0:0:0:0:
256,192,232016,1,0,0:0:0:30:hihat2.wav
329,192,232016,1,0,0:0:0:0:
182,192,232078,1,0,0:0:0:65:jingle.wav
109,192,232078,1,0,0:0:0:0:
329,192,232139,1,0,0:0:0:50:drum2.wav
402,192,232139,1,0,0:0:0:0:
36,192,232139,1,0,0:0:0:0:
475,192,232139,1,0,0:0:0:0:
182,192,232201,1,0,0:0:0:0:
109,192,232263,1,0,0:0:0:65:jingle.wav
402,192,232263,1,0,0:0:0:45:kick2.wav
36,192,232263,1,0,0:0:0:0:
329,192,232325,1,0,0:0:0:0:
256,192,232325,1,0,0:0:0:0:
182,192,232386,1,0,0:0:0:65:jingle.wav
402,192,232386,1,0,0:0:0:50:drum2.wav
109,192,232386,1,0,0:0:0:0:
475,192,232386,1,0,0:0:0:0:
329,192,232448,1,0,0:0:0:0:
256,192,232510,1,0,0:0:0:65:jingle.wav
475,192,232510,1,0,0:0:0:30:drum2.wav
109,192,232510,1,0,0:0:0:45:kick3.wav
36,192,232510,1,0,0:0:0:0:
402,192,232571,1,0,0:0:0:30:drum2.wav
182,192,232571,1,0,0:0:0:0:
329,192,232633,1,0,0:0:0:30:drum2.wav
109,192,232633,1,0,0:0:0:0:
36,192,232695,1,0,0:0:0:65:jingle.wav
475,192,232695,1,0,0:0:0:30:drum2.wav
256,192,232695,1,0,0:0:0:0:
402,192,232757,1,0,0:0:0:30:drum2.wav
182,192,232757,1,0,0:0:0:0:
329,192,232818,1,0,0:0:0:30:drum2.wav
256,192,232818,1,0,0:0:0:0:
109,192,232880,1,0,0:0:0:65:jingle.wav
36,192,232880,1,0,0:0:0:30:drum2.wav
475,192,232880,1,0,0:0:0:45:kick3.wav
182,192,232942,1,0,0:0:0:30:drum2.wav
329,192,232942,1,0,0:0:0:0:
256,192,233004,1,0,0:0:0:65:jingle.wav
36,192,233004,1,0,0:0:0:30:drum2.wav
475,192,233004,1,0,0:0:0:0:
329,192,233065,1,0,0:0:0:30:drum2.wav
109,192,233065,1,0,0:0:0:0:
402,192,233127,1,0,0:0:0:30:drum2.wav
182,192,233127,1,0,0:0:0:0:
256,192,233189,1,0,0:0:0:65:jingle.wav
475,192,233189,1,0,0:0:0:30:drum2.wav
36,192,233189,1,0,0:0:0:0:
109,192,233250,1,0,0:0:0:30:drum2.wav
329,192,233250,1,0,0:0:0:45:kick3.wav
182,192,233312,1,0,0:0:0:30:drum2.wav
256,192,233312,1,0,0:0:0:0:
475,192,233374,1,0,0:0:0:65:jingle.wav
36,192,233374,1,0,0:0:0:30:drum2.wav
402,192,233374,1,0,0:0:0:0:
182,192,233436,1,0,0:0:0:30:drum2.wav
329,192,233436,1,0,0:0:0:0:
109,192,233497,1,0,0:0:0:65:jingle.wav
36,192,233497,1,0,0:0:0:45:kick2.wav
256,192,233497,1,0,0:0:0:35:kick3.wav
475,192,233497,1,0,0:0:0:0:
329,192,233559,1,0,0:0:0:0:
182,192,233621,1,0,0:0:0:50:drum2.wav
109,192,233621,1,0,0:0:0:0:
402,192,233621,1,0,0:0:0:0:
475,192,233683,1,0,0:0:0:35:drum2.wav
256,192,233683,1,0,0:0:0:0:
182,192,233744,1,0,0:0:0:65:jingle.wav
109,192,233744,1,0,0:0:0:45:kick2.wav
36,192,233744,1,0,0:0:0:35:kick3.wav
329,192,233744,1,0,0:0:0:0:
402,192,233806,1,0,0:0:0:0:
36,192,233868,1,0,0:0:0:50:drum2.wav
475,192,233868,1,0,0:0:0:0:
256,192,233868,1,0,0:0:0:0:
329,192,233930,1,0,0:0:0:35:drum2.wav
109,192,233930,1,0,0:0:0:0:
402,192,233991,1,0,0:0:0:65:jingle.wav
475,192,233991,1,0,0:0:0:35:kick3.wav
182,192,233991,1,0,0:0:0:45:kick2.wav
36,192,233991,1,0,0:0:0:0:
256,192,234053,1,0,0:0:0:0:
402,192,234115,1,0,0:0:0:50:drum2.wav
109,192,234115,1,0,0:0:0:0:
329,192,234115,1,0,0:0:0:0:
256,192,234176,1,0,0:0:0:35:drum2.wav
36,192,234176,1,0,0:0:0:0:
182,192,234238,1,0,0:0:0:65:jingle.wav
329,192,234238,1,0,0:0:0:35:kick3.wav
402,192,234238,1,0,0:0:0:45:kick2.wav
475,192,234238,1,0,0:0:0:0:
109,192,234300,1,0,0:0:0:0:
36,192,234362,1,0,0:0:0:50:drum2.wav
475,192,234362,1,0,0:0:0:0:
256,192,234362,1,0,0:0:0:0:
182,192,234423,1,0,0:0:0:35:drum2.wav
402,192,234423,1,0,0:0:0:0:
256,192,234485,1,0,0:0:0:65:jingle.wav
329,192,234485,1,0,0:0:0:35:kick3.wav
109,192,234485,1,0,0:0:0:45:kick2.wav
36,192,234485,1,0,0:0:0:0:
475,192,234547,1,0,0:0:0:0:
109,192,234609,1,0,0:0:0:50:drum2.wav
182,192,234609,1,0,0:0:0:0:
402,192,234609,1,0,0:0:0:0:
36,192,234670,1,0,0:0:0:35:drum2.wav
329,192,234670,1,0,0:0:0:0:
256,192,234732,1,0,0:0:0:65:jingle.wav
402,192,234732,1,0,0:0:0:35:kick3.wav
182,192,234732,1,0,0:0:0:45:kick2.wav
475,192,234732,1,0,0:0:0:0:
109,192,234794,1,0,0:0:0:0:
36,192,234855,1,0,0:0:0:50:drum2.wav
256,192,234855,1,0,0:0:0:0:
329,192,234855,1,0,0:0:0:0:
402,192,234917,1,0,0:0:0:35:drum2.wav
109,192,234917,1,0,0:0:0:0:
182,192,234979,1,0,0:0:0:65:jingle.wav
256,192,234979,1,0,0:0:0:45:kick2.wav
475,192,234979,1,0,0:0:0:35:kick3.wav
329,192,234979,1,0,0:0:0:0:
36,192,235041,1,0,0:0:0:0:
402,192,235102,1,0,0:0:0:50:drum2.wav
329,192,235102,1,0,0:0:0:0:
109,192,235102,1,0,0:0:0:0:
182,192,235164,1,0,0:0:0:35:drum2.wav
475,192,235164,1,0,0:0:0:0:
329,192,235226,1,0,0:0:0:65:jingle.wav
36,192,235226,1,0,0:0:0:45:kick2.wav
109,192,235226,1,0,0:0:0:35:kick3.wav
256,192,235226,1,0,0:0:0:0:
402,192,235288,1,0,0:0:0:0:
475,192,235349,1,0,0:0:0:50:drum2.wav
182,192,235349,1,0,0:0:0:0:
256,192,235349,1,0,0:0:0:0:
109,192,235411,1,0,0:0:0:35:drum2.wav
402,192,235411,1,0,0:0:0:0:
256,192,235473,1,0,0:0:0:65:jingle.wav
329,192,235473,1,0,0:0:0:45:kick2.wav
36,192,235473,1,0,0:0:0:35:kick3.wav
475,192,235473,1,0,0:0:0:0:
109,192,235534,1,0,0:0:0:0:
402,192,235596,1,0,0:0:0:50:drum2.wav
182,192,235596,1,0,0:0:0:0:
475,192,235596,1,0,0:0:0:0:
329,192,235658,1,0,0:0:0:35:drum2.wav
256,192,235658,1,0,0:0:0:0:
475,192,235720,1,0,0:0:0:65:jingle.wav
36,192,235720,1,0,0:0:0:45:kick2.wav
109,192,235720,1,0,0:0:0:35:kick3.wav
182,192,235720,1,0,0:0:0:0:
402,192,235781,1,0,0:0:0:0:
36,192,235843,1,0,0:0:0:50:drum2.wav
329,192,235843,1,0,0:0:0:0:
109,192,235843,1,0,0:0:0:0:
256,192,235905,1,0,0:0:0:35:drum2.wav
182,192,235905,1,0,0:0:0:0:
329,192,235967,1,0,0:0:0:65:jingle.wav
402,192,235967,1,0,0:0:0:35:kick3.wav
475,192,235967,1,0,0:0:0:45:kick2.wav
36,192,235967,1,0,0:0:0:0:
109,192,236028,1,0,0:0:0:0:
182,192,236090,1,0,0:0:0:50:drum2.wav
402,192,236090,1,0,0:0:0:0:
475,192,236090,1,0,0:0:0:0:
329,192,236152,1,0,0:0:0:35:drum2.wav
256,192,236152,1,0,0:0:0:0:
182,192,236213,1,0,0:0:0:65:jingle.wav
109,192,236213,1,0,0:0:0:35:kick3.wav
475,192,236213,1,0,0:0:0:45:kick2.wav
36,192,236213,1,0,0:0:0:0:
402,192,236275,1,0,0:0:0:0:
329,192,236337,1,0,0:0:0:50:drum2.wav
109,192,236337,1,0,0:0:0:0:
36,192,236337,1,0,0:0:0:0:
182,192,236399,1,0,0:0:0:35:drum2.wav
256,192,236399,1,0,0:0:0:0:
402,192,236460,1,0,0:0:0:65:jingle.wav
109,192,236460,1,0,0:0:0:35:kick3.wav
475,192,236460,1,0,0:0:0:45:kick2.wav
36,192,236460,1,0,0:0:0:0:
329,192,236522,1,0,0:0:0:0:
109,192,236584,1,0,0:0:0:50:drum2.wav
182,192,236584,1,0,0:0:0:0:
475,192,236584,1,0,0:0:0:0:
329,192,236646,1,0,0:0:0:35:drum2.wav
256,192,236646,1,0,0:0:0:0:
402,192,236707,1,0,0:0:0:65:jingle.wav
475,192,236707,1,0,0:0:0:35:kick3.wav
36,192,236707,1,0,0:0:0:45:kick2.wav
109,192,236707,1,0,0:0:0:0:
182,192,236769,1,0,0:0:0:0:
329,192,236831,1,0,0:0:0:50:drum2.wav
402,192,236831,1,0,0:0:0:0:
36,192,236831,1,0,0:0:0:0:
182,192,236892,1,0,0:0:0:35:drum2.wav
256,192,236892,1,0,0:0:0:0:
109,192,236954,1,0,0:0:0:65:jingle.wav
475,192,236954,1,0,0:0:0:45:kick2.wav
36,192,236954,1,0,0:0:0:35:kick3.wav
402,192,236954,1,0,0:0:0:35:drum2.wav
329,192,237016,1,0,0:0:0:35:drum2.wav
256,192,237016,1,0,0:0:0:0:
109,192,237078,1,0,0:0:0:65:jingle.wav
182,192,237078,1,0,0:0:0:45:kick2.wav
402,192,237078,1,0,0:0:0:35:kick3.wav
475,192,237078,1,0,0:0:0:35:drum2.wav
329,192,237139,1,0,0:0:0:35:drum2.wav
256,192,237139,1,0,0:0:0:0:
36,192,237201,1,0,0:0:0:65:jingle.wav
109,192,237201,1,0,0:0:0:45:kick2.wav
402,192,237201,1,0,0:0:0:35:kick3.wav
475,192,237201,1,0,0:0:0:35:drum2.wav
182,192,237263,1,0,0:0:0:35:drum2.wav
256,192,237263,1,0,0:0:0:0:
36,192,237325,1,0,0:0:0:65:jingle.wav
109,192,237325,1,0,0:0:0:45:kick2.wav
402,192,237325,1,0,0:0:0:35:kick3.wav
329,192,237325,1,0,0:0:0:35:drum2.wav
182,192,237386,1,0,0:0:0:35:drum2.wav
256,192,237386,1,0,0:0:0:0:
36,192,238073,1,0,0:0:0:0:
182,192,238112,1,0,0:0:0:0:
329,192,238151,1,0,0:0:0:0:
475,192,238190,128,0,243073:0:0:0:35:chime.wav
