osu file format v14

[General]
AudioFilename: audio.mp3
AudioLeadIn: 0
PreviewTime: 69733
Countdown: 0
SampleSet: Normal
StackLeniency: 0.7
Mode: 3
LetterboxInBreaks: 0
SpecialStyle: 0
WidescreenStoryboard: 1

[Editor]
DistanceSpacing: 0.4
BeatDivisor: 4
GridSize: 32
TimelineZoom: 0.7000002

[Metadata]
Title:Wavetapper
TitleUnicode:Wavetapper
Artist:Frums
ArtistUnicode:Frums
Creator:-mint-
Version:Advanced
Source:BOFU2015
Tags:bms bofu the bms of fighting ultimate fidelity smith au lait phigros microhouse fa featured artist qqqant electronic instrumental
BeatmapID:2208847
BeatmapSetID:866661

[Difficulty]
HPDrainRate:7
CircleSize:4
OverallDifficulty:7.5
ApproachRate:5
SliderMultiplier:1.4
SliderTickRate:1

[Events]
//Background and Video events
0,0,"wavetapper.png",0,0
//Break Periods
//Storyboard Layer 0 (Background)
//Storyboard Layer 1 (Fail)
//Storyboard Layer 2 (Pass)
//Storyboard Layer 3 (Foreground)
//Storyboard Layer 4 (Overlay)
//Storyboard Sound Samples

[TimingPoints]
1162,535.714285714286,4,1,1,15,1,0
1162,-200,4,1,1,15,0,0
3037,-10,4,1,1,15,0,0
3081,-10000,4,1,1,15,0,0
3304,-200,4,1,1,15,0,0
5045,-12.0481927710843,4,1,1,15,0,0
5069,-10000,4,1,1,15,0,0
5179,-12.0481927710843,4,1,1,15,0,0
5203,-10000,4,1,1,15,0,0
5447,-200,4,1,1,15,0,0
7322,-10,4,1,1,15,0,0
7367,-10000,4,1,1,15,0,0
7590,-200,4,1,1,15,0,0
9331,-12.0481927710843,4,1,1,15,0,0
9347,-10000,4,1,1,15,0,0
9465,-12.0481927710843,4,1,1,15,0,0
9481,-10000,4,1,1,15,0,0
9599,-12.0481927710843,4,1,1,15,0,0
9607,-10000,4,1,1,15,0,0
9666,-12.0481927710843,4,1,1,15,0,0
9674,-10000,4,1,1,15,0,0
9733,-200,4,1,1,15,0,0
11608,-10,4,1,1,15,0,0
11653,-10000,4,1,1,15,0,0
11876,-222.222222222223,4,1,1,15,0,0
13617,-12.0481927710843,4,1,1,15,0,0
13641,-10000,4,1,1,15,0,0
13751,-12.0481927710843,4,1,1,15,0,0
13775,-10000,4,1,1,15,0,0
14019,-250,4,1,1,15,0,0
15894,-10,4,1,1,15,0,0
15938,-10000,4,1,1,15,0,0
16162,-285.714285714286,4,1,1,15,0,0
17903,-12.0481927710843,4,1,1,15,0,0
17919,-10000,4,1,1,15,0,0
18037,-12.0481927710843,4,1,1,15,0,0
18053,-10000,4,1,1,15,0,0
18170,-12.0481927710843,4,1,1,15,0,0
18178,-10000,4,1,1,15,0,0
18237,-12.0481927710843,4,1,1,15,0,0
18245,-10000,4,1,1,15,0,0
18304,-166.666666666667,4,1,1,15,0,0
18706,-185.185185185185,4,1,1,15,0,0
19510,-166.666666666667,4,1,1,15,0,0
19644,-185.185185185185,4,1,1,15,0,0
20179,-20.2020202020202,4,1,1,15,0,0
20211,-10000,4,1,1,15,0,0
20447,-142.857142857143,4,1,1,15,0,0
20849,-178.571428571429,4,1,1,15,0,0
21653,-142.857142857143,4,1,1,15,0,0
21787,-178.571428571429,4,1,1,15,0,0
22054,-142.857142857143,4,1,1,15,0,0
22188,-17.2711571675302,4,1,1,15,0,0
22204,-10000,4,1,1,15,0,0
22322,-17.2711571675302,4,1,1,15,0,0
22338,-10000,4,1,1,15,0,0
22456,-133.333333333333,4,1,1,15,0,0
22590,-125,4,1,1,15,0,0
22992,-178.571428571429,4,1,1,15,0,0
23528,-125,4,1,1,15,0,0
23662,-25,4,1,1,15,0,0
23665,-71.4285714285714,4,1,1,15,0,0
23695,-100,4,1,1,15,0,0
23728,-125,4,1,1,15,0,0
24063,-25,4,1,1,15,0,0
24066,-71.4285714285714,4,1,1,15,0,0
24096,-100,4,1,1,15,0,0
24129,-125,4,1,1,15,0,0
24197,-178.571428571429,4,1,1,15,0,0
24465,-15.0829562594268,4,1,1,15,0,0
24497,-10000,4,1,1,15,0,0
24733,-111.111111111111,4,1,1,15,0,0
25135,-185.185185185185,4,1,1,15,0,0
25670,-111.111111111111,4,1,1,15,0,0
25804,-22.2222222222222,4,1,1,15,0,0
25807,-63.2911392405063,4,1,1,15,0,0
25837,-88.4955752212389,4,1,1,15,0,0
25870,-111.111111111111,4,1,1,15,0,0
26206,-22.2222222222222,4,1,1,15,0,0
26209,-63.2911392405063,4,1,1,15,0,0
26239,-88.4955752212389,4,1,1,15,0,0
26272,-111.111111111111,4,1,1,15,0,0
26474,-13.4048257372654,4,1,1,15,0,0
26490,-10000,4,1,1,15,0,0
26608,-13.4048257372654,4,1,1,15,0,0
26624,-10000,4,1,1,15,0,0
26741,-13.4048257372654,4,1,1,15,0,0
26749,-10000,4,1,1,15,0,0
26808,-13.4048257372654,4,1,1,15,0,0
26816,-10000,4,1,1,15,0,0
26876,-10,4,1,1,15,0,0
26881,-100,4,1,1,15,0,0
27278,-200,4,1,1,15,0,0
27813,-100,4,1,1,15,0,0
27948,-20,4,1,1,15,0,0
27951,-57.1428571428571,4,1,1,15,0,0
27981,-80,4,1,1,15,0,0
28014,-100,4,1,1,15,0,0
28349,-20,4,1,1,15,0,0
28352,-57.1428571428571,4,1,1,15,0,0
28382,-80,4,1,1,15,0,0
28416,-100,4,1,1,15,0,0
28483,-200,4,1,1,15,0,0
28751,-12.0481927710843,4,1,1,15,0,0
28767,-10000,4,1,1,15,0,0
28885,-20,4,1,1,15,0,0
28890,-100,4,1,1,15,0,0
29019,-10,4,1,1,15,0,0
29024,-100,4,1,1,15,0,0
29420,-200,4,1,1,15,0,0
29956,-100,4,1,1,15,0,0
30090,-20,4,1,1,15,0,0
30093,-57.1428571428571,4,1,1,15,0,0
30123,-80,4,1,1,15,0,0
30156,-100,4,1,1,15,0,0
30492,-20,4,1,1,15,0,0
30495,-57.1428571428571,4,1,1,15,0,0
30525,-80,4,1,1,15,0,0
30558,-100,4,1,1,15,0,0
30760,-12.0481927710843,4,1,1,15,0,0
30776,-10000,4,1,1,15,0,0
30894,-12.0481927710843,4,1,1,15,0,0
30910,-10000,4,1,1,15,0,0
31028,-20,4,1,1,15,0,0
31033,-100,4,1,1,15,0,0
31162,-10,4,1,1,15,0,0
31167,-100,4,1,1,15,0,0
32234,-20,4,1,1,15,0,0
32237,-57.1428571428571,4,1,1,15,0,0
32267,-80,4,1,1,15,0,0
32300,-100,4,1,1,15,0,0
32635,-20,4,1,1,15,0,0
32638,-57.1428571428571,4,1,1,15,0,0
32668,-80,4,1,1,15,0,0
32702,-100,4,1,1,15,0,0
33037,-12.0481927710843,4,1,1,15,0,0
33053,-10000,4,1,1,15,0,0
33171,-20,4,1,1,15,0,0
33176,-100,4,1,1,15,0,0
33304,-10,4,1,1,15,0,0
33309,-100,4,1,1,15,0,0
34375,-20,4,1,1,15,0,0
34378,-57.1428571428571,4,1,1,15,0,0
34408,-80,4,1,1,15,0,0
34441,-100,4,1,1,15,0,0
34777,-20,4,1,1,15,0,0
34780,-57.1428571428571,4,1,1,15,0,0
34810,-80,4,1,1,15,0,0
34843,-100,4,1,1,15,0,0
35045,-12.0481927710843,4,1,1,15,0,0
35061,-10000,4,1,1,15,0,0
35179,-12.0481927710843,4,1,1,15,0,0
35195,-10000,4,1,1,15,0,0
35312,-12.0481927710843,4,1,1,15,0,0
35320,-10000,4,1,1,15,0,0
35379,-12.0481927710843,4,1,1,15,0,0
35387,-10000,4,1,1,15,0,0
35447,-10,4,1,1,15,0,0
35452,-100,4,1,1,15,0,0
36519,-32.258064516129,4,1,1,15,0,0
36552,-333.333333333333,4,1,1,15,0,0
36653,-100,4,1,1,15,0,0
37322,-12.0481927710843,4,1,1,15,0,0
37338,-10000,4,1,1,15,0,0
37456,-20,4,1,1,15,0,0
37461,-100,4,1,1,15,0,0
37590,-10,4,1,1,15,0,0
37595,-100,4,1,1,15,0,0
38662,-32.258064516129,4,1,1,15,0,0
38695,-333.333333333333,4,1,1,15,0,0
38796,-100,4,1,1,15,0,0
39331,-12.0481927710843,4,1,1,15,0,0
39347,-10000,4,1,1,15,0,0
39465,-12.0481927710843,4,1,1,15,0,0
39481,-10000,4,1,1,15,0,0
39599,-20,4,1,1,15,0,0
39604,-100,4,1,1,15,0,0
39733,-10,4,1,1,15,0,0
39738,-100,4,1,1,15,0,0
40805,-32.258064516129,4,1,1,15,0,0
40838,-333.333333333333,4,1,1,15,0,0
40939,-100,4,1,1,15,0,0
41608,-12.0481927710843,4,1,1,15,0,0
41624,-10000,4,1,1,15,0,0
41742,-20,4,1,1,15,0,0
41747,-100,4,1,1,15,0,0
41876,-10,4,1,1,15,0,0
41881,-100,4,1,1,15,0,0
42948,-32.258064516129,4,1,1,15,0,0
42981,-333.333333333333,4,1,1,15,0,0
43082,-100,4,1,1,15,0,0
43617,-12.0481927710843,4,1,1,15,0,0
43633,-10000,4,1,1,15,0,0
43751,-12.0481927710843,4,1,1,15,0,0
43767,-10000,4,1,1,15,0,0
43884,-12.0481927710843,4,1,1,15,0,0
43892,-10000,4,1,1,15,0,0
43951,-12.0481927710843,4,1,1,15,0,0
43959,-10000,4,1,1,15,0,0
44019,-10,4,1,1,15,0,0
44024,-200,4,1,1,15,0,0
45091,-42.9184549356223,4,1,1,15,0,0
45124,-434.782608695652,4,1,1,15,0,0
45225,-200,4,1,1,15,0,0
46028,-40,4,1,1,15,0,0
46033,-200,4,1,1,15,0,0
46162,-20,4,1,1,15,0,0
46167,-200,4,1,1,15,0,0
47234,-42.9184549356223,4,1,1,15,0,0
47267,-434.782608695652,4,1,1,15,0,0
47368,-200,4,1,1,15,0,0
48170,-40,4,1,1,15,0,0
48175,-200,4,1,1,15,0,0
48305,-20,4,1,1,15,0,0
48310,-200,4,1,1,15,0,0
49377,-42.9184549356223,4,1,1,15,0,0
49410,-434.782608695652,4,1,1,15,0,0
49511,-200,4,1,1,15,0,0
50314,-40,4,1,1,15,0,0
50319,-200,4,1,1,15,0,0
50447,-125,4,1,1,15,0,0
52054,-66.6666666666667,4,1,1,15,0,0
52088,-125,4,1,1,15,0,0
52322,-66.6666666666667,4,1,1,15,0,0
52356,-125,4,1,1,15,0,0
52992,-133.333333333333,4,1,1,15,0,0
53260,-125,4,1,1,15,0,0
54197,-66.6666666666667,4,1,1,15,0,0
54231,-125,4,1,1,15,0,0
54465,-66.6666666666667,4,1,1,15,0,0
54499,-125,4,1,1,15,0,0
55135,-142.857142857143,4,1,1,15,0,0
55403,-125,4,1,1,15,0,0
56340,-66.6666666666667,4,1,1,15,0,0
56374,-125,4,1,1,15,0,0
56608,-66.6666666666667,4,1,1,15,0,0
56642,-125,4,1,1,15,0,0
56742,-66.6666666666667,4,1,1,15,0,0
56776,-125,4,1,1,15,0,0
57278,-153.846153846154,4,1,1,15,0,0
57545,-125,4,1,1,15,0,0
58483,-66.6666666666667,4,1,1,15,0,0
58517,-125,4,1,1,15,0,0
58751,-66.6666666666667,4,1,1,15,0,0
58785,-125,4,1,1,15,0,0
59420,-166.666666666667,4,1,1,15,0,0
59688,-125,4,1,1,15,0,0
60626,-66.6666666666667,4,1,1,15,0,0
60660,-125,4,1,1,15,0,0
60760,-66.6666666666667,4,1,1,15,0,0
60794,-125,4,1,1,15,0,0
60894,-66.6666666666667,4,1,1,15,0,0
60928,-125,4,1,1,15,0,0
61028,-66.6666666666667,4,1,1,15,0,0
61062,-125,4,1,1,15,0,0
61563,-181.818181818182,4,1,1,15,0,0
61831,-125,4,1,1,15,0,0
62769,-66.6666666666667,4,1,1,15,0,0
62803,-125,4,1,1,15,0,0
63037,-66.6666666666667,4,1,1,15,0,0
63071,-125,4,1,1,15,0,0
63706,-200,4,1,1,15,0,0
63974,-125,4,1,1,15,0,0
64912,-66.6666666666667,4,1,1,15,0,0
64946,-125,4,1,1,15,0,0
65180,-66.6666666666667,4,1,1,15,0,0
65214,-125,4,1,1,15,0,0
65314,-66.6666666666667,4,1,1,15,0,0
65348,-125,4,1,1,15,0,0
65849,-222.222222222222,4,1,1,15,0,0
66117,-125,4,1,1,15,0,0
67055,-66.6666666666667,4,1,1,15,0,0
67089,-125,4,1,1,15,0,0
67323,-66.6666666666667,4,1,1,15,0,0
67357,-125,4,1,1,15,0,0
67992,-250,4,1,1,15,0,0
68260,-125,4,1,1,15,0,0
69198,-66.6666666666667,4,1,1,15,0,0
69232,-125,4,1,1,15,0,0
69331,-66.6666666666667,4,1,1,15,0,0
69365,-125,4,1,1,15,0,0
69465,-66.6666666666667,4,1,1,15,0,0
69499,-125,4,1,1,15,0,0
69599,-66.6666666666667,4,1,1,15,0,0
69633,-125,4,1,1,15,0,0
69733,-1000,4,1,1,15,0,0
70068,-66.6666666666667,4,1,1,15,0,0
70135,-32.258064516129,4,1,1,15,0,0
70168,-500,4,1,1,15,0,0
70269,-32.258064516129,4,1,1,15,0,0
70302,-500,4,1,1,15,0,0
70403,-32.258064516129,4,1,1,15,0,0
70436,-500,4,1,1,15,0,0
70537,-32.258064516129,4,1,1,15,0,0
70570,-500,4,1,1,15,0,0
70670,-32.258064516129,4,1,1,15,0,0
70703,-500,4,1,1,15,0,0
70804,-32.258064516129,4,1,1,15,0,0
70837,-500,4,1,1,15,0,0
70938,-32.258064516129,4,1,1,15,0,0
70971,-500,4,1,1,15,0,0
71072,-32.258064516129,4,1,1,15,0,0
71105,-500,4,1,1,15,0,0
71206,-32.258064516129,4,1,1,15,0,0
71239,-500,4,1,1,15,0,0
71340,-32.258064516129,4,1,1,15,0,0
71373,-500,4,1,1,15,0,0
71474,-32.258064516129,4,1,1,15,0,0
71507,-500,4,1,1,15,0,0
71608,-1000,4,1,1,15,0,0
71809,-27.027027027027,4,1,1,15,0,0
71876,-1000,4,1,1,15,0,0
72077,-27.027027027027,4,1,1,15,0,0
72144,-100,4,1,1,15,0,0
72278,-1000,4,1,1,15,0,0
72479,-27.027027027027,4,1,1,15,0,0
72546,-100,4,1,1,15,0,0
72679,-1000,4,1,1,15,0,0
72880,-27.027027027027,4,1,1,15,0,0
72947,-100,4,1,1,15,0,0
73081,-1000,4,1,1,15,0,0
73282,-27.027027027027,4,1,1,15,0,0
73349,-100,4,1,1,15,0,0
73483,-1000,4,1,1,15,0,0
73684,-27.027027027027,4,1,1,15,0,0
73751,-100,4,1,1,15,0,0
74019,-1000,4,1,1,15,0,0
74354,-66.6666666666667,4,1,1,15,0,0
74421,-32.258064516129,4,1,1,15,0,0
74454,-500,4,1,1,15,0,0
74555,-32.258064516129,4,1,1,15,0,0
74588,-500,4,1,1,15,0,0
74689,-32.258064516129,4,1,1,15,0,0
74722,-500,4,1,1,15,0,0
74823,-32.258064516129,4,1,1,15,0,0
74856,-500,4,1,1,15,0,0
74956,-32.258064516129,4,1,1,15,0,0
74989,-500,4,1,1,15,0,0
75090,-32.258064516129,4,1,1,15,0,0
75123,-500,4,1,1,15,0,0
75224,-32.258064516129,4,1,1,15,0,0
75257,-500,4,1,1,15,0,0
75358,-32.258064516129,4,1,1,15,0,0
75391,-500,4,1,1,15,0,0
75492,-32.258064516129,4,1,1,15,0,0
75525,-500,4,1,1,15,0,0
75626,-32.258064516129,4,1,1,15,0,0
75659,-500,4,1,1,15,0,0
75760,-32.258064516129,4,1,1,15,0,0
75793,-500,4,1,1,15,0,0
75894,-1000,4,1,1,15,0,0
76095,-27.027027027027,4,1,1,15,0,0
76162,-1000,4,1,1,15,0,0
76363,-27.027027027027,4,1,1,15,0,0
76430,-100,4,1,1,15,0,0
76564,-1000,4,1,1,15,0,0
76765,-27.027027027027,4,1,1,15,0,0
76832,-100,4,1,1,15,0,0
76965,-1000,4,1,1,15,0,0
77166,-27.027027027027,4,1,1,15,0,0
77233,-100,4,1,1,15,0,0
77367,-1000,4,1,1,15,0,0
77568,-27.027027027027,4,1,1,15,0,0
77635,-100,4,1,1,15,0,0
77769,-1000,4,1,1,15,0,0
77970,-27.027027027027,4,1,1,15,0,0
78037,-100,4,1,1,15,0,0
78304,-1000,4,1,1,15,0,0
78639,-66.6666666666667,4,1,1,15,0,0
78706,-32.258064516129,4,1,1,15,0,0
78739,-500,4,1,1,15,0,0
78840,-32.258064516129,4,1,1,15,0,0
78873,-500,4,1,1,15,0,0
78974,-32.258064516129,4,1,1,15,0,0
79007,-500,4,1,1,15,0,0
79108,-32.258064516129,4,1,1,15,0,0
79141,-500,4,1,1,15,0,0
79241,-32.258064516129,4,1,1,15,0,0
79274,-500,4,1,1,15,0,0
79375,-32.258064516129,4,1,1,15,0,0
79408,-500,4,1,1,15,0,0
79509,-32.258064516129,4,1,1,15,0,0
79542,-500,4,1,1,15,0,0
79643,-32.258064516129,4,1,1,15,0,0
79676,-500,4,1,1,15,0,0
79777,-32.258064516129,4,1,1,15,0,0
79810,-500,4,1,1,15,0,0
79911,-32.258064516129,4,1,1,15,0,0
79944,-500,4,1,1,15,0,0
80045,-32.258064516129,4,1,1,15,0,0
80078,-500,4,1,1,15,0,0
80179,-100,4,1,1,15,0,0
80447,-1000,4,1,1,15,0,0
80648,-27.027027027027,4,1,1,15,0,0
80715,-100,4,1,1,15,0,0
80849,-1000,4,1,1,15,0,0
81050,-27.027027027027,4,1,1,15,0,0
81117,-100,4,1,1,15,0,0
81250,-1000,4,1,1,15,0,0
81451,-27.027027027027,4,1,1,15,0,0
81518,-100,4,1,1,15,0,0
81652,-1000,4,1,1,15,0,0
81853,-27.027027027027,4,1,1,15,0,0
81920,-100,4,1,1,15,0,0
82054,-1000,4,1,1,15,0,0
82255,-27.027027027027,4,1,1,15,0,0
82322,-100,4,1,1,15,0,0
82590,-1000,4,1,1,15,0,0
82925,-66.6666666666667,4,1,1,15,0,0
82992,-32.258064516129,4,1,1,15,0,0
83025,-500,4,1,1,15,0,0
83126,-32.258064516129,4,1,1,15,0,0
83159,-500,4,1,1,15,0,0
83260,-32.258064516129,4,1,1,15,0,0
83293,-500,4,1,1,15,0,0
83394,-32.258064516129,4,1,1,15,0,0
83427,-500,4,1,1,15,0,0
83528,-32.258064516129,4,1,1,15,0,0
83561,-500,4,1,1,15,0,0
83662,-32.258064516129,4,1,1,15,0,0
83695,-500,4,1,1,15,0,0
83796,-32.258064516129,4,1,1,15,0,0
83829,-500,4,1,1,15,0,0
83930,-32.258064516129,4,1,1,15,0,0
83963,-500,4,1,1,15,0,0
84064,-32.258064516129,4,1,1,15,0,0
84097,-500,4,1,1,15,0,0
84198,-32.258064516129,4,1,1,15,0,0
84231,-500,4,1,1,15,0,0
84332,-32.258064516129,4,1,1,15,0,0
84365,-500,4,1,1,15,0,0
84466,-32.258064516129,4,1,1,15,0,0
84499,-500,4,1,1,15,0,0
84599,-32.258064516129,4,1,1,15,0,0
84632,-500,4,1,1,15,0,0
84733,-32.258064516129,4,1,1,15,0,0
84766,-500,4,1,1,15,0,0
84867,-32.258064516129,4,1,1,15,0,0
84900,-500,4,1,1,15,0,0
85001,-32.258064516129,4,1,1,15,0,0
85034,-500,4,1,1,15,0,0
85135,-32.258064516129,4,1,1,15,0,0
85168,-500,4,1,1,15,0,0
85269,-32.258064516129,4,1,1,15,0,0
85302,-500,4,1,1,15,0,0
85403,-32.258064516129,4,1,1,15,0,0
85436,-500,4,1,1,15,0,0
85537,-32.258064516129,4,1,1,15,0,0
85570,-500,4,1,1,15,0,0
85671,-32.258064516129,4,1,1,15,0,0
85704,-500,4,1,1,15,0,0
85805,-32.258064516129,4,1,1,15,0,0
85838,-500,4,1,1,15,0,0
85939,-32.258064516129,4,1,1,15,0,0
85972,-500,4,1,1,15,0,0
86073,-32.258064516129,4,1,1,15,0,0
86106,-500,4,1,1,15,0,0
86207,-32.258064516129,4,1,1,15,0,0
86240,-500,4,1,1,15,0,0
86341,-32.258064516129,4,1,1,15,0,0
86374,-500,4,1,1,15,0,0
86474,-32.258064516129,4,1,1,15,0,0
86507,-500,4,1,1,15,0,0
86608,-32.258064516129,4,1,1,15,0,0
86641,-500,4,1,1,15,0,0
86742,-32.258064516129,4,1,1,15,0,0
86775,-500,4,1,1,15,0,0
86876,-111.111111111111,4,1,1,15,0,0
87144,-125,4,1,1,15,0,0
87412,-142.857142857143,4,1,1,15,0,0
87680,-166.666666666667,4,1,1,15,0,0
87948,-200,4,1,1,15,0,0
88216,-250,4,1,1,15,0,0
88483,-333.333333333333,4,1,1,15,0,0
88751,-500,4,1,1,15,0,0
89019,-1000,4,1,1,15,0,0
89287,-500,4,1,1,15,0,0
89555,-1000,4,1,1,15,0,0
89689,-500,4,1,1,15,0,0
90091,-1000,4,1,1,15,0,0
90359,-500,4,1,1,15,0,0
90627,-1000,4,1,1,15,0,0
90761,-500,4,1,1,15,0,0
91162,-1000,4,1,1,15,0,0
91430,-500,4,1,1,15,0,0
91698,-1000,4,1,1,15,0,0
91832,-500,4,1,1,15,0,0
92233,-1000,4,1,1,15,0,0
92501,-500,4,1,1,15,0,0
92769,-1000,4,1,1,15,0,0
92903,-500,4,1,1,15,0,0
93305,-1000,4,1,1,15,0,0
93573,-500,4,1,1,15,0,0
93841,-1000,4,1,1,15,0,0
93975,-500,4,1,1,15,0,0
94376,-1000,4,1,1,15,0,0
94644,-500,4,1,1,15,0,0
94912,-1000,4,1,1,15,0,0
95046,-500,4,1,1,15,0,0
95448,-1000,4,1,1,15,0,0
95716,-500,4,1,1,15,0,0
95984,-1000,4,1,1,15,0,0
96118,-500,4,1,1,15,0,0
96519,-1000,4,1,1,15,0,0
96787,-500,4,1,1,15,0,0
97055,-1000,4,1,1,15,0,0
97189,-500,4,1,1,15,0,0
97456,-166.666666666667,4,1,1,15,0,0
97591,-1000,4,1,1,15,0,0
97859,-500,4,1,1,15,0,0
98127,-1000,4,1,1,15,0,0
98261,-500,4,1,1,15,0,0
98662,-1000,4,1,1,15,0,0
98930,-500,4,1,1,15,0,0
99198,-1000,4,1,1,15,0,0
99332,-500,4,1,1,15,0,0
99733,-1000,4,1,1,15,0,0
100001,-500,4,1,1,15,0,0
100269,-1000,4,1,1,15,0,0
100403,-500,4,1,1,15,0,0
100805,-1000,4,1,1,15,0,0
101073,-500,4,1,1,15,0,0
101341,-1000,4,1,1,15,0,0
101475,-500,4,1,1,15,0,0
101876,-1000,4,1,1,15,0,0
102144,-500,4,1,1,15,0,0
102412,-1000,4,1,1,15,0,0
102546,-500,4,1,1,15,0,0
102948,-1000,4,1,1,15,0,0
103216,-500,4,1,1,15,0,0
103484,-1000,4,1,1,15,0,0
103618,-500,4,1,1,15,0,0
104019,-1000,4,1,1,15,0,0
104287,-500,4,1,1,15,0,0
104555,-1000,4,1,1,15,0,0
104689,-500,4,1,1,15,0,0
105091,-1000,4,1,1,15,0,0
105359,-500,4,1,1,15,0,0
105627,-1000,4,1,1,15,0,0
105761,-500,4,1,1,15,0,0
106028,-166.666666666667,4,1,1,15,0,0
106162,-10,4,1,1,15,0,0
106167,-200,4,1,1,15,0,0
107234,-42.9184549356223,4,1,1,15,0,0
107267,-434.782608695652,4,1,1,15,0,0
107368,-200,4,1,1,15,0,0
108171,-40,4,1,1,15,0,0
108176,-200,4,1,1,15,0,0
108305,-20,4,1,1,15,0,0
108310,-200,4,1,1,15,0,0
109377,-42.9184549356223,4,1,1,15,0,0
109410,-434.782608695652,4,1,1,15,0,0
109511,-200,4,1,1,15,0,0
110313,-40,4,1,1,15,0,0
110318,-200,4,1,1,15,0,0
110448,-20,4,1,1,15,0,0
110453,-200,4,1,1,15,0,0
111520,-42.9184549356223,4,1,1,15,0,0
111553,-434.782608695652,4,1,1,15,0,0
111654,-200,4,1,1,15,0,0
112457,-40,4,1,1,15,0,0
112462,-200,4,1,1,15,0,0
112591,-20,4,1,1,15,0,0
112596,-200,4,1,1,15,0,0
113662,-42.9184549356223,4,1,1,15,0,0
113695,-434.782608695652,4,1,1,15,0,0
113796,-200,4,1,1,15,0,0
114599,-166.666666666667,4,1,1,15,0,0
114733,-10,4,1,1,15,0,0
114738,-200,4,1,1,15,0,0
115805,-42.9184549356223,4,1,1,15,0,0
115838,-434.782608695652,4,1,1,15,0,0
115939,-200,4,1,1,15,0,0
116742,-40,4,1,1,15,0,0
116747,-200,4,1,1,15,0,0
116876,-20,4,1,1,15,0,0
116881,-200,4,1,1,15,0,0
117948,-42.9184549356223,4,1,1,15,0,0
117981,-434.782608695652,4,1,1,15,0,0
118082,-200,4,1,1,15,0,0
118884,-40,4,1,1,15,0,0
118889,-200,4,1,1,15,0,0
119019,-20,4,1,1,15,0,0
119024,-200,4,1,1,15,0,0
120091,-42.9184549356223,4,1,1,15,0,0
120124,-434.782608695652,4,1,1,15,0,0
120225,-200,4,1,1,15,0,0
121028,-40,4,1,1,15,0,0
121033,-200,4,1,1,15,0,0
121162,-125,4,1,1,15,0,0
122769,-66.6666666666667,4,1,1,15,0,0
122803,-125,4,1,1,15,0,0
122902,-66.6666666666667,4,1,1,15,0,0
122936,-125,4,1,1,15,0,0
123036,-66.6666666666667,4,1,1,15,0,0
123070,-125,4,1,1,15,0,0
123170,-66.6666666666667,4,1,1,15,0,0
123204,-125,4,1,1,15,0,0
123305,-1000,4,1,1,15,0,0
123640,-66.6666666666667,4,1,1,15,0,0
123707,-32.258064516129,4,1,1,15,0,0
123740,-500,4,1,1,15,0,0
123841,-32.258064516129,4,1,1,15,0,0
123874,-500,4,1,1,15,0,0
123975,-32.258064516129,4,1,1,15,0,0
124008,-500,4,1,1,15,0,0
124109,-32.258064516129,4,1,1,15,0,0
124142,-500,4,1,1,15,0,0
124242,-32.258064516129,4,1,1,15,0,0
124275,-500,4,1,1,15,0,0
124376,-32.258064516129,4,1,1,15,0,0
124409,-500,4,1,1,15,0,0
124510,-32.258064516129,4,1,1,15,0,0
124543,-500,4,1,1,15,0,0
124644,-32.258064516129,4,1,1,15,0,0
124677,-500,4,1,1,15,0,0
124778,-32.258064516129,4,1,1,15,0,0
124811,-500,4,1,1,15,0,0
124912,-32.258064516129,4,1,1,15,0,0
124945,-500,4,1,1,15,0,0
125046,-32.258064516129,4,1,1,15,0,0
125079,-500,4,1,1,15,0,0
125179,-1000,4,1,1,15,0,0
125380,-27.027027027027,4,1,1,15,0,0
125447,-1000,4,1,1,15,0,0
125648,-27.027027027027,4,1,1,15,0,0
125715,-100,4,1,1,15,0,0
125849,-1000,4,1,1,15,0,0
126050,-27.027027027027,4,1,1,15,0,0
126117,-100,4,1,1,15,0,0
126250,-1000,4,1,1,15,0,0
126451,-27.027027027027,4,1,1,15,0,0
126518,-100,4,1,1,15,0,0
126652,-1000,4,1,1,15,0,0
126853,-27.027027027027,4,1,1,15,0,0
126920,-100,4,1,1,15,0,0
127054,-1000,4,1,1,15,0,0
127255,-27.027027027027,4,1,1,15,0,0
127322,-100,4,1,1,15,0,0
127590,-1000,4,1,1,15,0,0
127925,-66.6666666666667,4,1,1,15,0,0
127992,-32.258064516129,4,1,1,15,0,0
128025,-500,4,1,1,15,0,0
128126,-32.258064516129,4,1,1,15,0,0
128159,-500,4,1,1,15,0,0
128260,-32.258064516129,4,1,1,15,0,0
128293,-500,4,1,1,15,0,0
128394,-32.258064516129,4,1,1,15,0,0
128427,-500,4,1,1,15,0,0
128528,-32.258064516129,4,1,1,15,0,0
128561,-500,4,1,1,15,0,0
128662,-32.258064516129,4,1,1,15,0,0
128695,-500,4,1,1,15,0,0
128795,-32.258064516129,4,1,1,15,0,0
128828,-500,4,1,1,15,0,0
128929,-32.258064516129,4,1,1,15,0,0
128962,-500,4,1,1,15,0,0
129063,-32.258064516129,4,1,1,15,0,0
129096,-500,4,1,1,15,0,0
129197,-32.258064516129,4,1,1,15,0,0
129230,-500,4,1,1,15,0,0
129331,-32.258064516129,4,1,1,15,0,0
129364,-500,4,1,1,15,0,0
129465,-1000,4,1,1,15,0,0
129666,-27.027027027027,4,1,1,15,0,0
129733,-1000,4,1,1,15,0,0
129934,-27.027027027027,4,1,1,15,0,0
130001,-100,4,1,1,15,0,0
130135,-1000,4,1,1,15,0,0
130336,-27.027027027027,4,1,1,15,0,0
130403,-100,4,1,1,15,0,0
130536,-1000,4,1,1,15,0,0
130737,-27.027027027027,4,1,1,15,0,0
130804,-100,4,1,1,15,0,0
130938,-1000,4,1,1,15,0,0
131139,-27.027027027027,4,1,1,15,0,0
131206,-100,4,1,1,15,0,0
131340,-1000,4,1,1,15,0,0
131541,-27.027027027027,4,1,1,15,0,0
131608,-100,4,1,1,15,0,0
131876,-1000,4,1,1,15,0,0
132211,-66.6666666666667,4,1,1,15,0,0
132278,-32.258064516129,4,1,1,15,0,0
132311,-500,4,1,1,15,0,0
132412,-32.258064516129,4,1,1,15,0,0
132445,-500,4,1,1,15,0,0
132545,-32.258064516129,4,1,1,15,0,0
132578,-500,4,1,1,15,0,0
132679,-32.258064516129,4,1,1,15,0,0
132712,-500,4,1,1,15,0,0
132813,-32.258064516129,4,1,1,15,0,0
132846,-500,4,1,1,15,0,0
132947,-32.258064516129,4,1,1,15,0,0
132980,-500,4,1,1,15,0,0
133081,-32.258064516129,4,1,1,15,0,0
133114,-500,4,1,1,15,0,0
133215,-32.258064516129,4,1,1,15,0,0
133248,-500,4,1,1,15,0,0
133349,-32.258064516129,4,1,1,15,0,0
133382,-500,4,1,1,15,0,0
133483,-32.258064516129,4,1,1,15,0,0
133516,-500,4,1,1,15,0,0
133617,-32.258064516129,4,1,1,15,0,0
133650,-500,4,1,1,15,0,0
133750,-100,4,1,1,15,0,0
134019,-1000,4,1,1,15,0,0
134220,-27.027027027027,4,1,1,15,0,0
134287,-100,4,1,1,15,0,0
134421,-1000,4,1,1,15,0,0
134622,-27.027027027027,4,1,1,15,0,0
134689,-100,4,1,1,15,0,0
134822,-1000,4,1,1,15,0,0
135023,-27.027027027027,4,1,1,15,0,0
135090,-100,4,1,1,15,0,0
135224,-1000,4,1,1,15,0,0
135425,-27.027027027027,4,1,1,15,0,0
135492,-100,4,1,1,15,0,0
135626,-1000,4,1,1,15,0,0
135827,-27.027027027027,4,1,1,15,0,0
135894,-100,4,1,1,15,0,0
136162,-1000,4,1,1,15,0,0
136496,-66.6666666666667,4,1,1,15,0,0
136563,-32.258064516129,4,1,1,15,0,0
136596,-500,4,1,1,15,0,0
136697,-32.258064516129,4,1,1,15,0,0
136730,-500,4,1,1,15,0,0
136831,-32.258064516129,4,1,1,15,0,0
136864,-500,4,1,1,15,0,0
136965,-32.258064516129,4,1,1,15,0,0
136998,-500,4,1,1,15,0,0
137099,-32.258064516129,4,1,1,15,0,0
137132,-500,4,1,1,15,0,0
137233,-32.258064516129,4,1,1,15,0,0
137266,-500,4,1,1,15,0,0
137367,-32.258064516129,4,1,1,15,0,0
137400,-500,4,1,1,15,0,0
137501,-32.258064516129,4,1,1,15,0,0
137534,-500,4,1,1,15,0,0
137635,-32.258064516129,4,1,1,15,0,0
137668,-500,4,1,1,15,0,0
137769,-32.258064516129,4,1,1,15,0,0
137802,-500,4,1,1,15,0,0
137903,-32.258064516129,4,1,1,15,0,0
137936,-500,4,1,1,15,0,0
138037,-32.258064516129,4,1,1,15,0,0
138070,-500,4,1,1,15,0,0
138170,-32.258064516129,4,1,1,15,0,0
138203,-500,4,1,1,15,0,0
138304,-32.258064516129,4,1,1,15,0,0
138337,-500,4,1,1,15,0,0
138438,-32.258064516129,4,1,1,15,0,0
138471,-500,4,1,1,15,0,0
138572,-32.258064516129,4,1,1,15,0,0
138605,-500,4,1,1,15,0,0
138706,-32.258064516129,4,1,1,15,0,0
138739,-500,4,1,1,15,0,0
138840,-32.258064516129,4,1,1,15,0,0
138873,-500,4,1,1,15,0,0
138974,-32.258064516129,4,1,1,15,0,0
139007,-500,4,1,1,15,0,0
139108,-32.258064516129,4,1,1,15,0,0
139141,-500,4,1,1,15,0,0
139242,-32.258064516129,4,1,1,15,0,0
139275,-500,4,1,1,15,0,0
139376,-32.258064516129,4,1,1,15,0,0
139409,-500,4,1,1,15,0,0
139510,-32.258064516129,4,1,1,15,0,0
139543,-500,4,1,1,15,0,0
139644,-32.258064516129,4,1,1,15,0,0
139677,-500,4,1,1,15,0,0
139778,-32.258064516129,4,1,1,15,0,0
139811,-500,4,1,1,15,0,0
139912,-32.258064516129,4,1,1,15,0,0
139945,-500,4,1,1,15,0,0
140045,-32.258064516129,4,1,1,15,0,0
140078,-500,4,1,1,15,0,0
140179,-32.258064516129,4,1,1,15,0,0
140212,-500,4,1,1,15,0,0
140313,-32.258064516129,4,1,1,15,0,0
140346,-500,4,1,1,15,0,0
140447,-100,4,1,1,15,0,0
142054,-66.6666666666667,4,1,1,15,0,0
142088,-100,4,1,1,15,0,0
142322,-66.6666666666667,4,1,1,15,0,0
142356,-100,4,1,1,15,0,0
144197,-66.6666666666667,4,1,1,15,0,0
144231,-100,4,1,1,15,0,0
144465,-66.6666666666667,4,1,1,15,0,0
144499,-100,4,1,1,15,0,0
144599,-66.6666666666667,4,1,1,15,0,0
144633,-100,4,1,1,15,0,0
146340,-66.6666666666667,4,1,1,15,0,0
146374,-100,4,1,1,15,0,0
146608,-66.6666666666667,4,1,1,15,0,0
146642,-100,4,1,1,15,0,0
148483,-66.6666666666667,4,1,1,15,0,0
148517,-100,4,1,1,15,0,0
148617,-66.6666666666667,4,1,1,15,0,0
148651,-100,4,1,1,15,0,0
148751,-66.6666666666667,4,1,1,15,0,0
148785,-100,4,1,1,15,0,0
148885,-66.6666666666667,4,1,1,15,0,0
148919,-100,4,1,1,15,0,0
150626,-66.6666666666667,4,1,1,15,0,0
150660,-100,4,1,1,15,0,0
150894,-66.6666666666667,4,1,1,15,0,0
150928,-100,4,1,1,15,0,0
152769,-66.6666666666667,4,1,1,15,0,0
152803,-100,4,1,1,15,0,0
153037,-66.6666666666667,4,1,1,15,0,0
153071,-100,4,1,1,15,0,0
153170,-66.6666666666667,4,1,1,15,0,0
153204,-100,4,1,1,15,0,0
154912,-66.6666666666667,4,1,1,15,0,0
154946,-100,4,1,1,15,0,0
155179,-66.6666666666667,4,1,1,15,0,0
155213,-100,4,1,1,15,0,0
157187,-90.9090909090909,4,1,1,15,0,0
157321,-83.3333333333333,4,1,1,15,0,0
157455,-76.9230769230769,4,1,1,15,0,0
157589,-50,4,1,1,15,0,0
157634,-333.333333333333,4,1,1,15,0,0
157768,-50,4,1,1,15,0,0
157813,-333.333333333333,4,1,1,15,0,0
157946,-50,4,1,1,15,0,0
157991,-333.333333333333,4,1,1,15,0,0
158125,-50,4,1,1,15,0,0
158170,-333.333333333333,4,1,1,15,0,0
158303,-50,4,1,1,15,0,0
158348,-333.333333333333,4,1,1,15,0,0
158482,-50,4,1,1,15,0,0
158527,-333.333333333333,4,1,1,15,0,0
158661,-50,4,1,1,15,0,0
158706,-333.333333333333,4,1,1,15,0,0
158839,-50,4,1,1,15,0,0
158884,-333.333333333333,4,1,1,15,0,0
159018,-100,4,1,1,15,0,0

[HitObjects]
64,192,1162,5,0,0:0:0:0:
64,192,1697,1,0,0:0:0:0:
64,192,2099,1,0,0:0:0:0:
64,192,2367,1,0,0:0:0:0:
64,192,2635,1,0,0:0:0:0:
64,192,2769,1,0,0:0:0:0:
64,192,3304,1,0,0:0:0:0:
64,192,3840,1,0,0:0:0:0:
64,192,4242,1,0,0:0:0:0:
64,192,4510,1,0,0:0:0:0:
64,192,4778,1,0,0:0:0:0:
64,192,4912,1,0,0:0:0:0:
64,192,5447,5,0,0:0:0:0:
64,192,5983,1,0,0:0:0:0:
64,192,6385,1,0,0:0:0:0:
64,192,6653,1,0,0:0:0:0:
64,192,6920,1,0,0:0:0:0:
64,192,7054,1,0,0:0:0:0:
64,192,7590,1,0,0:0:0:0:
64,192,8126,1,0,0:0:0:0:
64,192,8528,1,0,0:0:0:0:
64,192,8795,1,0,0:0:0:0:
64,192,9063,1,0,0:0:0:0:
64,192,9197,1,0,0:0:0:0:
64,192,9733,5,0,0:0:0:0:
448,192,10001,1,0,0:0:0:0:
64,192,10269,1,0,0:0:0:0:
448,192,10403,1,0,0:0:0:0:
64,192,10670,1,0,0:0:0:0:
64,192,10938,1,0,0:0:0:0:
448,192,11072,1,0,0:0:0:0:
64,192,11206,1,0,0:0:0:0:
64,192,11340,1,0,0:0:0:0:
448,192,11474,1,0,0:0:0:0:
64,192,11876,1,0,0:0:0:0:
448,192,12144,1,0,0:0:0:0:
64,192,12412,1,0,0:0:0:0:
448,192,12545,1,0,0:0:0:0:
64,192,12813,1,0,0:0:0:0:
64,192,13081,1,0,0:0:0:0:
448,192,13215,1,0,0:0:0:0:
64,192,13349,1,0,0:0:0:0:
64,192,13483,1,0,0:0:0:0:
448,192,13617,1,0,0:0:0:0:
64,192,14019,1,0,0:0:0:0:
448,192,14287,1,0,0:0:0:0:
64,192,14554,1,0,0:0:0:0:
448,192,14688,1,0,0:0:0:0:
64,192,14956,1,0,0:0:0:0:
64,192,15224,1,0,0:0:0:0:
448,192,15358,1,0,0:0:0:0:
64,192,15492,1,0,0:0:0:0:
64,192,15626,1,0,0:0:0:0:
448,192,15760,1,0,0:0:0:0:
64,192,16162,1,0,0:0:0:0:
448,192,16429,1,0,0:0:0:0:
64,192,16697,1,0,0:0:0:0:
448,192,16831,1,0,0:0:0:0:
64,192,17099,1,0,0:0:0:0:
64,192,17367,1,0,0:0:0:0:
448,192,17501,1,0,0:0:0:0:
64,192,17635,1,0,0:0:0:0:
64,192,17769,1,0,0:0:0:0:
448,192,17903,1,0,0:0:0:0:
64,192,18304,1,0,0:0:0:0:
320,192,18438,1,0,0:0:0:0:
192,192,18572,1,0,0:0:0:0:
320,192,18706,1,0,0:0:0:0:
320,192,18974,1,0,0:0:0:0:
192,192,19242,1,0,0:0:0:0:
192,192,19510,1,0,0:0:0:0:
320,192,19644,1,0,0:0:0:0:
320,192,19912,1,0,0:0:0:0:
448,192,20179,1,0,0:0:0:0:
64,192,20447,1,0,0:0:0:0:
320,192,20581,1,0,0:0:0:0:
192,192,20715,1,0,0:0:0:0:
320,192,20849,1,0,0:0:0:0:
320,192,21117,1,0,0:0:0:0:
192,192,21385,1,0,0:0:0:0:
192,192,21653,1,0,0:0:0:0:
320,192,21787,1,0,0:0:0:0:
320,192,22054,1,0,0:0:0:0:
448,192,22322,1,0,0:0:0:0:
448,192,22456,1,0,0:0:0:0:
64,192,22590,1,0,0:0:0:0:
320,192,22724,1,0,0:0:0:0:
192,192,22858,1,0,0:0:0:0:
320,192,22992,1,0,0:0:0:0:
320,192,23260,1,0,0:0:0:0:
192,192,23528,1,0,0:0:0:0:
64,192,23662,1,0,0:0:0:0:
192,192,23795,1,0,0:0:0:0:
320,192,23929,1,0,0:0:0:0:
64,192,24063,1,0,0:0:0:0:
320,192,24197,1,0,0:0:0:0:
448,192,24465,1,0,0:0:0:0:
64,192,24733,1,0,0:0:0:0:
320,192,24867,1,0,0:0:0:0:
192,192,25001,1,0,0:0:0:0:
320,192,25135,1,0,0:0:0:0:
320,192,25403,1,0,0:0:0:0:
192,192,25670,1,0,0:0:0:0:
64,192,25804,1,0,0:0:0:0:
192,192,25938,1,0,0:0:0:0:
320,192,26072,1,0,0:0:0:0:
64,192,26206,1,0,0:0:0:0:
320,192,26340,1,0,0:0:0:0:
448,192,26608,1,0,0:0:0:0:
448,192,26742,1,0,0:0:0:0:
64,192,26876,1,0,0:0:0:0:
192,192,26876,1,0,0:0:0:0:
320,192,27010,1,0,0:0:0:0:
192,192,27144,1,0,0:0:0:0:
320,192,27278,1,0,0:0:0:0:
320,192,27545,1,0,0:0:0:0:
192,192,27813,1,0,0:0:0:0:
64,192,27947,1,0,0:0:0:0:
192,192,28081,1,0,0:0:0:0:
320,192,28215,1,0,0:0:0:0:
64,192,28349,1,0,0:0:0:0:
320,192,28483,1,0,0:0:0:0:
448,192,28751,1,0,0:0:0:0:
192,192,28885,1,0,0:0:0:0:
64,192,29019,1,0,0:0:0:0:
192,192,29019,1,0,0:0:0:0:
320,192,29153,1,0,0:0:0:0:
192,192,29287,1,0,0:0:0:0:
320,192,29420,1,0,0:0:0:0:
320,192,29688,1,0,0:0:0:0:
192,192,29956,1,0,0:0:0:0:
64,192,30090,1,0,0:0:0:0:
192,192,30224,1,0,0:0:0:0:
320,192,30358,1,0,0:0:0:0:
64,192,30492,1,0,0:0:0:0:
320,192,30626,1,0,0:0:0:0:
448,192,30894,1,0,0:0:0:0:
448,192,31028,1,0,0:0:0:0:
192,192,31028,1,0,0:0:0:0:
192,192,31162,1,0,0:0:0:0:
64,192,31162,1,0,0:0:0:0:
64,192,31429,1,0,0:0:0:0:
448,192,31697,1,0,0:0:0:0:
64,192,32099,1,0,0:0:0:0:
64,192,32367,1,0,0:0:0:0:
448,192,32501,1,0,0:0:0:0:
64,192,32635,1,0,0:0:0:0:
64,192,32769,1,0,0:0:0:0:
448,192,33037,1,0,0:0:0:0:
192,192,33170,1,0,0:0:0:0:
192,192,33304,1,0,0:0:0:0:
64,192,33438,1,0,0:0:0:0:
448,192,33706,1,0,0:0:0:0:
64,192,33840,1,0,0:0:0:0:
64,192,34108,1,0,0:0:0:0:
448,192,34376,1,0,0:0:0:0:
64,192,34510,1,0,0:0:0:0:
64,192,34644,1,0,0:0:0:0:
448,192,34778,1,0,0:0:0:0:
64,192,35045,1,0,0:0:0:0:
448,192,35179,1,0,0:0:0:0:
192,192,35313,1,0,0:0:0:0:
192,192,35447,1,0,0:0:0:0:
64,192,35715,1,0,0:0:0:0:
448,192,35983,1,0,0:0:0:0:
64,192,36385,1,0,0:0:0:0:
320,192,36519,1,0,0:0:0:0:
64,192,36653,1,0,0:0:0:0:
448,192,36787,1,0,0:0:0:0:
64,192,36920,1,0,0:0:0:0:
64,192,37054,1,0,0:0:0:0:
448,192,37322,1,0,0:0:0:0:
192,192,37456,1,0,0:0:0:0:
192,192,37590,1,0,0:0:0:0:
64,192,37724,1,0,0:0:0:0:
448,192,37992,1,0,0:0:0:0:
64,192,38126,1,0,0:0:0:0:
64,192,38394,1,0,0:0:0:0:
448,192,38662,1,0,0:0:0:0:
320,192,38662,1,0,0:0:0:0:
64,192,38795,1,0,0:0:0:0:
64,192,38929,1,0,0:0:0:0:
448,192,39063,1,0,0:0:0:0:
64,192,39331,1,0,0:0:0:0:
448,192,39465,1,0,0:0:0:0:
192,192,39599,1,0,0:0:0:0:
192,192,39733,1,0,0:0:0:0:
64,192,40001,1,0,0:0:0:0:
448,192,40269,1,0,0:0:0:0:
64,192,40670,1,0,0:0:0:0:
320,192,40804,1,0,0:0:0:0:
64,192,40938,1,0,0:0:0:0:
448,192,41072,1,0,0:0:0:0:
64,192,41206,1,0,0:0:0:0:
64,192,41340,1,0,0:0:0:0:
448,192,41608,1,0,0:0:0:0:
192,192,41742,1,0,0:0:0:0:
192,192,41876,1,0,0:0:0:0:
64,192,42010,1,0,0:0:0:0:
448,192,42278,1,0,0:0:0:0:
64,192,42412,1,0,0:0:0:0:
64,192,42679,1,0,0:0:0:0:
448,192,42947,1,0,0:0:0:0:
320,192,42947,1,0,0:0:0:0:
64,192,43081,1,0,0:0:0:0:
64,192,43215,1,0,0:0:0:0:
448,192,43349,1,0,0:0:0:0:
64,192,43617,1,0,0:0:0:0:
448,192,43751,1,0,0:0:0:0:
192,192,43885,1,0,0:0:0:0:
192,192,44019,1,0,0:0:0:0:
64,192,44287,1,0,0:0:0:0:
448,192,44554,1,0,0:0:0:0:
64,192,44956,1,0,0:0:0:0:
320,192,45090,1,0,0:0:0:0:
64,192,45224,1,0,0:0:0:0:
448,192,45358,1,0,0:0:0:0:
64,192,45492,1,0,0:0:0:0:
64,192,45626,1,0,0:0:0:0:
448,192,45894,1,0,0:0:0:0:
192,192,46028,1,0,0:0:0:0:
192,192,46162,1,0,0:0:0:0:
64,192,46295,1,0,0:0:0:0:
448,192,46563,1,0,0:0:0:0:
64,192,46697,1,0,0:0:0:0:
64,192,46965,1,0,0:0:0:0:
448,192,47233,1,0,0:0:0:0:
320,192,47233,1,0,0:0:0:0:
64,192,47367,1,0,0:0:0:0:
64,192,47501,1,0,0:0:0:0:
448,192,47635,1,0,0:0:0:0:
64,192,47903,1,0,0:0:0:0:
448,192,48037,1,0,0:0:0:0:
192,192,48170,1,0,0:0:0:0:
192,192,48304,1,0,0:0:0:0:
64,192,48572,1,0,0:0:0:0:
448,192,48840,1,0,0:0:0:0:
64,192,49242,1,0,0:0:0:0:
320,192,49376,1,0,0:0:0:0:
64,192,49510,1,0,0:0:0:0:
448,192,49644,1,0,0:0:0:0:
64,192,49778,1,0,0:0:0:0:
64,192,49912,1,0,0:0:0:0:
448,192,50179,1,0,0:0:0:0:
192,192,50313,1,0,0:0:0:0:
192,192,50447,1,0,0:0:0:0:
320,192,50581,1,0,0:0:0:0:
64,192,50715,1,0,0:0:0:0:
448,192,50849,1,0,0:0:0:0:
64,192,51117,1,0,0:0:0:0:
320,192,51251,1,0,0:0:0:0:
448,192,51385,1,0,0:0:0:0:
192,192,51519,1,0,0:0:0:0:
448,192,51653,1,0,0:0:0:0:
320,192,51787,1,0,0:0:0:0:
192,192,51920,1,0,0:0:0:0:
64,192,52054,1,0,0:0:0:0:
64,192,52322,1,0,0:0:0:0:
192,192,52590,1,0,0:0:0:0:
320,192,52724,1,0,0:0:0:0:
64,192,52858,1,0,0:0:0:0:
448,192,52992,1,0,0:0:0:0:
64,192,53260,1,0,0:0:0:0:
320,192,53394,1,0,0:0:0:0:
448,192,53528,1,0,0:0:0:0:
192,192,53662,1,0,0:0:0:0:
448,192,53795,1,0,0:0:0:0:
320,192,53929,1,0,0:0:0:0:
192,192,54063,1,0,0:0:0:0:
64,192,54197,1,0,0:0:0:0:
64,192,54465,1,0,0:0:0:0:
320,192,54599,1,0,0:0:0:0:
192,192,54733,1,0,0:0:0:0:
320,192,54867,1,0,0:0:0:0:
64,192,55001,1,0,0:0:0:0:
448,192,55135,1,0,0:0:0:0:
64,192,55403,1,0,0:0:0:0:
320,192,55537,1,0,0:0:0:0:
448,192,55670,1,0,0:0:0:0:
192,192,55804,1,0,0:0:0:0:
448,192,55938,1,0,0:0:0:0:
320,192,56072,1,0,0:0:0:0:
192,192,56206,1,0,0:0:0:0:
64,192,56340,1,0,0:0:0:0:
64,192,56608,1,0,0:0:0:0:
448,192,56742,1,0,0:0:0:0:
192,192,56876,1,0,0:0:0:0:
320,192,57010,1,0,0:0:0:0:
64,192,57144,1,0,0:0:0:0:
448,192,57278,1,0,0:0:0:0:
64,192,57545,1,0,0:0:0:0:
320,192,57679,1,0,0:0:0:0:
448,192,57813,1,0,0:0:0:0:
192,192,57947,1,0,0:0:0:0:
448,192,58081,1,0,0:0:0:0:
320,192,58215,1,0,0:0:0:0:
192,192,58349,1,0,0:0:0:0:
64,192,58483,1,0,0:0:0:0:
64,192,58751,1,0,0:0:0:0:
320,192,58885,1,0,0:0:0:0:
192,192,59019,1,0,0:0:0:0:
320,192,59153,1,0,0:0:0:0:
64,192,59287,1,0,0:0:0:0:
448,192,59420,1,0,0:0:0:0:
64,192,59688,1,0,0:0:0:0:
320,192,59822,1,0,0:0:0:0:
448,192,59956,1,0,0:0:0:0:
192,192,60090,1,0,0:0:0:0:
448,192,60224,1,0,0:0:0:0:
320,192,60358,1,0,0:0:0:0:
192,192,60492,1,0,0:0:0:0:
64,192,60626,1,0,0:0:0:0:
448,192,60760,1,0,0:0:0:0:
64,192,60894,1,0,0:0:0:0:
448,192,61028,1,0,0:0:0:0:
192,192,61162,1,0,0:0:0:0:
320,192,61295,1,0,0:0:0:0:
64,192,61429,1,0,0:0:0:0:
448,192,61563,1,0,0:0:0:0:
64,192,61831,1,0,0:0:0:0:
320,192,61965,1,0,0:0:0:0:
448,192,62099,1,0,0:0:0:0:
192,192,62233,1,0,0:0:0:0:
448,192,62367,1,0,0:0:0:0:
320,192,62501,1,0,0:0:0:0:
192,192,62635,1,0,0:0:0:0:
64,192,62769,1,0,0:0:0:0:
64,192,63037,1,0,0:0:0:0:
320,192,63170,1,0,0:0:0:0:
192,192,63304,1,0,0:0:0:0:
320,192,63438,1,0,0:0:0:0:
64,192,63572,1,0,0:0:0:0:
448,192,63706,1,0,0:0:0:0:
64,192,63974,1,0,0:0:0:0:
320,192,64108,1,0,0:0:0:0:
448,192,64242,1,0,0:0:0:0:
192,192,64376,1,0,0:0:0:0:
448,192,64510,1,0,0:0:0:0:
320,192,64644,1,0,0:0:0:0:
192,192,64778,1,0,0:0:0:0:
64,192,64912,1,0,0:0:0:0:
64,192,65179,1,0,0:0:0:0:
448,192,65313,1,0,0:0:0:0:
192,192,65447,1,0,0:0:0:0:
320,192,65581,1,0,0:0:0:0:
64,192,65715,1,0,0:0:0:0:
448,192,65849,1,0,0:0:0:0:
64,192,66117,1,0,0:0:0:0:
320,192,66251,1,0,0:0:0:0:
448,192,66385,1,0,0:0:0:0:
192,192,66519,1,0,0:0:0:0:
448,192,66653,1,0,0:0:0:0:
320,192,66787,1,0,0:0:0:0:
192,192,66920,1,0,0:0:0:0:
64,192,67054,1,0,0:0:0:0:
64,192,67322,1,0,0:0:0:0:
320,192,67456,1,0,0:0:0:0:
192,192,67590,1,0,0:0:0:0:
320,192,67724,1,0,0:0:0:0:
64,192,67858,1,0,0:0:0:0:
448,192,67992,1,0,0:0:0:0:
64,192,68260,1,0,0:0:0:0:
320,192,68394,1,0,0:0:0:0:
448,192,68528,1,0,0:0:0:0:
192,192,68662,1,0,0:0:0:0:
448,192,68795,1,0,0:0:0:0:
320,192,68929,1,0,0:0:0:0:
192,192,69063,1,0,0:0:0:0:
64,192,69197,1,0,0:0:0:0:
448,192,69331,1,0,0:0:0:0:
64,192,69465,1,0,0:0:0:0:
448,192,69599,1,0,0:0:0:0:
320,192,69733,128,0,70135:0:0:0:0:
64,192,70135,1,0,0:0:0:0:
192,192,70269,1,0,0:0:0:0:
64,192,70403,1,0,0:0:0:0:
192,192,70537,1,0,0:0:0:0:
448,192,70670,1,0,0:0:0:0:
320,192,70804,1,0,0:0:0:0:
192,192,70938,1,0,0:0:0:0:
320,192,71072,1,0,0:0:0:0:
64,192,71206,1,0,0:0:0:0:
320,192,71340,1,0,0:0:0:0:
64,192,71474,1,0,0:0:0:0:
192,192,71608,128,0,71876:0:0:0:0:
448,192,71876,128,0,72144:0:0:0:0:
448,192,72278,128,0,72545:0:0:0:0:
448,192,72679,128,0,72947:0:0:0:0:
448,192,73081,128,0,73349:0:0:0:0:
448,192,73483,128,0,73751:0:0:0:0:
320,192,74019,128,0,74420:0:0:0:0:
64,192,74420,1,0,0:0:0:0:
192,192,74554,1,0,0:0:0:0:
64,192,74688,1,0,0:0:0:0:
192,192,74822,1,0,0:0:0:0:
320,192,74956,1,0,0:0:0:0:
448,192,75090,1,0,0:0:0:0:
320,192,75224,1,0,0:0:0:0:
192,192,75358,1,0,0:0:0:0:
64,192,75492,1,0,0:0:0:0:
320,192,75626,1,0,0:0:0:0:
64,192,75760,1,0,0:0:0:0:
192,192,75894,128,0,76162:0:0:0:0:
448,192,76162,128,0,76429:0:0:0:0:
448,192,76563,128,0,76831:0:0:0:0:
448,192,76965,128,0,77233:0:0:0:0:
448,192,77367,128,0,77635:0:0:0:0:
448,192,77769,128,0,78037:0:0:0:0:
320,192,78304,128,0,78706:0:0:0:0:
64,192,78706,1,0,0:0:0:0:
192,192,78840,1,0,0:0:0:0:
64,192,78974,1,0,0:0:0:0:
192,192,79108,1,0,0:0:0:0:
448,192,79242,1,0,0:0:0:0:
192,192,79376,1,0,0:0:0:0:
320,192,79510,1,0,0:0:0:0:
64,192,79644,1,0,0:0:0:0:
192,192,79778,1,0,0:0:0:0:
448,192,79912,1,0,0:0:0:0:
64,192,80045,1,0,0:0:0:0:
320,192,80179,1,0,0:0:0:0:
192,192,80313,128,0,80447:0:0:0:0:
448,192,80447,128,0,80715:0:0:0:0:
448,192,80849,128,0,81117:0:0:0:0:
448,192,81251,128,0,81519:0:0:0:0:
448,192,81653,128,0,81920:0:0:0:0:
448,192,82054,128,0,82322:0:0:0:0:
320,192,82590,128,0,82992:0:0:0:0:
64,192,82992,1,0,0:0:0:0:
192,192,83126,1,0,0:0:0:0:
64,192,83260,1,0,0:0:0:0:
448,192,83394,1,0,0:0:0:0:
192,192,83528,1,0,0:0:0:0:
64,192,83662,1,0,0:0:0:0:
320,192,83795,1,0,0:0:0:0:
448,192,83929,1,0,0:0:0:0:
320,192,84063,1,0,0:0:0:0:
64,192,84197,1,0,0:0:0:0:
192,192,84331,1,0,0:0:0:0:
64,192,84465,1,0,0:0:0:0:
320,192,84599,1,0,0:0:0:0:
448,192,84733,1,0,0:0:0:0:
320,192,84867,1,0,0:0:0:0:
64,192,85001,1,0,0:0:0:0:
192,192,85135,1,0,0:0:0:0:
320,192,85269,1,0,0:0:0:0:
448,192,85403,1,0,0:0:0:0:
320,192,85537,1,0,0:0:0:0:
192,192,85670,1,0,0:0:0:0:
64,192,85804,1,0,0:0:0:0:
320,192,85938,1,0,0:0:0:0:
192,192,86072,1,0,0:0:0:0:
448,192,86206,1,0,0:0:0:0:
320,192,86340,1,0,0:0:0:0:
64,192,86474,1,0,0:0:0:0:
320,192,86608,1,0,0:0:0:0:
64,192,86742,1,0,0:0:0:0:
64,192,89019,128,0,91162:0:0:0:0:
448,192,91162,128,0,93304:0:0:0:0:
192,192,93304,128,0,96519:0:0:0:0:
320,192,96519,128,0,97590:0:0:0:0:
64,192,97456,1,0,0:0:0:0:
64,192,97590,128,0,99733:0:0:0:0:
448,192,99733,128,0,101876:0:0:0:0:
192,192,101876,128,0,105090:0:0:0:0:
320,192,105090,128,0,106162:0:0:0:0:
64,192,106028,1,0,0:0:0:0:
64,192,106162,1,0,0:0:0:0:
192,192,106162,1,0,0:0:0:0:
64,192,106429,1,0,0:0:0:0:
448,192,106697,1,0,0:0:0:0:
64,192,107099,1,0,0:0:0:0:
320,192,107233,1,0,0:0:0:0:
64,192,107367,1,0,0:0:0:0:
448,192,107501,1,0,0:0:0:0:
64,192,107635,1,0,0:0:0:0:
64,192,107769,1,0,0:0:0:0:
448,192,108037,1,0,0:0:0:0:
192,192,108170,1,0,0:0:0:0:
192,192,108304,1,0,0:0:0:0:
64,192,108438,1,0,0:0:0:0:
448,192,108706,1,0,0:0:0:0:
64,192,108840,1,0,0:0:0:0:
64,192,109108,1,0,0:0:0:0:
320,192,109376,1,0,0:0:0:0:
448,192,109376,1,0,0:0:0:0:
64,192,109510,1,0,0:0:0:0:
64,192,109644,1,0,0:0:0:0:
448,192,109778,1,0,0:0:0:0:
64,192,110045,1,0,0:0:0:0:
448,192,110179,1,0,0:0:0:0:
192,192,110313,1,0,0:0:0:0:
192,192,110447,1,0,0:0:0:0:
64,192,110715,1,0,0:0:0:0:
448,192,110983,1,0,0:0:0:0:
64,192,111385,1,0,0:0:0:0:
320,192,111519,1,0,0:0:0:0:
64,192,111653,1,0,0:0:0:0:
448,192,111787,1,0,0:0:0:0:
64,192,111920,1,0,0:0:0:0:
64,192,112054,1,0,0:0:0:0:
448,192,112322,1,0,0:0:0:0:
192,192,112456,1,0,0:0:0:0:
192,192,112590,1,0,0:0:0:0:
64,192,112724,1,0,0:0:0:0:
448,192,112992,1,0,0:0:0:0:
64,192,113126,1,0,0:0:0:0:
64,192,113394,1,0,0:0:0:0:
448,192,113662,1,0,0:0:0:0:
320,192,113662,1,0,0:0:0:0:
64,192,113795,1,0,0:0:0:0:
64,192,113929,1,0,0:0:0:0:
448,192,114063,1,0,0:0:0:0:
64,192,114331,1,0,0:0:0:0:
448,192,114465,1,0,0:0:0:0:
64,192,114599,1,0,0:0:0:0:
192,192,114599,1,0,0:0:0:0:
192,192,114733,1,0,0:0:0:0:
64,192,114733,1,0,0:0:0:0:
64,192,115001,1,0,0:0:0:0:
448,192,115269,1,0,0:0:0:0:
64,192,115670,1,0,0:0:0:0:
320,192,115804,1,0,0:0:0:0:
64,192,115938,1,0,0:0:0:0:
448,192,116072,1,0,0:0:0:0:
64,192,116206,1,0,0:0:0:0:
64,192,116340,1,0,0:0:0:0:
448,192,116608,1,0,0:0:0:0:
192,192,116742,1,0,0:0:0:0:
192,192,116876,1,0,0:0:0:0:
64,192,117010,1,0,0:0:0:0:
448,192,117278,1,0,0:0:0:0:
64,192,117412,1,0,0:0:0:0:
64,192,117679,1,0,0:0:0:0:
448,192,117947,1,0,0:0:0:0:
320,192,117947,1,0,0:0:0:0:
64,192,118081,1,0,0:0:0:0:
64,192,118215,1,0,0:0:0:0:
448,192,118349,1,0,0:0:0:0:
64,192,118617,1,0,0:0:0:0:
448,192,118751,1,0,0:0:0:0:
192,192,118885,1,0,0:0:0:0:
192,192,119019,1,0,0:0:0:0:
64,192,119287,1,0,0:0:0:0:
448,192,119554,1,0,0:0:0:0:
64,192,119956,1,0,0:0:0:0:
320,192,120090,1,0,0:0:0:0:
64,192,120224,1,0,0:0:0:0:
448,192,120358,1,0,0:0:0:0:
64,192,120492,1,0,0:0:0:0:
64,192,120626,1,0,0:0:0:0:
448,192,120894,1,0,0:0:0:0:
192,192,121028,1,0,0:0:0:0:
192,192,121162,1,0,0:0:0:0:
320,192,121295,1,0,0:0:0:0:
64,192,121429,1,0,0:0:0:0:
448,192,121563,1,0,0:0:0:0:
64,192,121831,1,0,0:0:0:0:
320,192,121965,1,0,0:0:0:0:
448,192,122099,1,0,0:0:0:0:
192,192,122233,1,0,0:0:0:0:
448,192,122367,1,0,0:0:0:0:
320,192,122501,1,0,0:0:0:0:
192,192,122635,1,0,0:0:0:0:
64,192,122769,1,0,0:0:0:0:
448,192,122903,1,0,0:0:0:0:
64,192,123037,1,0,0:0:0:0:
448,192,123170,1,0,0:0:0:0:
320,192,123304,128,0,123706:0:0:0:0:
64,192,123706,1,0,0:0:0:0:
192,192,123840,1,0,0:0:0:0:
64,192,123974,1,0,0:0:0:0:
192,192,124108,1,0,0:0:0:0:
448,192,124242,1,0,0:0:0:0:
320,192,124376,1,0,0:0:0:0:
192,192,124510,1,0,0:0:0:0:
320,192,124644,1,0,0:0:0:0:
64,192,124778,1,0,0:0:0:0:
320,192,124912,1,0,0:0:0:0:
64,192,125045,1,0,0:0:0:0:
192,192,125179,128,0,125447:0:0:0:0:
448,192,125447,128,0,125715:0:0:0:0:
448,192,125849,128,0,126117:0:0:0:0:
448,192,126251,128,0,126519:0:0:0:0:
448,192,126653,128,0,126920:0:0:0:0:
448,192,127054,128,0,127322:0:0:0:0:
320,192,127590,128,0,127992:0:0:0:0:
64,192,127992,1,0,0:0:0:0:
192,192,128126,1,0,0:0:0:0:
64,192,128260,1,0,0:0:0:0:
192,192,128394,1,0,0:0:0:0:
320,192,128528,1,0,0:0:0:0:
448,192,128662,1,0,0:0:0:0:
320,192,128795,1,0,0:0:0:0:
192,192,128929,1,0,0:0:0:0:
64,192,129063,1,0,0:0:0:0:
320,192,129197,1,0,0:0:0:0:
64,192,129331,1,0,0:0:0:0:
192,192,129465,128,0,129733:0:0:0:0:
448,192,129733,128,0,130001:0:0:0:0:
448,192,130135,128,0,130403:0:0:0:0:
448,192,130537,128,0,130804:0:0:0:0:
448,192,130938,128,0,131206:0:0:0:0:
448,192,131340,128,0,131608:0:0:0:0:
320,192,131876,128,0,132278:0:0:0:0:
64,192,132278,1,0,0:0:0:0:
192,192,132412,1,0,0:0:0:0:
64,192,132545,1,0,0:0:0:0:
192,192,132679,1,0,0:0:0:0:
448,192,132813,1,0,0:0:0:0:
192,192,132947,1,0,0:0:0:0:
320,192,133081,1,0,0:0:0:0:
64,192,133215,1,0,0:0:0:0:
448,192,133349,1,0,0:0:0:0:
192,192,133483,1,0,0:0:0:0:
64,192,133617,1,0,0:0:0:0:
320,192,133751,1,0,0:0:0:0:
192,192,133885,128,0,134019:0:0:0:0:
448,192,134019,128,0,134287:0:0:0:0:
448,192,134420,128,0,134688:0:0:0:0:
448,192,134822,128,0,135090:0:0:0:0:
448,192,135224,128,0,135492:0:0:0:0:
448,192,135626,128,0,135894:0:0:0:0:
320,192,136162,128,0,136563:0:0:0:0:
64,192,136563,1,0,0:0:0:0:
192,192,136697,1,0,0:0:0:0:
64,192,136831,1,0,0:0:0:0:
448,192,136965,1,0,0:0:0:0:
192,192,137099,1,0,0:0:0:0:
64,192,137233,1,0,0:0:0:0:
320,192,137367,1,0,0:0:0:0:
448,192,137501,1,0,0:0:0:0:
320,192,137635,1,0,0:0:0:0:
64,192,137769,1,0,0:0:0:0:
192,192,137903,1,0,0:0:0:0:
64,192,138037,1,0,0:0:0:0:
320,192,138170,1,0,0:0:0:0:
448,192,138304,1,0,0:0:0:0:
320,192,138438,1,0,0:0:0:0:
64,192,138572,1,0,0:0:0:0:
192,192,138706,1,0,0:0:0:0:
320,192,138840,1,0,0:0:0:0:
448,192,138974,1,0,0:0:0:0:
320,192,139108,1,0,0:0:0:0:
192,192,139242,1,0,0:0:0:0:
64,192,139376,1,0,0:0:0:0:
320,192,139510,1,0,0:0:0:0:
192,192,139644,1,0,0:0:0:0:
448,192,139778,1,0,0:0:0:0:
320,192,139912,1,0,0:0:0:0:
64,192,140045,1,0,0:0:0:0:
320,192,140179,1,0,0:0:0:0:
64,192,140313,1,0,0:0:0:0:
448,192,140447,1,0,0:0:0:0:
192,192,140581,1,0,0:0:0:0:
320,192,140715,1,0,0:0:0:0:
64,192,140849,1,0,0:0:0:0:
448,192,140983,1,0,0:0:0:0:
64,192,141117,1,0,0:0:0:0:
192,192,141251,1,0,0:0:0:0:
448,192,141385,1,0,0:0:0:0:
320,192,141519,1,0,0:0:0:0:
448,192,141653,1,0,0:0:0:0:
64,192,141787,1,0,0:0:0:0:
192,192,141853,1,0,0:0:0:0:
320,192,141920,1,0,0:0:0:0:
448,192,141987,1,0,0:0:0:0:
64,192,142054,1,0,0:0:0:0:
448,192,142188,1,0,0:0:0:0:
64,192,142322,1,0,0:0:0:0:
320,192,142456,1,0,0:0:0:0:
192,192,142590,1,0,0:0:0:0:
320,192,142724,1,0,0:0:0:0:
448,192,142858,1,0,0:0:0:0:
192,192,142992,1,0,0:0:0:0:
320,192,143126,1,0,0:0:0:0:
448,192,143260,1,0,0:0:0:0:
64,192,143394,1,0,0:0:0:0:
192,192,143461,1,0,0:0:0:0:
320,192,143528,1,0,0:0:0:0:
448,192,143595,1,0,0:0:0:0:
192,192,143662,1,0,0:0:0:0:
448,192,143795,1,0,0:0:0:0:
320,192,143929,1,0,0:0:0:0:
192,192,144063,1,0,0:0:0:0:
64,192,144197,1,0,0:0:0:0:
320,192,144331,1,0,0:0:0:0:
64,192,144465,1,0,0:0:0:0:
448,192,144599,1,0,0:0:0:0:
320,192,144733,1,0,0:0:0:0:
192,192,144867,1,0,0:0:0:0:
320,192,145001,1,0,0:0:0:0:
64,192,145135,1,0,0:0:0:0:
192,192,145202,1,0,0:0:0:0:
320,192,145269,1,0,0:0:0:0:
448,192,145336,1,0,0:0:0:0:
64,192,145403,1,0,0:0:0:0:
192,192,145537,1,0,0:0:0:0:
320,192,145670,1,0,0:0:0:0:
192,192,145804,1,0,0:0:0:0:
64,192,145938,1,0,0:0:0:0:
192,192,146072,1,0,0:0:0:0:
448,192,146206,1,0,0:0:0:0:
64,192,146340,1,0,0:0:0:0:
320,192,146474,1,0,0:0:0:0:
64,192,146608,1,0,0:0:0:0:
448,192,146742,1,0,0:0:0:0:
192,192,146876,1,0,0:0:0:0:
320,192,147010,1,0,0:0:0:0:
448,192,147144,1,0,0:0:0:0:
192,192,147278,1,0,0:0:0:0:
64,192,147412,1,0,0:0:0:0:
320,192,147545,1,0,0:0:0:0:
192,192,147679,1,0,0:0:0:0:
448,192,147813,1,0,0:0:0:0:
64,192,147947,1,0,0:0:0:0:
448,192,148081,1,0,0:0:0:0:
320,192,148215,1,0,0:0:0:0:
192,192,148349,1,0,0:0:0:0:
64,192,148483,1,0,0:0:0:0:
448,192,148617,1,0,0:0:0:0:
64,192,148751,1,0,0:0:0:0:
448,192,148885,1,0,0:0:0:0:
64,192,149019,1,0,0:0:0:0:
192,192,149086,1,0,0:0:0:0:
320,192,149153,1,0,0:0:0:0:
448,192,149220,1,0,0:0:0:0:
64,192,149287,1,0,0:0:0:0:
320,192,149420,1,0,0:0:0:0:
192,192,149554,1,0,0:0:0:0:
448,192,149621,1,0,0:0:0:0:
64,192,149688,1,0,0:0:0:0:
320,192,149822,1,0,0:0:0:0:
192,192,149956,1,0,0:0:0:0:
320,192,150090,1,0,0:0:0:0:
192,192,150224,1,0,0:0:0:0:
64,192,150291,1,0,0:0:0:0:
320,192,150358,1,0,0:0:0:0:
448,192,150492,1,0,0:0:0:0:
64,192,150626,1,0,0:0:0:0:
448,192,150760,1,0,0:0:0:0:
64,192,150894,1,0,0:0:0:0:
320,192,151028,1,0,0:0:0:0:
192,192,151162,1,0,0:0:0:0:
448,192,151295,1,0,0:0:0:0:
192,192,151429,1,0,0:0:0:0:
64,192,151563,1,0,0:0:0:0:
320,192,151697,1,0,0:0:0:0:
448,192,151831,1,0,0:0:0:0:
192,192,151965,1,0,0:0:0:0:
64,192,152099,1,0,0:0:0:0:
448,192,152233,1,0,0:0:0:0:
320,192,152300,1,0,0:0:0:0:
192,192,152367,1,0,0:0:0:0:
64,192,152434,1,0,0:0:0:0:
448,192,152501,1,0,0:0:0:0:
192,192,152635,1,0,0:0:0:0:
64,192,152769,1,0,0:0:0:0:
320,192,152903,1,0,0:0:0:0:
64,192,153037,1,0,0:0:0:0:
448,192,153170,1,0,0:0:0:0:
320,192,153304,1,0,0:0:0:0:
192,192,153438,1,0,0:0:0:0:
64,192,153572,1,0,0:0:0:0:
448,192,153706,1,0,0:0:0:0:
320,192,153840,1,0,0:0:0:0:
64,192,153974,1,0,0:0:0:0:
320,192,154108,1,0,0:0:0:0:
192,192,154242,1,0,0:0:0:0:
64,192,154376,1,0,0:0:0:0:
448,192,154510,1,0,0:0:0:0:
320,192,154644,1,0,0:0:0:0:
192,192,154778,1,0,0:0:0:0:
64,192,154912,1,0,0:0:0:0:
448,192,155045,1,0,0:0:0:0:
64,192,155179,1,0,0:0:0:0:
320,192,155313,1,0,0:0:0:0:
192,192,155447,1,0,0:0:0:0:
448,192,155514,1,0,0:0:0:0:
64,192,155581,1,0,0:0:0:0:
320,192,155715,1,0,0:0:0:0:
192,192,155849,1,0,0:0:0:0:
448,192,155916,1,0,0:0:0:0:
320,192,155983,1,0,0:0:0:0:
448,192,156117,1,0,0:0:0:0:
192,192,156251,1,0,0:0:0:0:
448,192,156385,1,0,0:0:0:0:
64,192,156519,1,0,0:0:0:0:
320,192,156653,1,0,0:0:0:0:
192,192,156787,1,0,0:0:0:0:
64,192,156920,1,0,0:0:0:0:
448,192,157054,1,0,0:0:0:0:
320,192,157121,1,0,0:0:0:0:
192,192,157188,1,0,0:0:0:0:
64,192,157255,1,0,0:0:0:0:
448,192,157322,1,0,0:0:0:0:
320,192,157389,1,0,0:0:0:0:
192,192,157456,1,0,0:0:0:0:
64,192,157523,1,0,0:0:0:0:
448,192,157590,128,0,159108:0:0:0:0:
64,192,159108,1,0,0:0:0:0:
192,192,159197,1,0,0:0:0:0:
