osu file format v14

[General]
AudioFilename: audio.mp3
AudioLeadIn: 0
PreviewTime: 36129
Countdown: 0
SampleSet: Soft
StackLeniency: 0.7
Mode: 3
LetterboxInBreaks: 0
SpecialStyle: 0
WidescreenStoryboard: 1

[Editor]
Bookmarks: 6970,12203,23418,24914,30895,36876,48746,48839,60802,72764,86970,98185,104166,110147,115381,116129,122110,134073,146035,149960
DistanceSpacing: 0.5
BeatDivisor: 12
GridSize: 4
TimelineZoom: 3.899999

[Metadata]
Title:Turnstile Jumper
TitleUnicode:Turnstile Jumper
Artist:Frums
ArtistUnicode:Frums
Creator:Dubstek
Version:Stan's Insane
Source:Cytus II
Tags:Rayark inc. 2 JAZZ & Blues JOE Instrumental mobile rhythm game _Stan
BeatmapID:3385475
BeatmapSetID:1368942

[Difficulty]
HPDrainRate:8
CircleSize:4
OverallDifficulty:6.5
ApproachRate:5
SliderMultiplier:1.4
SliderTickRate:1

[Events]
//Background and Video events
0,0,"BG.jpg",0,0
//Break Periods
//Storyboard Layer 0 (Background)
//Storyboard Layer 1 (Fail)
//Storyboard Layer 2 (Pass)
//Storyboard Layer 3 (Foreground)
//Storyboard Layer 4 (Overlay)
//Storyboard Sound Samples

[TimingPoints]
989,186.915887850467,4,2,1,40,1,0
72764,-100,4,2,1,40,0,1
86970,-100,4,2,1,40,0,0
87717,-100,4,2,1,5,0,0
96689,-100,4,2,1,40,0,0
98185,-100,4,2,1,40,0,1
110147,-100,4,2,1,40,0,0
134073,-100,4,2,1,40,0,1
138559,-100,4,2,1,40,0,0
140054,-100,4,2,1,40,0,1
149960,-100,4,2,1,40,0,0

[HitObjects]
448,192,988,5,0,0:0:0:70:Pandeiro1.wav
448,192,1175,1,0,0:0:0:70:Pandeiro1.wav
64,192,1238,1,0,0:0:0:40:Pandeiro2.wav
192,192,1300,1,0,0:0:0:40:Pandeiro2.wav
448,192,1362,1,0,0:0:0:70:Pandeiro1.wav
448,192,1549,1,0,0:0:0:70:Pandeiro1.wav
448,192,1736,1,0,0:0:0:70:Loud kick.wav
64,192,1861,1,0,0:0:0:70:Snare 2.wav
192,192,1861,1,0,0:0:0:0:
64,192,2048,1,0,0:0:0:70:Snare 2.wav
192,192,2048,1,0,0:0:0:0:
64,192,2203,1,0,0:0:0:70:Loud kick.wav
320,192,2297,1,0,0:0:0:70:Snare 2.wav
448,192,2297,1,0,0:0:0:0:
320,192,2422,1,0,0:0:0:70:Snare 2.wav
448,192,2422,1,0,0:0:0:0:
64,192,2484,128,4,2671:0:0:0:0:
192,192,2484,1,2,0:0:0:70:Loud kick.wav
448,192,2671,1,0,0:0:0:70:Snare 2.wav
320,192,2733,1,0,0:0:0:70:Snare 2.wav
192,192,2795,1,0,0:0:0:70:Snare 2.wav
64,192,2858,1,4,0:0:0:40:Ride1.wav
448,192,2858,128,2,3045:0:0:0:70:Loud kick.wav
64,192,3045,1,0,0:0:0:70:Snare 2.wav
192,192,3107,1,0,0:0:0:70:Snare 2.wav
320,192,3169,1,0,0:0:0:70:Snare 2.wav
64,192,3231,1,4,0:0:0:0:
448,192,3231,1,2,0:0:0:70:Loud kick.wav
192,192,3294,1,0,0:0:0:0:
320,192,3356,1,0,0:0:0:0:
64,192,3418,1,0,0:0:0:70:Snare 2.wav
192,192,3481,1,0,0:0:0:70:Snare 2.wav
320,192,3543,1,0,0:0:0:70:Snare 2.wav
64,192,3605,1,4,0:0:0:40:Ride1.wav
448,192,3605,1,2,0:0:0:70:Loud kick.wav
320,192,3668,1,0,0:0:0:0:
192,192,3730,1,0,0:0:0:0:
448,192,3792,1,0,0:0:0:70:Snare 2.wav
320,192,3855,1,0,0:0:0:70:Snare 2.wav
192,192,3917,1,0,0:0:0:70:Snare 2.wav
64,192,3979,1,4,0:0:0:0:
448,192,3979,1,2,0:0:0:70:Loud kick.wav
320,192,4041,1,0,0:0:0:0:
192,192,4104,1,0,0:0:0:0:
448,192,4166,1,0,0:0:0:70:Snare 2.wav
192,192,4228,1,0,0:0:0:70:Snare 2.wav
320,192,4291,1,0,0:0:0:70:Snare 2.wav
64,192,4353,1,4,0:0:0:40:Ride1.wav
448,192,4353,1,2,0:0:0:70:Loud kick.wav
192,192,4415,1,0,0:0:0:0:
320,192,4478,1,0,0:0:0:0:
64,192,4540,1,0,0:0:0:70:Snare 2.wav
320,192,4602,1,0,0:0:0:70:Snare 2.wav
192,192,4665,1,0,0:0:0:70:Snare 2.wav
64,192,4727,1,4,0:0:0:0:
448,192,4727,1,2,0:0:0:70:Loud kick.wav
320,192,4789,1,0,0:0:0:0:
448,192,4851,1,0,0:0:0:0:
192,192,4914,1,0,0:0:0:70:Snare 2.wav
448,192,4976,1,0,0:0:0:70:Snare 2.wav
320,192,5038,1,0,0:0:0:70:Snare 2.wav
64,192,5101,1,4,0:0:0:40:Ride1.wav
448,192,5101,1,2,0:0:0:70:Loud kick.wav
192,192,5163,1,0,0:0:0:0:
64,192,5225,1,0,0:0:0:0:
320,192,5288,1,0,0:0:0:70:Snare 2.wav
64,192,5350,1,0,0:0:0:70:Snare 2.wav
192,192,5412,1,0,0:0:0:70:Snare 2.wav
320,192,5474,1,2,0:0:0:0:
448,192,5474,1,0,0:0:0:0:
192,192,5599,1,2,0:0:0:70:Tom2.wav
320,192,5661,1,2,0:0:0:70:Tom3.wav
64,192,5786,1,2,0:0:0:70:Tom2.wav
192,192,5848,1,2,0:0:0:70:Tom3.wav
320,192,5911,1,2,0:0:0:70:Tom2.wav
448,192,5973,1,2,0:0:0:70:Tom3.wav
64,192,6035,1,2,0:0:0:70:Tom2.wav
320,192,6129,1,2,0:0:0:70:Tom3.wav
192,192,6222,1,0,0:0:0:40:Ride1.wav
320,192,6409,128,4,6713:0:0:0:0:
448,192,6409,128,2,6713:0:0:0:0:
64,192,6456,128,0,6713:0:0:0:0:
192,192,6783,128,2,6900:0:0:0:0:
320,192,6783,128,0,6900:0:0:0:0:
64,192,6970,1,2,0:0:0:0:
192,192,6970,1,4,0:0:0:0:
448,192,6970,1,0,0:0:0:0:
64,192,7157,128,0,7344:0:0:0:0:
320,192,7157,128,0,7344:0:0:0:0:
448,192,7281,1,2,0:0:0:0:
64,192,7468,128,0,7531:0:0:0:0:
320,192,7468,128,0,7531:0:0:0:0:
448,192,7531,1,2,0:0:0:0:
64,192,7655,128,0,7717:0:0:0:0:
320,192,7655,128,0,7717:0:0:0:0:
448,192,7717,1,0,0:0:0:0:
64,192,7842,1,0,0:0:0:0:
192,192,7904,128,2,8091:0:0:0:0:
448,192,7904,128,0,8091:0:0:0:0:
64,192,8091,1,2,0:0:0:0:
192,192,8216,128,0,8278:0:0:0:0:
448,192,8216,128,0,8278:0:0:0:0:
64,192,8278,1,2,0:0:0:0:
192,192,8403,128,0,8465:0:0:0:0:
448,192,8403,128,0,8465:0:0:0:0:
64,192,8465,1,2,0:0:0:0:
320,192,8652,128,0,8839:0:0:0:0:
448,192,8652,128,0,8839:0:0:0:0:
64,192,8777,1,2,0:0:0:0:
320,192,8964,128,0,9026:0:0:0:0:
448,192,8964,128,0,9026:0:0:0:0:
64,192,9026,1,2,0:0:0:0:
320,192,9150,128,0,9213:0:0:0:0:
448,192,9150,128,0,9213:0:0:0:0:
64,192,9213,1,0,0:0:0:0:
448,192,9337,1,0,0:0:0:0:
320,192,9400,128,0,9587:0:0:0:0:
192,192,9400,128,0,9587:0:0:0:0:
64,192,9524,1,2,0:0:0:0:
448,192,9587,1,2,0:0:0:0:
192,192,9711,128,0,9774:0:0:0:0:
320,192,9711,128,0,9774:0:0:0:0:
64,192,9774,1,2,0:0:0:0:
192,192,9898,128,0,9960:0:0:0:0:
320,192,9898,128,0,9960:0:0:0:0:
64,192,9960,1,2,0:0:0:0:
192,192,10147,128,0,10334:0:0:0:0:
448,192,10147,128,0,10334:0:0:0:0:
64,192,10272,1,2,0:0:0:0:
192,192,10459,128,0,10521:0:0:0:70:Pandeiro1.wav
448,192,10459,128,0,10521:0:0:0:0:
64,192,10521,1,2,0:0:0:0:
192,192,10646,128,0,10708:0:0:0:0:
448,192,10646,128,0,10708:0:0:0:0:
64,192,10708,1,0,0:0:0:0:
448,192,10833,1,2,0:0:0:0:
64,192,10895,128,2,11082:0:0:0:0:
320,192,10895,128,0,11082:0:0:0:0:
448,192,11082,1,2,0:0:0:0:
64,192,11207,128,0,11269:0:0:0:0:
320,192,11207,128,0,11269:0:0:0:0:
448,192,11269,1,2,0:0:0:0:
64,192,11393,128,0,11456:0:0:0:0:
320,192,11393,128,0,11456:0:0:0:0:
448,192,11456,1,2,0:0:0:0:
64,192,11643,128,0,11830:0:0:0:0:
192,192,11643,128,0,11830:0:0:0:0:
320,192,11767,1,2,0:0:0:0:
448,192,11830,1,0,0:0:0:0:
64,192,11954,128,0,12017:0:0:0:0:
192,192,11954,128,0,12017:0:0:0:0:
320,192,12017,1,2,0:0:0:0:
64,192,12141,1,2,0:0:0:0:
320,192,12141,1,4,0:0:0:0:
448,192,12141,1,0,0:0:0:0:
192,192,12297,1,0,0:0:0:70:Snare 1.wav
320,192,12328,1,0,0:0:0:70:Snare 1.wav
64,192,12390,1,0,0:0:0:70:Snare 2.wav
192,192,12453,1,0,0:0:0:70:Snare 1.wav
320,192,12515,1,0,0:0:0:70:Snare 2.wav
448,192,12515,1,0,0:0:0:0:
64,192,12577,1,0,0:0:0:70:Snare 2.wav
192,192,12577,1,0,0:0:0:0:
448,192,12702,1,0,0:0:0:0:
320,192,12702,1,0,0:0:0:70:Snare 2.wav
192,192,12827,1,0,0:0:0:70:Snare 2.wav
320,192,12827,1,0,0:0:0:0:
64,192,12951,1,4,0:0:0:0:
192,192,12951,1,2,0:0:0:0:
448,192,12951,128,0,13512:0:0:0:0:
192,192,13138,1,0,0:0:0:0:
320,192,13138,1,0,0:0:0:0:
64,192,13263,128,0,13356:0:0:0:70:kick.wav
64,192,13450,128,0,13512:0:0:0:0:
320,192,13512,1,2,0:0:0:0:
64,192,13636,128,0,13699:0:0:0:0:
448,192,13699,128,0,13886:0:0:0:0:
64,192,13886,1,2,0:0:0:0:
320,192,13886,1,0,0:0:0:0:
64,192,14010,128,0,14260:0:0:0:0:
192,192,14010,128,0,14104:0:0:0:0:
448,192,14197,128,0,14260:0:0:0:0:
192,192,14260,1,2,0:0:0:0:
448,192,14384,128,0,14446:0:0:0:0:
64,192,14446,1,2,0:0:0:0:
192,192,14446,128,0,14633:0:0:0:0:
64,192,14633,1,0,0:0:0:0:
448,192,14633,1,0,0:0:0:0:
320,192,14758,128,0,14851:0:0:0:70:kick.wav
448,192,14758,128,0,15007:0:0:0:0:
64,192,14945,128,0,15007:0:0:0:0:
320,192,15007,1,2,0:0:0:0:
64,192,15132,128,0,15194:0:0:0:0:
320,192,15194,128,0,15381:0:0:0:0:
64,192,15381,1,2,0:0:0:0:
448,192,15381,1,0,0:0:0:0:
64,192,15506,128,2,15755:0:0:0:0:
192,192,15506,128,0,15599:0:0:0:0:
448,192,15693,128,0,15755:0:0:0:0:
192,192,15755,1,2,0:0:0:0:
448,192,15879,128,0,15942:0:0:0:0:
64,192,15942,1,2,0:0:0:0:
192,192,15942,1,0,0:0:0:0:
320,192,16129,1,0,0:0:0:70:Pandeiro1.wav
192,192,16160,128,0,16316:0:0:0:0:
64,192,16316,1,0,0:0:0:0:
448,192,16362,1,0,0:0:0:0:
320,192,16409,1,0,0:0:0:0:
192,192,16456,1,0,0:0:0:0:
64,192,16503,1,2,0:0:0:0:
448,192,16549,1,0,0:0:0:0:
320,192,16596,1,0,0:0:0:0:
192,192,16643,1,0,0:0:0:0:
64,192,16689,1,0,0:0:0:0:
448,192,16689,1,0,0:0:0:0:
320,192,16814,1,0,0:0:0:70:kick.wav
192,192,16876,1,0,0:0:0:0:
64,192,16876,128,2,17063:0:0:0:0:
448,192,17001,128,0,17063:0:0:0:0:
320,192,17063,1,2,0:0:0:0:
64,192,17188,128,0,17250:0:0:0:0:
320,192,17250,1,2,0:0:0:0:
64,192,17375,128,0,17562:0:0:0:0:
448,192,17437,1,2,0:0:0:0:
192,192,17562,1,0,0:0:0:70:Pandeiro1.wav
448,192,17624,128,0,17811:0:0:0:0:
64,192,17749,1,0,0:0:0:70:kick.wav
192,192,17811,1,0,0:0:0:0:
448,192,17936,128,0,17998:0:0:0:0:
64,192,17998,1,2,0:0:0:0:
448,192,18122,128,0,18185:0:0:0:0:
192,192,18185,1,0,0:0:0:0:
320,192,18226,1,0,0:0:0:0:
64,192,18268,1,0,0:0:0:0:
192,192,18309,128,2,18559:0:0:0:0:
320,192,18372,128,2,18559:0:0:0:0:
64,192,18559,1,2,0:0:0:0:
448,192,18559,1,0,0:0:0:0:
64,192,18683,128,0,18746:0:0:0:70:kick.wav
448,192,18746,1,2,0:0:0:0:
192,192,18870,128,2,18932:0:0:0:0:
320,192,18932,1,2,0:0:0:0:
448,192,18932,1,4,0:0:0:0:
64,192,19119,1,0,0:0:0:0:
448,192,19150,128,0,19306:0:0:0:0:
192,192,19244,128,0,19337:0:0:0:70:kick.wav
320,192,19400,1,0,0:0:0:0:
64,192,19431,128,0,19493:0:0:0:0:
192,192,19493,1,2,0:0:0:0:
448,192,19618,128,0,19680:0:0:0:0:
192,192,19680,128,2,19805:0:0:0:0:
320,192,19805,1,2,0:0:0:0:
64,192,19867,128,2,19992:0:0:0:0:
448,192,19867,1,0,0:0:0:0:
320,192,19929,1,0,0:0:0:0:
192,192,19992,1,0,0:0:0:0:
64,192,20054,1,2,0:0:0:0:
448,192,20054,1,0,0:0:0:0:
320,192,20077,128,0,20147:0:0:0:0:
192,192,20171,1,0,0:0:0:0:
64,192,20241,1,2,0:0:0:0:
448,192,20241,1,0,0:0:0:0:
64,192,20365,1,0,0:0:0:0:
192,192,20397,1,0,0:0:0:0:
320,192,20428,1,2,0:0:0:0:
448,192,20428,1,0,0:0:0:0:
192,192,20552,1,0,0:0:0:0:
320,192,20584,1,0,0:0:0:0:
448,192,20615,128,0,20802:0:0:0:0:
64,192,20739,128,0,21175:0:0:0:70:kick.wav
192,192,20802,1,0,0:0:0:0:
448,192,20926,128,0,20988:0:0:0:0:
192,192,20988,1,2,0:0:0:0:
448,192,21113,128,0,21175:0:0:0:0:
192,192,21175,1,0,0:0:0:0:
320,192,21284,1,2,0:0:0:0:
64,192,21362,128,2,21456:0:0:0:0:
448,192,21362,1,0,0:0:0:0:
192,192,21456,1,0,0:0:0:0:
320,192,21487,1,0,0:0:0:0:
448,192,21518,128,0,21923:0:0:0:0:
64,192,21549,1,2,0:0:0:0:
64,192,21674,128,0,21736:0:0:0:0:
320,192,21736,1,2,0:0:0:0:
64,192,21861,128,0,21923:0:0:0:0:
320,192,21923,1,2,0:0:0:0:
192,192,21954,128,0,22250:0:0:0:0:
448,192,22110,1,0,0:0:0:70:Pandeiro1.wav
320,192,22133,128,0,22250:0:0:0:0:
64,192,22297,1,0,0:0:0:0:
192,192,22320,1,0,0:0:0:0:
448,192,22425,1,0,0:0:0:0:
320,192,22449,1,0,0:0:0:0:
192,192,22542,1,0,0:0:0:0:
64,192,22566,1,0,0:0:0:0:
320,192,22671,1,0,0:0:0:0:
448,192,22694,1,0,0:0:0:0:
192,192,22799,1,0,0:0:0:0:
320,192,22823,1,0,0:0:0:0:
64,192,22858,1,2,0:0:0:0:
448,192,22858,128,0,23045:0:0:0:0:
64,192,23045,1,2,0:0:0:0:
192,192,23169,128,0,23231:0:0:0:0:
64,192,23231,1,2,0:0:0:0:
320,192,23356,128,0,23418:0:0:0:0:
64,192,23418,1,2,0:0:0:0:
448,192,23418,1,0,0:0:0:0:
192,192,23465,1,0,0:0:0:0:
320,192,23512,1,0,0:0:0:0:
448,192,23559,1,0,0:0:0:0:
64,192,23605,128,0,23792:0:0:0:0:
448,192,23792,1,0,0:0:0:0:
64,192,23917,128,0,23979:0:0:0:0:
448,192,23979,1,2,0:0:0:0:
192,192,24104,128,0,24166:0:0:0:40:Snare 1.wav
64,192,24166,1,4,0:0:0:0:
448,192,24166,1,0,0:0:0:70:Tom2.wav
320,192,24228,1,0,0:0:0:70:Tom2.wav
64,192,24291,1,0,0:0:0:70:Tom2.wav
448,192,24353,1,0,0:0:0:70:Tom3.wav
192,192,24415,1,0,0:0:0:70:Tom3.wav
320,192,24478,1,0,0:0:0:40:Ride1.wav
64,192,24540,1,4,0:0:0:0:
448,192,24540,1,2,0:0:0:0:
320,192,24665,1,0,0:0:0:70:Tom2.wav
192,192,24696,1,0,0:0:0:0:
64,192,24727,1,0,0:0:0:70:Tom3.wav
448,192,24789,1,0,0:0:0:70:Tom3.wav
320,192,24820,1,0,0:0:0:0:
64,192,24914,1,4,0:0:0:0:
192,192,24914,1,2,0:0:0:0:
448,192,24914,1,0,0:0:0:0:
192,192,25101,1,0,0:0:0:40:Perc.wav
64,192,25225,1,2,0:0:0:0:
320,192,25225,1,0,0:0:0:0:
448,192,25225,128,0,26409:0:0:0:0:
192,192,25412,128,0,25474:0:0:0:40:Perc.wav
64,192,25474,1,2,0:0:0:0:
192,192,25661,128,0,25724:0:0:0:40:Perc.wav
64,192,25848,1,2,0:0:0:0:
192,192,25973,128,0,26035:0:0:0:40:Perc.wav
320,192,26035,1,2,0:0:0:0:
64,192,26160,128,0,26222:0:0:0:40:Perc.wav
320,192,26222,1,0,0:0:0:0:
192,192,26347,1,0,0:0:0:0:
64,192,26409,1,0,0:0:0:40:Ride1.wav
320,192,26534,1,2,0:0:0:0:
192,192,26596,128,0,26658:0:0:0:40:Perc.wav
448,192,26721,1,2,0:0:0:0:
320,192,26908,128,0,26970:0:0:0:40:Perc.wav
64,192,26970,1,2,0:0:0:0:
320,192,27157,128,0,27219:0:0:0:40:Perc.wav
64,192,27281,128,0,27344:0:0:0:40:Perc.wav
448,192,27344,1,2,0:0:0:0:
64,192,27468,128,0,27531:0:0:0:40:Perc.wav
448,192,27531,1,2,0:0:0:0:
64,192,27655,128,0,27717:0:0:0:40:Perc.wav
320,192,27717,1,0,0:0:0:0:
192,192,27842,1,0,0:0:0:0:
448,192,27904,1,2,0:0:0:0:
64,192,28091,128,0,28154:0:0:0:40:Perc.wav
320,192,28216,1,2,0:0:0:0:
192,192,28278,1,0,0:0:0:0:
448,192,28403,128,0,28465:0:0:0:40:Perc.wav
64,192,28465,1,2,0:0:0:0:
192,192,28590,1,0,0:0:0:0:
448,192,28652,128,0,28714:0:0:0:40:Perc.wav
64,192,28839,1,2,0:0:0:0:
448,192,28964,128,0,29026:0:0:0:40:Perc.wav
64,192,29026,1,2,0:0:0:0:
448,192,29150,128,0,29213:0:0:0:40:Perc.wav
192,192,29213,1,0,0:0:0:40:Ride1.wav
320,192,29337,1,0,0:0:0:40:Ride1.wav
64,192,29400,1,4,0:0:0:0:
448,192,29524,1,2,0:0:0:0:
192,192,29587,128,0,29649:0:0:0:40:Perc.wav
448,192,29711,1,2,0:0:0:0:
64,192,29774,1,0,0:0:0:0:
320,192,29898,128,0,29960:0:0:0:40:Perc.wav
64,192,29960,1,2,0:0:0:0:
192,192,30085,1,0,0:0:0:0:
448,192,30147,128,0,30210:0:0:0:40:Perc.wav
64,192,30272,128,0,30334:0:0:0:40:Perc.wav
320,192,30334,1,2,0:0:0:0:
64,192,30459,128,0,30521:0:0:0:40:Perc.wav
320,192,30521,1,2,0:0:0:0:
64,192,30646,128,0,30708:0:0:0:40:Perc.wav
320,192,30708,1,0,0:0:0:40:Perc.wav
64,192,30895,1,2,0:0:0:0:
192,192,30895,1,4,0:0:0:0:
448,192,30895,128,0,31456:0:0:0:0:
64,192,31207,1,2,0:0:0:0:
320,192,31207,128,0,31456:0:0:0:0:
64,192,31456,1,2,0:0:0:0:
192,192,31456,128,0,31643:0:0:0:0:
320,192,31643,1,0,0:0:0:40:Perc.wav
192,192,31767,1,0,0:0:0:0:
64,192,31830,1,2,0:0:0:0:
448,192,31830,128,0,31954:0:0:0:0:
64,192,32017,1,2,0:0:0:0:
448,192,32017,128,0,32141:0:0:0:0:
448,192,32203,128,0,32328:0:0:0:40:Ride1.wav
448,192,32390,128,4,32515:0:0:0:0:
64,192,32515,1,2,0:0:0:0:
448,192,32577,128,0,32702:0:0:0:40:Perc.wav
64,192,32702,1,2,0:0:0:0:
192,192,32764,128,0,32889:0:0:0:0:
448,192,32889,128,0,32951:0:0:0:40:Perc.wav
64,192,32951,1,2,0:0:0:0:
320,192,33076,128,0,33138:0:0:0:0:
192,192,33263,1,0,0:0:0:40:Perc.wav
64,192,33325,1,2,0:0:0:0:
448,192,33325,1,0,0:0:0:0:
64,192,33450,128,0,33512:0:0:0:40:Perc.wav
320,192,33512,1,2,0:0:0:0:
448,192,33512,1,0,0:0:0:0:
64,192,33636,128,0,33761:0:0:0:40:Perc.wav
64,192,33823,128,0,33948:0:0:0:40:Ride1.wav
448,192,33886,1,6,0:0:0:0:
64,192,34010,1,0,0:0:0:0:
448,192,34073,1,0,0:0:0:40:Perc.wav
64,192,34197,1,2,0:0:0:0:
448,192,34197,128,0,34260:0:0:0:0:
192,192,34260,128,0,34384:0:0:0:0:
448,192,34384,128,0,34509:0:0:0:40:Perc.wav
64,192,34446,1,2,0:0:0:0:
448,192,34563,128,0,34680:0:0:0:0:
320,192,34758,1,0,0:0:0:0:
64,192,34820,1,2,0:0:0:0:
448,192,34820,1,0,0:0:0:0:
64,192,34945,128,0,35007:0:0:0:40:Perc.wav
320,192,35007,128,2,35132:0:0:0:0:
448,192,35007,1,0,0:0:0:0:
64,192,35132,128,0,35194:0:0:0:40:Perc.wav
320,192,35194,128,0,35319:0:0:0:40:Ride1.wav
64,192,35319,128,0,35381:0:0:0:40:Ride1.wav
448,192,35381,128,4,35506:0:0:0:0:
64,192,35506,1,2,0:0:0:0:
448,192,35568,128,0,35693:0:0:0:40:Perc.wav
64,192,35693,1,2,0:0:0:0:
192,192,35755,1,0,0:0:0:0:
320,192,35786,1,0,0:0:0:0:
192,192,35879,1,0,0:0:0:40:Perc.wav
64,192,35942,1,2,0:0:0:0:
320,192,35942,128,0,36004:0:0:0:0:
448,192,35942,1,0,0:0:0:0:
192,192,36066,128,0,36129:0:0:0:0:
64,192,36129,1,2,0:0:0:0:
448,192,36129,1,0,0:0:0:40:Ride1.wav
320,192,36292,1,0,0:0:0:0:
448,192,36316,1,2,0:0:0:0:
320,192,36479,1,0,0:0:0:0:
448,192,36503,1,2,0:0:0:0:
64,192,36627,1,8,0:0:0:70:Snare 2.wav
192,192,36627,1,0,0:0:0:0:
192,192,36814,1,8,0:0:0:70:Snare 2.wav
320,192,36814,1,0,0:0:0:0:
64,192,36876,128,2,37811:0:0:0:0:
448,192,36876,1,4,0:0:0:0:
192,192,37157,128,0,37811:0:0:0:0:
448,192,37437,128,0,37811:0:0:0:0:
320,192,37811,128,0,37998:0:0:0:0:
192,192,37998,128,0,38185:0:0:0:70:Hat E2.wav
320,192,38185,128,0,38372:0:0:0:0:
64,192,38372,128,0,39306:0:0:0:0:
448,192,38372,128,0,39306:0:0:0:0:
192,192,38652,128,0,38870:0:0:0:0:
192,192,38932,128,0,39306:0:0:0:0:
320,192,39306,128,0,39493:0:0:0:0:
64,192,39493,128,0,39680:0:0:0:70:Hat E2.wav
448,192,39680,128,0,39867:0:0:0:0:
64,192,39867,128,0,41269:0:0:0:0:
192,192,39867,128,0,40428:0:0:0:0:
448,192,40147,128,0,41269:0:0:0:0:
320,192,40428,128,0,41269:0:0:0:0:
192,192,41269,128,0,41409:0:0:0:0:
64,192,41409,1,0,0:0:0:0:
448,192,41432,128,0,41549:0:0:0:0:
320,192,41549,1,0,0:0:0:0:
64,192,41573,128,0,42063:0:0:0:0:
192,192,42094,1,0,0:0:0:0:
448,192,42141,128,0,42359:0:0:0:0:
320,192,42359,128,0,42608:0:0:0:0:
192,192,42608,128,0,42858:0:0:0:0:
64,192,42858,128,0,44104:0:0:0:0:
448,192,42858,128,0,44104:0:0:0:0:
320,192,43138,128,0,43356:0:0:0:0:
320,192,43418,128,0,44104:0:0:0:0:
192,192,44104,128,0,44228:0:0:0:0:
64,192,44228,128,0,45599:0:0:0:0:
320,192,44353,128,0,45350:0:0:0:0:
448,192,44353,128,0,45599:0:0:0:0:
192,192,45630,1,0,0:0:0:0:
320,192,45661,128,0,45848:0:0:0:0:
64,192,45848,128,0,46066:0:0:0:0:
448,192,45848,128,0,46721:0:0:0:0:
64,192,46129,128,0,47842:0:0:0:0:
192,192,46409,128,0,46721:0:0:0:0:
320,192,46783,128,0,47842:0:0:0:0:
448,192,47157,128,0,47842:0:0:0:0:
192,192,47873,1,0,0:0:0:0:
64,192,47904,128,0,48231:0:0:0:0:
320,192,48091,128,0,48231:0:0:0:0:
448,192,48091,128,0,48231:0:0:0:0:
64,192,48278,1,0,0:0:0:70:Hat E2.wav
192,192,48278,1,0,0:0:0:40:Perc.wav
320,192,48559,1,0,0:0:0:40:Perc.wav
448,192,48559,1,0,0:0:0:0:
64,192,48652,1,0,0:0:0:40:Perc.wav
192,192,48714,1,0,0:0:0:0:
320,192,48777,1,0,0:0:0:0:
64,192,48839,1,4,0:0:0:0:
192,192,48839,1,2,0:0:0:0:
448,192,48839,1,0,0:0:0:0:
64,192,49026,1,0,0:0:0:0:
320,192,49119,1,0,0:0:0:70:Snare 2.wav
448,192,49119,1,0,0:0:0:0:
64,192,49213,1,2,0:0:0:0:
64,192,49306,1,0,0:0:0:70:Snare 2.wav
320,192,49306,1,0,0:0:0:0:
448,192,49306,1,0,0:0:0:0:
64,192,49493,1,0,0:0:0:70:Snare 2.wav
192,192,49493,1,0,0:0:0:0:
448,192,49493,1,0,0:0:0:0:
448,192,49680,1,0,0:0:0:0:
64,192,49774,1,0,0:0:0:70:Snare 2.wav
192,192,49774,1,0,0:0:0:0:
448,192,49867,1,0,0:0:0:0:
320,192,49960,1,2,0:0:0:0:
192,192,50147,1,0,0:0:0:40:Ride1.wav
64,192,50241,1,0,0:0:0:70:Snare 2.wav
192,192,50241,1,0,0:0:0:0:
448,192,50241,1,0,0:0:0:0:
320,192,50334,1,2,0:0:0:0:
448,192,50521,1,0,0:0:0:0:
64,192,50615,1,0,0:0:0:70:Snare 2.wav
192,192,50615,1,0,0:0:0:0:
448,192,50708,1,2,0:0:0:0:
64,192,50802,1,0,0:0:0:70:Snare 2.wav
192,192,50802,1,0,0:0:0:0:
448,192,50802,1,0,0:0:0:0:
64,192,50988,1,0,0:0:0:70:Snare 2.wav
320,192,50988,1,0,0:0:0:0:
448,192,50988,1,0,0:0:0:0:
64,192,51175,1,0,0:0:0:0:
320,192,51269,1,0,0:0:0:70:Snare 2.wav
448,192,51269,1,0,0:0:0:0:
64,192,51362,1,0,0:0:0:0:
192,192,51456,1,2,0:0:0:0:
320,192,51643,1,0,0:0:0:70:Snare 2.wav
448,192,51643,1,0,0:0:0:0:
64,192,51830,1,2,0:0:0:0:
192,192,51830,1,0,0:0:0:40:Ride1.wav
320,192,51923,1,0,0:0:0:70:Snare 2.wav
448,192,51923,1,0,0:0:0:0:
192,192,52017,1,0,0:0:0:0:
64,192,52110,1,0,0:0:0:70:Snare 2.wav
448,192,52110,1,0,0:0:0:0:
320,192,52203,1,2,0:0:0:0:
64,192,52297,1,0,0:0:0:70:Snare 2.wav
320,192,52297,1,0,0:0:0:0:
448,192,52297,1,0,0:0:0:0:
64,192,52484,1,0,0:0:0:70:Snare 2.wav
192,192,52484,1,0,0:0:0:0:
448,192,52484,1,0,0:0:0:0:
64,192,52764,1,0,0:0:0:70:Snare 2.wav
448,192,52764,1,0,0:0:0:0:
192,192,52858,1,0,0:0:0:0:
320,192,52951,1,2,0:0:0:0:
64,192,53138,1,0,0:0:0:40:Ride1.wav
320,192,53231,1,0,0:0:0:70:Snare 2.wav
448,192,53231,1,0,0:0:0:0:
64,192,53418,1,0,0:0:0:70:Snare 2.wav
192,192,53418,1,0,0:0:0:0:
320,192,53512,1,0,0:0:0:0:
64,192,53605,1,0,0:0:0:70:Snare 2.wav
448,192,53605,1,0,0:0:0:0:
192,192,53699,1,2,0:0:0:0:
64,192,53792,1,0,0:0:0:70:Snare 2.wav
192,192,53792,1,0,0:0:0:0:
448,192,53792,1,0,0:0:0:0:
64,192,53979,1,0,0:0:0:70:Snare 2.wav
320,192,53979,1,0,0:0:0:0:
448,192,53979,1,0,0:0:0:0:
192,192,54166,1,0,0:0:0:70:Snare 1.wav
64,192,54260,1,0,0:0:0:70:Snare 2.wav
448,192,54260,1,0,0:0:0:0:
320,192,54353,1,0,0:0:0:0:
192,192,54446,1,2,0:0:0:0:
320,192,54633,1,0,0:0:0:70:Snare 2.wav
448,192,54633,1,0,0:0:0:0:
192,192,54727,1,0,0:0:0:0:
64,192,54820,1,2,0:0:0:0:
320,192,54820,1,4,0:0:0:0:
448,192,54820,1,0,0:0:0:0:
448,192,55007,128,0,55101:0:0:0:0:
64,192,55101,1,0,0:0:0:70:Snare 2.wav
192,192,55101,1,0,0:0:0:0:
320,192,55194,1,2,0:0:0:0:
64,192,55288,1,0,0:0:0:70:Snare 2.wav
192,192,55288,1,0,0:0:0:0:
448,192,55288,128,0,55381:0:0:0:0:
64,192,55474,1,0,0:0:0:70:Snare 2.wav
192,192,55474,1,0,0:0:0:0:
448,192,55474,128,0,55568:0:0:0:0:
320,192,55661,128,0,55755:0:0:0:0:
64,192,55755,1,0,0:0:0:70:Snare 2.wav
448,192,55755,1,0,0:0:0:0:
192,192,55848,128,0,56035:0:0:0:0:
192,192,56129,128,0,56222:0:0:0:40:Ride1.wav
64,192,56222,1,0,0:0:0:70:Snare 2.wav
448,192,56222,1,0,0:0:0:0:
192,192,56316,1,2,0:0:0:0:
320,192,56316,1,0,0:0:0:40:Ride1.wav
64,192,56503,128,0,56596:0:0:0:0:
320,192,56596,1,0,0:0:0:70:Snare 2.wav
448,192,56596,1,0,0:0:0:0:
192,192,56689,1,2,0:0:0:0:
64,192,56783,128,0,56876:0:0:0:70:Snare 2.wav
320,192,56783,1,0,0:0:0:0:
448,192,56783,1,0,0:0:0:0:
64,192,56970,128,0,57063:0:0:0:70:Snare 2.wav
320,192,56970,1,0,0:0:0:0:
448,192,56970,1,0,0:0:0:0:
192,192,57157,128,0,57250:0:0:0:0:
64,192,57250,1,0,0:0:0:70:Snare 2.wav
448,192,57250,1,0,0:0:0:0:
320,192,57344,128,0,57531:0:0:0:0:
64,192,57624,1,0,0:0:0:70:Snare 2.wav
192,192,57624,1,0,0:0:0:0:
448,192,57624,128,0,57717:0:0:0:0:
64,192,57811,1,2,0:0:0:0:
320,192,57811,1,0,0:0:0:40:Ride1.wav
192,192,57904,1,0,0:0:0:70:Snare 2.wav
448,192,57904,1,0,0:0:0:0:
320,192,57998,128,0,58091:0:0:0:0:
64,192,58091,1,0,0:0:0:70:Snare 2.wav
448,192,58091,1,0,0:0:0:0:
192,192,58185,1,2,0:0:0:0:
64,192,58278,1,0,0:0:0:70:Snare 2.wav
320,192,58278,128,0,58372:0:0:0:0:
448,192,58278,1,0,0:0:0:0:
64,192,58465,1,0,0:0:0:70:Snare 2.wav
320,192,58465,128,0,58559:0:0:0:0:
448,192,58465,1,0,0:0:0:0:
192,192,58652,128,0,58746:0:0:0:0:
64,192,58746,1,0,0:0:0:70:Snare 2.wav
448,192,58746,1,0,0:0:0:0:
320,192,58839,128,0,59026:0:0:0:0:
448,192,59119,128,0,59213:0:0:0:40:Ride1.wav
64,192,59213,1,0,0:0:0:70:Snare 2.wav
192,192,59213,1,0,0:0:0:0:
320,192,59306,128,2,59587:0:0:0:0:
448,192,59306,128,0,59587:0:0:0:40:Ride1.wav
64,192,59587,1,2,0:0:0:0:
320,192,59680,1,0,0:0:0:70:Snare 2.wav
448,192,59680,1,0,0:0:0:0:
192,192,59836,1,0,0:0:0:0:
64,192,59867,1,2,0:0:0:0:
320,192,59960,1,0,0:0:0:0:
448,192,59992,1,0,0:0:0:0:
192,192,60085,1,0,0:0:0:0:
64,192,60116,1,0,0:0:0:0:
320,192,60210,1,0,0:0:0:0:
448,192,60241,1,0,0:0:0:30:Snare 2.wav
192,192,60334,1,0,0:0:0:40:Snare 2.wav
64,192,60365,1,0,0:0:0:0:
448,192,60428,1,0,0:0:0:70:Snare 2.wav
320,192,60490,1,0,0:0:0:70:Snare 2.wav
64,192,60552,1,0,0:0:0:70:Snare 2.wav
192,192,60552,1,0,0:0:0:0:
320,192,60615,1,0,0:0:0:70:Snare 2.wav
448,192,60615,1,0,0:0:0:0:
64,192,60677,1,0,0:0:0:70:Snare 2.wav
192,192,60677,1,0,0:0:0:0:
320,192,60739,1,0,0:0:0:70:Snare 2.wav
448,192,60739,1,0,0:0:0:0:
64,192,60802,1,6,0:0:0:0:
192,192,60802,1,0,0:0:0:70:Snare 2.wav
448,192,60864,1,0,0:0:0:0:
320,192,60926,1,0,0:0:0:0:
64,192,60988,1,2,0:0:0:0:
448,192,60988,1,0,0:0:0:0:
192,192,61113,1,0,0:0:0:70:Snare 2.wav
320,192,61175,1,2,0:0:0:0:
448,192,61175,1,0,0:0:0:0:
192,192,61284,1,0,0:0:0:0:
64,192,61362,1,0,0:0:0:40:Ride1.wav
320,192,61471,1,2,0:0:0:0:
448,192,61471,1,0,0:0:0:0:
192,192,61549,1,2,0:0:0:0:
64,192,61658,1,0,0:0:0:0:
448,192,61658,1,0,0:0:0:0:
320,192,61736,1,0,0:0:0:70:Snare 2.wav
64,192,61845,1,2,0:0:0:0:
448,192,61845,1,0,0:0:0:0:
192,192,61923,1,0,0:0:0:70:Snare 2.wav
320,192,62032,1,0,0:0:0:40:Ride1.wav
64,192,62110,1,2,0:0:0:0:
448,192,62110,1,0,0:0:0:40:Ride1.wav
320,192,62219,1,0,0:0:0:0:
64,192,62297,1,2,0:0:0:0:
192,192,62297,1,0,0:0:0:0:
320,192,62406,1,0,0:0:0:40:Perc.wav
64,192,62484,1,2,0:0:0:0:
448,192,62484,1,0,0:0:0:0:
192,192,62531,1,0,0:0:0:0:
320,192,62577,1,0,0:0:0:0:
448,192,62624,1,0,0:0:0:0:
64,192,62671,1,2,0:0:0:0:
192,192,62717,1,0,0:0:0:0:
320,192,62764,1,0,0:0:0:0:
448,192,62811,1,0,0:0:0:0:
192,192,62858,1,0,0:0:0:40:Ride1.wav
64,192,62967,1,2,0:0:0:0:
320,192,62967,1,0,0:0:0:0:
192,192,62998,1,0,0:0:0:0:
448,192,63045,128,0,63154:0:0:0:40:Perc.wav
64,192,63154,1,2,0:0:0:0:
192,192,63154,1,0,0:0:0:0:
320,192,63231,128,0,63341:0:0:0:70:Snare 2.wav
64,192,63341,1,2,0:0:0:0:
448,192,63341,1,0,0:0:0:0:
192,192,63418,128,0,63527:0:0:0:70:Snare 2.wav
320,192,63527,1,0,0:0:0:40:Ride1.wav
64,192,63605,1,2,0:0:0:0:
448,192,63605,1,0,0:0:0:40:Ride1.wav
192,192,63668,1,0,0:0:0:70:Snare 2.wav
320,192,63730,1,0,0:0:0:70:Snare 2.wav
64,192,63792,1,2,0:0:0:0:
192,192,63792,1,4,0:0:0:0:
320,192,63901,1,0,0:0:0:40:Perc.wav
64,192,63979,1,2,0:0:0:0:
448,192,63979,1,0,0:0:0:0:
192,192,64041,1,0,0:0:0:0:
320,192,64088,1,0,0:0:0:70:Snare 2.wav
64,192,64166,1,2,0:0:0:0:
448,192,64166,1,0,0:0:0:0:
320,192,64275,1,0,0:0:0:40:Ride1.wav
192,192,64353,1,0,0:0:0:40:Ride1.wav
64,192,64462,1,2,0:0:0:0:
448,192,64462,1,0,0:0:0:0:
320,192,64540,1,0,0:0:0:40:Perc.wav
64,192,64649,1,2,0:0:0:0:
192,192,64649,1,0,0:0:0:0:
320,192,64727,1,0,0:0:0:70:Snare 2.wav
448,192,64727,1,0,0:0:0:0:
64,192,64797,1,0,0:0:0:0:
320,192,64836,1,2,0:0:0:0:
192,192,64914,128,0,65023:0:0:0:70:Snare 2.wav
448,192,64914,1,0,0:0:0:0:
320,192,65023,128,0,65101:0:0:0:40:Ride1.wav
64,192,65101,1,2,0:0:0:0:
448,192,65101,128,0,65225:0:0:0:40:Pandeiro2.wav
192,192,65163,1,0,0:0:0:40:Pandeiro2.wav
320,192,65225,1,0,0:0:0:40:Pandeiro2.wav
64,192,65288,1,2,0:0:0:0:
448,192,65288,128,0,65397:0:0:0:0:
320,192,65397,128,0,65474:0:0:0:0:
192,192,65474,128,2,65584:0:0:0:0:
64,192,65584,128,0,65661:0:0:0:70:Snare 2.wav
320,192,65584,1,0,0:0:0:0:
448,192,65584,1,0,0:0:0:0:
320,192,65661,128,2,65770:0:0:0:0:
192,192,65770,128,0,65848:0:0:0:40:Ride1.wav
448,192,65848,1,0,0:0:0:40:Ride1.wav
320,192,65911,1,0,0:0:0:0:
192,192,65973,1,0,0:0:0:0:
64,192,66035,1,0,0:0:0:40:Perc.wav
448,192,66035,1,0,0:0:0:0:
192,192,66144,1,2,0:0:0:0:
320,192,66222,1,0,0:0:0:70:Snare 2.wav
448,192,66222,1,0,0:0:0:0:
64,192,66331,1,2,0:0:0:0:
320,192,66409,1,0,0:0:0:70:Tom2.wav
448,192,66409,1,0,0:0:0:70:Snare 2.wav
64,192,66471,1,0,0:0:0:70:Tom2.wav
192,192,66534,1,0,0:0:0:70:Tom2.wav
320,192,66596,1,0,0:0:0:70:Tom3.wav
448,192,66658,1,0,0:0:0:70:Tom3.wav
192,192,66721,1,0,0:0:0:70:Tom3.wav
64,192,66783,1,2,0:0:0:0:
320,192,66783,1,4,0:0:0:0:
448,192,66892,1,0,0:0:0:40:Perc.wav
64,192,66970,1,2,0:0:0:0:
192,192,66970,1,0,0:0:0:0:
320,192,67079,1,0,0:0:0:70:Snare 2.wav
192,192,67266,1,0,0:0:0:40:Ride1.wav
448,192,67266,1,0,0:0:0:0:
64,192,67344,1,0,0:0:0:40:Ride1.wav
320,192,67344,1,0,0:0:0:0:
64,192,67453,1,2,0:0:0:0:
448,192,67453,1,0,0:0:0:0:
192,192,67531,1,0,0:0:0:40:Perc.wav
320,192,67531,1,0,0:0:0:0:
448,192,67640,1,2,0:0:0:0:
192,192,67717,1,0,0:0:0:70:Snare 2.wav
320,192,67827,1,2,0:0:0:0:
448,192,67827,1,0,0:0:0:0:
64,192,67904,1,0,0:0:0:70:Snare 2.wav
192,192,67904,1,0,0:0:0:0:
320,192,68013,1,0,0:0:0:40:Ride1.wav
448,192,68013,1,0,0:0:0:0:
64,192,68091,1,2,0:0:0:0:
192,192,68091,1,0,0:0:0:40:Ride1.wav
320,192,68200,1,0,0:0:0:0:
64,192,68278,1,2,0:0:0:0:
448,192,68278,1,0,0:0:0:0:
320,192,68465,1,2,0:0:0:0:
448,192,68465,1,0,0:0:0:0:
192,192,68527,1,0,0:0:0:0:
64,192,68574,1,0,0:0:0:70:Snare 2.wav
320,192,68652,1,2,0:0:0:0:
448,192,68652,1,0,0:0:0:0:
64,192,68746,1,0,0:0:0:0:
192,192,68792,1,0,0:0:0:0:
448,192,68839,1,0,0:0:0:40:Ride1.wav
320,192,68948,1,2,0:0:0:0:
192,192,68979,1,0,0:0:0:0:
64,192,69026,1,0,0:0:0:40:Perc.wav
448,192,69026,1,0,0:0:0:0:
320,192,69135,1,2,0:0:0:0:
64,192,69213,1,0,0:0:0:70:Snare 2.wav
192,192,69213,1,0,0:0:0:0:
448,192,69275,1,0,0:0:0:0:
320,192,69337,1,0,0:0:0:0:
64,192,69400,1,0,0:0:0:70:Snare 2.wav
192,192,69400,1,0,0:0:0:0:
320,192,69524,1,0,0:0:0:0:
64,192,69587,1,2,0:0:0:0:
448,192,69587,1,0,0:0:0:40:Ride1.wav
192,192,69649,1,0,0:0:0:70:Snare 2.wav
320,192,69711,1,0,0:0:0:70:Snare 2.wav
64,192,69774,1,2,0:0:0:0:
448,192,69774,1,4,0:0:0:0:
192,192,69883,1,0,0:0:0:40:Perc.wav
320,192,69960,1,2,0:0:0:0:
448,192,69960,1,0,0:0:0:0:
64,192,70069,1,0,0:0:0:70:Snare 2.wav
192,192,70069,1,0,0:0:0:0:
320,192,70147,1,2,0:0:0:0:
448,192,70147,1,0,0:0:0:0:
64,192,70256,1,0,0:0:0:40:Ride1.wav
448,192,70334,1,0,0:0:0:40:Ride1.wav
64,192,70443,1,2,0:0:0:0:
192,192,70443,1,0,0:0:0:0:
320,192,70521,1,0,0:0:0:40:Perc.wav
448,192,70521,1,0,0:0:0:0:
64,192,70630,1,2,0:0:0:0:
192,192,70630,1,0,0:0:0:0:
448,192,70708,1,0,0:0:0:70:Snare 2.wav
320,192,70755,1,0,0:0:0:0:
192,192,70817,1,2,0:0:0:0:
64,192,70895,1,0,0:0:0:70:Snare 2.wav
448,192,70895,1,0,0:0:0:0:
320,192,71004,1,0,0:0:0:0:
64,192,71082,1,2,0:0:0:0:
192,192,71082,1,0,0:0:0:40:Pandeiro2.wav
448,192,71144,1,0,0:0:0:40:Pandeiro2.wav
64,192,71207,1,0,0:0:0:40:Pandeiro2.wav
320,192,71269,1,2,0:0:0:0:
448,192,71269,1,0,0:0:0:0:
192,192,71378,1,0,0:0:0:40:Perc.wav
64,192,71456,1,2,0:0:0:0:
448,192,71456,1,0,0:0:0:0:
192,192,71565,1,0,0:0:0:70:Snare 2.wav
320,192,71565,1,0,0:0:0:0:
64,192,71643,1,2,0:0:0:0:
448,192,71643,1,0,0:0:0:0:
320,192,71752,1,0,0:0:0:40:Ride1.wav
64,192,71830,1,0,0:0:0:40:Ride1.wav
192,192,71939,1,2,0:0:0:0:
448,192,71939,1,0,0:0:0:0:
64,192,72017,128,0,72671:0:0:0:40:Perc.wav
320,192,72017,1,0,0:0:0:0:
192,192,72126,1,2,0:0:0:0:
448,192,72203,1,0,0:0:0:70:Snare 2.wav
192,192,72266,1,0,0:0:0:0:
320,192,72328,1,0,0:0:0:0:
448,192,72390,128,0,72671:0:0:0:70:Snare 2.wav
192,192,72577,128,2,72671:0:0:0:0:
64,192,72764,1,2,0:0:0:0:
320,192,72764,128,4,72951:0:0:0:0:
448,192,72795,128,0,72951:0:0:0:0:
192,192,72951,1,2,0:0:0:0:
64,192,73076,128,0,73294:0:0:0:70:Snare 2.wav
448,192,73076,1,0,0:0:0:0:
192,192,73107,128,0,73263:0:0:0:0:
320,192,73325,128,0,73434:0:0:0:40:Ride1.wav
192,192,73356,128,0,73434:0:0:0:0:
64,192,73434,1,2,0:0:0:0:
448,192,73512,128,2,73730:0:0:0:0:
320,192,73543,128,0,73699:0:0:0:0:
64,192,73605,1,0,0:0:0:0:
192,192,73699,1,0,0:0:0:70:Snare 2.wav
320,192,73808,128,2,74026:0:0:0:0:
448,192,73839,128,0,73995:0:0:0:0:
64,192,73886,1,0,0:0:0:70:Snare 2.wav
64,192,74073,1,2,0:0:0:0:
192,192,74073,128,0,74197:0:0:0:40:Ride1.wav
320,192,74104,128,0,74228:0:0:0:0:
64,192,74260,128,2,74446:0:0:0:0:
448,192,74260,1,0,0:0:0:0:
192,192,74291,128,0,74369:0:0:0:0:
320,192,74369,1,0,0:0:0:40:Perc.wav
192,192,74446,1,2,0:0:0:0:
320,192,74571,128,0,74758:0:0:0:70:Snare 2.wav
192,192,74602,128,0,74789:0:0:0:0:
64,192,74633,1,2,0:0:0:0:
448,192,74820,128,0,74929:0:0:0:40:Ride1.wav
320,192,74851,128,0,74929:0:0:0:0:
64,192,74929,1,2,0:0:0:0:
192,192,75007,128,0,75116:0:0:0:40:Perc.wav
448,192,75007,1,0,0:0:0:0:
64,192,75038,128,0,75194:0:0:0:0:
320,192,75116,1,2,0:0:0:0:
192,192,75194,1,0,0:0:0:70:Snare 2.wav
64,192,75303,1,2,0:0:0:0:
320,192,75303,128,0,75490:0:0:0:0:
448,192,75334,128,0,75490:0:0:0:0:
192,192,75381,1,0,0:0:0:70:Snare 2.wav
192,192,75568,128,2,75661:0:0:0:0:
448,192,75568,1,0,0:0:0:40:Ride1.wav
64,192,75599,128,0,75693:0:0:0:0:
64,192,75755,1,2,0:0:0:0:
320,192,75755,128,4,75864:0:0:0:0:
448,192,75755,128,0,75942:0:0:0:0:
192,192,75864,1,0,0:0:0:40:Perc.wav
320,192,75942,1,2,0:0:0:0:
64,192,76051,128,0,76238:0:0:0:70:Snare 2.wav
448,192,76051,1,0,0:0:0:0:
192,192,76082,128,0,76238:0:0:0:0:
320,192,76316,128,0,76425:0:0:0:40:Ride1.wav
448,192,76347,128,0,76425:0:0:0:0:
64,192,76425,1,2,0:0:0:0:
192,192,76503,128,0,76612:0:0:0:40:Perc.wav
448,192,76503,1,0,0:0:0:0:
64,192,76534,128,0,76689:0:0:0:0:
320,192,76612,1,2,0:0:0:0:
192,192,76689,1,0,0:0:0:70:Snare 2.wav
320,192,76798,128,2,76985:0:0:0:0:
192,192,76830,128,0,76985:0:0:0:0:
64,192,76876,1,0,0:0:0:70:Snare 2.wav
64,192,77063,1,2,0:0:0:0:
448,192,77063,128,0,77811:0:0:0:40:Pandeiro2.wav
320,192,77126,1,0,0:0:0:40:Pandeiro2.wav
192,192,77188,1,0,0:0:0:40:Pandeiro2.wav
64,192,77250,128,2,77437:0:0:0:0:
192,192,77437,1,2,0:0:0:0:
320,192,77484,1,0,0:0:0:0:
64,192,77531,1,0,0:0:0:0:
192,192,77577,1,0,0:0:0:0:
320,192,77624,1,2,0:0:0:0:
64,192,77671,1,0,0:0:0:0:
192,192,77717,1,0,0:0:0:0:
320,192,77764,1,0,0:0:0:0:
64,192,77811,1,0,0:0:0:40:Ride1.wav
192,192,77858,1,0,0:0:0:0:
320,192,77904,1,0,0:0:0:0:
448,192,77951,1,0,0:0:0:0:
64,192,77998,128,0,78434:0:0:0:40:Perc.wav
192,192,77998,128,0,78372:0:0:0:0:
320,192,78107,1,2,0:0:0:0:
448,192,78185,1,0,0:0:0:70:Snare 2.wav
320,192,78294,1,2,0:0:0:0:
448,192,78372,1,0,0:0:0:70:Tom2.wav
320,192,78434,1,0,0:0:0:70:Tom2.wav
192,192,78496,1,0,0:0:0:70:Tom2.wav
64,192,78559,1,0,0:0:0:70:Tom3.wav
320,192,78621,1,0,0:0:0:70:Tom3.wav
192,192,78683,1,0,0:0:0:70:Tom3.wav
64,192,78746,128,6,79415:0:0:0:0:
448,192,78777,128,0,79415:0:0:0:0:
320,192,78855,1,0,0:0:0:70:Snare 1.wav
192,192,78932,1,2,0:0:0:0:
320,192,79041,1,0,0:0:0:70:Snare 2.wav
192,192,79119,1,2,0:0:0:0:
192,192,79306,1,0,0:0:0:40:Ride1.wav
320,192,79415,1,2,0:0:0:0:
192,192,79493,1,0,0:0:0:40:Perc.wav
64,192,79509,1,0,0:0:0:0:
320,192,79618,1,0,0:0:0:0:
448,192,79633,1,0,0:0:0:0:
192,192,79742,1,0,0:0:0:0:
64,192,79758,1,0,0:0:0:0:
320,192,79867,1,0,0:0:0:0:
192,192,79883,1,0,0:0:0:70:Snare 2.wav
448,192,79992,1,0,0:0:0:40:Ride1.wav
320,192,80007,1,0,0:0:0:0:
64,192,80116,1,0,0:0:0:0:
192,192,80132,1,0,0:0:0:0:
448,192,80241,128,2,80911:0:0:0:0:
320,192,80272,128,0,80911:0:0:0:0:
64,192,80350,1,0,0:0:0:40:Perc.wav
192,192,80428,1,2,0:0:0:0:
64,192,80537,1,0,0:0:0:70:Snare 2.wav
192,192,80615,1,2,0:0:0:0:
64,192,80802,1,0,0:0:0:40:Ride1.wav
192,192,80911,1,2,0:0:0:0:
64,192,80988,128,0,81175:0:0:0:40:Perc.wav
448,192,80988,1,0,0:0:0:0:
192,192,81020,128,0,81175:0:0:0:0:
320,192,81098,1,2,0:0:0:0:
448,192,81175,1,0,0:0:0:70:Snare 2.wav
320,192,81253,128,0,81362:0:0:0:0:
192,192,81284,128,2,81362:0:0:0:0:
64,192,81362,1,0,0:0:0:70:Snare 2.wav
192,192,81425,1,0,0:0:0:0:
320,192,81487,1,0,0:0:0:40:Ride1.wav
448,192,81503,128,0,81736:0:0:0:0:
64,192,81549,1,2,0:0:0:0:
192,192,81612,1,0,0:0:0:70:Snare 2.wav
320,192,81674,1,0,0:0:0:70:Snare 2.wav
64,192,81736,128,2,82297:0:0:0:0:
192,192,81736,128,4,82297:0:0:0:0:
448,192,81845,1,0,0:0:0:40:Perc.wav
320,192,81923,1,2,0:0:0:0:
448,192,82032,1,0,0:0:0:70:Snare 2.wav
320,192,82110,1,2,0:0:0:0:
448,192,82297,1,0,0:0:0:40:Ride1.wav
320,192,82359,1,0,0:0:0:0:
192,192,82422,1,2,0:0:0:0:
64,192,82484,128,0,82671:0:0:0:40:Perc.wav
448,192,82484,128,0,82671:0:0:0:0:
320,192,82593,1,2,0:0:0:0:
192,192,82671,1,0,0:0:0:70:Snare 2.wav
320,192,82795,128,0,82889:0:0:0:0:
448,192,82827,128,0,82920:0:0:0:0:
192,192,82858,1,0,0:0:0:70:Snare 2.wav
64,192,82967,128,0,83231:0:0:0:0:
448,192,83045,1,0,0:0:0:40:Pandeiro2.wav
320,192,83107,1,0,0:0:0:40:Pandeiro2.wav
192,192,83169,1,0,0:0:0:40:Pandeiro2.wav
320,192,83231,128,2,83792:0:0:0:0:
448,192,83231,128,0,83792:0:0:0:0:
192,192,83341,1,0,0:0:0:40:Perc.wav
64,192,83418,1,2,0:0:0:0:
192,192,83527,1,0,0:0:0:70:Snare 2.wav
64,192,83605,1,2,0:0:0:0:
192,192,83792,1,0,0:0:0:40:Ride1.wav
320,192,83886,1,0,0:0:0:0:
64,192,83979,128,0,84353:0:0:0:40:Perc.wav
448,192,83979,128,0,84353:0:0:0:0:
192,192,84088,1,2,0:0:0:0:
320,192,84166,1,0,0:0:0:70:Snare 2.wav
192,192,84275,1,2,0:0:0:0:
320,192,84353,1,0,0:0:0:70:Snare 2.wav
192,192,84415,1,0,0:0:0:70:Snare 2.wav
64,192,84478,1,0,0:0:0:70:Snare 2.wav
448,192,84540,1,0,0:0:0:70:Snare 1.wav
320,192,84602,1,0,0:0:0:70:Snare 1.wav
192,192,84665,1,0,0:0:0:70:Snare 2.wav
64,192,84727,128,6,86970:0:0:0:0:
448,192,84727,128,0,85225:0:0:0:70:Snare 2.wav
192,192,85101,128,0,85163:0:0:0:0:
320,192,85225,128,0,85288:0:0:0:0:
448,192,85350,128,0,85474:0:0:0:0:
192,192,85474,128,0,85537:0:0:0:0:
320,192,85599,128,0,85661:0:0:0:0:
448,192,85724,128,0,85848:0:0:0:0:
192,192,85848,128,0,85911:0:0:0:0:
320,192,85973,128,0,86035:0:0:0:0:
448,192,86098,128,0,86970:0:0:0:0:
192,192,86222,128,0,86970:0:0:0:0:
320,192,86970,1,0,0:0:0:70:Pandeiro1.wav
320,192,87157,1,0,0:0:0:70:Pandeiro1.wav
448,192,87344,1,0,0:0:0:70:Loud kick.wav
64,192,87406,1,0,0:0:0:70:Snare 2.wav
192,192,87406,1,0,0:0:0:0:
320,192,87468,1,0,0:0:0:70:Loud kick.wav
448,192,87531,1,0,0:0:0:70:Snare 2.wav
64,192,87577,1,0,0:0:0:0:
192,192,87624,1,0,0:0:0:0:
320,192,87671,1,0,0:0:0:0:
64,192,87717,1,2,0:0:0:0:
448,192,87717,128,4,87780:0:0:0:0:
448,192,87842,128,0,87904:0:0:0:0:
320,192,87904,1,0,0:0:0:0:
448,192,88029,128,0,88091:0:0:0:0:
64,192,88091,1,0,0:0:0:0:
192,192,88216,128,0,88278:0:0:0:0:
320,192,88403,1,0,0:0:0:0:
64,192,88465,128,0,88527:0:0:0:0:
448,192,88465,1,0,0:0:0:0:
192,192,88590,1,0,0:0:0:0:
320,192,88652,1,0,0:0:0:0:
64,192,88777,128,0,88839:0:0:0:0:
64,192,88964,128,0,89026:0:0:0:0:
192,192,89088,1,0,0:0:0:0:
64,192,89150,1,0,0:0:0:0:
320,192,89213,128,0,89275:0:0:0:0:
448,192,89213,1,0,0:0:0:0:
192,192,89337,1,0,0:0:0:0:
64,192,89493,1,0,0:0:0:0:
320,192,89540,128,0,89602:0:0:0:0:
64,192,89696,1,0,0:0:0:0:
320,192,89758,128,0,89820:0:0:0:0:
320,192,89898,1,0,0:0:0:0:
64,192,89960,1,0,0:0:0:0:
192,192,89960,128,0,90023:0:0:0:0:
192,192,90085,128,0,90147:0:0:0:0:
448,192,90210,1,0,0:0:0:0:
192,192,90272,128,0,90334:0:0:0:0:
192,192,90459,128,0,90521:0:0:0:0:
64,192,90646,1,0,0:0:0:0:
320,192,90708,1,0,0:0:0:0:
448,192,90708,128,0,90770:0:0:0:0:
448,192,90848,128,0,90911:0:0:0:0:
448,192,91020,128,0,91082:0:0:0:0:
64,192,91082,1,0,0:0:0:0:
448,192,91207,128,0,91269:0:0:0:0:
448,192,91393,1,0,0:0:0:0:
64,192,91456,1,0,0:0:0:0:
192,192,91456,128,0,91518:0:0:0:0:
192,192,91580,128,0,91643:0:0:0:0:
448,192,91767,1,0,0:0:0:0:
192,192,91798,128,0,91861:0:0:0:0:
192,192,91954,128,0,92017:0:0:0:0:
192,192,92141,1,0,0:0:0:0:
320,192,92203,128,0,92266:0:0:0:0:
448,192,92203,1,0,0:0:0:0:
320,192,92328,128,0,92390:0:0:0:0:
64,192,92453,1,0,0:0:0:0:
320,192,92515,128,0,92577:0:0:0:0:
64,192,92655,1,0,0:0:0:0:
320,192,92702,128,0,92764:0:0:0:0:
64,192,92827,1,0,0:0:0:0:
320,192,92889,1,0,0:0:0:0:
64,192,92951,128,0,93013:0:0:0:0:
448,192,92951,1,0,0:0:0:0:
192,192,93076,1,0,0:0:0:0:
320,192,93154,1,0,0:0:0:0:
448,192,93278,128,0,93341:0:0:0:0:
64,192,93387,1,0,0:0:0:0:
448,192,93465,128,0,93543:0:0:0:0:
192,192,93543,1,0,0:0:0:0:
448,192,93621,1,0,0:0:0:0:
64,192,93699,128,0,93761:0:0:0:0:
64,192,93839,128,0,93886:0:0:0:0:
320,192,93886,1,0,0:0:0:0:
64,192,94020,128,0,94084:0:0:0:0:
448,192,94020,1,0,0:0:0:0:
64,192,94197,128,0,94260:0:0:0:0:
320,192,94197,1,0,0:0:0:0:
448,192,94260,1,0,0:0:0:0:
64,192,94384,1,0,0:0:0:0:
320,192,94446,128,0,94509:0:0:0:0:
320,192,94571,128,0,94633:0:0:0:0:
448,192,94571,1,0,0:0:0:0:
64,192,94758,1,0,0:0:0:0:
320,192,94758,128,0,94820:0:0:0:0:
320,192,94945,128,0,95007:0:0:0:0:
448,192,94945,1,0,0:0:0:0:
64,192,95007,1,0,0:0:0:0:
320,192,95147,1,0,0:0:0:0:
64,192,95210,1,0,0:0:0:0:
192,192,95210,128,0,95272:0:0:0:0:
448,192,95323,1,0,0:0:0:0:
320,192,95451,1,0,0:0:0:0:
192,192,95506,128,0,95568:0:0:0:0:
64,192,95568,1,0,0:0:0:0:
192,192,95696,128,0,95755:0:0:0:0:
448,192,95696,1,0,0:0:0:0:
192,192,95879,1,0,0:0:0:0:
64,192,95942,1,0,0:0:0:0:
448,192,95942,128,0,96004:0:0:0:0:
448,192,96066,128,0,96129:0:0:0:0:
448,192,96253,128,0,96316:0:0:0:0:
64,192,96316,1,0,0:0:0:0:
448,192,96440,128,0,96503:0:0:0:0:
192,192,96503,1,0,0:0:0:0:
448,192,96627,1,0,0:0:0:0:
64,192,96689,128,0,96752:0:0:0:70:Hats Open 1.wav
320,192,96814,1,0,0:0:0:0:
64,192,97001,128,0,97063:0:0:0:0:
448,192,97001,1,0,0:0:0:0:
320,192,97188,1,0,0:0:0:0:
64,192,97250,128,0,97312:0:0:0:70:Hats Open 1.wav
192,192,97375,1,0,0:0:0:0:
320,192,97437,1,0,0:0:0:70:Snare 2.wav
448,192,97437,1,0,0:0:0:0:
64,192,97562,1,0,0:0:0:20:Snare 2.wav
448,192,97624,1,0,0:0:0:70:Drum.wav
192,192,97686,1,0,0:0:0:20:Snare 2.wav
448,192,97749,1,0,0:0:0:30:Snare 2.wav
64,192,97811,1,0,0:0:0:50:Snare 2.wav
320,192,97873,1,0,0:0:0:50:Snare 2.wav
64,192,97936,1,0,0:0:0:60:Snare 2.wav
448,192,97998,1,0,0:0:0:50:Snare 2.wav
320,192,98060,1,0,0:0:0:80:Snare 2.wav
192,192,98122,1,0,0:0:0:90:Snare 2.wav
64,192,98185,1,6,0:0:0:0:
448,192,98185,128,0,98372:0:0:0:70:Drum.wav
64,192,98372,128,0,98496:0:0:0:0:
192,192,98434,128,0,98559:0:0:0:0:
320,192,98496,128,2,98621:0:0:0:0:
448,192,98559,128,0,98683:0:0:0:0:
64,192,98621,128,0,98746:0:0:0:0:
192,192,98683,128,0,98746:0:0:0:0:
320,192,98746,1,2,0:0:0:0:
448,192,98792,1,0,0:0:0:0:
64,192,98839,1,0,0:0:0:0:
320,192,98886,1,0,0:0:0:0:
448,192,98932,1,0,0:0:0:0:
64,192,98979,1,0,0:0:0:0:
320,192,99026,1,0,0:0:0:0:
448,192,99073,1,0,0:0:0:0:
64,192,99119,1,2,0:0:0:0:
320,192,99166,1,0,0:0:0:0:
448,192,99213,1,0,0:0:0:0:
64,192,99260,1,0,0:0:0:0:
192,192,99306,1,2,0:0:0:0:
320,192,99353,1,0,0:0:0:0:
448,192,99400,128,0,99680:0:0:0:0:
64,192,99493,1,2,0:0:0:0:
320,192,99540,128,0,99680:0:0:0:0:
64,192,99680,128,2,99929:0:0:0:0:
192,192,99805,128,0,99898:0:0:0:0:
448,192,99867,1,0,0:0:0:0:
320,192,99960,1,2,0:0:0:0:
192,192,99992,1,0,0:0:0:0:
64,192,100023,1,0,0:0:0:0:
448,192,100054,128,0,100428:0:0:0:0:
64,192,100241,1,2,0:0:0:0:
320,192,100241,128,0,100428:0:0:0:0:
64,192,100428,128,0,100552:0:0:0:0:
192,192,100552,1,2,0:0:0:0:
64,192,100615,1,2,0:0:0:0:
448,192,100615,128,0,100802:0:0:0:0:
320,192,100739,128,0,100802:0:0:0:0:
192,192,100802,1,2,0:0:0:0:
64,192,100926,128,0,101113:0:0:0:0:
448,192,100988,1,2,0:0:0:0:
320,192,101113,1,0,0:0:0:0:
64,192,101175,128,2,101300:0:0:0:0:
192,192,101175,1,0,0:0:0:0:
320,192,101300,1,2,0:0:0:0:
64,192,101362,1,0,0:0:0:0:
448,192,101362,1,0,0:0:0:0:
320,192,101487,128,2,101674:0:0:0:0:
64,192,101549,1,0,0:0:0:0:
448,192,101674,1,0,0:0:0:70:kick.wav
64,192,101736,1,2,0:0:0:0:
192,192,101736,128,0,101861:0:0:0:0:
320,192,101861,1,0,0:0:0:0:
64,192,101923,128,0,102048:0:0:0:0:
192,192,102048,1,2,0:0:0:0:
448,192,102110,1,2,0:0:0:0:
320,192,102235,128,0,102422:0:0:0:0:
64,192,102297,1,2,0:0:0:0:
448,192,102297,1,0,0:0:0:0:
64,192,102484,1,2,0:0:0:0:
192,192,102484,128,0,102608:0:0:0:0:
448,192,102608,1,0,0:0:0:0:
64,192,102671,128,2,102795:0:0:0:0:
320,192,102671,1,0,0:0:0:0:
448,192,102795,1,0,0:0:0:0:
192,192,102858,1,0,0:0:0:0:
320,192,102982,128,2,103169:0:0:0:0:
64,192,103045,1,0,0:0:0:0:
448,192,103045,1,0,0:0:0:0:
192,192,103169,1,0,0:0:0:0:
448,192,103231,1,2,0:0:0:0:
64,192,103356,128,0,104104:0:0:0:0:
320,192,103418,1,0,0:0:0:0:
448,192,103543,1,0,0:0:0:0:
192,192,103605,1,2,0:0:0:0:
320,192,103605,1,0,0:0:0:0:
448,192,103714,1,0,0:0:0:0:
192,192,103792,1,2,0:0:0:0:
320,192,103792,1,0,0:0:0:0:
448,192,103917,1,0,0:0:0:0:
320,192,103979,1,2,0:0:0:0:
192,192,104041,1,0,0:0:0:0:
448,192,104104,1,0,0:0:0:0:
320,192,104166,128,6,104306:0:0:0:0:
192,192,104228,128,0,104478:0:0:0:0:
64,192,104306,128,0,104478:0:0:0:0:
448,192,104478,1,0,0:0:0:70:kick.wav
192,192,104540,128,0,104851:0:0:0:0:
320,192,104540,128,0,104851:0:0:0:0:
64,192,104727,1,2,0:0:0:0:
448,192,104851,1,0,0:0:0:70:kick.wav
64,192,104914,128,2,105397:0:0:0:0:
320,192,104914,128,0,105007:0:0:0:0:
448,192,105054,128,0,105147:0:0:0:0:
192,192,105101,1,2,0:0:0:0:
320,192,105225,128,0,105397:0:0:0:70:Drum3.wav
448,192,105397,1,0,0:0:0:70:Drum3.wav
64,192,105474,1,2,0:0:0:0:
192,192,105474,128,0,105661:0:0:0:70:Drum.wav
320,192,105599,128,0,105661:0:0:0:70:Drum3.wav
448,192,105661,1,0,0:0:0:70:Drum.wav
64,192,105724,1,0,0:0:0:70:Drum.wav
192,192,105786,1,0,0:0:0:70:Drum.wav
320,192,105848,128,0,106160:0:0:0:0:
192,192,105973,128,0,106160:0:0:0:70:Drum.wav
448,192,106160,1,0,0:0:0:70:Drum3.wav
64,192,106222,128,2,106347:0:0:0:0:
192,192,106222,128,0,106347:0:0:0:70:Drum3.wav
320,192,106347,1,0,0:0:0:0:
448,192,106409,1,0,0:0:0:0:
64,192,106409,128,0,106471:0:0:0:0:
192,192,106471,128,0,106534:0:0:0:0:
320,192,106534,128,0,106596:0:0:0:0:
64,192,106596,128,2,106658:0:0:0:0:
192,192,106658,128,0,106721:0:0:0:0:
448,192,106721,128,2,106783:0:0:0:0:
64,192,106783,128,2,106845:0:0:0:0:
320,192,106845,128,0,106908:0:0:0:0:
448,192,106908,128,0,106970:0:0:0:0:
192,192,106970,128,2,107032:0:0:0:0:
320,192,107032,128,0,107094:0:0:0:0:
448,192,107094,128,0,107453:0:0:0:0:
64,192,107157,1,2,0:0:0:0:
192,192,107344,1,0,0:0:0:70:Pandeiro1.wav
64,192,107375,128,0,107453:0:0:0:0:
320,192,107453,1,2,0:0:0:0:
192,192,107562,1,0,0:0:0:0:
64,192,107593,128,0,108590:0:0:0:0:
320,192,107717,1,2,0:0:0:0:
448,192,107717,1,0,0:0:0:70:kick.wav
192,192,107904,1,0,0:0:0:0:
448,192,108013,1,0,0:0:0:70:kick.wav
192,192,108091,1,2,0:0:0:0:
320,192,108091,1,0,0:0:0:0:
448,192,108216,1,0,0:0:0:0:
192,192,108278,1,2,0:0:0:0:
320,192,108278,1,0,0:0:0:0:
320,192,108465,1,2,0:0:0:0:
448,192,108590,128,0,108839:0:0:0:0:
64,192,108652,1,0,0:0:0:70:Drum.wav
320,192,108714,1,0,0:0:0:70:Drum.wav
64,192,108777,1,0,0:0:0:70:Drum.wav
192,192,108839,128,0,109509:0:0:0:0:
320,192,108964,1,0,0:0:0:70:Drum.wav
64,192,109026,1,0,0:0:0:0:
448,192,109026,1,0,0:0:0:0:
320,192,109213,1,2,0:0:0:0:
448,192,109213,1,0,0:0:0:70:Drum3.wav
64,192,109400,128,0,109509:0:0:0:70:Drum3.wav
448,192,109509,1,0,0:0:0:70:Snare 2.wav
320,192,109509,1,2,0:0:0:0:
64,192,109587,1,2,0:0:0:0:
192,192,109587,1,0,0:0:0:70:Snare 2.wav
320,192,109711,1,2,0:0:0:0:
192,192,109774,1,2,0:0:0:0:
448,192,109774,1,0,0:0:0:70:Drum.wav
64,192,109898,1,0,0:0:0:70:Drum.wav
320,192,109898,1,0,0:0:0:70:Snare 2.wav
448,192,109960,1,0,0:0:0:70:Drum.wav
192,192,110023,1,0,0:0:0:70:Drum.wav
320,192,110085,1,0,0:0:0:70:Drum.wav
64,192,110147,128,6,110334:0:0:0:0:
192,192,110179,128,0,110334:0:0:0:0:
448,192,110334,1,0,0:0:0:0:
64,192,110428,1,0,0:0:0:0:
320,192,110428,128,0,110646:0:0:0:0:
448,192,110459,128,2,110646:0:0:0:0:
64,192,110646,1,0,0:0:0:0:
192,192,110708,128,2,110802:0:0:0:0:
320,192,110708,128,0,110802:0:0:0:0:
64,192,110895,128,0,111082:0:0:0:0:
192,192,110926,128,0,111082:0:0:0:0:
448,192,111020,1,0,0:0:0:0:
320,192,111082,1,2,0:0:0:0:
192,192,111175,1,0,0:0:0:0:
320,192,111269,1,2,0:0:0:0:
192,192,111300,1,0,0:0:0:0:
64,192,111331,128,0,111954:0:0:0:0:
320,192,111456,1,2,0:0:0:0:
448,192,111456,128,0,111954:0:0:0:0:
192,192,111580,1,0,0:0:0:0:
320,192,111643,1,2,0:0:0:0:
192,192,111767,1,0,0:0:0:0:
320,192,111830,1,0,0:0:0:0:
192,192,111954,1,2,0:0:0:0:
320,192,112017,128,0,112063:0:0:0:0:
448,192,112017,128,0,112063:0:0:0:0:
64,192,112110,128,0,112203:0:0:0:0:
192,192,112141,128,0,112203:0:0:0:0:
448,192,112203,1,2,0:0:0:0:
320,192,112297,128,0,112390:0:0:0:0:
192,192,112328,128,0,112390:0:0:0:0:
64,192,112390,1,0,0:0:0:0:
448,192,112484,128,0,112577:0:0:0:0:
320,192,112515,128,0,112577:0:0:0:0:
64,192,112577,1,2,0:0:0:0:
192,192,112686,128,0,112889:0:0:0:0:
320,192,112686,128,0,112889:0:0:0:0:
64,192,112889,1,0,0:0:0:70:Drum.wav
320,192,112951,1,2,0:0:0:0:
448,192,112951,1,0,0:0:0:70:Drum.wav
64,192,112998,1,0,0:0:0:70:Drum.wav
192,192,113045,1,0,0:0:0:70:Drum.wav
320,192,113091,1,0,0:0:0:70:Drum.wav
64,192,113138,128,2,113325:0:0:0:0:
448,192,113138,128,0,113325:0:0:0:70:Drum.wav
192,192,113325,1,0,0:0:0:0:
320,192,113434,1,2,0:0:0:0:
64,192,113496,128,0,113699:0:0:0:0:
192,192,113527,128,0,113605:0:0:0:0:
448,192,113605,128,0,113808:0:0:0:0:
192,192,113699,1,2,0:0:0:0:
320,192,113808,128,0,113855:0:0:0:0:
192,192,113839,128,0,113886:0:0:0:0:
64,192,113886,1,0,0:0:0:0:
320,192,113979,128,0,114073:0:0:0:0:
448,192,113979,128,0,114306:0:0:0:0:
192,192,114073,1,2,0:0:0:0:
64,192,114166,128,0,114353:0:0:0:0:
192,192,114197,128,0,114306:0:0:0:0:
320,192,114353,128,0,114446:0:0:0:0:
192,192,114400,128,0,114493:0:0:0:0:
64,192,114446,128,2,114540:0:0:0:0:
448,192,114493,128,0,114758:0:0:0:0:
320,192,114540,128,0,114696:0:0:0:0:
64,192,114633,1,2,0:0:0:0:
192,192,114696,1,0,0:0:0:70:Drum.wav
320,192,114758,1,0,0:0:0:70:Drum.wav
64,192,114820,128,0,115007:0:0:0:0:
448,192,114820,128,0,115241:0:0:0:0:
192,192,114929,1,0,0:0:0:70:Drum.wav
320,192,115007,128,0,115194:0:0:0:0:
192,192,115132,1,0,0:0:0:70:Drum.wav
64,192,115194,1,2,0:0:0:0:
192,192,115256,1,0,0:0:0:0:
320,192,115319,128,2,115381:0:0:0:0:
448,192,115319,128,4,115412:0:0:0:0:
64,192,115568,1,2,0:0:0:0:
192,192,115568,1,0,0:0:0:0:
448,192,115615,1,2,0:0:0:0:
64,192,115755,1,2,0:0:0:0:
192,192,115755,1,0,0:0:0:0:
448,192,115802,1,2,0:0:0:0:
64,192,115942,1,2,0:0:0:0:
192,192,115942,1,0,0:0:0:0:
448,192,116004,1,0,0:0:0:70:Snare 2.wav
320,192,116066,1,0,0:0:0:70:Snare 2.wav
64,192,116129,128,6,116736:0:0:0:0:
192,192,116129,1,0,0:0:0:70:Drum.wav
448,192,116238,128,0,116378:0:0:0:0:
320,192,116269,128,0,116378:0:0:0:0:
320,192,116425,1,0,0:0:0:70:kick.wav
448,192,116425,1,0,0:0:0:70:Drum.wav
192,192,116503,128,0,116689:0:0:0:0:
448,192,116627,1,0,0:0:0:0:
320,192,116689,1,2,0:0:0:0:
192,192,116783,1,0,0:0:0:0:
64,192,116845,128,0,117001:0:0:0:0:
448,192,116861,128,0,117094:0:0:0:0:
192,192,117001,1,0,0:0:0:0:
64,192,117063,1,2,0:0:0:0:
192,192,117172,128,0,117359:0:0:0:0:
64,192,117203,128,0,117359:0:0:0:0:
448,192,117250,1,2,0:0:0:0:
320,192,117359,1,0,0:0:0:0:
448,192,117437,128,2,117562:0:0:0:0:
320,192,117468,128,0,117562:0:0:0:0:
192,192,117562,1,0,0:0:0:0:
64,192,117624,1,2,0:0:0:0:
320,192,117624,1,0,0:0:0:70:Drum.wav
448,192,117655,128,0,117749:0:0:0:0:
192,192,117686,1,0,0:0:0:70:Drum.wav
320,192,117749,1,0,0:0:0:70:Drum.wav
64,192,117811,1,0,0:0:0:0:
448,192,117811,128,0,118138:0:0:0:0:
192,192,117936,128,0,117998:0:0:0:70:Drum.wav
64,192,117998,1,0,0:0:0:0:
192,192,118154,128,0,118278:0:0:0:0:
64,192,118185,128,2,118278:0:0:0:0:
448,192,118278,1,0,0:0:0:0:
320,192,118372,128,0,118559:0:0:0:0:
448,192,118403,128,0,118559:0:0:0:0:
64,192,118481,1,2,0:0:0:0:
192,192,118559,1,2,0:0:0:0:
64,192,118683,128,0,118932:0:0:0:0:
448,192,118714,128,0,118932:0:0:0:0:
192,192,118746,1,2,0:0:0:0:
320,192,118932,1,0,0:0:0:70:Drum.wav
192,192,118979,1,0,0:0:0:70:Drum.wav
448,192,119026,1,0,0:0:0:70:Drum.wav
320,192,119073,1,0,0:0:0:70:Drum.wav
64,192,119119,128,2,119493:0:0:0:0:
192,192,119150,128,0,119493:0:0:0:70:Drum.wav
448,192,119228,1,2,0:0:0:0:
320,192,119306,1,0,0:0:0:70:Pandeiro1.wav
448,192,119415,1,0,0:0:0:70:Drum.wav
320,192,119493,1,0,0:0:0:0:
64,192,119618,1,0,0:0:0:0:
448,192,119649,128,0,119774:0:0:0:0:
320,192,119680,128,2,119742:0:0:0:0:
64,192,119774,128,0,120241:0:0:0:0:
192,192,119805,128,0,120241:0:0:0:0:
448,192,119976,1,0,0:0:0:70:kick.wav
320,192,120054,1,2,0:0:0:0:
448,192,120163,1,0,0:0:0:0:
320,192,120241,1,2,0:0:0:0:
64,192,120350,1,0,0:0:0:0:
320,192,120428,1,2,0:0:0:0:
448,192,120428,1,0,0:0:0:0:
64,192,120490,128,0,121113:0:0:0:0:
192,192,120521,128,0,120615:0:0:0:0:
448,192,120615,1,0,0:0:0:70:Drum.wav
320,192,120677,1,0,0:0:0:70:Drum.wav
192,192,120739,1,0,0:0:0:70:Drum.wav
448,192,120802,128,0,120926:0:0:0:0:
320,192,120926,1,0,0:0:0:70:Drum.wav
448,192,120988,128,0,121113:0:0:0:0:
192,192,121113,1,0,0:0:0:0:
64,192,121175,128,2,121238:0:0:0:0:
320,192,121175,1,0,0:0:0:0:
192,192,121269,1,0,0:0:0:0:
320,192,121300,1,0,0:0:0:0:
448,192,121331,128,0,121736:0:0:0:0:
64,192,121362,1,6,0:0:0:0:
192,192,121471,1,0,0:0:0:0:
320,192,121549,128,2,121736:0:0:0:0:
64,192,121736,1,6,0:0:0:0:
192,192,121736,1,0,0:0:0:70:Drum.wav
320,192,121798,1,0,0:0:0:70:Drum.wav
448,192,121861,1,0,0:0:0:70:Drum.wav
64,192,121861,1,2,0:0:0:0:
192,192,121939,1,0,0:0:0:70:Drum.wav
320,192,121985,1,2,0:0:0:0:
448,192,121985,1,0,0:0:0:70:Drum.wav
64,192,122063,1,0,0:0:0:70:Drum.wav
192,192,122126,1,6,0:0:0:0:
320,192,122172,128,0,122406:0:0:0:0:
448,192,122172,128,0,122484:0:0:0:0:
64,192,122297,1,2,0:0:0:0:
192,192,122406,1,0,0:0:0:70:Drum.wav
64,192,122484,128,2,122780:0:0:0:0:
320,192,122577,1,0,0:0:0:0:
192,192,122608,128,0,122780:0:0:0:0:
448,192,122780,1,2,0:0:0:0:
320,192,122858,128,0,123076:0:0:0:0:
192,192,122858,128,0,123045:0:0:0:0:
64,192,122967,1,2,0:0:0:0:
448,192,123045,1,0,0:0:0:0:
64,192,123154,1,2,0:0:0:0:
320,192,123200,128,0,123294:0:0:0:0:
448,192,123231,128,0,123418:0:0:0:0:
320,192,123356,1,2,0:0:0:0:
64,192,123418,128,2,123543:0:0:0:0:
192,192,123418,128,0,123512:0:0:0:0:
448,192,123543,1,0,0:0:0:0:
320,192,123574,128,0,123668:0:0:0:0:
64,192,123605,128,2,123901:0:0:0:0:
448,192,123730,1,0,0:0:0:0:
192,192,123792,1,2,0:0:0:0:
320,192,123901,128,0,123979:0:0:0:0:
448,192,123932,128,0,124010:0:0:0:0:
64,192,123979,128,2,124088:0:0:0:0:
320,192,124088,1,0,0:0:0:0:
448,192,124166,128,0,124462:0:0:0:0:
64,192,124283,1,0,0:0:0:0:
320,192,124353,128,2,124462:0:0:0:0:
64,192,124462,1,2,0:0:0:0:
192,192,124540,128,0,124649:0:0:0:0:
320,192,124571,128,0,124649:0:0:0:0:
64,192,124649,1,2,0:0:0:0:
448,192,124727,128,0,124851:0:0:0:0:
320,192,124758,128,0,124851:0:0:0:0:
64,192,124851,1,0,0:0:0:0:
192,192,124914,128,2,125038:0:0:0:0:
320,192,124945,128,0,125038:0:0:0:0:
448,192,125038,1,0,0:0:0:0:
64,192,125101,128,0,125397:0:0:0:70:kick.wav
192,192,125132,128,0,125288:0:0:0:0:
448,192,125210,1,2,0:0:0:0:
320,192,125288,1,2,0:0:0:0:
448,192,125397,128,0,125599:0:0:0:0:
320,192,125428,128,0,125568:0:0:0:0:
192,192,125474,1,2,0:0:0:0:
64,192,125568,1,0,0:0:0:0:
192,192,125646,128,0,125770:0:0:0:0:
320,192,125677,128,0,125770:0:0:0:0:
64,192,125770,1,2,0:0:0:0:
448,192,125833,128,0,126066:0:0:0:0:
320,192,125864,128,0,126035:0:0:0:0:
64,192,125957,1,0,0:0:0:70:kick.wav
192,192,126035,1,0,0:0:0:0:
64,192,126144,128,2,126409:0:0:0:0:
448,192,126175,128,0,126331:0:0:0:0:
320,192,126222,1,0,0:0:0:0:
192,192,126331,128,0,126409:0:0:0:0:
320,192,126409,128,0,126596:0:0:0:0:
64,192,126518,1,2,0:0:0:0:
192,192,126596,1,6,0:0:0:0:
448,192,126596,1,0,0:0:0:70:Drum.wav
320,192,126721,1,0,0:0:0:70:Drum.wav
448,192,126721,1,0,0:0:0:70:Snare 2.wav
64,192,126783,1,0,0:0:0:70:Drum.wav
192,192,126783,1,0,0:0:0:70:Snare 2.wav
320,192,126908,1,0,0:0:0:70:Drum.wav
448,192,126908,1,0,0:0:0:70:Snare 2.wav
64,192,126970,1,6,0:0:0:0:
192,192,126970,1,0,0:0:0:70:Drum.wav
320,192,127094,1,0,0:0:0:70:Drum.wav
448,192,127094,1,0,0:0:0:70:Snare 2.wav
64,192,127157,1,0,0:0:0:70:Drum.wav
192,192,127157,1,0,0:0:0:70:Snare 2.wav
320,192,127281,1,0,0:0:0:70:Drum.wav
64,192,127344,1,6,0:0:0:0:
448,192,127344,1,0,0:0:0:70:Drum.wav
192,192,127468,1,0,0:0:0:70:Drum3.wav
320,192,127468,1,0,0:0:0:70:Snare 2.wav
64,192,127531,1,0,0:0:0:70:Drum3.wav
448,192,127531,1,0,0:0:0:70:Snare 2.wav
192,192,127655,1,0,0:0:0:70:Drum3.wav
320,192,127655,1,0,0:0:0:70:Snare 2.wav
64,192,127717,1,6,0:0:0:0:
448,192,127717,1,0,0:0:0:70:Drum.wav
192,192,127842,1,0,0:0:0:70:Drum3.wav
320,192,127842,1,0,0:0:0:70:Snare 2.wav
64,192,127904,1,0,0:0:0:70:Drum.wav
448,192,127904,1,0,0:0:0:70:Snare 2.wav
192,192,127967,1,0,0:0:0:70:Drum.wav
320,192,128029,1,0,0:0:0:70:Drum.wav
448,192,128091,128,6,128372:0:0:0:0:
64,192,128122,128,0,128496:0:0:0:0:
192,192,128200,1,0,0:0:0:70:Drum.wav
320,192,128278,1,0,0:0:0:0:
192,192,128434,128,0,128527:0:0:0:0:
320,192,128465,128,2,128652:0:0:0:0:
448,192,128559,128,0,128839:0:0:0:0:
64,192,128652,1,0,0:0:0:0:
192,192,128761,128,2,129135:0:0:0:0:
64,192,128839,128,2,129135:0:0:0:0:
320,192,128948,1,2,0:0:0:0:
448,192,129135,1,2,0:0:0:0:
320,192,129182,128,0,129400:0:0:0:0:
192,192,129213,128,0,129400:0:0:0:0:
64,192,129400,1,2,0:0:0:0:
448,192,129431,1,0,0:0:0:0:
320,192,129462,1,0,0:0:0:0:
192,192,129493,1,0,0:0:0:0:
64,192,129540,128,0,129867:0:0:0:0:
448,192,129587,1,0,0:0:0:70:Drum.wav
192,192,129649,1,0,0:0:0:70:Drum.wav
320,192,129711,1,0,0:0:0:70:Drum.wav
448,192,129774,1,0,0:0:0:0:
320,192,129867,128,0,130038:0:0:0:0:
448,192,129898,128,0,130069:0:0:0:70:kick.wav
192,192,129960,1,2,0:0:0:0:
64,192,130069,128,0,130163:0:0:0:0:
192,192,130101,128,0,130194:0:0:0:0:
320,192,130132,128,0,130225:0:0:0:0:
448,192,130163,128,0,130443:0:0:0:0:
64,192,130334,1,2,0:0:0:0:
192,192,130443,1,2,0:0:0:0:
320,192,130521,128,0,130630:0:0:0:0:
64,192,130552,128,0,130630:0:0:0:0:
448,192,130630,1,2,0:0:0:0:
192,192,130708,128,0,130895:0:0:0:70:Drum.wav
320,192,130739,128,0,130864:0:0:0:0:
64,192,130895,1,0,0:0:0:70:Drum.wav
448,192,130926,128,0,131269:0:0:0:0:
320,192,130942,1,0,0:0:0:70:Drum.wav
192,192,130988,1,0,0:0:0:70:Drum.wav
64,192,131082,128,2,131269:0:0:0:0:
320,192,131191,1,2,0:0:0:0:
192,192,131269,1,2,0:0:0:0:
320,192,131362,128,0,131565:0:0:0:0:
64,192,131393,128,0,131565:0:0:0:70:Drum.wav
448,192,131565,1,0,0:0:0:0:
192,192,131627,128,0,131752:0:0:0:0:
320,192,131658,128,0,131752:0:0:0:0:
64,192,131752,1,0,0:0:0:70:kick.wav
448,192,131798,128,0,132126:0:0:0:0:
320,192,131830,128,2,132017:0:0:0:0:
64,192,131939,1,2,0:0:0:0:
192,192,132017,1,0,0:0:0:0:
320,192,132126,1,2,0:0:0:0:
64,192,132188,128,0,132328:0:0:0:0:
192,192,132219,128,0,132328:0:0:0:0:
448,192,132328,1,0,0:0:0:0:
320,192,132390,128,2,132499:0:0:0:0:
192,192,132422,128,0,132499:0:0:0:0:
64,192,132499,1,0,0:0:0:0:
192,192,132577,128,0,132951:0:0:0:70:Drum.wav
448,192,132640,1,0,0:0:0:70:Drum.wav
320,192,132671,1,0,0:0:0:0:
64,192,132702,128,0,133060:0:0:0:70:Drum.wav
448,192,132873,1,0,0:0:0:70:Drum.wav
320,192,132951,1,2,0:0:0:0:
192,192,133060,1,0,0:0:0:70:Drum.wav
64,192,133138,1,0,0:0:0:70:Drum3.wav
448,192,133138,128,0,133605:0:0:0:0:
320,192,133169,128,0,133605:0:0:0:0:
192,192,133247,1,0,0:0:0:70:kick.wav
64,192,133325,128,2,133418:0:0:0:0:
64,192,133512,128,0,133605:0:0:0:0:
64,192,133699,128,0,133761:0:0:0:70:Drum.wav
192,192,133699,1,0,0:0:0:0:
448,192,133761,128,0,133823:0:0:0:70:Drum.wav
320,192,133823,128,0,133886:0:0:0:70:Drum.wav
64,192,133886,1,0,0:0:0:70:Drum.wav
192,192,133886,128,0,133948:0:0:0:70:Snare 2.wav
448,192,133979,1,0,0:0:0:0:
64,192,134010,128,0,134073:0:0:0:70:Drum.wav
320,192,134073,128,6,134369:0:0:0:0:
64,192,134197,1,0,0:0:0:0:
448,192,134228,128,0,134400:0:0:0:0:
192,192,134260,1,2,0:0:0:0:
64,192,134369,1,0,0:0:0:70:Drum.wav
448,192,134446,1,6,0:0:0:0:
192,192,134478,128,0,134742:0:0:0:0:
320,192,134571,128,0,134774:0:0:0:0:
64,192,134633,1,2,0:0:0:0:
448,192,134742,1,2,0:0:0:0:
64,192,134820,128,4,135116:0:0:0:0:
192,192,134851,128,0,135007:0:0:0:0:
448,192,134945,1,2,0:0:0:0:
320,192,135007,1,2,0:0:0:0:
192,192,135116,1,2,0:0:0:0:
448,192,135163,128,0,135381:0:0:0:0:
320,192,135194,128,6,135350:0:0:0:0:
64,192,135381,128,2,135443:0:0:0:0:
192,192,135412,128,0,135506:0:0:0:0:
64,192,135506,1,0,0:0:0:0:
448,192,135537,128,0,136098:0:0:0:0:
320,192,135568,1,6,0:0:0:0:
192,192,135630,1,0,0:0:0:70:Drum.wav
64,192,135693,1,0,0:0:0:70:Drum.wav
320,192,135755,128,0,136066:0:0:0:0:
64,192,135879,128,2,136004:0:0:0:0:
192,192,135942,128,4,136035:0:0:0:0:
64,192,136129,128,2,136456:0:0:0:0:
192,192,136160,128,0,136425:0:0:0:0:
448,192,136238,1,0,0:0:0:0:
320,192,136316,1,6,0:0:0:0:
448,192,136425,1,2,0:0:0:0:
320,192,136503,128,2,136596:0:0:0:0:
192,192,136534,128,0,136596:0:0:0:0:
64,192,136596,1,0,0:0:0:0:
448,192,136689,128,6,136845:0:0:0:0:
320,192,136721,128,0,136814:0:0:0:0:
64,192,136814,1,0,0:0:0:0:
192,192,136876,128,2,137001:0:0:0:0:
320,192,136908,128,0,137001:0:0:0:0:
448,192,137001,1,0,0:0:0:0:
64,192,137063,128,6,137281:0:0:0:0:
192,192,137094,128,0,137250:0:0:0:0:
320,192,137172,1,2,0:0:0:0:
448,192,137250,1,2,0:0:0:0:
320,192,137359,128,0,137562:0:0:0:0:
192,192,137390,128,0,137593:0:0:0:0:
448,192,137437,1,6,0:0:0:0:
64,192,137562,1,0,0:0:0:0:
448,192,137624,128,2,137764:0:0:0:0:
320,192,137655,128,0,137733:0:0:0:0:
192,192,137733,1,2,0:0:0:0:
64,192,137811,128,4,137998:0:0:0:0:
192,192,137904,128,0,138107:0:0:0:0:
448,192,137998,1,0,0:0:0:0:
320,192,138029,128,0,138294:0:0:0:0:
448,192,138107,128,2,138325:0:0:0:0:
64,192,138294,1,0,0:0:0:0:
192,192,138372,128,2,138559:0:0:0:0:
320,192,138403,128,0,138559:0:0:0:0:
64,192,138559,1,6,0:0:0:0:
448,192,138559,1,0,0:0:0:0:
192,192,138668,128,0,138730:0:0:0:0:
320,192,138792,128,0,138855:0:0:0:0:
448,192,138901,128,0,138964:0:0:0:0:
64,192,138932,1,0,0:0:0:0:
192,192,139057,128,0,139119:0:0:0:0:
320,192,139150,128,0,139213:0:0:0:0:
64,192,139275,128,0,139337:0:0:0:0:
448,192,139306,1,0,0:0:0:0:
192,192,139431,128,0,139493:0:0:0:0:
320,192,139524,128,0,139587:0:0:0:0:
448,192,139680,128,0,139805:0:0:0:0:
64,192,139680,1,0,0:0:0:0:
192,192,139805,1,2,0:0:0:0:
320,192,139867,1,2,0:0:0:0:
448,192,139867,1,0,0:0:0:70:Drum2.wav
64,192,139929,1,0,0:0:0:70:Drum3.wav
192,192,139929,1,0,0:0:0:70:Snare 2.wav
320,192,139992,1,0,0:0:0:70:Drum2.wav
448,192,140054,128,6,140350:0:0:0:0:
64,192,140085,128,0,140350:0:0:0:0:
192,192,140163,1,0,0:0:0:70:Drum3.wav
320,192,140241,1,2,0:0:0:0:
192,192,140350,1,0,0:0:0:70:Drum.wav
320,192,140428,128,6,140708:0:0:0:0:
64,192,140521,1,0,0:0:0:0:
448,192,140552,128,0,140739:0:0:0:0:
192,192,140615,1,2,0:0:0:0:
64,192,140802,128,6,141082:0:0:0:0:
448,192,140802,1,0,0:0:0:70:Drum.wav
192,192,140833,128,0,141051:0:0:0:0:
320,192,140911,128,0,141020:0:0:0:0:
448,192,141113,128,2,141331:0:0:0:0:
320,192,141144,128,0,141300:0:0:0:0:
64,192,141175,1,4,0:0:0:0:
192,192,141175,1,0,0:0:0:70:Drum.wav
192,192,141362,128,2,141471:0:0:0:0:
320,192,141393,128,0,141471:0:0:0:0:
64,192,141471,1,2,0:0:0:0:
192,192,141549,1,6,0:0:0:0:
448,192,141549,128,0,142032:0:0:0:70:Drum.wav
320,192,141612,1,0,0:0:0:70:Drum.wav
64,192,141674,1,0,0:0:0:70:Drum.wav
192,192,141736,1,2,0:0:0:0:
320,192,141830,128,0,142032:0:0:0:0:
64,192,141923,1,6,0:0:0:0:
192,192,142032,1,0,0:0:0:0:
64,192,142079,128,0,142406:0:0:0:0:
448,192,142110,128,0,142406:0:0:0:0:
192,192,142297,1,6,0:0:0:0:
320,192,142406,1,2,0:0:0:0:
192,192,142484,128,0,142593:0:0:0:0:
64,192,142515,128,0,142593:0:0:0:0:
448,192,142593,1,2,0:0:0:0:
64,192,142671,1,4,0:0:0:0:
320,192,142671,1,0,0:0:0:70:Drum.wav
448,192,142702,128,0,142858:0:0:0:0:
192,192,142733,1,0,0:0:0:70:Drum.wav
320,192,142795,1,0,0:0:0:70:Drum.wav
64,192,142858,128,2,142998:0:0:0:0:
192,192,142858,1,0,0:0:0:70:Drum.wav
320,192,142904,1,0,0:0:0:70:Drum.wav
448,192,142951,1,0,0:0:0:70:Drum.wav
192,192,142998,1,0,0:0:0:70:Drum.wav
320,192,143045,128,6,143325:0:0:0:0:
64,192,143154,1,2,0:0:0:0:
192,192,143231,128,2,143356:0:0:0:0:
64,192,143356,1,0,0:0:0:0:
448,192,143387,128,0,143559:0:0:0:0:
320,192,143418,128,6,143527:0:0:0:0:
64,192,143527,1,0,0:0:0:0:
192,192,143636,128,0,143699:0:0:0:0:
320,192,143652,128,0,143714:0:0:0:0:
448,192,143714,1,2,0:0:0:0:
64,192,143792,128,4,144088:0:0:0:0:
192,192,143823,128,0,144057:0:0:0:0:
448,192,143901,1,2,0:0:0:0:
320,192,143979,1,0,0:0:0:0:
448,192,144088,1,2,0:0:0:0:
320,192,144135,128,0,144244:0:0:0:0:
192,192,144166,128,4,144275:0:0:0:0:
64,192,144275,1,0,0:0:0:0:
448,192,144353,128,2,144493:0:0:0:0:
320,192,144384,128,0,144462:0:0:0:0:
192,192,144462,1,2,0:0:0:0:
64,192,144540,128,6,144633:0:0:0:0:
192,192,144571,128,0,144665:0:0:0:0:
320,192,144665,128,0,144758:0:0:0:0:
448,192,144696,128,0,144992:0:0:0:0:
64,192,144727,1,2,0:0:0:0:
192,192,144836,1,0,0:0:0:0:
320,192,144914,128,6,145023:0:0:0:0:
64,192,145023,1,0,0:0:0:0:
448,192,145101,128,0,145163:0:0:0:0:
320,192,145132,128,0,145194:0:0:0:0:
192,192,145163,128,0,145225:0:0:0:0:
64,192,145194,128,0,145474:0:0:0:0:
448,192,145288,1,6,0:0:0:0:
320,192,145381,1,0,0:0:0:0:
192,192,145474,1,4,0:0:0:0:
64,192,145568,1,0,0:0:0:0:
448,192,145568,1,0,0:0:0:0:
320,192,145661,1,4,0:0:0:0:
192,192,145724,1,0,0:0:0:70:Drum.wav
448,192,145755,1,0,0:0:0:0:
64,192,145786,1,0,0:0:0:70:Drum.wav
320,192,145848,1,4,0:0:0:0:
192,192,145911,1,0,0:0:0:70:Drum.wav
320,192,145973,1,0,0:0:0:0:
64,192,146035,128,4,146222:0:0:0:0:
448,192,146035,1,2,0:0:0:70:Loud kick.wav
448,192,146222,1,0,0:0:0:70:Snare 2.wav
320,192,146284,1,0,0:0:0:70:Snare 2.wav
192,192,146347,1,0,0:0:0:70:Snare 2.wav
64,192,146409,1,4,0:0:0:0:
448,192,146409,128,2,146596:0:0:0:70:Loud kick.wav
64,192,146596,1,0,0:0:0:70:Snare 2.wav
192,192,146658,1,0,0:0:0:70:Snare 2.wav
320,192,146721,1,0,0:0:0:70:Snare 2.wav
64,192,146783,1,4,0:0:0:0:
448,192,146783,1,2,0:0:0:70:Loud kick.wav
192,192,146845,1,0,0:0:0:0:
320,192,146908,1,0,0:0:0:0:
64,192,146970,1,0,0:0:0:70:Snare 2.wav
192,192,147032,1,0,0:0:0:70:Snare 2.wav
320,192,147094,1,0,0:0:0:70:Snare 2.wav
64,192,147157,1,2,0:0:0:70:Loud kick.wav
448,192,147157,1,0,0:0:0:0:
320,192,147219,1,0,0:0:0:0:
192,192,147281,1,0,0:0:0:0:
448,192,147344,1,0,0:0:0:70:Snare 2.wav
320,192,147406,1,0,0:0:0:70:Snare 2.wav
192,192,147468,1,0,0:0:0:70:Snare 2.wav
64,192,147531,1,4,0:0:0:0:
448,192,147531,1,2,0:0:0:70:Loud kick.wav
320,192,147593,1,0,0:0:0:0:
192,192,147655,1,0,0:0:0:0:
448,192,147717,1,0,0:0:0:70:Snare 2.wav
192,192,147780,1,0,0:0:0:70:Snare 2.wav
320,192,147842,1,0,0:0:0:70:Snare 2.wav
64,192,147904,1,4,0:0:0:0:
448,192,147904,1,2,0:0:0:70:Loud kick.wav
192,192,147967,1,0,0:0:0:0:
320,192,148029,1,0,0:0:0:0:
64,192,148091,1,0,0:0:0:70:Snare 2.wav
320,192,148154,1,0,0:0:0:70:Snare 2.wav
192,192,148216,1,0,0:0:0:70:Snare 2.wav
64,192,148278,1,4,0:0:0:0:
448,192,148278,1,2,0:0:0:70:Loud kick.wav
320,192,148341,1,0,0:0:0:0:
448,192,148403,1,0,0:0:0:0:
192,192,148465,1,0,0:0:0:70:Snare 2.wav
448,192,148527,1,0,0:0:0:70:Snare 2.wav
320,192,148590,1,0,0:0:0:70:Snare 2.wav
64,192,148652,1,4,0:0:0:0:
448,192,148652,1,2,0:0:0:70:Loud kick.wav
192,192,148714,1,0,0:0:0:0:
64,192,148777,1,0,0:0:0:0:
320,192,148839,1,0,0:0:0:70:Snare 2.wav
64,192,148901,1,0,0:0:0:70:Snare 2.wav
192,192,148964,1,0,0:0:0:70:Snare 2.wav
320,192,149026,1,2,0:0:0:0:
448,192,149026,1,0,0:0:0:0:
192,192,149150,1,2,0:0:0:70:Tom2.wav
320,192,149213,1,2,0:0:0:70:Tom3.wav
64,192,149337,1,2,0:0:0:70:Tom2.wav
192,192,149400,1,2,0:0:0:70:Tom3.wav
320,192,149462,1,2,0:0:0:70:Tom2.wav
448,192,149524,1,2,0:0:0:70:Tom3.wav
64,192,149587,1,2,0:0:0:70:Tom2.wav
320,192,149680,1,2,0:0:0:70:Tom3.wav
64,192,149774,1,0,0:0:0:40:Ride1.wav
320,192,149960,128,4,151830:0:0:0:0:
448,192,149960,128,2,151830:0:0:0:0:
64,192,150007,128,0,151643:0:0:0:0:
192,192,151643,1,4,0:0:0:0:
64,192,151830,1,2,0:0:0:0:
192,192,151830,1,0,0:0:0:0:
64,192,152017,128,2,152390:0:0:0:0:
192,192,152017,128,4,152344:0:0:0:0:
320,192,152017,128,0,152297:0:0:0:0:
448,192,152017,128,0,152250:0:0:0:0:
