osu file format v14

[General]
AudioFilename: audio.mp3
AudioLeadIn: 0
PreviewTime: 36129
Countdown: 0
SampleSet: Soft
StackLeniency: 0.7
Mode: 3
LetterboxInBreaks: 0
SpecialStyle: 0
WidescreenStoryboard: 1

[Editor]
DistanceSpacing: 0.5
BeatDivisor: 12
GridSize: 4
TimelineZoom: 5.299997

[Metadata]
Title:Turnstile Jumper
TitleUnicode:Turnstile Jumper
Artist:Frums
ArtistUnicode:Frums
Creator:Dubstek
Version:Hard
Source:Cytus II
Tags:Rayark inc. 2 JAZZ & Blues JOE Instrumental mobile rhythm game _Stan
BeatmapID:3156001
BeatmapSetID:1368942

[Difficulty]
HPDrainRate:7.5
CircleSize:4
OverallDifficulty:6.5
ApproachRate:5
SliderMultiplier:1.4
SliderTickRate:1

[Events]
//Background and Video events
0,0,"BG.jpg",0,0
//Break Periods
//Storyboard Layer 0 (Background)
//Storyboard Layer 1 (Fail)
//Storyboard Layer 2 (Pass)
//Storyboard Layer 3 (Foreground)
//Storyboard Layer 4 (Overlay)
//Storyboard Sound Samples

[TimingPoints]
989,186.915887850467,4,2,1,40,1,0
72764,-100,4,2,1,40,0,1
86970,-100,4,2,1,40,0,0
87717,-100,4,2,1,5,0,0
96689,-100,4,2,1,40,0,0
98185,-100,4,2,1,40,0,1
110147,-100,4,2,1,40,0,0
134073,-100,4,2,1,40,0,1
138559,-100,4,2,1,40,0,0
140054,-100,4,2,1,40,0,1
149960,-100,4,2,1,40,0,0

[HitObjects]
448,192,988,5,0,0:0:0:70:Pandeiro1.wav
448,192,1175,1,0,0:0:0:70:Pandeiro1.wav
192,192,1269,1,0,0:0:0:0:
448,192,1362,1,0,0:0:0:70:Pandeiro1.wav
448,192,1549,1,0,0:0:0:70:Pandeiro1.wav
64,192,1736,1,0,0:0:0:70:Loud kick.wav
320,192,1861,1,0,0:0:0:70:Snare 2.wav
448,192,1861,1,0,0:0:0:0:
320,192,2048,1,0,0:0:0:70:Snare 2.wav
448,192,2048,1,0,0:0:0:0:
64,192,2203,1,0,0:0:0:70:Loud kick.wav
320,192,2297,1,0,0:0:0:70:Snare 2.wav
448,192,2297,1,0,0:0:0:0:
448,192,2422,1,0,0:0:0:70:Snare 2.wav
64,192,2484,128,4,2671:0:0:0:0:
192,192,2484,1,2,0:0:0:70:Loud kick.wav
448,192,2671,1,0,0:0:0:70:Snare 2.wav
320,192,2764,1,0,0:0:0:0:
64,192,2858,1,4,0:0:0:40:Ride1.wav
448,192,2858,128,2,3045:0:0:0:70:Loud kick.wav
64,192,3045,1,0,0:0:0:70:Snare 2.wav
192,192,3138,1,0,0:0:0:0:
64,192,3231,1,4,0:0:0:0:
448,192,3231,1,2,0:0:0:70:Loud kick.wav
320,192,3356,1,0,0:0:0:0:
448,192,3481,1,0,0:0:0:0:
64,192,3605,1,2,0:0:0:70:Loud kick.wav
320,192,3668,1,0,0:0:0:0:
192,192,3730,1,0,0:0:0:0:
64,192,3792,1,0,0:0:0:0:
448,192,3855,1,0,0:0:0:0:
320,192,3917,1,0,0:0:0:0:
448,192,3979,1,2,0:0:0:70:Loud kick.wav
64,192,4104,1,0,0:0:0:0:
320,192,4228,1,0,0:0:0:0:
64,192,4353,1,2,0:0:0:70:Loud kick.wav
192,192,4415,1,0,0:0:0:0:
448,192,4478,1,0,0:0:0:0:
64,192,4540,1,0,0:0:0:0:
320,192,4602,1,0,0:0:0:0:
192,192,4665,1,0,0:0:0:0:
64,192,4727,1,2,0:0:0:70:Loud kick.wav
448,192,4851,1,0,0:0:0:0:
320,192,4976,1,0,0:0:0:0:
64,192,5101,1,2,0:0:0:70:Loud kick.wav
192,192,5163,1,0,0:0:0:0:
448,192,5225,1,0,0:0:0:0:
320,192,5288,1,0,0:0:0:0:
64,192,5350,1,0,0:0:0:0:
192,192,5412,1,0,0:0:0:0:
320,192,5474,1,2,0:0:0:0:
448,192,5474,1,0,0:0:0:0:
192,192,5599,1,2,0:0:0:70:Tom2.wav
320,192,5661,1,2,0:0:0:70:Tom3.wav
64,192,5786,1,2,0:0:0:70:Tom2.wav
192,192,5848,1,2,0:0:0:70:Tom3.wav
448,192,5973,1,2,0:0:0:70:Tom3.wav
320,192,6035,1,2,0:0:0:70:Tom2.wav
448,192,6160,1,0,0:0:0:0:
192,192,6222,1,0,0:0:0:40:Ride1.wav
64,192,6409,1,4,0:0:0:0:
320,192,6409,128,2,6783:0:0:0:0:
448,192,6409,128,0,6783:0:0:0:0:
64,192,6783,1,2,0:0:0:0:
192,192,6783,128,0,6876:0:0:0:0:
64,192,6970,128,2,7344:0:0:0:0:
320,192,6970,1,4,0:0:0:0:
448,192,6970,1,0,0:0:0:0:
192,192,7157,128,0,7344:0:0:0:0:
192,192,7468,128,0,7562:0:0:0:0:
192,192,7655,128,0,7780:0:0:0:0:
320,192,7717,128,0,7904:0:0:0:0:
448,192,7904,128,2,8091:0:0:0:0:
448,192,8216,128,0,8309:0:0:0:0:
448,192,8403,128,0,8527:0:0:0:0:
192,192,8465,128,2,8652:0:0:0:0:
64,192,8652,128,0,8839:0:0:0:0:
64,192,8964,128,0,9057:0:0:0:0:
64,192,9150,128,0,9275:0:0:0:0:
448,192,9213,128,0,9400:0:0:0:0:
192,192,9400,128,2,9587:0:0:0:0:
192,192,9711,128,0,9805:0:0:0:0:
192,192,9898,128,0,10023:0:0:0:0:
64,192,9960,128,2,10147:0:0:0:0:
448,192,10147,128,0,10334:0:0:0:0:
448,192,10459,128,0,10552:0:0:0:70:Pandeiro1.wav
448,192,10646,128,0,10770:0:0:0:0:
192,192,10708,128,0,10895:0:0:0:0:
320,192,10895,128,2,11082:0:0:0:0:
320,192,11207,128,0,11300:0:0:0:0:
320,192,11393,128,0,11518:0:0:0:0:
192,192,11456,128,2,11643:0:0:0:0:
64,192,11643,128,0,11830:0:0:0:0:
64,192,11954,128,0,12048:0:0:0:0:
64,192,12141,128,2,12297:0:0:0:0:
448,192,12141,1,4,0:0:0:0:
192,192,12297,1,0,0:0:0:70:Snare 1.wav
320,192,12390,1,0,0:0:0:70:Snare 2.wav
192,192,12453,1,0,0:0:0:70:Snare 1.wav
320,192,12515,1,0,0:0:0:70:Snare 2.wav
64,192,12577,1,0,0:0:0:70:Snare 2.wav
448,192,12577,1,0,0:0:0:0:
192,192,12702,1,0,0:0:0:70:Snare 2.wav
320,192,12827,1,0,0:0:0:70:Snare 2.wav
64,192,12951,128,4,13138:0:0:0:0:
448,192,12951,1,2,0:0:0:0:
320,192,13138,1,0,0:0:0:0:
192,192,13263,128,0,13450:0:0:0:70:kick.wav
64,192,13450,1,0,0:0:0:0:
448,192,13512,128,2,13699:0:0:0:0:
320,192,13636,1,0,0:0:0:0:
64,192,13699,128,0,13886:0:0:0:0:
192,192,13886,1,2,0:0:0:0:
320,192,14010,128,0,14197:0:0:0:0:
448,192,14197,1,0,0:0:0:0:
64,192,14260,128,2,14384:0:0:0:0:
192,192,14384,1,0,0:0:0:0:
320,192,14446,128,2,14633:0:0:0:0:
448,192,14633,1,0,0:0:0:0:
192,192,14758,128,0,14945:0:0:0:70:kick.wav
64,192,14945,1,0,0:0:0:0:
320,192,15007,128,2,15132:0:0:0:0:
192,192,15132,1,0,0:0:0:0:
448,192,15194,128,0,15381:0:0:0:0:
64,192,15381,1,2,0:0:0:0:
192,192,15506,128,2,15755:0:0:0:0:
448,192,15693,1,0,0:0:0:0:
64,192,15755,128,2,16129:0:0:0:0:
320,192,15879,1,0,0:0:0:0:
192,192,15942,1,2,0:0:0:0:
448,192,16129,128,0,16316:0:0:0:70:Pandeiro1.wav
64,192,16316,1,0,0:0:0:0:
192,192,16409,1,0,0:0:0:0:
64,192,16503,1,2,0:0:0:0:
448,192,16596,1,0,0:0:0:0:
320,192,16689,128,0,16814:0:0:0:0:
192,192,16814,128,0,17001:0:0:0:70:kick.wav
448,192,16876,1,2,0:0:0:0:
64,192,17001,128,0,17188:0:0:0:0:
320,192,17188,1,0,0:0:0:0:
448,192,17250,128,2,17375:0:0:0:0:
192,192,17375,1,0,0:0:0:0:
64,192,17437,1,2,0:0:0:0:
192,192,17562,128,0,17749:0:0:0:70:Pandeiro1.wav
448,192,17624,1,0,0:0:0:0:
64,192,17749,1,0,0:0:0:70:kick.wav
320,192,17811,128,0,17936:0:0:0:0:
448,192,17936,128,0,18122:0:0:0:0:
64,192,17998,1,2,0:0:0:0:
320,192,18122,1,0,0:0:0:0:
192,192,18185,128,0,18372:0:0:0:0:
64,192,18372,128,2,18559:0:0:0:0:
320,192,18559,1,2,0:0:0:0:
448,192,18683,128,0,18808:0:0:0:70:kick.wav
192,192,18870,1,2,0:0:0:0:
320,192,18932,1,2,0:0:0:0:
448,192,18932,1,4,0:0:0:0:
64,192,19119,128,0,19431:0:0:0:0:
192,192,19244,128,0,19431:0:0:0:70:kick.wav
448,192,19431,128,0,19680:0:0:0:0:
320,192,19493,1,2,0:0:0:0:
192,192,19680,128,2,19867:0:0:0:0:
320,192,19805,1,2,0:0:0:0:
64,192,19867,1,2,0:0:0:0:
448,192,19929,1,0,0:0:0:0:
320,192,19992,1,0,0:0:0:0:
448,192,20054,128,2,20171:0:0:0:0:
192,192,20171,1,0,0:0:0:0:
64,192,20241,1,2,0:0:0:0:
320,192,20365,1,0,0:0:0:0:
448,192,20428,1,2,0:0:0:0:
192,192,20552,1,0,0:0:0:0:
320,192,20615,1,0,0:0:0:0:
64,192,20739,128,0,20926:0:0:0:70:kick.wav
448,192,20926,1,0,0:0:0:0:
192,192,20988,128,2,21362:0:0:0:0:
320,192,21113,1,0,0:0:0:0:
64,192,21175,1,0,0:0:0:0:
448,192,21284,1,2,0:0:0:0:
64,192,21362,1,2,0:0:0:0:
320,192,21471,128,2,21861:0:0:0:0:
192,192,21674,1,0,0:0:0:0:
64,192,21736,1,2,0:0:0:0:
448,192,21861,1,0,0:0:0:0:
192,192,21923,128,2,22297:0:0:0:0:
448,192,22110,1,0,0:0:0:70:Pandeiro1.wav
64,192,22297,128,0,22422:0:0:0:0:
448,192,22422,128,0,22546:0:0:0:0:
320,192,22546,128,0,22671:0:0:0:0:
192,192,22671,128,0,22795:0:0:0:0:
448,192,22795,128,2,23045:0:0:0:0:
64,192,22858,1,2,0:0:0:0:
192,192,23045,1,2,0:0:0:0:
448,192,23169,1,0,0:0:0:0:
64,192,23231,1,2,0:0:0:0:
320,192,23356,1,0,0:0:0:0:
192,192,23418,1,2,0:0:0:0:
64,192,23543,1,0,0:0:0:40:Pandeiro2.wav
320,192,23605,128,0,24104:0:0:0:0:
448,192,23730,1,2,0:0:0:0:
64,192,23792,1,0,0:0:0:0:
192,192,23917,1,0,0:0:0:0:
64,192,23979,1,2,0:0:0:0:
448,192,24104,1,0,0:0:0:40:Snare 1.wav
64,192,24166,1,4,0:0:0:0:
320,192,24166,1,0,0:0:0:70:Tom2.wav
192,192,24291,1,0,0:0:0:70:Tom2.wav
448,192,24353,1,0,0:0:0:70:Tom3.wav
320,192,24478,1,0,0:0:0:40:Ride1.wav
64,192,24540,1,6,0:0:0:0:
448,192,24665,1,0,0:0:0:70:Tom2.wav
192,192,24727,1,0,0:0:0:70:Tom3.wav
320,192,24789,1,0,0:0:0:70:Tom3.wav
64,192,24914,128,4,25225:0:0:0:0:
448,192,24914,1,2,0:0:0:0:
192,192,25101,1,0,0:0:0:40:Perc.wav
448,192,25225,128,2,26409:0:0:0:0:
320,192,25412,1,0,0:0:0:40:Perc.wav
192,192,25474,1,2,0:0:0:0:
320,192,25661,1,0,0:0:0:40:Perc.wav
64,192,25848,1,2,0:0:0:0:
320,192,25973,1,0,0:0:0:40:Perc.wav
192,192,26035,1,2,0:0:0:0:
320,192,26160,1,0,0:0:0:40:Perc.wav
64,192,26409,128,0,26534:0:0:0:40:Ride1.wav
192,192,26534,1,2,0:0:0:0:
320,192,26596,1,0,0:0:0:40:Perc.wav
64,192,26721,1,2,0:0:0:0:
320,192,26908,1,0,0:0:0:40:Perc.wav
192,192,26970,1,2,0:0:0:0:
448,192,27157,1,0,0:0:0:40:Perc.wav
448,192,27281,1,0,0:0:0:40:Perc.wav
192,192,27344,1,2,0:0:0:0:
320,192,27468,1,0,0:0:0:40:Perc.wav
64,192,27531,1,2,0:0:0:0:
320,192,27655,1,0,0:0:0:40:Perc.wav
64,192,27904,1,2,0:0:0:0:
448,192,28091,1,0,0:0:0:40:Perc.wav
64,192,28216,1,2,0:0:0:0:
448,192,28403,1,0,0:0:0:40:Perc.wav
64,192,28465,1,2,0:0:0:0:
320,192,28652,1,0,0:0:0:40:Perc.wav
192,192,28839,1,2,0:0:0:0:
320,192,28964,1,0,0:0:0:40:Perc.wav
64,192,29026,1,2,0:0:0:0:
320,192,29150,1,0,0:0:0:40:Perc.wav
64,192,29400,128,4,29524:0:0:0:0:
192,192,29524,1,2,0:0:0:0:
448,192,29587,1,0,0:0:0:40:Perc.wav
64,192,29711,1,2,0:0:0:0:
448,192,29898,1,0,0:0:0:40:Perc.wav
192,192,29960,1,2,0:0:0:0:
64,192,30147,1,0,0:0:0:40:Perc.wav
64,192,30272,1,0,0:0:0:40:Perc.wav
320,192,30334,1,2,0:0:0:0:
192,192,30459,1,0,0:0:0:40:Perc.wav
448,192,30521,1,2,0:0:0:0:
192,192,30646,1,0,0:0:0:40:Perc.wav
320,192,30708,1,0,0:0:0:40:Perc.wav
64,192,30895,1,2,0:0:0:0:
192,192,30895,1,4,0:0:0:0:
448,192,30895,128,0,31207:0:0:0:0:
320,192,31082,1,0,0:0:0:40:Perc.wav
192,192,31207,128,2,31456:0:0:0:0:
320,192,31393,1,0,0:0:0:40:Perc.wav
64,192,31456,128,2,31643:0:0:0:0:
448,192,31643,1,0,0:0:0:40:Perc.wav
320,192,31767,1,0,0:0:0:0:
192,192,31830,1,2,0:0:0:0:
448,192,31954,1,0,0:0:0:40:Perc.wav
64,192,32017,1,2,0:0:0:0:
320,192,32141,1,0,0:0:0:40:Perc.wav
64,192,32203,1,0,0:0:0:40:Ride1.wav
192,192,32390,128,4,32515:0:0:0:0:
64,192,32515,1,2,0:0:0:0:
448,192,32577,1,0,0:0:0:40:Perc.wav
192,192,32702,1,2,0:0:0:0:
320,192,32764,128,0,32889:0:0:0:0:
448,192,32889,1,0,0:0:0:40:Perc.wav
64,192,32951,1,2,0:0:0:0:
448,192,33076,1,0,0:0:0:0:
192,192,33138,1,0,0:0:0:40:Perc.wav
192,192,33263,1,0,0:0:0:40:Perc.wav
320,192,33325,1,2,0:0:0:0:
320,192,33450,1,0,0:0:0:40:Perc.wav
64,192,33512,1,2,0:0:0:0:
192,192,33636,1,0,0:0:0:40:Perc.wav
192,192,33823,1,0,0:0:0:40:Ride1.wav
448,192,33886,128,6,34010:0:0:0:0:
64,192,34010,1,0,0:0:0:0:
192,192,34073,1,0,0:0:0:40:Perc.wav
64,192,34197,1,2,0:0:0:0:
320,192,34260,128,0,34384:0:0:0:0:
448,192,34384,1,0,0:0:0:40:Perc.wav
64,192,34446,1,2,0:0:0:0:
320,192,34571,1,0,0:0:0:0:
192,192,34633,1,0,0:0:0:40:Perc.wav
320,192,34758,1,0,0:0:0:0:
64,192,34820,1,2,0:0:0:0:
64,192,34945,1,0,0:0:0:40:Perc.wav
448,192,35007,1,2,0:0:0:0:
192,192,35132,1,0,0:0:0:40:Perc.wav
448,192,35194,1,0,0:0:0:40:Ride1.wav
192,192,35319,1,0,0:0:0:40:Ride1.wav
320,192,35381,128,4,35506:0:0:0:0:
64,192,35506,1,2,0:0:0:0:
448,192,35568,1,0,0:0:0:40:Perc.wav
192,192,35693,1,2,0:0:0:0:
64,192,35755,1,0,0:0:0:0:
448,192,35786,1,0,0:0:0:0:
320,192,35879,1,0,0:0:0:40:Perc.wav
192,192,35942,1,2,0:0:0:0:
64,192,36066,1,0,0:0:0:0:
448,192,36129,128,2,36222:0:0:0:0:
448,192,36331,128,2,36425:0:0:0:0:
448,192,36518,128,2,36627:0:0:0:0:
64,192,36627,1,8,0:0:0:70:Snare 2.wav
192,192,36627,1,0,0:0:0:0:
64,192,36814,1,8,0:0:0:70:Snare 2.wav
192,192,36814,1,0,0:0:0:0:
320,192,36876,1,2,0:0:0:0:
448,192,36876,128,4,37811:0:0:0:0:
192,192,37157,128,0,37437:0:0:0:0:
64,192,37437,128,0,37811:0:0:0:0:
192,192,37811,128,0,37998:0:0:0:0:
448,192,37998,128,0,38185:0:0:0:70:Hat E2.wav
192,192,38185,128,0,38372:0:0:0:0:
64,192,38372,128,0,39306:0:0:0:0:
448,192,38652,128,0,38932:0:0:0:0:
320,192,38932,128,0,39306:0:0:0:0:
192,192,39306,128,0,39493:0:0:0:0:
320,192,39493,128,0,39680:0:0:0:70:Hat E2.wav
448,192,39680,128,0,39867:0:0:0:0:
64,192,39867,128,0,42110:0:0:0:0:
192,192,40147,128,0,40428:0:0:0:0:
320,192,40428,128,0,41269:0:0:0:0:
192,192,41269,128,0,41409:0:0:0:0:
448,192,41409,128,0,41549:0:0:0:0:
320,192,41549,128,0,41736:0:0:0:0:
448,192,42110,128,0,42359:0:0:0:0:
320,192,42359,128,0,42608:0:0:0:0:
192,192,42608,128,0,42858:0:0:0:0:
64,192,42858,128,0,44353:0:0:0:0:
448,192,43138,128,0,43418:0:0:0:0:
320,192,43418,128,0,44104:0:0:0:0:
448,192,44104,128,0,44228:0:0:0:0:
192,192,44228,128,0,44353:0:0:0:0:
320,192,44353,128,0,45630:0:0:0:0:
64,192,45630,128,0,45848:0:0:0:0:
192,192,45848,128,0,47904:0:0:0:0:
320,192,46129,128,0,46409:0:0:0:0:
448,192,46409,128,0,46783:0:0:0:0:
64,192,46783,128,0,47157:0:0:0:0:
320,192,47157,128,0,47717:0:0:0:0:
448,192,47904,128,0,48278:0:0:0:0:
320,192,48091,128,0,48278:0:0:0:0:
64,192,48278,1,0,0:0:0:70:Hat E2.wav
192,192,48372,128,0,48559:0:0:0:70:Hat A1.wav
64,192,48559,1,0,0:0:0:40:Perc.wav
320,192,48652,1,0,0:0:0:40:Perc.wav
192,192,48746,1,0,0:0:0:40:Perc.wav
64,192,48839,1,4,0:0:0:0:
448,192,48839,1,2,0:0:0:0:
64,192,49026,1,0,0:0:0:0:
320,192,49119,1,0,0:0:0:70:Snare 2.wav
448,192,49119,1,0,0:0:0:0:
192,192,49213,1,2,0:0:0:0:
320,192,49306,1,0,0:0:0:70:Snare 2.wav
64,192,49493,1,0,0:0:0:70:Snare 2.wav
448,192,49493,1,0,0:0:0:0:
64,192,49680,1,0,0:0:0:0:
320,192,49774,1,0,0:0:0:70:Snare 2.wav
448,192,49774,1,0,0:0:0:0:
192,192,49867,1,0,0:0:0:0:
320,192,49960,1,2,0:0:0:0:
320,192,50147,1,0,0:0:0:40:Ride1.wav
64,192,50241,1,0,0:0:0:70:Snare 2.wav
448,192,50241,1,0,0:0:0:0:
192,192,50334,1,2,0:0:0:0:
448,192,50521,1,0,0:0:0:0:
64,192,50615,1,0,0:0:0:70:Snare 2.wav
192,192,50615,1,0,0:0:0:0:
320,192,50708,1,2,0:0:0:0:
64,192,50802,1,0,0:0:0:70:Snare 2.wav
448,192,50802,1,0,0:0:0:0:
64,192,50988,1,0,0:0:0:70:Snare 2.wav
448,192,50988,1,0,0:0:0:0:
320,192,51175,1,0,0:0:0:0:
64,192,51269,1,0,0:0:0:70:Snare 2.wav
192,192,51269,1,0,0:0:0:0:
448,192,51362,1,0,0:0:0:0:
64,192,51456,1,2,0:0:0:0:
64,192,51643,1,0,0:0:0:70:Snare 2.wav
192,192,51643,1,0,0:0:0:0:
320,192,51830,1,2,0:0:0:0:
448,192,51830,1,0,0:0:0:40:Ride1.wav
64,192,51923,1,0,0:0:0:70:Snare 2.wav
192,192,51923,1,0,0:0:0:0:
320,192,52017,1,0,0:0:0:0:
64,192,52110,1,0,0:0:0:70:Snare 2.wav
448,192,52110,1,0,0:0:0:0:
320,192,52203,1,2,0:0:0:0:
192,192,52297,1,0,0:0:0:70:Snare 2.wav
448,192,52297,1,0,0:0:0:0:
64,192,52484,1,0,0:0:0:70:Snare 2.wav
448,192,52484,1,0,0:0:0:0:
192,192,52671,1,0,0:0:0:0:
320,192,52764,1,0,0:0:0:70:Snare 2.wav
448,192,52764,1,0,0:0:0:0:
64,192,52858,1,0,0:0:0:0:
192,192,52951,1,2,0:0:0:0:
192,192,53138,1,0,0:0:0:40:Ride1.wav
320,192,53231,1,0,0:0:0:70:Snare 2.wav
448,192,53231,1,0,0:0:0:0:
64,192,53418,1,0,0:0:0:70:Snare 2.wav
320,192,53418,1,0,0:0:0:0:
448,192,53512,1,0,0:0:0:0:
64,192,53605,1,0,0:0:0:70:Snare 2.wav
192,192,53605,1,0,0:0:0:0:
448,192,53699,1,2,0:0:0:0:
64,192,53792,1,0,0:0:0:70:Snare 2.wav
320,192,53792,1,0,0:0:0:0:
192,192,53979,1,0,0:0:0:70:Snare 2.wav
320,192,53979,1,0,0:0:0:0:
448,192,54166,1,0,0:0:0:70:Snare 1.wav
192,192,54260,1,0,0:0:0:70:Snare 2.wav
448,192,54353,1,0,0:0:0:0:
320,192,54446,1,2,0:0:0:0:
320,192,54633,1,0,0:0:0:70:Snare 2.wav
448,192,54633,1,0,0:0:0:0:
192,192,54727,1,0,0:0:0:0:
64,192,54820,1,2,0:0:0:0:
448,192,54820,1,4,0:0:0:0:
64,192,55007,1,0,0:0:0:0:
320,192,55101,1,0,0:0:0:70:Snare 2.wav
448,192,55101,1,0,0:0:0:0:
192,192,55194,1,2,0:0:0:0:
320,192,55288,1,0,0:0:0:70:Snare 2.wav
448,192,55288,1,0,0:0:0:0:
64,192,55474,1,0,0:0:0:70:Snare 2.wav
448,192,55474,1,0,0:0:0:0:
64,192,55661,1,0,0:0:0:0:
320,192,55755,1,0,0:0:0:70:Snare 2.wav
448,192,55755,1,0,0:0:0:0:
192,192,55848,1,0,0:0:0:0:
320,192,55942,1,2,0:0:0:0:
320,192,56129,1,0,0:0:0:40:Ride1.wav
64,192,56222,1,0,0:0:0:70:Snare 2.wav
448,192,56222,1,0,0:0:0:0:
192,192,56316,1,2,0:0:0:0:
448,192,56503,1,0,0:0:0:0:
64,192,56596,1,0,0:0:0:70:Snare 2.wav
192,192,56596,1,0,0:0:0:0:
320,192,56689,1,2,0:0:0:0:
64,192,56783,1,0,0:0:0:70:Snare 2.wav
448,192,56783,1,0,0:0:0:0:
64,192,56970,1,0,0:0:0:70:Snare 2.wav
448,192,56970,1,0,0:0:0:0:
320,192,57157,1,0,0:0:0:0:
64,192,57250,1,0,0:0:0:70:Snare 2.wav
192,192,57250,1,0,0:0:0:0:
448,192,57344,1,0,0:0:0:0:
64,192,57437,1,2,0:0:0:0:
64,192,57624,1,0,0:0:0:70:Snare 2.wav
192,192,57624,1,0,0:0:0:0:
320,192,57811,1,2,0:0:0:0:
448,192,57811,1,0,0:0:0:40:Ride1.wav
64,192,57904,1,0,0:0:0:70:Snare 2.wav
192,192,57904,1,0,0:0:0:0:
320,192,57998,1,0,0:0:0:0:
64,192,58091,1,0,0:0:0:70:Snare 2.wav
448,192,58091,1,0,0:0:0:0:
320,192,58185,1,2,0:0:0:0:
192,192,58278,1,0,0:0:0:70:Snare 2.wav
448,192,58278,1,0,0:0:0:0:
64,192,58465,1,0,0:0:0:70:Snare 2.wav
448,192,58465,1,0,0:0:0:0:
192,192,58652,1,0,0:0:0:0:
320,192,58746,1,0,0:0:0:70:Snare 2.wav
448,192,58746,1,0,0:0:0:0:
64,192,58839,1,0,0:0:0:0:
192,192,58932,1,2,0:0:0:0:
192,192,59119,1,0,0:0:0:40:Ride1.wav
320,192,59213,1,0,0:0:0:70:Snare 2.wav
448,192,59213,1,0,0:0:0:0:
64,192,59306,128,2,59587:0:0:0:0:
192,192,59306,1,0,0:0:0:40:Ride1.wav
320,192,59587,1,2,0:0:0:0:
64,192,59680,1,0,0:0:0:70:Snare 2.wav
448,192,59680,1,0,0:0:0:0:
192,192,60054,1,0,0:0:0:20:Snare 1.wav
64,192,60147,1,0,0:0:0:20:Snare 1.wav
448,192,60241,1,0,0:0:0:30:Snare 2.wav
192,192,60334,1,0,0:0:0:40:Snare 2.wav
448,192,60428,1,0,0:0:0:70:Snare 2.wav
320,192,60490,1,0,0:0:0:70:Snare 2.wav
64,192,60552,1,0,0:0:0:70:Snare 2.wav
448,192,60615,1,0,0:0:0:70:Snare 2.wav
192,192,60677,1,0,0:0:0:70:Snare 2.wav
320,192,60739,1,0,0:0:0:70:Snare 2.wav
64,192,60802,1,6,0:0:0:0:
448,192,60802,1,0,0:0:0:70:Snare 2.wav
320,192,60864,1,0,0:0:0:0:
192,192,60926,1,0,0:0:0:0:
64,192,60988,1,2,0:0:0:0:
320,192,61113,1,0,0:0:0:70:Snare 2.wav
448,192,61113,1,0,0:0:0:0:
192,192,61175,1,2,0:0:0:0:
320,192,61284,1,0,0:0:0:0:
448,192,61362,1,0,0:0:0:40:Ride1.wav
64,192,61471,1,2,0:0:0:0:
320,192,61549,1,2,0:0:0:0:
320,192,61658,1,0,0:0:0:0:
64,192,61736,1,0,0:0:0:70:Snare 2.wav
192,192,61736,1,0,0:0:0:0:
448,192,61845,1,2,0:0:0:0:
192,192,61923,1,0,0:0:0:70:Snare 2.wav
320,192,61923,1,0,0:0:0:0:
64,192,62032,1,0,0:0:0:40:Ride1.wav
448,192,62110,1,2,0:0:0:0:
192,192,62219,1,0,0:0:0:0:
320,192,62297,1,2,0:0:0:0:
64,192,62406,1,0,0:0:0:40:Perc.wav
448,192,62484,1,2,0:0:0:0:
320,192,62531,1,0,0:0:0:0:
192,192,62577,1,0,0:0:0:0:
448,192,62671,1,2,0:0:0:0:
64,192,62717,1,0,0:0:0:0:
320,192,62764,1,0,0:0:0:0:
448,192,62858,1,0,0:0:0:40:Ride1.wav
192,192,62967,1,2,0:0:0:0:
320,192,62998,1,0,0:0:0:0:
64,192,63045,1,0,0:0:0:40:Perc.wav
64,192,63154,1,2,0:0:0:0:
320,192,63231,1,0,0:0:0:70:Snare 2.wav
448,192,63231,1,0,0:0:0:0:
192,192,63341,1,2,0:0:0:0:
64,192,63418,1,0,0:0:0:70:Snare 2.wav
448,192,63418,1,0,0:0:0:0:
320,192,63527,1,0,0:0:0:40:Ride1.wav
64,192,63605,1,2,0:0:0:0:
320,192,63668,1,0,0:0:0:70:Snare 2.wav
192,192,63730,1,0,0:0:0:70:Snare 2.wav
64,192,63792,1,2,0:0:0:0:
448,192,63792,1,4,0:0:0:0:
320,192,63901,1,0,0:0:0:40:Perc.wav
192,192,63979,1,2,0:0:0:0:
448,192,64041,1,0,0:0:0:0:
64,192,64088,1,0,0:0:0:70:Snare 2.wav
192,192,64166,1,2,0:0:0:0:
448,192,64275,1,0,0:0:0:40:Ride1.wav
320,192,64353,1,0,0:0:0:40:Ride1.wav
64,192,64462,1,2,0:0:0:0:
448,192,64540,1,0,0:0:0:40:Perc.wav
192,192,64649,1,2,0:0:0:0:
320,192,64727,1,0,0:0:0:70:Snare 2.wav
448,192,64727,1,0,0:0:0:0:
64,192,64797,1,0,0:0:0:0:
192,192,64836,1,2,0:0:0:0:
64,192,64914,1,0,0:0:0:70:Snare 2.wav
448,192,64914,1,0,0:0:0:0:
320,192,65023,1,0,0:0:0:40:Ride1.wav
448,192,65101,1,2,0:0:0:0:
64,192,65225,1,0,0:0:0:0:
448,192,65288,1,2,0:0:0:0:
192,192,65397,1,0,0:0:0:0:
320,192,65474,1,2,0:0:0:0:
64,192,65584,1,0,0:0:0:70:Snare 2.wav
448,192,65584,1,0,0:0:0:0:
192,192,65661,1,2,0:0:0:0:
320,192,65770,1,0,0:0:0:40:Ride1.wav
192,192,65848,1,0,0:0:0:40:Ride1.wav
448,192,65911,1,0,0:0:0:0:
64,192,65957,1,2,0:0:0:0:
448,192,66035,1,0,0:0:0:40:Perc.wav
192,192,66144,1,2,0:0:0:0:
320,192,66222,1,0,0:0:0:70:Snare 2.wav
448,192,66222,1,0,0:0:0:0:
192,192,66331,1,2,0:0:0:0:
64,192,66409,1,0,0:0:0:70:Tom2.wav
448,192,66409,1,0,0:0:0:70:Snare 2.wav
320,192,66471,1,0,0:0:0:70:Tom2.wav
192,192,66534,1,0,0:0:0:70:Tom2.wav
448,192,66596,1,0,0:0:0:70:Tom3.wav
64,192,66658,1,0,0:0:0:70:Tom3.wav
192,192,66721,1,0,0:0:0:70:Tom3.wav
320,192,66783,1,2,0:0:0:0:
448,192,66783,1,4,0:0:0:0:
192,192,66892,1,0,0:0:0:40:Perc.wav
448,192,66970,1,2,0:0:0:0:
64,192,67079,1,0,0:0:0:70:Snare 2.wav
320,192,67157,1,2,0:0:0:0:
192,192,67266,1,0,0:0:0:40:Ride1.wav
448,192,67344,1,0,0:0:0:40:Ride1.wav
64,192,67453,1,2,0:0:0:0:
320,192,67531,1,0,0:0:0:40:Perc.wav
192,192,67640,1,2,0:0:0:0:
64,192,67717,1,0,0:0:0:70:Snare 2.wav
448,192,67717,1,0,0:0:0:0:
320,192,67827,1,2,0:0:0:0:
64,192,67904,1,0,0:0:0:70:Snare 2.wav
192,192,67904,1,0,0:0:0:0:
448,192,68013,1,0,0:0:0:40:Ride1.wav
192,192,68091,1,2,0:0:0:0:
320,192,68200,1,0,0:0:0:0:
64,192,68278,1,2,0:0:0:0:
448,192,68278,1,0,0:0:0:0:
192,192,68387,1,0,0:0:0:40:Perc.wav
448,192,68465,1,2,0:0:0:0:
320,192,68527,1,0,0:0:0:0:
64,192,68574,1,0,0:0:0:70:Snare 2.wav
448,192,68652,1,2,0:0:0:0:
192,192,68746,1,0,0:0:0:0:
64,192,68792,1,0,0:0:0:0:
448,192,68839,1,0,0:0:0:40:Ride1.wav
192,192,68948,1,2,0:0:0:0:
320,192,68979,1,0,0:0:0:0:
448,192,69026,1,0,0:0:0:40:Perc.wav
64,192,69135,1,2,0:0:0:0:
192,192,69213,1,0,0:0:0:70:Snare 2.wav
448,192,69213,1,0,0:0:0:0:
320,192,69275,1,0,0:0:0:0:
64,192,69400,1,0,0:0:0:70:Snare 2.wav
192,192,69400,1,0,0:0:0:0:
448,192,69524,1,0,0:0:0:0:
320,192,69587,1,2,0:0:0:0:
192,192,69649,1,0,0:0:0:70:Snare 2.wav
320,192,69711,1,0,0:0:0:70:Snare 2.wav
64,192,69774,1,2,0:0:0:0:
448,192,69774,1,4,0:0:0:0:
192,192,69883,1,0,0:0:0:40:Perc.wav
64,192,69960,1,2,0:0:0:0:
320,192,70069,1,0,0:0:0:70:Snare 2.wav
448,192,70069,1,0,0:0:0:0:
192,192,70147,1,2,0:0:0:0:
320,192,70256,1,0,0:0:0:40:Ride1.wav
448,192,70334,1,0,0:0:0:40:Ride1.wav
64,192,70443,1,2,0:0:0:0:
320,192,70521,1,0,0:0:0:40:Perc.wav
192,192,70630,1,2,0:0:0:0:
64,192,70708,1,0,0:0:0:70:Snare 2.wav
448,192,70708,1,0,0:0:0:0:
320,192,70755,1,0,0:0:0:0:
192,192,70817,1,2,0:0:0:0:
64,192,70895,1,0,0:0:0:70:Snare 2.wav
448,192,70895,1,0,0:0:0:0:
320,192,71004,1,0,0:0:0:0:
192,192,71082,1,2,0:0:0:0:
448,192,71207,1,0,0:0:0:0:
64,192,71269,1,2,0:0:0:0:
192,192,71378,1,0,0:0:0:40:Perc.wav
448,192,71456,1,2,0:0:0:0:
64,192,71565,1,0,0:0:0:70:Snare 2.wav
320,192,71565,1,0,0:0:0:0:
192,192,71643,1,2,0:0:0:0:
448,192,71752,1,0,0:0:0:40:Ride1.wav
64,192,71830,1,0,0:0:0:40:Ride1.wav
320,192,71939,1,2,0:0:0:0:
64,192,72017,128,0,72203:0:0:0:40:Perc.wav
320,192,72203,1,0,0:0:0:70:Snare 2.wav
448,192,72203,1,0,0:0:0:0:
192,192,72266,1,0,0:0:0:0:
320,192,72328,1,0,0:0:0:0:
448,192,72390,128,0,72577:0:0:0:70:Snare 2.wav
192,192,72577,128,2,72764:0:0:0:0:
64,192,72764,1,2,0:0:0:0:
448,192,72764,128,4,72827:0:0:0:0:
320,192,72827,128,0,73076:0:0:0:0:
192,192,72951,1,2,0:0:0:0:
64,192,73076,128,0,73247:0:0:0:70:Snare 2.wav
448,192,73076,1,0,0:0:0:0:
192,192,73247,1,0,0:0:0:40:Ride1.wav
448,192,73325,1,0,0:0:0:40:Ride1.wav
320,192,73356,1,0,0:0:0:0:
64,192,73450,1,0,0:0:0:0:
192,192,73512,1,2,0:0:0:0:
448,192,73543,128,0,73808:0:0:0:0:
64,192,73699,1,0,0:0:0:70:Snare 2.wav
320,192,73808,1,2,0:0:0:0:
192,192,73839,1,0,0:0:0:0:
64,192,73886,128,0,74073:0:0:0:70:Snare 2.wav
448,192,73995,1,0,0:0:0:40:Ride1.wav
192,192,74073,128,2,74260:0:0:0:0:
64,192,74260,1,2,0:0:0:0:
320,192,74260,1,0,0:0:0:0:
448,192,74291,128,0,74571:0:0:0:0:
192,192,74446,1,2,0:0:0:0:
64,192,74571,1,0,0:0:0:70:Snare 2.wav
320,192,74571,128,0,74742:0:0:0:0:
448,192,74742,1,0,0:0:0:40:Ride1.wav
64,192,74820,1,0,0:0:0:40:Ride1.wav
192,192,74851,1,0,0:0:0:0:
448,192,74929,1,2,0:0:0:0:
320,192,75007,1,0,0:0:0:40:Perc.wav
64,192,75038,128,0,75303:0:0:0:0:
448,192,75194,1,0,0:0:0:70:Snare 2.wav
192,192,75303,1,2,0:0:0:0:
320,192,75334,1,0,0:0:0:0:
448,192,75381,128,0,75568:0:0:0:70:Snare 2.wav
64,192,75490,1,0,0:0:0:0:
192,192,75568,128,2,75755:0:0:0:0:
64,192,75755,1,2,0:0:0:0:
448,192,75755,1,4,0:0:0:0:
320,192,75786,128,0,76051:0:0:0:0:
192,192,75942,1,2,0:0:0:0:
64,192,76051,128,0,76238:0:0:0:70:Snare 2.wav
448,192,76051,1,0,0:0:0:0:
192,192,76238,1,0,0:0:0:0:
448,192,76316,1,0,0:0:0:40:Ride1.wav
320,192,76347,1,0,0:0:0:0:
64,192,76425,1,2,0:0:0:0:
192,192,76503,1,0,0:0:0:40:Perc.wav
320,192,76534,128,0,76752:0:0:0:0:
448,192,76612,1,2,0:0:0:0:
64,192,76689,1,0,0:0:0:70:Snare 2.wav
192,192,76798,1,2,0:0:0:0:
320,192,76830,1,0,0:0:0:0:
448,192,76876,128,0,77063:0:0:0:70:Snare 2.wav
64,192,76985,1,0,0:0:0:40:Ride1.wav
320,192,77063,128,2,77250:0:0:0:0:
64,192,77250,128,2,77811:0:0:0:0:
448,192,77437,1,2,0:0:0:0:
192,192,77531,1,0,0:0:0:0:
320,192,77624,1,2,0:0:0:0:
192,192,77717,1,0,0:0:0:0:
448,192,77811,1,0,0:0:0:40:Ride1.wav
320,192,77873,1,0,0:0:0:0:
192,192,77936,1,2,0:0:0:0:
64,192,77998,1,0,0:0:0:40:Perc.wav
448,192,78107,1,2,0:0:0:0:
64,192,78185,1,0,0:0:0:70:Snare 2.wav
192,192,78185,1,0,0:0:0:0:
320,192,78294,1,2,0:0:0:0:
64,192,78372,1,0,0:0:0:70:Tom2.wav
448,192,78465,1,0,0:0:0:0:
192,192,78559,1,0,0:0:0:70:Tom3.wav
64,192,78652,1,0,0:0:0:0:
320,192,78746,128,4,79415:0:0:0:0:
448,192,78746,1,2,0:0:0:0:
64,192,78855,1,0,0:0:0:70:Snare 1.wav
448,192,78932,1,2,0:0:0:0:
192,192,79041,1,0,0:0:0:70:Snare 2.wav
64,192,79119,1,2,0:0:0:0:
192,192,79306,1,0,0:0:0:40:Ride1.wav
448,192,79415,1,2,0:0:0:0:
64,192,79493,128,0,79618:0:0:0:40:Perc.wav
320,192,79618,1,0,0:0:0:0:
448,192,79649,1,0,0:0:0:0:
64,192,79742,1,0,0:0:0:0:
192,192,79774,1,0,0:0:0:0:
448,192,79867,1,0,0:0:0:0:
320,192,79898,1,0,0:0:0:0:
192,192,79992,1,0,0:0:0:40:Ride1.wav
64,192,80023,1,0,0:0:0:0:
448,192,80116,1,0,0:0:0:0:
320,192,80147,1,0,0:0:0:0:
64,192,80241,1,2,0:0:0:0:
192,192,80272,128,0,80911:0:0:0:0:
448,192,80350,1,0,0:0:0:40:Perc.wav
320,192,80428,1,2,0:0:0:0:
448,192,80537,1,0,0:0:0:70:Snare 2.wav
64,192,80615,1,2,0:0:0:0:
320,192,80911,1,2,0:0:0:0:
64,192,80988,128,0,81175:0:0:0:40:Perc.wav
448,192,81098,1,2,0:0:0:0:
192,192,81175,1,0,0:0:0:70:Snare 2.wav
320,192,81269,128,0,81362:0:0:0:0:
64,192,81362,1,0,0:0:0:70:Snare 2.wav
448,192,81456,1,0,0:0:0:0:
192,192,81549,1,2,0:0:0:0:
320,192,81612,1,0,0:0:0:70:Snare 2.wav
192,192,81674,1,0,0:0:0:70:Snare 2.wav
64,192,81736,128,2,82297:0:0:0:0:
448,192,81736,1,4,0:0:0:0:
320,192,81845,1,0,0:0:0:40:Perc.wav
192,192,81923,1,2,0:0:0:0:
448,192,82032,1,0,0:0:0:70:Snare 2.wav
320,192,82110,1,2,0:0:0:0:
448,192,82297,128,0,82359:0:0:0:40:Ride1.wav
320,192,82359,128,0,82422:0:0:0:0:
192,192,82422,128,2,82484:0:0:0:0:
64,192,82484,128,0,82671:0:0:0:40:Perc.wav
448,192,82593,1,2,0:0:0:0:
192,192,82671,1,0,0:0:0:70:Snare 2.wav
320,192,82795,128,0,82982:0:0:0:0:
192,192,82858,1,0,0:0:0:70:Snare 2.wav
448,192,82982,128,0,83231:0:0:0:40:Ride1.wav
64,192,83045,1,0,0:0:0:40:Pandeiro2.wav
192,192,83107,1,0,0:0:0:40:Pandeiro2.wav
320,192,83169,1,0,0:0:0:40:Pandeiro2.wav
64,192,83231,128,2,83792:0:0:0:0:
448,192,83341,1,0,0:0:0:40:Perc.wav
192,192,83418,1,2,0:0:0:0:
320,192,83527,1,0,0:0:0:70:Snare 2.wav
192,192,83605,1,2,0:0:0:0:
448,192,83792,128,0,83886:0:0:0:40:Ride1.wav
320,192,83886,128,0,83979:0:0:0:0:
192,192,83979,128,0,84353:0:0:0:40:Perc.wav
64,192,84088,1,2,0:0:0:0:
448,192,84166,1,0,0:0:0:70:Snare 2.wav
320,192,84275,1,2,0:0:0:0:
448,192,84353,1,0,0:0:0:70:Snare 2.wav
64,192,84415,1,0,0:0:0:70:Snare 2.wav
192,192,84478,1,0,0:0:0:70:Snare 2.wav
448,192,84540,1,0,0:0:0:70:Snare 1.wav
320,192,84602,1,0,0:0:0:70:Snare 1.wav
192,192,84665,1,0,0:0:0:70:Snare 2.wav
64,192,84727,128,6,86970:0:0:0:0:
448,192,84727,1,0,0:0:0:70:Snare 2.wav
320,192,85101,1,0,0:0:0:0:
192,192,85225,1,0,0:0:0:0:
448,192,85350,1,0,0:0:0:0:
320,192,85474,1,0,0:0:0:0:
192,192,85599,1,0,0:0:0:0:
448,192,85724,1,0,0:0:0:0:
192,192,85848,1,0,0:0:0:0:
320,192,85973,1,0,0:0:0:0:
192,192,86098,1,0,0:0:0:0:
448,192,86222,128,0,86970:0:0:0:0:
192,192,86970,1,0,0:0:0:70:Pandeiro1.wav
192,192,87157,1,0,0:0:0:70:Pandeiro1.wav
192,192,87344,1,0,0:0:0:70:Loud kick.wav
320,192,87406,1,0,0:0:0:70:Snare 2.wav
192,192,87468,1,0,0:0:0:70:Loud kick.wav
448,192,87531,1,0,0:0:0:70:Snare 2.wav
64,192,87593,1,0,0:0:0:70:Loud kick.wav
192,192,87655,1,0,0:0:0:70:Snare 2.wav
320,192,87717,1,2,0:0:0:0:
448,192,87717,1,4,0:0:0:0:
320,192,87904,1,0,0:0:0:0:
64,192,87967,1,0,0:0:0:0:
192,192,88029,1,0,0:0:0:0:
448,192,88091,1,0,0:0:0:0:
320,192,88216,1,0,0:0:0:0:
192,192,88403,1,0,0:0:0:0:
320,192,88465,1,0,0:0:0:0:
448,192,88590,1,0,0:0:0:0:
192,192,88652,1,0,0:0:0:0:
320,192,88714,1,0,0:0:0:0:
64,192,88777,1,0,0:0:0:0:
448,192,88839,1,0,0:0:0:0:
320,192,88964,1,0,0:0:0:0:
192,192,89088,1,0,0:0:0:0:
64,192,89213,1,0,0:0:0:0:
320,192,89337,1,0,0:0:0:0:
192,192,89493,1,0,0:0:0:0:
320,192,89540,1,0,0:0:0:0:
192,192,89696,1,0,0:0:0:0:
320,192,89758,1,0,0:0:0:0:
192,192,89898,1,0,0:0:0:0:
320,192,89960,1,0,0:0:0:0:
448,192,90085,1,0,0:0:0:0:
192,192,90210,1,0,0:0:0:0:
64,192,90272,1,0,0:0:0:0:
320,192,90334,1,0,0:0:0:0:
192,192,90459,1,0,0:0:0:0:
448,192,90584,1,0,0:0:0:0:
64,192,90708,1,0,0:0:0:0:
320,192,91020,1,0,0:0:0:0:
64,192,91082,1,0,0:0:0:0:
192,192,91207,1,0,0:0:0:0:
448,192,91393,1,0,0:0:0:0:
192,192,91456,1,0,0:0:0:0:
64,192,91643,1,0,0:0:0:0:
448,192,91767,1,0,0:0:0:0:
192,192,91954,1,0,0:0:0:0:
64,192,92141,1,0,0:0:0:0:
320,192,92203,1,0,0:0:0:0:
192,192,92328,1,0,0:0:0:0:
448,192,92453,1,0,0:0:0:0:
64,192,92562,1,0,0:0:0:0:
448,192,92655,1,0,0:0:0:0:
192,192,92749,1,0,0:0:0:0:
448,192,92827,1,0,0:0:0:0:
64,192,92889,1,0,0:0:0:0:
448,192,92951,1,0,0:0:0:0:
192,192,93076,1,0,0:0:0:0:
320,192,93154,1,0,0:0:0:0:
192,192,93231,1,0,0:0:0:0:
64,192,93309,1,0,0:0:0:0:
448,192,93387,1,0,0:0:0:0:
64,192,93465,1,0,0:0:0:0:
320,192,93543,1,0,0:0:0:0:
448,192,93621,1,0,0:0:0:0:
192,192,93699,1,0,0:0:0:0:
64,192,93886,1,0,0:0:0:0:
448,192,94020,1,0,0:0:0:0:
192,192,94197,1,0,0:0:0:0:
448,192,94260,1,0,0:0:0:0:
320,192,94384,1,0,0:0:0:0:
64,192,94446,1,0,0:0:0:0:
192,192,94571,1,0,0:0:0:0:
448,192,94758,1,0,0:0:0:0:
192,192,94945,1,0,0:0:0:0:
320,192,95007,1,0,0:0:0:0:
64,192,95147,1,0,0:0:0:0:
448,192,95210,1,0,0:0:0:0:
192,192,95323,1,0,0:0:0:0:
320,192,95451,1,0,0:0:0:0:
64,192,95591,1,0,0:0:0:0:
448,192,95696,1,0,0:0:0:0:
192,192,95825,1,0,0:0:0:0:
64,192,95942,1,0,0:0:0:0:
320,192,96129,1,0,0:0:0:0:
448,192,96316,1,0,0:0:0:0:
320,192,96440,1,0,0:0:0:0:
192,192,96503,1,0,0:0:0:0:
448,192,96565,1,0,0:0:0:0:
64,192,96627,1,0,0:0:0:0:
320,192,96689,1,0,0:0:0:70:Hats Open 1.wav
448,192,96814,1,0,0:0:0:0:
192,192,97001,1,0,0:0:0:0:
64,192,97188,1,0,0:0:0:0:
320,192,97250,1,0,0:0:0:70:Hats Open 1.wav
192,192,97375,1,0,0:0:0:0:
320,192,97437,1,0,0:0:0:70:Snare 2.wav
448,192,97437,1,0,0:0:0:0:
64,192,97562,1,0,0:0:0:20:Snare 2.wav
448,192,97624,1,0,0:0:0:70:Drum.wav
320,192,97686,1,0,0:0:0:20:Snare 2.wav
192,192,97749,1,0,0:0:0:30:Snare 2.wav
448,192,97811,1,0,0:0:0:50:Snare 2.wav
64,192,97873,1,0,0:0:0:50:Snare 2.wav
320,192,97936,1,0,0:0:0:60:Snare 2.wav
192,192,97998,1,0,0:0:0:50:Snare 2.wav
448,192,98060,1,0,0:0:0:80:Snare 2.wav
320,192,98122,1,0,0:0:0:90:Snare 2.wav
64,192,98185,1,6,0:0:0:0:
192,192,98185,1,0,0:0:0:70:Drum.wav
448,192,98372,1,0,0:0:0:0:
320,192,98418,1,0,0:0:0:0:
64,192,98465,1,0,0:0:0:70:Drum.wav
192,192,98559,1,0,0:0:0:0:
320,192,98605,1,0,0:0:0:0:
448,192,98652,128,0,98746:0:0:0:0:
64,192,98746,1,2,0:0:0:0:
320,192,98839,1,0,0:0:0:0:
192,192,98886,1,0,0:0:0:0:
448,192,98932,1,0,0:0:0:0:
320,192,99026,1,0,0:0:0:0:
448,192,99073,1,0,0:0:0:0:
64,192,99119,1,2,0:0:0:0:
192,192,99213,1,0,0:0:0:0:
64,192,99260,1,0,0:0:0:0:
448,192,99306,1,2,0:0:0:0:
320,192,99353,1,0,0:0:0:0:
192,192,99400,128,0,99540:0:0:0:0:
448,192,99493,1,2,0:0:0:0:
64,192,99540,128,0,99680:0:0:0:0:
320,192,99680,128,2,99805:0:0:0:0:
192,192,99805,128,0,99960:0:0:0:0:
64,192,99867,1,0,0:0:0:0:
448,192,99960,128,2,100241:0:0:0:0:
64,192,100163,1,0,0:0:0:70:Drum3.wav
192,192,100241,128,2,100428:0:0:0:0:
320,192,100334,1,0,0:0:0:70:Drum3.wav
64,192,100428,128,0,100552:0:0:0:0:
192,192,100552,128,2,100615:0:0:0:0:
448,192,100615,128,2,100739:0:0:0:0:
320,192,100739,128,0,100926:0:0:0:0:
64,192,100802,1,2,0:0:0:0:
192,192,100926,128,0,101113:0:0:0:0:
448,192,100988,1,2,0:0:0:0:
64,192,101113,128,0,101300:0:0:0:0:
320,192,101175,1,2,0:0:0:0:
448,192,101300,128,2,101362:0:0:0:0:
320,192,101362,128,0,101487:0:0:0:0:
64,192,101487,128,2,101658:0:0:0:0:
448,192,101549,1,0,0:0:0:0:
192,192,101658,128,0,101736:0:0:0:0:
320,192,101736,128,2,101861:0:0:0:0:
64,192,101861,128,0,102048:0:0:0:0:
192,192,101923,1,0,0:0:0:0:
448,192,102048,128,2,102110:0:0:0:0:
320,192,102110,128,2,102235:0:0:0:0:
192,192,102235,128,0,102484:0:0:0:0:
448,192,102297,1,2,0:0:0:0:
64,192,102422,1,0,0:0:0:0:
448,192,102484,128,2,102608:0:0:0:0:
320,192,102608,128,0,102795:0:0:0:0:
192,192,102671,1,2,0:0:0:0:
64,192,102795,128,0,103169:0:0:0:0:
448,192,102858,1,0,0:0:0:0:
192,192,102982,1,2,0:0:0:0:
320,192,103045,1,0,0:0:0:0:
448,192,103169,128,0,103356:0:0:0:0:
320,192,103231,1,2,0:0:0:0:
192,192,103356,128,0,103917:0:0:0:0:
64,192,103527,1,2,0:0:0:0:
448,192,103605,1,2,0:0:0:0:
320,192,103714,1,0,0:0:0:0:
448,192,103792,1,2,0:0:0:0:
64,192,103917,1,0,0:0:0:70:Drum.wav
448,192,103979,1,2,0:0:0:0:
320,192,104104,1,0,0:0:0:70:Drum.wav
448,192,104166,128,6,104260:0:0:0:0:
192,192,104166,1,0,0:0:0:70:Drum.wav
64,192,104213,128,0,104478:0:0:0:0:
320,192,104353,1,0,0:0:0:0:
448,192,104478,128,0,104540:0:0:0:70:kick.wav
320,192,104540,128,0,104851:0:0:0:0:
192,192,104665,1,0,0:0:0:70:kick.wav
64,192,104727,1,2,0:0:0:0:
448,192,104851,128,0,104914:0:0:0:70:kick.wav
192,192,104914,128,2,105038:0:0:0:0:
320,192,105038,128,2,105225:0:0:0:0:
448,192,105101,1,2,0:0:0:0:
64,192,105225,128,0,105397:0:0:0:0:
192,192,105288,1,2,0:0:0:0:
448,192,105397,128,0,105474:0:0:0:0:
320,192,105474,128,2,105537:0:0:0:0:
192,192,105599,128,0,105661:0:0:0:0:
448,192,105661,1,0,0:0:0:70:Drum.wav
64,192,105724,1,0,0:0:0:70:Drum.wav
320,192,105786,1,0,0:0:0:70:Drum.wav
192,192,105848,128,0,105973:0:0:0:0:
64,192,105973,128,0,106160:0:0:0:70:Drum.wav
448,192,106035,1,0,0:0:0:0:
192,192,106160,128,0,106222:0:0:0:0:
320,192,106222,128,2,106347:0:0:0:0:
64,192,106347,128,0,106409:0:0:0:0:
448,192,106409,1,0,0:0:0:0:
320,192,106471,1,0,0:0:0:0:
192,192,106534,1,0,0:0:0:0:
64,192,106596,1,2,0:0:0:0:
448,192,106658,1,0,0:0:0:0:
320,192,106721,1,2,0:0:0:0:
448,192,106783,1,0,0:0:0:70:Drum.wav
64,192,106845,1,0,0:0:0:70:Drum.wav
320,192,106908,1,0,0:0:0:70:Drum.wav
192,192,106970,1,2,0:0:0:0:
64,192,107032,1,0,0:0:0:0:
192,192,107094,1,0,0:0:0:70:Drum.wav
320,192,107157,128,2,107344:0:0:0:0:
64,192,107281,1,0,0:0:0:70:Drum3.wav
448,192,107344,128,0,107453:0:0:0:70:Pandeiro1.wav
192,192,107453,128,2,107562:0:0:0:0:
320,192,107562,128,0,108559:0:0:0:0:
64,192,107655,1,0,0:0:0:70:Drum3.wav
448,192,107717,1,2,0:0:0:0:
192,192,107842,1,0,0:0:0:0:
64,192,107904,1,0,0:0:0:0:
448,192,108013,1,0,0:0:0:70:kick.wav
192,192,108091,1,2,0:0:0:0:
64,192,108278,1,2,0:0:0:0:
448,192,108403,1,0,0:0:0:0:
192,192,108465,1,2,0:0:0:0:
64,192,108559,128,0,108839:0:0:0:0:
192,192,108652,1,2,0:0:0:0:
320,192,108777,1,0,0:0:0:0:
448,192,108839,128,0,109337:0:0:0:0:
64,192,108948,1,0,0:0:0:70:kick.wav
320,192,109150,1,0,0:0:0:0:
192,192,109213,1,2,0:0:0:0:
320,192,109337,1,0,0:0:0:0:
64,192,109400,128,0,109587:0:0:0:0:
448,192,109509,1,2,0:0:0:0:
192,192,109587,128,2,109774:0:0:0:0:
320,192,109711,1,2,0:0:0:0:
448,192,109774,1,0,0:0:0:70:Drum.wav
64,192,109898,1,0,0:0:0:70:Drum.wav
448,192,110023,1,0,0:0:0:70:Drum.wav
64,192,110147,128,6,110272:0:0:0:0:
320,192,110147,1,0,0:0:0:70:Drum.wav
192,192,110272,1,2,0:0:0:0:
448,192,110334,1,0,0:0:0:0:
320,192,110428,128,0,110646:0:0:0:0:
64,192,110646,1,0,0:0:0:0:
192,192,110708,128,2,110833:0:0:0:0:
64,192,110833,1,0,0:0:0:0:
320,192,110879,128,0,111082:0:0:0:0:
448,192,111004,1,2,0:0:0:0:
64,192,111082,1,2,0:0:0:0:
448,192,111175,128,0,111269:0:0:0:0:
192,192,111269,1,2,0:0:0:0:
320,192,111316,1,0,0:0:0:0:
448,192,111362,1,0,0:0:0:0:
192,192,111456,128,2,111643:0:0:0:0:
64,192,111580,1,0,0:0:0:0:
320,192,111643,1,0,0:0:0:70:Drum.wav
64,192,111705,1,0,0:0:0:70:Drum.wav
448,192,111767,1,0,0:0:0:70:Drum.wav
192,192,111830,1,0,0:0:0:0:
320,192,111939,1,0,0:0:0:70:Drum.wav
192,192,112017,128,0,112079:0:0:0:0:
64,192,112110,128,0,112266:0:0:0:0:
320,192,112203,1,2,0:0:0:0:
448,192,112328,128,0,112484:0:0:0:0:
64,192,112390,1,0,0:0:0:0:
192,192,112484,128,0,112608:0:0:0:0:
320,192,112577,1,2,0:0:0:0:
64,192,112686,128,0,112858:0:0:0:0:
448,192,112764,1,2,0:0:0:0:
192,192,112858,1,0,0:0:0:0:
64,192,112951,1,0,0:0:0:70:Drum.wav
448,192,112998,1,0,0:0:0:70:Drum.wav
192,192,113045,1,0,0:0:0:70:Drum.wav
320,192,113091,1,0,0:0:0:70:Drum.wav
64,192,113138,128,2,113356:0:0:0:0:
192,192,113247,1,2,0:0:0:0:
448,192,113325,1,0,0:0:0:0:
320,192,113434,1,2,0:0:0:0:
192,192,113496,128,0,113574:0:0:0:0:
64,192,113605,128,0,113730:0:0:0:0:
448,192,113699,1,2,0:0:0:0:
320,192,113808,128,0,113917:0:0:0:0:
192,192,113886,1,0,0:0:0:0:
64,192,113979,128,0,114104:0:0:0:0:
448,192,114073,1,2,0:0:0:0:
320,192,114166,128,0,114291:0:0:0:0:
192,192,114260,1,2,0:0:0:0:
448,192,114353,1,0,0:0:0:0:
64,192,114400,1,0,0:0:0:0:
320,192,114446,1,2,0:0:0:0:
192,192,114540,128,0,114960:0:0:0:0:
448,192,114633,1,0,0:0:0:70:Drum.wav
64,192,114696,1,0,0:0:0:70:Drum.wav
320,192,114758,1,0,0:0:0:70:Drum.wav
448,192,114820,1,0,0:0:0:0:
64,192,114929,1,0,0:0:0:70:Drum.wav
320,192,115007,128,0,115225:0:0:0:0:
64,192,115132,1,0,0:0:0:70:Drum.wav
448,192,115194,1,2,0:0:0:0:
64,192,115319,128,2,115381:0:0:0:0:
192,192,115319,128,4,115381:0:0:0:0:
64,192,115568,1,2,0:0:0:0:
448,192,115615,1,2,0:0:0:0:
64,192,115755,1,2,0:0:0:0:
320,192,115802,1,2,0:0:0:0:
64,192,115942,1,0,0:0:0:70:Snare 2.wav
192,192,116004,1,0,0:0:0:70:Snare 2.wav
320,192,116066,1,0,0:0:0:70:Snare 2.wav
64,192,116129,128,6,116238:0:0:0:0:
448,192,116129,1,0,0:0:0:70:Drum.wav
192,192,116238,128,0,116425:0:0:0:0:
64,192,116316,1,0,0:0:0:0:
448,192,116425,128,0,116503:0:0:0:70:kick.wav
320,192,116503,128,0,116783:0:0:0:0:
64,192,116627,1,0,0:0:0:0:
448,192,116689,1,2,0:0:0:0:
64,192,116783,128,0,116845:0:0:0:0:
192,192,116845,128,0,117172:0:0:0:0:
448,192,116985,1,2,0:0:0:0:
64,192,117063,1,2,0:0:0:0:
320,192,117172,128,0,117359:0:0:0:0:
448,192,117359,1,0,0:0:0:0:
64,192,117437,128,2,117624:0:0:0:0:
192,192,117562,1,0,0:0:0:0:
448,192,117624,128,2,117936:0:0:0:0:
320,192,117749,1,0,0:0:0:0:
64,192,117811,1,0,0:0:0:0:
192,192,117936,128,0,118185:0:0:0:70:kick.wav
64,192,118122,1,0,0:0:0:0:
448,192,118185,128,2,118372:0:0:0:0:
320,192,118278,1,0,0:0:0:0:
64,192,118372,128,0,118683:0:0:0:0:
192,192,118481,1,2,0:0:0:0:
448,192,118559,1,2,0:0:0:0:
320,192,118683,128,0,118870:0:0:0:0:
192,192,118746,1,2,0:0:0:0:
64,192,118870,1,0,0:0:0:70:Drum.wav
448,192,118932,1,0,0:0:0:70:Drum.wav
320,192,118979,1,0,0:0:0:70:Drum.wav
64,192,119026,1,0,0:0:0:70:Drum.wav
192,192,119073,1,0,0:0:0:70:Drum.wav
448,192,119119,128,2,119493:0:0:0:0:
64,192,119228,1,2,0:0:0:0:
320,192,119306,1,0,0:0:0:70:Pandeiro1.wav
192,192,119493,1,0,0:0:0:0:
64,192,119618,1,0,0:0:0:0:
320,192,119649,128,0,119774:0:0:0:0:
192,192,119774,128,0,120241:0:0:0:0:
448,192,119867,1,0,0:0:0:0:
64,192,119976,1,0,0:0:0:70:kick.wav
320,192,120054,1,2,0:0:0:0:
64,192,120241,1,2,0:0:0:0:
448,192,120350,1,0,0:0:0:0:
192,192,120428,128,2,120521:0:0:0:0:
320,192,120521,128,0,120988:0:0:0:0:
64,192,120615,1,2,0:0:0:0:
192,192,120739,1,0,0:0:0:0:
448,192,120802,1,0,0:0:0:0:
64,192,120926,1,0,0:0:0:0:
448,192,120988,1,0,0:0:0:0:
192,192,121113,1,0,0:0:0:0:
64,192,121175,128,2,121300:0:0:0:0:
320,192,121300,128,0,121736:0:0:0:0:
192,192,121362,1,6,0:0:0:0:
448,192,121362,1,0,0:0:0:70:Drum3.wav
64,192,121471,1,0,0:0:0:0:
448,192,121549,1,2,0:0:0:0:
192,192,121736,1,6,0:0:0:0:
64,192,121798,1,0,0:0:0:70:Drum.wav
320,192,121861,1,0,0:0:0:70:Drum.wav
448,192,121939,1,0,0:0:0:70:Drum.wav
192,192,121985,1,0,0:0:0:70:Drum.wav
64,192,122063,1,0,0:0:0:70:Drum.wav
448,192,122126,1,6,0:0:0:0:
320,192,122172,128,0,122406:0:0:0:0:
448,192,122297,1,2,0:0:0:0:
64,192,122406,1,0,0:0:0:70:Drum.wav
192,192,122484,128,2,122608:0:0:0:0:
64,192,122608,128,0,122780:0:0:0:0:
448,192,122671,1,0,0:0:0:0:
320,192,122780,1,2,0:0:0:0:
192,192,122858,128,0,123154:0:0:0:0:
64,192,122967,1,2,0:0:0:0:
448,192,123045,1,0,0:0:0:0:
320,192,123154,1,2,0:0:0:0:
64,192,123231,128,0,123356:0:0:0:0:
448,192,123356,1,2,0:0:0:0:
320,192,123418,128,2,123543:0:0:0:0:
192,192,123543,1,0,0:0:0:0:
448,192,123605,128,2,123901:0:0:0:0:
64,192,123730,1,0,0:0:0:0:
320,192,123792,1,2,0:0:0:0:
64,192,123901,1,0,0:0:0:70:Drum.wav
192,192,123979,128,2,124088:0:0:0:0:
448,192,124088,1,0,0:0:0:0:
320,192,124166,128,0,124462:0:0:0:0:
64,192,124283,1,0,0:0:0:0:
448,192,124353,1,2,0:0:0:0:
192,192,124462,1,2,0:0:0:0:
64,192,124540,128,0,124649:0:0:0:0:
320,192,124649,1,2,0:0:0:0:
448,192,124727,128,0,124851:0:0:0:0:
64,192,124851,1,0,0:0:0:0:
192,192,124914,128,2,125038:0:0:0:0:
320,192,125038,1,0,0:0:0:0:
64,192,125101,128,0,125397:0:0:0:70:kick.wav
448,192,125210,1,2,0:0:0:0:
192,192,125288,1,2,0:0:0:0:
320,192,125397,128,0,125599:0:0:0:0:
448,192,125474,1,2,0:0:0:0:
192,192,125599,1,0,0:0:0:0:
64,192,125661,128,0,125770:0:0:0:0:
320,192,125770,1,2,0:0:0:0:
448,192,125833,128,0,126035:0:0:0:0:
192,192,125957,1,0,0:0:0:70:kick.wav
320,192,126035,1,0,0:0:0:0:
64,192,126144,128,2,126331:0:0:0:0:
448,192,126331,128,0,126393:0:0:0:0:
320,192,126393,128,2,126596:0:0:0:0:
448,192,126518,1,2,0:0:0:0:
64,192,126596,1,6,0:0:0:0:
192,192,126596,1,0,0:0:0:70:Drum.wav
320,192,126721,1,0,0:0:0:70:Drum.wav
192,192,126783,1,0,0:0:0:70:Drum.wav
448,192,126908,1,0,0:0:0:70:Drum.wav
192,192,126970,1,6,0:0:0:0:
320,192,126970,1,0,0:0:0:70:Drum.wav
64,192,127094,1,0,0:0:0:70:Drum.wav
448,192,127157,1,0,0:0:0:70:Drum.wav
192,192,127281,1,0,0:0:0:70:Drum.wav
320,192,127344,1,6,0:0:0:0:
448,192,127344,1,0,0:0:0:70:Drum.wav
192,192,127468,1,0,0:0:0:70:Drum3.wav
320,192,127531,1,0,0:0:0:70:Drum3.wav
64,192,127655,1,0,0:0:0:70:Drum3.wav
192,192,127717,1,6,0:0:0:0:
448,192,127717,1,0,0:0:0:70:Drum.wav
320,192,127842,1,0,0:0:0:70:Drum3.wav
64,192,127904,1,0,0:0:0:70:Drum.wav
192,192,127967,1,0,0:0:0:70:Drum.wav
320,192,128029,1,0,0:0:0:70:Drum.wav
64,192,128091,128,6,128372:0:0:0:0:
448,192,128091,1,0,0:0:0:70:Drum.wav
192,192,128216,1,0,0:0:0:0:
320,192,128278,1,0,0:0:0:0:
192,192,128434,128,0,128559:0:0:0:0:
64,192,128559,128,0,128839:0:0:0:0:
448,192,128652,1,0,0:0:0:0:
320,192,128761,1,2,0:0:0:0:
192,192,128839,128,2,129135:0:0:0:0:
64,192,128948,1,2,0:0:0:0:
448,192,129026,1,0,0:0:0:0:
320,192,129135,1,2,0:0:0:0:
448,192,129213,128,0,129322:0:0:0:0:
64,192,129322,1,0,0:0:0:0:
320,192,129400,128,2,129587:0:0:0:0:
448,192,129524,1,0,0:0:0:0:
192,192,129587,1,0,0:0:0:70:Drum.wav
64,192,129649,1,0,0:0:0:70:Drum.wav
448,192,129711,1,0,0:0:0:70:Drum.wav
192,192,129774,1,0,0:0:0:0:
320,192,129867,1,0,0:0:0:0:
64,192,129898,128,0,130069:0:0:0:70:kick.wav
448,192,130069,1,0,0:0:0:0:
320,192,130116,128,0,130443:0:0:0:0:
192,192,130264,1,0,0:0:0:0:
64,192,130334,1,2,0:0:0:0:
448,192,130443,1,2,0:0:0:0:
192,192,130521,128,0,130630:0:0:0:0:
64,192,130630,1,2,0:0:0:0:
320,192,130708,128,0,130895:0:0:0:0:
192,192,130833,1,0,0:0:0:0:
448,192,130895,128,0,131082:0:0:0:70:kick.wav
64,192,131020,1,0,0:0:0:0:
192,192,131082,128,2,131269:0:0:0:0:
320,192,131191,1,2,0:0:0:0:
64,192,131269,1,2,0:0:0:0:
448,192,131362,128,0,131565:0:0:0:0:
192,192,131456,1,2,0:0:0:0:
320,192,131565,1,0,0:0:0:0:
64,192,131643,128,0,131752:0:0:0:0:
192,192,131752,1,0,0:0:0:70:kick.wav
448,192,131830,128,2,132126:0:0:0:0:
64,192,131939,1,2,0:0:0:0:
320,192,132017,1,0,0:0:0:0:
192,192,132126,1,2,0:0:0:0:
64,192,132188,128,0,132328:0:0:0:0:
448,192,132328,1,0,0:0:0:0:
320,192,132390,128,2,132499:0:0:0:0:
192,192,132499,1,0,0:0:0:0:
64,192,132577,128,2,132671:0:0:0:0:
192,192,132671,128,0,133060:0:0:0:0:
448,192,132764,1,0,0:0:0:70:kick.wav
64,192,132873,1,0,0:0:0:0:
320,192,132951,1,2,0:0:0:0:
448,192,133060,1,0,0:0:0:0:
64,192,133138,128,0,133325:0:0:0:0:
320,192,133247,1,0,0:0:0:70:kick.wav
192,192,133325,128,2,133434:0:0:0:0:
448,192,133434,1,2,0:0:0:0:
192,192,133512,128,0,133621:0:0:0:0:
64,192,133621,1,2,0:0:0:0:
448,192,133621,1,0,0:0:0:70:Snare 2.wav
320,192,133699,128,0,133823:0:0:0:70:Drum.wav
64,192,133823,1,0,0:0:0:70:Drum.wav
448,192,133823,1,0,0:0:0:0:
320,192,133886,128,0,134010:0:0:0:70:Drum.wav
192,192,134010,128,0,134073:0:0:0:70:Drum.wav
64,192,134073,1,6,0:0:0:0:
320,192,134073,128,0,134197:0:0:0:70:Drum.wav
448,192,134197,128,0,134353:0:0:0:0:
192,192,134260,1,2,0:0:0:0:
64,192,134446,128,2,134571:0:0:0:0:
448,192,134446,1,4,0:0:0:0:
192,192,134571,128,0,134742:0:0:0:0:
320,192,134633,1,2,0:0:0:0:
448,192,134742,1,2,0:0:0:0:
64,192,134820,128,4,135116:0:0:0:0:
320,192,134820,1,0,0:0:0:0:
192,192,134945,1,2,0:0:0:0:
448,192,135007,1,2,0:0:0:0:
320,192,135116,1,2,0:0:0:0:
192,192,135194,128,2,135319:0:0:0:0:
448,192,135194,1,4,0:0:0:0:
64,192,135319,1,0,0:0:0:0:
320,192,135381,128,2,135506:0:0:0:0:
192,192,135506,1,0,0:0:0:0:
64,192,135568,1,6,0:0:0:0:
448,192,135568,128,0,135879:0:0:0:0:
320,192,135755,1,0,0:0:0:0:
192,192,135879,128,2,136066:0:0:0:0:
320,192,135942,1,6,0:0:0:0:
448,192,135942,1,0,0:0:0:0:
64,192,136066,1,0,0:0:0:0:
320,192,136129,128,2,136425:0:0:0:0:
448,192,136238,1,0,0:0:0:0:
64,192,136316,1,6,0:0:0:0:
192,192,136316,1,0,0:0:0:0:
448,192,136425,1,2,0:0:0:0:
64,192,136503,128,2,136612:0:0:0:0:
192,192,136612,1,2,0:0:0:0:
448,192,136689,128,6,136814:0:0:0:0:
320,192,136814,1,0,0:0:0:0:
64,192,136876,128,2,137001:0:0:0:0:
448,192,137001,1,0,0:0:0:0:
192,192,137063,128,6,137250:0:0:0:0:
320,192,137063,1,0,0:0:0:0:
64,192,137172,1,2,0:0:0:0:
448,192,137250,1,2,0:0:0:0:
320,192,137359,128,0,137562:0:0:0:0:
64,192,137437,1,6,0:0:0:0:
448,192,137437,1,0,0:0:0:0:
192,192,137562,1,0,0:0:0:0:
64,192,137593,128,0,137733:0:0:0:0:
320,192,137733,1,2,0:0:0:0:
64,192,137811,1,4,0:0:0:0:
192,192,137811,128,0,137904:0:0:0:0:
448,192,137904,128,0,137998:0:0:0:0:
320,192,137998,128,0,138122:0:0:0:0:
64,192,138122,128,0,138294:0:0:0:0:
192,192,138185,1,2,0:0:0:0:
448,192,138185,1,4,0:0:0:0:
320,192,138294,1,0,0:0:0:0:
192,192,138372,128,2,138559:0:0:0:0:
320,192,138496,1,0,0:0:0:0:
64,192,138559,128,6,138668:0:0:0:0:
448,192,138559,1,0,0:0:0:0:
320,192,138668,128,0,138792:0:0:0:0:
192,192,138792,128,0,138901:0:0:0:0:
448,192,138901,128,0,139057:0:0:0:0:
320,192,139057,128,0,139150:0:0:0:0:
64,192,139150,128,0,139275:0:0:0:0:
192,192,139275,128,0,139431:0:0:0:0:
320,192,139431,128,0,139524:0:0:0:0:
192,192,139524,128,0,139680:0:0:0:0:
448,192,139680,128,0,139805:0:0:0:0:
64,192,139805,128,2,139960:0:0:0:0:
192,192,139867,1,2,0:0:0:0:
448,192,139867,1,0,0:0:0:0:
320,192,139960,128,0,140054:0:0:0:0:
64,192,140054,128,6,140334:0:0:0:0:
448,192,140054,1,0,0:0:0:0:
192,192,140163,1,0,0:0:0:0:
320,192,140241,1,2,0:0:0:0:
192,192,140428,128,6,140552:0:0:0:0:
448,192,140428,1,0,0:0:0:0:
64,192,140552,128,0,140724:0:0:0:0:
320,192,140615,1,2,0:0:0:0:
192,192,140724,1,2,0:0:0:0:
64,192,140802,1,6,0:0:0:0:
448,192,140802,128,0,140988:0:0:0:0:
320,192,140911,1,0,0:0:0:0:
192,192,140988,1,0,0:0:0:0:
64,192,141113,128,2,141300:0:0:0:0:
320,192,141175,1,4,0:0:0:0:
448,192,141175,1,0,0:0:0:0:
192,192,141300,1,0,0:0:0:0:
320,192,141362,128,2,141471:0:0:0:0:
64,192,141471,1,2,0:0:0:0:
192,192,141549,1,6,0:0:0:0:
448,192,141549,128,0,141830:0:0:0:0:
320,192,141674,1,0,0:0:0:0:
64,192,141736,1,2,0:0:0:0:
192,192,141830,128,0,142032:0:0:0:0:
320,192,141923,1,6,0:0:0:0:
448,192,141923,1,0,0:0:0:0:
64,192,142032,1,0,0:0:0:0:
320,192,142110,128,0,142297:0:0:0:0:
448,192,142235,1,0,0:0:0:0:
64,192,142297,1,6,0:0:0:0:
192,192,142297,1,0,0:0:0:0:
320,192,142406,1,2,0:0:0:0:
448,192,142484,128,0,142671:0:0:0:0:
64,192,142593,1,2,0:0:0:0:
192,192,142671,128,4,142858:0:0:0:0:
320,192,142671,1,0,0:0:0:0:
64,192,142795,1,0,0:0:0:0:
320,192,142858,128,2,143045:0:0:0:0:
192,192,142982,1,0,0:0:0:0:
64,192,143045,1,6,0:0:0:0:
448,192,143045,128,0,143325:0:0:0:0:
192,192,143154,1,2,0:0:0:0:
320,192,143231,1,2,0:0:0:0:
64,192,143387,128,0,143636:0:0:0:0:
320,192,143418,1,6,0:0:0:0:
448,192,143418,1,0,0:0:0:0:
192,192,143527,1,0,0:0:0:0:
448,192,143636,128,0,143792:0:0:0:0:
320,192,143714,1,2,0:0:0:0:
64,192,143792,1,4,0:0:0:0:
192,192,143792,128,0,144088:0:0:0:0:
320,192,143901,1,2,0:0:0:0:
448,192,143979,1,0,0:0:0:0:
64,192,144088,1,2,0:0:0:0:
320,192,144135,128,0,144353:0:0:0:0:
448,192,144166,1,4,0:0:0:0:
192,192,144275,1,0,0:0:0:0:
64,192,144353,128,2,144462:0:0:0:0:
448,192,144462,1,2,0:0:0:0:
320,192,144540,1,6,0:0:0:0:
192,192,144540,128,0,144602:0:0:0:0:
64,192,144571,128,0,144665:0:0:0:0:
448,192,144665,128,0,145101:0:0:0:0:
192,192,144727,1,2,0:0:0:0:
320,192,144836,1,0,0:0:0:0:
64,192,144914,1,2,0:0:0:0:
192,192,144914,1,4,0:0:0:0:
320,192,145023,1,0,0:0:0:0:
64,192,145101,128,0,145163:0:0:0:0:
192,192,145132,128,0,145661:0:0:0:0:
448,192,145225,1,0,0:0:0:0:
64,192,145288,1,2,0:0:0:0:
320,192,145288,1,4,0:0:0:0:
448,192,145412,1,0,0:0:0:0:
64,192,145474,1,4,0:0:0:0:
320,192,145599,1,0,0:0:0:0:
64,192,145661,1,4,0:0:0:0:
448,192,145755,1,0,0:0:0:0:
320,192,145848,1,4,0:0:0:0:
192,192,145942,1,0,0:0:0:0:
64,192,146035,128,4,146222:0:0:0:0:
320,192,146035,1,2,0:0:0:70:Loud kick.wav
448,192,146222,1,0,0:0:0:70:Snare 2.wav
320,192,146316,1,0,0:0:0:0:
64,192,146409,1,4,0:0:0:0:
448,192,146409,128,2,146596:0:0:0:70:Loud kick.wav
64,192,146596,1,0,0:0:0:70:Snare 2.wav
192,192,146689,1,0,0:0:0:0:
64,192,146783,1,4,0:0:0:0:
448,192,146783,1,2,0:0:0:70:Loud kick.wav
320,192,146908,1,0,0:0:0:0:
448,192,147032,1,0,0:0:0:0:
64,192,147157,1,2,0:0:0:70:Loud kick.wav
320,192,147219,1,0,0:0:0:0:
192,192,147281,1,0,0:0:0:0:
64,192,147344,1,0,0:0:0:0:
448,192,147406,1,0,0:0:0:0:
320,192,147468,1,0,0:0:0:0:
448,192,147531,1,4,0:0:0:0:
64,192,147655,1,0,0:0:0:0:
320,192,147780,1,0,0:0:0:0:
64,192,147904,1,4,0:0:0:0:
192,192,147967,1,0,0:0:0:0:
448,192,148029,1,0,0:0:0:0:
64,192,148091,1,0,0:0:0:0:
320,192,148154,1,0,0:0:0:0:
192,192,148216,1,0,0:0:0:0:
64,192,148278,1,4,0:0:0:0:
448,192,148403,1,0,0:0:0:0:
320,192,148527,1,0,0:0:0:0:
64,192,148652,1,4,0:0:0:0:
192,192,148714,1,0,0:0:0:0:
448,192,148777,1,0,0:0:0:0:
320,192,148839,1,0,0:0:0:0:
64,192,148901,1,0,0:0:0:0:
192,192,148964,1,0,0:0:0:0:
320,192,149026,1,2,0:0:0:0:
448,192,149026,1,0,0:0:0:0:
192,192,149150,1,2,0:0:0:70:Tom2.wav
320,192,149213,1,2,0:0:0:70:Tom3.wav
64,192,149337,1,2,0:0:0:70:Tom2.wav
192,192,149400,1,2,0:0:0:70:Tom3.wav
448,192,149524,1,2,0:0:0:70:Tom3.wav
320,192,149587,1,2,0:0:0:70:Tom2.wav
448,192,149711,1,0,0:0:0:0:
192,192,149774,1,0,0:0:0:40:Ride1.wav
64,192,149960,1,4,0:0:0:0:
320,192,149960,128,2,151830:0:0:0:0:
448,192,149960,128,0,150334:0:0:0:0:
64,192,151643,128,4,151830:0:0:0:0:
192,192,151830,1,2,0:0:0:0:
448,192,151830,1,0,0:0:0:0:
64,192,152017,128,2,152266:0:0:0:0:
192,192,152017,128,4,152235:0:0:0:0:
320,192,152017,128,0,152203:0:0:0:0:
