osu file format v14

[General]
AudioFilename: audio.mp3
AudioLeadIn: 0
PreviewTime: 102747
Countdown: 0
SampleSet: Normal
StackLeniency: 0.7
Mode: 1
LetterboxInBreaks: 0
WidescreenStoryboard: 0

[Editor]
DistanceSpacing: 0.8
BeatDivisor: 4
GridSize: 32
TimelineZoom: 2.6

[Metadata]
Title:Star of the COME ON!!
TitleUnicode:スター・オブ・ザ・COME ON!!
Artist:Frums
ArtistUnicode:Frums
Creator:rubies87
Version:Inner Eevee
Source:
Tags:サンダース Thunders EVolution!!!!!!!!! Pokémon Pokemon ポケモン ポケットモンスター Pocket Monsters Eeveelution FA Featured Artist MG Mappers' Guild mpg Electronic Chiptune Breakcore Instrumental SV 8bit Cychloryn Frums.xyz frumsdotxyz
BeatmapID:2166944
BeatmapSetID:1036375

[Difficulty]
HPDrainRate:6
CircleSize:2
OverallDifficulty:6
ApproachRate:10
SliderMultiplier:1.4
SliderTickRate:1

[Events]
//Background and Video events
0,0,"eeveelution.jpg",0,0
//Break Periods
//Storyboard Layer 0 (Background)
//Storyboard Layer 1 (Fail)
//Storyboard Layer 2 (Pass)
//Storyboard Layer 3 (Foreground)
//Storyboard Layer 4 (Overlay)
//Storyboard Sound Samples

[TimingPoints]
3267,240,4,1,0,70,1,0
33987,-100,4,1,0,70,0,1
45507,-100,4,1,0,70,0,0
47307,-100,4,1,0,70,0,1
52467,-100,4,1,0,70,0,0
70467,-133.333333333333,4,1,0,70,0,0
102747,-100,4,1,0,70,0,0
106947,-100,4,1,0,70,0,1
130347,-100,4,1,0,70,0,0
130707,-100,4,1,0,70,0,1
131067,-100,4,1,0,70,0,0
131427,-100,4,1,0,70,0,1
137187,-100,4,1,0,70,0,0
154707,-66.6666666666667,4,1,0,70,0,0

[HitObjects]
256,192,3267,5,0,0:0:0:0:
256,192,3507,1,0,0:0:0:0:
256,192,3747,1,0,0:0:0:0:
256,192,3987,1,0,0:0:0:0:
256,192,4227,1,0,0:0:0:0:
256,192,4467,1,0,0:0:0:0:
256,192,4707,1,0,0:0:0:0:
256,192,4947,1,0,0:0:0:0:
256,192,5187,1,0,0:0:0:0:
256,192,5247,1,0,0:0:0:0:
256,192,5307,1,0,0:0:0:0:
256,192,5367,1,0,0:0:0:0:
256,192,5427,1,0,0:0:0:0:
256,192,5667,1,0,0:0:0:0:
256,192,5907,1,0,0:0:0:0:
256,192,6147,1,0,0:0:0:0:
256,192,6387,1,0,0:0:0:0:
256,192,6627,1,0,0:0:0:0:
256,192,6747,1,8,0:0:0:0:
256,192,6807,1,8,0:0:0:0:
256,192,6867,1,0,0:0:0:0:
256,192,6987,1,0,0:0:0:0:
256,192,7107,1,0,0:0:0:0:
256,192,7347,1,0,0:0:0:0:
256,192,7587,1,0,0:0:0:0:
256,192,7827,1,0,0:0:0:0:
256,192,8067,1,0,0:0:0:0:
256,192,8307,1,0,0:0:0:0:
256,192,8547,1,0,0:0:0:0:
256,192,8787,1,0,0:0:0:0:
256,192,9027,1,0,0:0:0:0:
256,192,9267,1,0,0:0:0:0:
256,192,9507,1,0,0:0:0:0:
256,192,9747,1,0,0:0:0:0:
256,192,9987,1,0,0:0:0:0:
256,192,10107,1,0,0:0:0:0:
256,192,10167,1,0,0:0:0:0:
256,192,10227,1,8,0:0:0:0:
256,192,10347,1,8,0:0:0:0:
256,192,10467,1,0,0:0:0:0:
256,192,10587,1,8,0:0:0:0:
256,192,10707,1,8,0:0:0:0:
256,192,10767,1,8,0:0:0:0:
256,192,10827,1,8,0:0:0:0:
256,192,10887,1,8,0:0:0:0:
256,192,10947,1,0,0:0:0:0:
256,192,11187,1,8,0:0:0:0:
256,192,11307,1,8,0:0:0:0:
256,192,11427,1,0,0:0:0:0:
256,192,11547,1,8,0:0:0:0:
256,192,11667,1,0,0:0:0:0:
256,192,11787,1,8,0:0:0:0:
256,192,11907,1,0,0:0:0:0:
256,192,12147,1,8,0:0:0:0:
256,192,12267,1,8,0:0:0:0:
256,192,12387,1,0,0:0:0:0:
256,192,12507,1,8,0:0:0:0:
256,192,12627,1,0,0:0:0:0:
256,192,12747,1,8,0:0:0:0:
256,192,12867,1,0,0:0:0:0:
256,192,12927,1,0,0:0:0:0:
256,192,12987,1,0,0:0:0:0:
256,192,13047,1,0,0:0:0:0:
256,192,13107,1,8,0:0:0:0:
256,192,13227,1,8,0:0:0:0:
256,192,13347,1,0,0:0:0:0:
256,192,13467,1,8,0:0:0:0:
256,192,13587,1,0,0:0:0:0:
256,192,13707,1,8,0:0:0:0:
256,192,13827,1,0,0:0:0:0:
256,192,13947,1,8,0:0:0:0:
256,192,14007,1,0,0:0:0:0:
256,192,14067,1,8,0:0:0:0:
256,192,14187,1,0,0:0:0:0:
256,192,14307,1,8,0:0:0:0:
256,192,14367,1,0,0:0:0:0:
256,192,14427,1,8,0:0:0:0:
256,192,14547,1,0,0:0:0:0:
256,192,14667,1,8,0:0:0:0:
256,192,14727,1,8,0:0:0:0:
256,192,14787,1,0,0:0:0:0:
256,192,15027,1,8,0:0:0:0:
256,192,15147,1,8,0:0:0:0:
256,192,15267,1,0,0:0:0:0:
256,192,15387,1,8,0:0:0:0:
256,192,15507,1,0,0:0:0:0:
256,192,15627,1,8,0:0:0:0:
256,192,15747,1,0,0:0:0:0:
256,192,15987,1,8,0:0:0:0:
256,192,16107,1,8,0:0:0:0:
256,192,16227,1,0,0:0:0:0:
256,192,16347,1,8,0:0:0:0:
256,192,16467,1,0,0:0:0:0:
256,192,16587,1,8,0:0:0:0:
256,192,16707,1,8,0:0:0:0:
256,192,16827,1,0,0:0:0:0:
256,192,16947,1,8,0:0:0:0:
256,192,17067,1,8,0:0:0:0:
256,192,17187,1,0,0:0:0:0:
256,192,17307,1,8,0:0:0:0:
256,192,17427,1,0,0:0:0:0:
256,192,17547,1,8,0:0:0:0:
256,192,17667,1,8,0:0:0:0:
256,192,17727,1,8,0:0:0:0:
256,192,17787,1,0,0:0:0:0:
256,192,17847,1,0,0:0:0:0:
256,192,17907,1,8,0:0:0:0:
256,192,17967,1,8,0:0:0:0:
256,192,18027,1,0,0:0:0:0:
256,192,18087,1,0,0:0:0:0:
256,192,18147,1,8,0:0:0:0:
256,192,18267,1,8,0:0:0:0:
256,192,18387,1,8,0:0:0:0:
256,192,18447,1,8,0:0:0:0:
256,192,18507,1,8,0:0:0:0:
256,192,18567,1,8,0:0:0:0:
256,192,18627,1,0,0:0:0:0:
256,192,18747,1,0,0:0:0:0:
256,192,18867,1,0,0:0:0:0:
256,192,18987,1,8,0:0:0:0:
256,192,19227,1,0,0:0:0:0:
256,192,19347,1,8,0:0:0:0:
256,192,19467,1,8,0:0:0:0:
256,192,19527,1,8,0:0:0:0:
256,192,19587,1,0,0:0:0:0:
256,192,19707,1,8,0:0:0:0:
256,192,19827,1,8,0:0:0:0:
256,192,19947,1,0,0:0:0:0:
256,192,20187,1,0,0:0:0:0:
256,192,20307,1,8,0:0:0:0:
256,192,20367,1,8,0:0:0:0:
256,192,20427,1,8,0:0:0:0:
256,192,20487,1,0,0:0:0:0:
256,192,20547,1,0,0:0:0:0:
256,192,20667,1,0,0:0:0:0:
256,192,20787,1,8,0:0:0:0:
256,192,20907,1,8,0:0:0:0:
256,192,20967,1,8,0:0:0:0:
256,192,21087,1,8,0:0:0:0:
256,192,21147,1,0,0:0:0:0:
256,192,21267,1,8,0:0:0:0:
256,192,21387,1,8,0:0:0:0:
256,192,21447,1,8,0:0:0:0:
256,192,21507,1,0,0:0:0:0:
256,192,21627,1,0,0:0:0:0:
256,192,21687,1,0,0:0:0:0:
256,192,21747,1,8,0:0:0:0:
256,192,21867,1,0,0:0:0:0:
256,192,21987,1,8,0:0:0:0:
256,192,22107,1,0,0:0:0:0:
256,192,22227,1,0,0:0:0:0:
256,192,22467,1,0,0:0:0:0:
256,192,22587,1,0,0:0:0:0:
256,192,22707,1,0,0:0:0:0:
256,192,22827,1,8,0:0:0:0:
256,192,23067,1,0,0:0:0:0:
256,192,23187,1,8,0:0:0:0:
256,192,23307,1,8,0:0:0:0:
256,192,23367,1,8,0:0:0:0:
256,192,23427,1,0,0:0:0:0:
256,192,23547,1,8,0:0:0:0:
256,192,23667,1,8,0:0:0:0:
256,192,23787,1,0,0:0:0:0:
256,192,24027,1,0,0:0:0:0:
256,192,24147,1,8,0:0:0:0:
256,192,24207,1,8,0:0:0:0:
256,192,24267,1,8,0:0:0:0:
256,192,24327,1,0,0:0:0:0:
256,192,24387,1,0,0:0:0:0:
256,192,24507,1,0,0:0:0:0:
256,192,24627,1,8,0:0:0:0:
256,192,24747,1,8,0:0:0:0:
256,192,24807,1,8,0:0:0:0:
256,192,24927,1,8,0:0:0:0:
256,192,24987,1,0,0:0:0:0:
256,192,25107,1,8,0:0:0:0:
256,192,25227,1,8,0:0:0:0:
256,192,25287,1,8,0:0:0:0:
256,192,25347,1,0,0:0:0:0:
256,192,25467,1,0,0:0:0:0:
256,192,25527,1,0,0:0:0:0:
256,192,25587,1,8,0:0:0:0:
256,192,25707,1,0,0:0:0:0:
256,192,25827,1,8,0:0:0:0:
256,192,25947,1,0,0:0:0:0:
256,192,26067,1,8,0:0:0:0:
256,192,26187,1,0,0:0:0:0:
256,192,26307,1,8,0:0:0:0:
256,192,26427,1,8,0:0:0:0:
256,192,26547,1,0,0:0:0:0:
256,192,26667,1,8,0:0:0:0:
256,192,26907,1,0,0:0:0:0:
256,192,27027,1,8,0:0:0:0:
256,192,27147,1,8,0:0:0:0:
256,192,27207,1,8,0:0:0:0:
256,192,27267,1,0,0:0:0:0:
256,192,27387,1,8,0:0:0:0:
256,192,27507,1,8,0:0:0:0:
256,192,27627,1,0,0:0:0:0:
256,192,27867,1,0,0:0:0:0:
256,192,27987,1,8,0:0:0:0:
256,192,28047,1,8,0:0:0:0:
256,192,28107,1,8,0:0:0:0:
256,192,28167,1,0,0:0:0:0:
256,192,28227,1,0,0:0:0:0:
256,192,28347,1,0,0:0:0:0:
256,192,28467,1,8,0:0:0:0:
256,192,28587,1,8,0:0:0:0:
256,192,28647,1,8,0:0:0:0:
256,192,28767,1,8,0:0:0:0:
256,192,28827,1,0,0:0:0:0:
256,192,28947,1,8,0:0:0:0:
256,192,29067,1,8,0:0:0:0:
256,192,29127,1,8,0:0:0:0:
256,192,29187,1,0,0:0:0:0:
256,192,29307,1,0,0:0:0:0:
256,192,29367,1,0,0:0:0:0:
256,192,29427,1,8,0:0:0:0:
256,192,29547,1,0,0:0:0:0:
256,192,29667,1,8,0:0:0:0:
256,192,29787,1,0,0:0:0:0:
256,192,29907,1,0,0:0:0:0:
256,192,30147,1,8,0:0:0:0:
256,192,30267,1,8,0:0:0:0:
256,192,30387,1,0,0:0:0:0:
256,192,30507,1,8,0:0:0:0:
256,192,30747,1,0,0:0:0:0:
256,192,30867,1,8,0:0:0:0:
256,192,30927,1,8,0:0:0:0:
256,192,30987,1,8,0:0:0:0:
256,192,31047,1,8,0:0:0:0:
256,192,31107,1,0,0:0:0:0:
256,192,31227,1,8,0:0:0:0:
256,192,31347,1,8,0:0:0:0:
256,192,31467,1,0,0:0:0:0:
256,192,31707,1,0,0:0:0:0:
256,192,31827,1,8,0:0:0:0:
256,192,31887,1,8,0:0:0:0:
256,192,31947,1,8,0:0:0:0:
256,192,32007,1,0,0:0:0:0:
256,192,32067,1,0,0:0:0:0:
256,192,32187,1,0,0:0:0:0:
256,192,32307,1,8,0:0:0:0:
256,192,32427,1,8,0:0:0:0:
256,192,32487,1,8,0:0:0:0:
256,192,32607,1,8,0:0:0:0:
256,192,32667,1,0,0:0:0:0:
256,192,32787,1,8,0:0:0:0:
256,192,32907,1,8,0:0:0:0:
256,192,32967,1,8,0:0:0:0:
256,192,33027,1,0,0:0:0:0:
256,192,33147,1,0,0:0:0:0:
256,192,33207,1,0,0:0:0:0:
256,192,33267,1,8,0:0:0:0:
256,192,33387,1,0,0:0:0:0:
256,192,33507,1,8,0:0:0:0:
256,192,33627,1,8,0:0:0:0:
256,192,33687,1,8,0:0:0:0:
256,192,33747,1,8,0:0:0:0:
256,192,33867,1,0,0:0:0:0:
256,192,33987,1,8,0:0:0:0:
256,192,34107,1,0,0:0:0:0:
256,192,34227,1,8,0:0:0:0:
256,192,34347,1,0,0:0:0:0:
256,192,34407,1,0,0:0:0:0:
256,192,34467,1,8,0:0:0:0:
256,192,34587,1,0,0:0:0:0:
256,192,34707,1,8,0:0:0:0:
256,192,34827,1,8,0:0:0:0:
256,192,34887,1,0,0:0:0:0:
256,192,34947,1,0,0:0:0:0:
256,192,35067,1,8,0:0:0:0:
256,192,35187,1,8,0:0:0:0:
256,192,35307,1,8,0:0:0:0:
256,192,35367,1,0,0:0:0:0:
256,192,35427,1,8,0:0:0:0:
256,192,35487,1,8,0:0:0:0:
256,192,35547,1,0,0:0:0:0:
256,192,35667,1,8,0:0:0:0:
256,192,35787,1,0,0:0:0:0:
256,192,35847,1,0,0:0:0:0:
256,192,35907,1,8,0:0:0:0:
256,192,36027,1,0,0:0:0:0:
256,192,36147,1,8,0:0:0:0:
256,192,36267,1,0,0:0:0:0:
256,192,36327,1,8,0:0:0:0:
256,192,36387,1,0,0:0:0:0:
256,192,36507,1,8,0:0:0:0:
256,192,36627,1,8,0:0:0:0:
256,192,36747,1,0,0:0:0:0:
256,192,36867,1,0,0:0:0:0:
256,192,36927,1,0,0:0:0:0:
256,192,36987,1,8,0:0:0:0:
256,192,37107,1,8,0:0:0:0:
256,192,37227,1,0,0:0:0:0:
256,192,37287,1,0,0:0:0:0:
256,192,37347,1,8,0:0:0:0:
256,192,37407,1,8,0:0:0:0:
256,192,37467,1,0,0:0:0:0:
256,192,37587,1,8,0:0:0:0:
256,192,37827,1,8,0:0:0:0:
256,192,37947,1,0,0:0:0:0:
256,192,38067,1,8,0:0:0:0:
256,192,38187,1,0,0:0:0:0:
256,192,38247,1,0,0:0:0:0:
256,192,38307,1,8,0:0:0:0:
256,192,38427,1,0,0:0:0:0:
256,192,38547,1,8,0:0:0:0:
256,192,38667,1,8,0:0:0:0:
256,192,38727,1,0,0:0:0:0:
256,192,38787,1,0,0:0:0:0:
256,192,38907,1,8,0:0:0:0:
256,192,39027,1,8,0:0:0:0:
256,192,39147,1,8,0:0:0:0:
256,192,39207,1,0,0:0:0:0:
256,192,39267,1,8,0:0:0:0:
256,192,39327,1,8,0:0:0:0:
256,192,39387,1,0,0:0:0:0:
256,192,39507,1,8,0:0:0:0:
256,192,39627,1,0,0:0:0:0:
256,192,39687,1,0,0:0:0:0:
256,192,39747,1,8,0:0:0:0:
256,192,39867,1,0,0:0:0:0:
256,192,39987,1,8,0:0:0:0:
256,192,40107,1,8,0:0:0:0:
256,192,40347,1,0,0:0:0:0:
256,192,40467,1,8,0:0:0:0:
256,192,40587,1,0,0:0:0:0:
256,192,40707,1,0,0:0:0:0:
256,192,40767,1,0,0:0:0:0:
256,192,40827,1,8,0:0:0:0:
256,192,40947,1,8,0:0:0:0:
256,192,41067,1,0,0:0:0:0:
256,192,41127,1,0,0:0:0:0:
256,192,41187,1,8,0:0:0:0:
256,192,41247,1,0,0:0:0:0:
256,192,41307,1,8,0:0:0:0:
256,192,41367,1,0,0:0:0:0:
256,192,41427,1,8,0:0:0:0:
256,192,41487,1,8,0:0:0:0:
256,192,41547,1,0,0:0:0:0:
256,192,41607,1,0,0:0:0:0:
256,192,41667,1,8,0:0:0:0:
256,192,41787,1,0,0:0:0:0:
256,192,41907,1,8,0:0:0:0:
256,192,42027,1,0,0:0:0:0:
256,192,42087,1,0,0:0:0:0:
256,192,42147,1,8,0:0:0:0:
256,192,42267,1,0,0:0:0:0:
256,192,42387,1,8,0:0:0:0:
256,192,42507,1,8,0:0:0:0:
256,192,42567,1,0,0:0:0:0:
256,192,42627,1,0,0:0:0:0:
256,192,42747,1,8,0:0:0:0:
256,192,42867,1,8,0:0:0:0:
256,192,42987,1,8,0:0:0:0:
256,192,43047,1,0,0:0:0:0:
256,192,43107,1,8,0:0:0:0:
256,192,43167,1,8,0:0:0:0:
256,192,43227,1,0,0:0:0:0:
256,192,43347,1,8,0:0:0:0:
256,192,43467,1,0,0:0:0:0:
256,192,43527,1,0,0:0:0:0:
256,192,43587,1,8,0:0:0:0:
256,192,43707,1,0,0:0:0:0:
256,192,43827,1,8,0:0:0:0:
256,192,43947,1,0,0:0:0:0:
256,192,44007,1,8,0:0:0:0:
256,192,44067,1,0,0:0:0:0:
256,192,44187,1,8,0:0:0:0:
256,192,44307,1,8,0:0:0:0:
256,192,44427,1,0,0:0:0:0:
256,192,44547,1,0,0:0:0:0:
256,192,44607,1,0,0:0:0:0:
256,192,44667,1,8,0:0:0:0:
256,192,44787,1,8,0:0:0:0:
256,192,44907,1,0,0:0:0:0:
256,192,44967,1,0,0:0:0:0:
256,192,45027,1,8,0:0:0:0:
256,192,45087,1,8,0:0:0:0:
256,192,45147,1,0,0:0:0:0:
256,192,45267,1,8,0:0:0:0:
256,192,45387,1,0,0:0:0:0:
256,192,45447,1,0,0:0:0:0:
256,192,45507,1,8,0:0:0:0:
256,192,45627,1,0,0:0:0:0:
256,192,45747,1,0,0:0:0:0:
256,192,45867,1,8,0:0:0:0:
256,192,46227,1,8,0:0:0:0:
256,192,46347,1,0,0:0:0:0:
256,192,46467,1,0,0:0:0:0:
256,192,46587,1,8,0:0:0:0:
256,192,46947,1,8,0:0:0:0:
256,192,47067,1,0,0:0:0:0:
256,192,47187,1,0,0:0:0:0:
256,192,47247,1,0,0:0:0:0:
256,192,47307,1,8,0:0:0:0:
256,192,47367,1,8,0:0:0:0:
256,192,47427,1,0,0:0:0:0:
256,192,47547,1,0,0:0:0:0:
256,192,47667,1,8,0:0:0:0:
256,192,47787,1,0,0:0:0:0:
256,192,47847,1,8,0:0:0:0:
256,192,47907,1,0,0:0:0:0:
256,192,48027,1,0,0:0:0:0:
256,192,48147,1,8,0:0:0:0:
256,192,48207,1,8,0:0:0:0:
256,192,48267,1,0,0:0:0:0:
256,192,48387,1,0,0:0:0:0:
256,192,48507,1,8,0:0:0:0:
256,192,48627,1,0,0:0:0:0:
256,192,48687,1,0,0:0:0:0:
256,192,48747,1,8,0:0:0:0:
256,192,48867,1,0,0:0:0:0:
256,192,48987,1,0,0:0:0:0:
256,192,49107,1,8,0:0:0:0:
256,192,49227,1,0,0:0:0:0:
256,192,49347,1,8,0:0:0:0:
256,192,49467,1,0,0:0:0:0:
256,192,49527,1,0,0:0:0:0:
256,192,49587,1,8,0:0:0:0:
256,192,49707,1,0,0:0:0:0:
256,192,49827,1,8,0:0:0:0:
256,192,49887,1,8,0:0:0:0:
256,192,49947,1,0,0:0:0:0:
256,192,50007,1,0,0:0:0:0:
256,192,50067,1,8,0:0:0:0:
256,192,50187,1,0,0:0:0:0:
256,192,50307,1,8,0:0:0:0:
256,192,50427,1,0,0:0:0:0:
256,192,50487,1,0,0:0:0:0:
256,192,50547,1,8,0:0:0:0:
256,192,50607,1,8,0:0:0:0:
256,192,50667,1,0,0:0:0:0:
256,192,50787,1,8,0:0:0:0:
256,192,50847,1,8,0:0:0:0:
256,192,50907,1,0,0:0:0:0:
256,192,51027,1,8,0:0:0:0:
256,192,51147,1,0,0:0:0:0:
256,192,51267,1,8,0:0:0:0:
256,192,51327,1,8,0:0:0:0:
256,192,51387,1,0,0:0:0:0:
256,192,51447,1,0,0:0:0:0:
256,192,51507,1,8,0:0:0:0:
256,192,51567,1,8,0:0:0:0:
256,192,51627,1,0,0:0:0:0:
256,192,51687,1,0,0:0:0:0:
256,192,51747,1,8,0:0:0:0:
256,192,51807,1,8,0:0:0:0:
256,192,51867,1,0,0:0:0:0:
256,192,51927,1,0,0:0:0:0:
256,192,51987,1,8,0:0:0:0:
256,192,52047,1,8,0:0:0:0:
256,192,52107,1,0,0:0:0:0:
256,192,52167,1,0,0:0:0:0:
256,192,52227,1,8,0:0:0:0:
256,192,52267,1,8,0:0:0:0:
256,192,52307,1,8,0:0:0:0:
256,192,52347,1,0,0:0:0:0:
256,192,52387,1,0,0:0:0:0:
256,192,52427,1,0,0:0:0:0:
256,192,52467,1,8,0:0:0:0:
256,192,53187,1,0,0:0:0:0:
256,192,53427,1,8,0:0:0:0:
256,192,53547,1,0,0:0:0:0:
256,192,53607,1,0,0:0:0:0:
256,192,53667,1,0,0:0:0:0:
256,192,53787,1,8,0:0:0:0:
256,192,53907,1,0,0:0:0:0:
256,192,54027,1,8,0:0:0:0:
256,192,54087,1,8,0:0:0:0:
256,192,54147,1,0,0:0:0:0:
256,192,54387,1,8,0:0:0:0:
256,192,54507,1,0,0:0:0:0:
256,192,54567,1,8,0:0:0:0:
256,192,54627,1,0,0:0:0:0:
256,192,54747,1,8,0:0:0:0:
256,192,54867,1,0,0:0:0:0:
256,192,54927,1,0,0:0:0:0:
256,192,54987,1,8,0:0:0:0:
256,192,55107,1,0,0:0:0:0:
256,192,55347,1,8,0:0:0:0:
256,192,55467,1,0,0:0:0:0:
256,192,55527,1,0,0:0:0:0:
256,192,55587,1,0,0:0:0:0:
256,192,55707,1,8,0:0:0:0:
256,192,55827,1,0,0:0:0:0:
256,192,55947,1,8,0:0:0:0:
256,192,56007,1,8,0:0:0:0:
256,192,56067,1,0,0:0:0:0:
256,192,56187,1,8,0:0:0:0:
256,192,56307,1,0,0:0:0:0:
256,192,56427,1,8,0:0:0:0:
256,192,56547,1,0,0:0:0:0:
256,192,56667,1,0,0:0:0:0:
256,192,56727,1,0,0:0:0:0:
256,192,56787,1,8,0:0:0:0:
256,192,56907,1,0,0:0:0:0:
256,192,56967,1,0,0:0:0:0:
256,192,57027,1,0,0:0:0:0:
256,192,57267,1,8,0:0:0:0:
256,192,57387,1,0,0:0:0:0:
256,192,57447,1,0,0:0:0:0:
256,192,57507,1,0,0:0:0:0:
256,192,57627,1,8,0:0:0:0:
256,192,57747,1,0,0:0:0:0:
256,192,57867,1,8,0:0:0:0:
256,192,57927,1,8,0:0:0:0:
256,192,57987,1,0,0:0:0:0:
256,192,58227,1,8,0:0:0:0:
256,192,58347,1,0,0:0:0:0:
256,192,58407,1,8,0:0:0:0:
256,192,58467,1,0,0:0:0:0:
256,192,58587,1,8,0:0:0:0:
256,192,58707,1,0,0:0:0:0:
256,192,58767,1,0,0:0:0:0:
256,192,58827,1,8,0:0:0:0:
256,192,58947,1,0,0:0:0:0:
256,192,59187,1,8,0:0:0:0:
256,192,59307,1,0,0:0:0:0:
256,192,59367,1,0,0:0:0:0:
256,192,59427,1,0,0:0:0:0:
256,192,59547,1,8,0:0:0:0:
256,192,59667,1,0,0:0:0:0:
256,192,59787,1,8,0:0:0:0:
256,192,59847,1,0,0:0:0:0:
256,192,59907,1,8,0:0:0:0:
256,192,60027,1,0,0:0:0:0:
256,192,60147,1,8,0:0:0:0:
256,192,60267,1,0,0:0:0:0:
256,192,60327,1,0,0:0:0:0:
256,192,60387,1,8,0:0:0:0:
256,192,60507,1,8,0:0:0:0:
256,192,60627,1,8,0:0:0:0:
256,192,60687,1,8,0:0:0:0:
256,192,60747,1,8,0:0:0:0:
256,192,60807,1,8,0:0:0:0:
256,192,60867,1,0,0:0:0:0:
256,192,60987,1,0,0:0:0:0:
256,192,61107,1,8,0:0:0:0:
256,192,61167,1,0,0:0:0:0:
256,192,61227,1,8,0:0:0:0:
256,192,61287,1,8,0:0:0:0:
256,192,61347,1,0,0:0:0:0:
256,192,61467,1,8,0:0:0:0:
256,192,61587,1,0,0:0:0:0:
256,192,61707,1,8,0:0:0:0:
256,192,61827,1,0,0:0:0:0:
256,192,61947,1,0,0:0:0:0:
256,192,62007,1,0,0:0:0:0:
256,192,62067,1,8,0:0:0:0:
256,192,62187,1,8,0:0:0:0:
256,192,62307,1,0,0:0:0:0:
256,192,62427,1,8,0:0:0:0:
256,192,62547,1,0,0:0:0:0:
256,192,62607,1,0,0:0:0:0:
256,192,62667,1,8,0:0:0:0:
256,192,62727,1,8,0:0:0:0:
256,192,62787,1,0,0:0:0:0:
256,192,62907,1,0,0:0:0:0:
256,192,63027,1,8,0:0:0:0:
256,192,63147,1,8,0:0:0:0:
256,192,63267,1,0,0:0:0:0:
256,192,63387,1,8,0:0:0:0:
256,192,63447,1,8,0:0:0:0:
256,192,63507,1,0,0:0:0:0:
256,192,63567,1,0,0:0:0:0:
256,192,63627,1,8,0:0:0:0:
256,192,63687,1,8,0:0:0:0:
256,192,63747,1,0,0:0:0:0:
256,192,63867,1,0,0:0:0:0:
256,192,63987,1,8,0:0:0:0:
256,192,64107,1,8,0:0:0:0:
256,192,64227,1,0,0:0:0:0:
256,192,64287,1,0,0:0:0:0:
256,192,64347,1,8,0:0:0:0:
256,192,64467,1,0,0:0:0:0:
256,192,64587,1,8,0:0:0:0:
256,192,64647,1,8,0:0:0:0:
256,192,64707,1,0,0:0:0:0:
256,192,64827,1,0,0:0:0:0:
256,192,64947,1,8,0:0:0:0:
256,192,65067,1,8,0:0:0:0:
256,192,65187,1,0,0:0:0:0:
256,192,65307,1,8,0:0:0:0:
256,192,65367,1,8,0:0:0:0:
256,192,65427,1,0,0:0:0:0:
256,192,65547,1,8,0:0:0:0:
256,192,65667,1,0,0:0:0:0:
256,192,65787,1,0,0:0:0:0:
256,192,65907,1,8,0:0:0:0:
256,192,66027,1,8,0:0:0:0:
256,192,66087,1,8,0:0:0:0:
256,192,66147,1,8,0:0:0:0:
256,192,66207,1,8,0:0:0:0:
256,192,66267,1,0,0:0:0:0:
256,192,66327,1,0,0:0:0:0:
256,192,66387,1,8,0:0:0:0:
256,192,66507,1,8,0:0:0:0:
256,192,66567,1,8,0:0:0:0:
256,192,66627,1,0,0:0:0:0:
256,192,66747,1,8,0:0:0:0:
256,192,66867,1,0,0:0:0:0:
256,192,66987,1,8,0:0:0:0:
256,192,67047,1,8,0:0:0:0:
256,192,67107,1,0,0:0:0:0:
256,192,67227,1,8,0:0:0:0:
256,192,67347,1,0,0:0:0:0:
256,192,67467,1,8,0:0:0:0:
256,192,67527,1,8,0:0:0:0:
256,192,67587,1,0,0:0:0:0:
256,192,67707,1,8,0:0:0:0:
256,192,67767,1,8,0:0:0:0:
256,192,67827,1,0,0:0:0:0:
256,192,67887,1,0,0:0:0:0:
256,192,67947,1,8,0:0:0:0:
256,192,68007,1,8,0:0:0:0:
256,192,68067,1,0,0:0:0:0:
256,192,68127,1,8,0:0:0:0:
256,192,68187,1,0,0:0:0:0:
256,192,68247,1,8,0:0:0:0:
256,192,68307,1,0,0:0:0:0:
256,192,68367,1,0,0:0:0:0:
256,192,68427,1,0,0:0:0:0:
256,192,68487,1,0,0:0:0:0:
256,192,68547,12,0,70227,0:0:0:0:
256,192,70467,5,0,0:0:0:0:
256,192,70587,1,0,0:0:0:0:
256,192,70647,1,0,0:0:0:0:
256,192,70707,1,8,0:0:0:0:
256,192,70827,1,0,0:0:0:0:
256,192,70947,1,8,0:0:0:0:
256,192,71067,1,8,0:0:0:0:
256,192,71127,1,0,0:0:0:0:
256,192,71187,1,8,0:0:0:0:
256,192,71307,1,0,0:0:0:0:
256,192,71547,1,8,0:0:0:0:
256,192,71667,1,0,0:0:0:0:
256,192,71787,1,0,0:0:0:0:
256,192,71847,1,0,0:0:0:0:
256,192,71907,1,8,0:0:0:0:
256,192,72027,1,0,0:0:0:0:
256,192,72147,1,8,0:0:0:0:
256,192,72267,1,8,0:0:0:0:
256,192,72327,1,8,0:0:0:0:
256,192,72387,1,0,0:0:0:0:
256,192,72507,1,8,0:0:0:0:
256,192,72627,1,0,0:0:0:0:
256,192,72747,1,8,0:0:0:0:
256,192,72867,1,8,0:0:0:0:
256,192,72987,1,0,0:0:0:0:
256,192,73107,1,8,0:0:0:0:
256,192,73227,1,8,0:0:0:0:
256,192,73347,1,0,0:0:0:0:
256,192,73467,1,8,0:0:0:0:
256,192,73587,1,8,0:0:0:0:
256,192,73707,1,0,0:0:0:0:
256,192,73827,1,8,0:0:0:0:
256,192,73947,1,8,0:0:0:0:
256,192,74067,1,0,0:0:0:0:
256,192,74187,1,8,0:0:0:0:
256,192,74307,1,0,0:0:0:0:
256,192,74427,1,8,0:0:0:0:
256,192,74487,1,8,0:0:0:0:
256,192,74547,1,8,0:0:0:0:
256,192,74667,1,0,0:0:0:0:
256,192,74787,1,8,0:0:0:0:
256,192,74907,1,8,0:0:0:0:
256,192,75027,1,0,0:0:0:0:
256,192,75147,1,0,0:0:0:0:
256,192,75267,1,8,0:0:0:0:
256,192,75387,1,0,0:0:0:0:
256,192,75507,1,0,0:0:0:0:
256,192,75627,1,8,0:0:0:0:
256,192,75747,1,0,0:0:0:0:
256,192,75867,1,8,0:0:0:0:
256,192,75987,1,0,0:0:0:0:
256,192,76047,1,8,0:0:0:0:
256,192,76107,1,0,0:0:0:0:
256,192,76227,1,0,0:0:0:0:
256,192,76347,1,0,0:0:0:0:
256,192,76467,1,8,0:0:0:0:
256,192,76587,1,0,0:0:0:0:
256,192,76707,1,0,0:0:0:0:
256,192,76827,1,0,0:0:0:0:
256,192,76947,1,8,0:0:0:0:
256,192,77067,1,0,0:0:0:0:
256,192,77187,1,8,0:0:0:0:
256,192,77427,1,8,0:0:0:0:
256,192,77667,1,0,0:0:0:0:
256,192,77827,1,8,0:0:0:0:
256,192,77987,1,8,0:0:0:0:
256,192,78147,1,0,0:0:0:0:
256,192,78387,1,0,0:0:0:0:
256,192,78627,1,8,0:0:0:0:
256,192,78747,1,0,0:0:0:0:
256,192,78807,1,0,0:0:0:0:
256,192,78867,1,8,0:0:0:0:
256,192,78987,1,0,0:0:0:0:
256,192,79107,1,8,0:0:0:0:
256,192,79227,1,8,0:0:0:0:
256,192,79347,1,8,0:0:0:0:
256,192,79467,1,0,0:0:0:0:
256,192,79587,1,8,0:0:0:0:
256,192,79707,1,8,0:0:0:0:
256,192,79827,1,8,0:0:0:0:
256,192,79947,1,8,0:0:0:0:
256,192,80067,1,0,0:0:0:0:
256,192,80187,1,8,0:0:0:0:
256,192,80307,1,8,0:0:0:0:
256,192,80427,1,8,0:0:0:0:
256,192,80547,1,0,0:0:0:0:
256,192,80787,1,0,0:0:0:0:
256,192,80907,1,8,0:0:0:0:
256,192,81027,1,0,0:0:0:0:
256,192,81147,1,8,0:0:0:0:
256,192,81267,1,8,0:0:0:0:
256,192,81387,1,0,0:0:0:0:
256,192,81507,1,8,0:0:0:0:
256,192,81627,1,8,0:0:0:0:
256,192,81747,1,8,0:0:0:0:
256,192,81867,1,8,0:0:0:0:
256,192,81987,1,0,0:0:0:0:
256,192,82107,1,8,0:0:0:0:
256,192,82167,1,8,0:0:0:0:
256,192,82227,1,8,0:0:0:0:
256,192,82347,1,0,0:0:0:0:
256,192,82467,1,8,0:0:0:0:
256,192,82587,1,0,0:0:0:0:
256,192,82707,1,0,0:0:0:0:
256,192,82827,1,8,0:0:0:0:
256,192,82947,1,0,0:0:0:0:
256,192,83067,1,8,0:0:0:0:
256,192,83187,1,8,0:0:0:0:
256,192,83307,1,0,0:0:0:0:
256,192,83427,1,8,0:0:0:0:
256,192,83547,1,0,0:0:0:0:
256,192,83667,1,8,0:0:0:0:
256,192,83787,1,8,0:0:0:0:
256,192,83907,1,0,0:0:0:0:
256,192,84027,1,8,0:0:0:0:
256,192,84087,1,8,0:0:0:0:
256,192,84147,1,0,0:0:0:0:
256,192,84267,1,8,0:0:0:0:
256,192,84387,1,8,0:0:0:0:
256,192,84507,1,0,0:0:0:0:
256,192,84627,1,8,0:0:0:0:
256,192,84747,1,0,0:0:0:0:
256,192,84987,1,8,0:0:0:0:
256,192,85107,1,0,0:0:0:0:
256,192,85227,1,0,0:0:0:0:
256,192,85287,1,0,0:0:0:0:
256,192,85347,1,8,0:0:0:0:
256,192,85467,1,8,0:0:0:0:
256,192,85587,1,0,0:0:0:0:
256,192,85707,1,8,0:0:0:0:
256,192,85827,1,0,0:0:0:0:
256,192,85907,1,0,0:0:0:0:
256,192,85987,1,0,0:0:0:0:
256,192,86067,1,8,0:0:0:0:
256,192,86307,1,8,0:0:0:0:
256,192,86427,1,0,0:0:0:0:
256,192,86547,1,8,0:0:0:0:
256,192,86667,1,8,0:0:0:0:
256,192,86787,1,0,0:0:0:0:
256,192,86907,1,8,0:0:0:0:
256,192,87027,1,8,0:0:0:0:
256,192,87147,1,0,0:0:0:0:
256,192,87267,1,8,0:0:0:0:
256,192,87387,1,0,0:0:0:0:
256,192,87507,1,8,0:0:0:0:
256,192,87627,1,8,0:0:0:0:
256,192,87747,1,0,0:0:0:0:
256,192,87867,1,8,0:0:0:0:
256,192,87987,1,8,0:0:0:0:
256,192,88107,1,8,0:0:0:0:
256,192,88227,1,8,0:0:0:0:
256,192,88467,1,8,0:0:0:0:
256,192,88587,1,0,0:0:0:0:
256,192,88827,1,8,0:0:0:0:
256,192,88947,1,0,0:0:0:0:
256,192,89067,1,0,0:0:0:0:
256,192,89127,1,0,0:0:0:0:
256,192,89187,1,8,0:0:0:0:
256,192,89307,1,0,0:0:0:0:
256,192,89427,1,8,0:0:0:0:
256,192,89547,1,8,0:0:0:0:
256,192,89667,1,0,0:0:0:0:
256,192,89787,1,8,0:0:0:0:
256,192,89847,1,8,0:0:0:0:
256,192,89907,1,0,0:0:0:0:
256,192,90027,1,0,0:0:0:0:
256,192,90147,1,8,0:0:0:0:
256,192,90387,1,8,0:0:0:0:
256,192,90507,1,0,0:0:0:0:
256,192,90627,1,0,0:0:0:0:
256,192,90687,1,0,0:0:0:0:
256,192,90747,1,8,0:0:0:0:
256,192,90867,1,0,0:0:0:0:
256,192,90987,1,0,0:0:0:0:
256,192,91107,1,8,0:0:0:0:
256,192,91347,1,0,0:0:0:0:
256,192,91467,1,8,0:0:0:0:
256,192,91587,1,0,0:0:0:0:
256,192,91707,1,0,0:0:0:0:
256,192,91767,1,8,0:0:0:0:
256,192,91827,1,0,0:0:0:0:
256,192,91947,1,0,0:0:0:0:
256,192,92067,1,8,0:0:0:0:
256,192,92127,1,8,0:0:0:0:
256,192,92187,1,0,0:0:0:0:
256,192,92307,1,8,0:0:0:0:
256,192,92427,1,0,0:0:0:0:
256,192,92547,1,8,0:0:0:0:
256,192,92787,1,8,0:0:0:0:
256,192,93027,1,0,0:0:0:0:
256,192,93187,1,8,0:0:0:0:
256,192,93347,1,8,0:0:0:0:
256,192,93507,1,0,0:0:0:0:
256,192,93627,1,8,0:0:0:0:
256,192,93687,1,8,0:0:0:0:
256,192,93747,1,0,0:0:0:0:
256,192,93987,1,8,0:0:0:0:
256,192,94107,1,8,0:0:0:0:
256,192,94167,1,0,0:0:0:0:
256,192,94227,1,8,0:0:0:0:
256,192,94347,1,0,0:0:0:0:
256,192,94587,1,8,0:0:0:0:
256,192,94707,1,0,0:0:0:0:
256,192,94827,1,0,0:0:0:0:
256,192,94887,1,0,0:0:0:0:
256,192,94947,1,8,0:0:0:0:
256,192,95067,1,8,0:0:0:0:
256,192,95187,1,8,0:0:0:0:
256,192,95307,1,8,0:0:0:0:
256,192,95427,1,0,0:0:0:0:
256,192,95547,1,8,0:0:0:0:
256,192,95607,1,8,0:0:0:0:
256,192,95667,1,0,0:0:0:0:
256,192,95787,1,0,0:0:0:0:
256,192,95907,1,8,0:0:0:0:
256,192,96027,1,8,0:0:0:0:
256,192,96147,1,0,0:0:0:0:
256,192,96267,1,8,0:0:0:0:
256,192,96507,1,0,0:0:0:0:
256,192,96627,1,8,0:0:0:0:
256,192,96747,1,0,0:0:0:0:
256,192,96867,1,8,0:0:0:0:
256,192,96987,1,8,0:0:0:0:
256,192,97047,1,0,0:0:0:0:
256,192,97107,1,8,0:0:0:0:
256,192,97227,1,8,0:0:0:0:
256,192,97347,1,0,0:0:0:0:
256,192,97587,1,8,0:0:0:0:
256,192,97707,1,0,0:0:0:0:
256,192,97767,1,0,0:0:0:0:
256,192,97827,1,8,0:0:0:0:
256,192,97947,1,8,0:0:0:0:
256,192,98067,1,8,0:0:0:0:
256,192,98187,1,0,0:0:0:0:
256,192,98427,1,8,0:0:0:0:
256,192,98547,1,0,0:0:0:0:
256,192,98667,1,0,0:0:0:0:
256,192,98727,1,0,0:0:0:0:
256,192,98787,1,8,0:0:0:0:
256,192,98907,1,0,0:0:0:0:
256,192,99027,1,8,0:0:0:0:
256,192,99147,1,8,0:0:0:0:
256,192,99267,1,0,0:0:0:0:
256,192,99387,1,0,0:0:0:0:
256,192,99447,1,8,0:0:0:0:
256,192,99507,1,0,0:0:0:0:
256,192,99627,1,0,0:0:0:0:
256,192,99747,1,8,0:0:0:0:
256,192,99867,1,8,0:0:0:0:
256,192,99987,1,8,0:0:0:0:
256,192,100107,1,0,0:0:0:0:
256,192,100227,1,8,0:0:0:0:
256,192,100287,1,8,0:0:0:0:
256,192,100347,1,0,0:0:0:0:
256,192,100467,1,0,0:0:0:0:
256,192,100587,1,8,0:0:0:0:
256,192,100707,1,8,0:0:0:0:
256,192,100827,1,0,0:0:0:0:
256,192,100887,1,0,0:0:0:0:
256,192,100947,1,8,0:0:0:0:
256,192,101067,1,8,0:0:0:0:
256,192,101187,1,0,0:0:0:0:
256,192,102747,5,0,0:0:0:0:
256,192,102867,1,0,0:0:0:0:
256,192,102987,1,0,0:0:0:0:
256,192,103107,1,8,0:0:0:0:
256,192,103467,1,0,0:0:0:0:
256,192,103527,1,0,0:0:0:0:
256,192,103587,1,8,0:0:0:0:
256,192,103707,1,8,0:0:0:0:
256,192,103827,1,0,0:0:0:0:
256,192,103947,1,8,0:0:0:0:
256,192,104187,1,8,0:0:0:0:
256,192,104427,1,8,0:0:0:0:
256,192,104667,1,0,0:0:0:0:
256,192,104787,1,8,0:0:0:0:
256,192,104907,1,0,0:0:0:0:
256,192,105027,1,8,0:0:0:0:
256,192,105387,1,8,0:0:0:0:
256,192,105627,1,8,0:0:0:0:
256,192,105747,1,8,0:0:0:0:
256,192,105867,1,0,0:0:0:0:
256,192,105987,1,8,0:0:0:0:
256,192,106107,1,0,0:0:0:0:
256,192,106167,1,0,0:0:0:0:
256,192,106227,1,8,0:0:0:0:
256,192,106347,1,0,0:0:0:0:
256,192,106467,1,8,0:0:0:0:
256,192,106587,1,0,0:0:0:0:
256,192,106647,1,0,0:0:0:0:
256,192,106707,1,8,0:0:0:0:
256,192,106767,1,8,0:0:0:0:
256,192,106827,1,0,0:0:0:0:
256,192,106947,1,8,0:0:0:0:
256,192,107067,1,0,0:0:0:0:
256,192,107187,1,8,0:0:0:0:
256,192,107307,1,0,0:0:0:0:
256,192,107367,1,0,0:0:0:0:
256,192,107427,1,8,0:0:0:0:
256,192,107547,1,0,0:0:0:0:
256,192,107667,1,8,0:0:0:0:
256,192,107787,1,8,0:0:0:0:
256,192,107847,1,0,0:0:0:0:
256,192,107907,1,0,0:0:0:0:
256,192,108027,1,8,0:0:0:0:
256,192,108147,1,8,0:0:0:0:
256,192,108267,1,8,0:0:0:0:
256,192,108327,1,0,0:0:0:0:
256,192,108387,1,8,0:0:0:0:
256,192,108447,1,8,0:0:0:0:
256,192,108507,1,0,0:0:0:0:
256,192,108627,1,8,0:0:0:0:
256,192,108747,1,0,0:0:0:0:
256,192,108807,1,0,0:0:0:0:
256,192,108867,1,8,0:0:0:0:
256,192,108987,1,0,0:0:0:0:
256,192,109107,1,8,0:0:0:0:
256,192,109227,1,8,0:0:0:0:
256,192,109467,1,0,0:0:0:0:
256,192,109587,1,8,0:0:0:0:
256,192,109707,1,0,0:0:0:0:
256,192,109827,1,0,0:0:0:0:
256,192,109887,1,0,0:0:0:0:
256,192,109947,1,8,0:0:0:0:
256,192,110067,1,8,0:0:0:0:
256,192,110187,1,0,0:0:0:0:
256,192,110247,1,0,0:0:0:0:
256,192,110307,1,8,0:0:0:0:
256,192,110367,1,0,0:0:0:0:
256,192,110427,1,8,0:0:0:0:
256,192,110487,1,0,0:0:0:0:
256,192,110547,1,8,0:0:0:0:
256,192,110607,1,8,0:0:0:0:
256,192,110667,1,0,0:0:0:0:
256,192,110727,1,0,0:0:0:0:
256,192,110787,1,8,0:0:0:0:
256,192,110907,1,0,0:0:0:0:
256,192,111027,1,8,0:0:0:0:
256,192,111147,1,0,0:0:0:0:
256,192,111207,1,0,0:0:0:0:
256,192,111267,1,8,0:0:0:0:
256,192,111387,1,0,0:0:0:0:
256,192,111507,1,8,0:0:0:0:
256,192,111627,1,8,0:0:0:0:
256,192,111687,1,0,0:0:0:0:
256,192,111747,1,0,0:0:0:0:
256,192,111867,1,8,0:0:0:0:
256,192,111987,1,8,0:0:0:0:
256,192,112107,1,8,0:0:0:0:
256,192,112167,1,0,0:0:0:0:
256,192,112227,1,8,0:0:0:0:
256,192,112287,1,8,0:0:0:0:
256,192,112347,1,0,0:0:0:0:
256,192,112467,1,8,0:0:0:0:
256,192,112587,1,0,0:0:0:0:
256,192,112647,1,0,0:0:0:0:
256,192,112707,1,8,0:0:0:0:
256,192,112827,1,0,0:0:0:0:
256,192,112947,1,8,0:0:0:0:
256,192,113067,1,0,0:0:0:0:
256,192,113127,1,8,0:0:0:0:
256,192,113187,1,0,0:0:0:0:
256,192,113307,1,8,0:0:0:0:
256,192,113427,1,8,0:0:0:0:
256,192,113547,1,0,0:0:0:0:
256,192,113667,1,0,0:0:0:0:
256,192,113727,1,0,0:0:0:0:
256,192,113787,1,8,0:0:0:0:
256,192,113907,1,8,0:0:0:0:
256,192,114027,1,0,0:0:0:0:
256,192,114087,1,0,0:0:0:0:
256,192,114147,1,8,0:0:0:0:
256,192,114207,1,8,0:0:0:0:
256,192,114267,1,0,0:0:0:0:
256,192,114387,1,8,0:0:0:0:
256,192,114507,1,0,0:0:0:0:
256,192,114567,1,0,0:0:0:0:
256,192,114627,1,0,0:0:0:0:
256,192,114747,1,0,0:0:0:0:
256,192,114867,1,8,0:0:0:0:
256,192,114987,1,0,0:0:0:0:
256,192,115047,1,0,0:0:0:0:
256,192,115107,1,8,0:0:0:0:
256,192,115227,1,0,0:0:0:0:
256,192,115347,1,8,0:0:0:0:
256,192,115467,1,0,0:0:0:0:
256,192,115527,1,0,0:0:0:0:
256,192,115587,1,0,0:0:0:0:
256,192,115707,1,0,0:0:0:0:
256,192,115827,1,8,0:0:0:0:
256,192,115887,1,0,0:0:0:0:
256,192,115947,1,8,0:0:0:0:
256,192,116007,1,8,0:0:0:0:
256,192,116067,1,0,0:0:0:0:
256,192,116187,1,0,0:0:0:0:
256,192,116307,1,8,0:0:0:0:
256,192,116427,1,0,0:0:0:0:
256,192,116487,1,0,0:0:0:0:
256,192,116547,1,0,0:0:0:0:
256,192,116667,1,0,0:0:0:0:
256,192,116787,1,8,0:0:0:0:
256,192,116907,1,8,0:0:0:0:
256,192,116967,1,8,0:0:0:0:
256,192,117027,1,0,0:0:0:0:
256,192,117147,1,0,0:0:0:0:
256,192,117267,1,8,0:0:0:0:
256,192,117387,1,0,0:0:0:0:
256,192,117447,1,0,0:0:0:0:
256,192,117507,1,8,0:0:0:0:
256,192,117627,1,0,0:0:0:0:
256,192,117747,1,8,0:0:0:0:
256,192,117807,1,8,0:0:0:0:
256,192,117867,1,0,0:0:0:0:
256,192,117927,1,0,0:0:0:0:
256,192,117987,1,8,0:0:0:0:
256,192,118047,1,8,0:0:0:0:
256,192,118107,1,0,0:0:0:0:
256,192,118167,1,0,0:0:0:0:
256,192,118227,1,8,0:0:0:0:
256,192,118287,1,8,0:0:0:0:
256,192,118347,1,8,0:0:0:0:
256,192,118407,1,8,0:0:0:0:
256,192,118467,1,0,0:0:0:0:
256,192,118587,1,0,0:0:0:0:
256,192,118707,1,8,0:0:0:0:
256,192,118827,1,0,0:0:0:0:
256,192,118887,1,0,0:0:0:0:
256,192,118947,1,8,0:0:0:0:
256,192,119067,1,0,0:0:0:0:
256,192,119187,1,8,0:0:0:0:
256,192,119307,1,8,0:0:0:0:
256,192,119367,1,0,0:0:0:0:
256,192,119427,1,0,0:0:0:0:
256,192,119547,1,8,0:0:0:0:
256,192,119667,1,8,0:0:0:0:
256,192,119787,1,8,0:0:0:0:
256,192,119847,1,0,0:0:0:0:
256,192,119907,1,8,0:0:0:0:
256,192,119967,1,8,0:0:0:0:
256,192,120027,1,0,0:0:0:0:
256,192,120147,1,8,0:0:0:0:
256,192,120267,1,0,0:0:0:0:
256,192,120327,1,0,0:0:0:0:
256,192,120387,1,8,0:0:0:0:
256,192,120507,1,0,0:0:0:0:
256,192,120627,1,8,0:0:0:0:
256,192,120747,1,0,0:0:0:0:
256,192,120807,1,8,0:0:0:0:
256,192,120867,1,0,0:0:0:0:
256,192,120987,1,8,0:0:0:0:
256,192,121107,1,8,0:0:0:0:
256,192,121227,1,0,0:0:0:0:
256,192,121347,1,0,0:0:0:0:
256,192,121407,1,0,0:0:0:0:
256,192,121467,1,8,0:0:0:0:
256,192,121587,1,8,0:0:0:0:
256,192,121707,1,0,0:0:0:0:
256,192,121767,1,0,0:0:0:0:
256,192,121827,1,8,0:0:0:0:
256,192,121887,1,8,0:0:0:0:
256,192,121947,1,0,0:0:0:0:
256,192,122067,1,8,0:0:0:0:
256,192,122307,1,0,0:0:0:0:
256,192,122427,1,0,0:0:0:0:
256,192,122547,1,8,0:0:0:0:
256,192,122667,1,0,0:0:0:0:
256,192,122727,1,0,0:0:0:0:
256,192,122787,1,8,0:0:0:0:
256,192,122907,1,0,0:0:0:0:
256,192,123027,1,8,0:0:0:0:
256,192,123147,1,8,0:0:0:0:
256,192,123207,1,0,0:0:0:0:
256,192,123267,1,0,0:0:0:0:
256,192,123387,1,8,0:0:0:0:
256,192,123507,1,8,0:0:0:0:
256,192,123627,1,8,0:0:0:0:
256,192,123687,1,0,0:0:0:0:
256,192,123747,1,8,0:0:0:0:
256,192,123807,1,8,0:0:0:0:
256,192,123867,1,0,0:0:0:0:
256,192,123987,1,8,0:0:0:0:
256,192,124107,1,0,0:0:0:0:
256,192,124167,1,0,0:0:0:0:
256,192,124227,1,8,0:0:0:0:
256,192,124347,1,0,0:0:0:0:
256,192,124467,1,8,0:0:0:0:
256,192,124587,1,8,0:0:0:0:
256,192,124827,1,0,0:0:0:0:
256,192,124947,1,8,0:0:0:0:
256,192,125067,1,0,0:0:0:0:
256,192,125187,1,0,0:0:0:0:
256,192,125247,1,0,0:0:0:0:
256,192,125307,1,8,0:0:0:0:
256,192,125427,1,8,0:0:0:0:
256,192,125547,1,0,0:0:0:0:
256,192,125607,1,0,0:0:0:0:
256,192,125667,1,8,0:0:0:0:
256,192,125727,1,0,0:0:0:0:
256,192,125787,1,8,0:0:0:0:
256,192,125847,1,0,0:0:0:0:
256,192,125907,1,8,0:0:0:0:
256,192,125967,1,8,0:0:0:0:
256,192,126027,1,0,0:0:0:0:
256,192,126087,1,0,0:0:0:0:
256,192,126147,1,8,0:0:0:0:
256,192,126267,1,0,0:0:0:0:
256,192,126387,1,8,0:0:0:0:
256,192,126507,1,0,0:0:0:0:
256,192,126567,1,0,0:0:0:0:
256,192,126627,1,8,0:0:0:0:
256,192,126747,1,0,0:0:0:0:
256,192,126867,1,8,0:0:0:0:
256,192,126987,1,8,0:0:0:0:
256,192,127047,1,0,0:0:0:0:
256,192,127107,1,0,0:0:0:0:
256,192,127227,1,8,0:0:0:0:
256,192,127347,1,8,0:0:0:0:
256,192,127467,1,8,0:0:0:0:
256,192,127527,1,0,0:0:0:0:
256,192,127587,1,8,0:0:0:0:
256,192,127647,1,8,0:0:0:0:
256,192,127707,1,0,0:0:0:0:
256,192,127827,1,8,0:0:0:0:
256,192,127947,1,0,0:0:0:0:
256,192,128007,1,0,0:0:0:0:
256,192,128067,1,8,0:0:0:0:
256,192,128187,1,0,0:0:0:0:
256,192,128307,1,8,0:0:0:0:
256,192,128427,1,0,0:0:0:0:
256,192,128487,1,8,0:0:0:0:
256,192,128547,1,0,0:0:0:0:
256,192,128667,1,8,0:0:0:0:
256,192,128787,1,8,0:0:0:0:
256,192,128907,1,0,0:0:0:0:
256,192,129027,1,0,0:0:0:0:
256,192,129087,1,0,0:0:0:0:
256,192,129147,1,8,0:0:0:0:
256,192,129267,1,8,0:0:0:0:
256,192,129387,1,0,0:0:0:0:
256,192,129447,1,0,0:0:0:0:
256,192,129507,1,8,0:0:0:0:
256,192,129567,1,8,0:0:0:0:
256,192,129627,1,0,0:0:0:0:
256,192,129747,1,8,0:0:0:0:
256,192,129867,1,0,0:0:0:0:
256,192,129927,1,0,0:0:0:0:
256,192,129987,1,8,0:0:0:0:
256,192,130107,1,0,0:0:0:0:
256,192,130227,1,0,0:0:0:0:
256,192,130347,1,8,0:0:0:0:
256,192,130707,1,8,0:0:0:0:
256,192,130827,1,0,0:0:0:0:
256,192,130947,1,0,0:0:0:0:
256,192,131067,1,8,0:0:0:0:
256,192,131427,1,8,0:0:0:0:
256,192,131547,1,0,0:0:0:0:
256,192,131667,1,0,0:0:0:0:
256,192,131787,1,8,0:0:0:0:
256,192,131847,1,8,0:0:0:0:
256,192,131907,1,0,0:0:0:0:
256,192,132027,1,0,0:0:0:0:
256,192,132147,1,8,0:0:0:0:
256,192,132267,1,0,0:0:0:0:
256,192,132327,1,8,0:0:0:0:
256,192,132387,1,0,0:0:0:0:
256,192,132507,1,0,0:0:0:0:
256,192,132627,1,8,0:0:0:0:
256,192,132687,1,8,0:0:0:0:
256,192,132747,1,0,0:0:0:0:
256,192,132867,1,0,0:0:0:0:
256,192,132987,1,8,0:0:0:0:
256,192,133107,1,0,0:0:0:0:
256,192,133167,1,0,0:0:0:0:
256,192,133227,1,8,0:0:0:0:
256,192,133347,1,0,0:0:0:0:
256,192,133467,1,0,0:0:0:0:
256,192,133587,1,8,0:0:0:0:
256,192,133707,1,0,0:0:0:0:
256,192,133827,1,8,0:0:0:0:
256,192,133947,1,0,0:0:0:0:
256,192,134007,1,0,0:0:0:0:
256,192,134067,1,8,0:0:0:0:
256,192,134187,1,0,0:0:0:0:
256,192,134307,1,8,0:0:0:0:
256,192,134367,1,8,0:0:0:0:
256,192,134427,1,0,0:0:0:0:
256,192,134487,1,0,0:0:0:0:
256,192,134547,1,8,0:0:0:0:
256,192,134667,1,0,0:0:0:0:
256,192,134787,1,8,0:0:0:0:
256,192,134907,1,0,0:0:0:0:
256,192,134967,1,0,0:0:0:0:
256,192,135027,1,8,0:0:0:0:
256,192,135087,1,8,0:0:0:0:
256,192,135147,1,0,0:0:0:0:
256,192,135267,1,8,0:0:0:0:
256,192,135327,1,8,0:0:0:0:
256,192,135387,1,0,0:0:0:0:
256,192,135507,1,8,0:0:0:0:
256,192,135627,1,0,0:0:0:0:
256,192,135747,1,8,0:0:0:0:
256,192,135807,1,8,0:0:0:0:
256,192,135867,1,0,0:0:0:0:
256,192,135927,1,0,0:0:0:0:
256,192,135987,1,8,0:0:0:0:
256,192,136047,1,8,0:0:0:0:
256,192,136107,1,0,0:0:0:0:
256,192,136167,1,0,0:0:0:0:
256,192,136227,1,8,0:0:0:0:
256,192,136287,1,8,0:0:0:0:
256,192,136347,1,0,0:0:0:0:
256,192,136407,1,0,0:0:0:0:
256,192,136467,1,8,0:0:0:0:
256,192,136527,1,8,0:0:0:0:
256,192,136587,1,0,0:0:0:0:
256,192,136647,1,0,0:0:0:0:
256,192,136707,1,8,0:0:0:0:
256,192,136747,1,8,0:0:0:0:
256,192,136787,1,8,0:0:0:0:
256,192,136827,1,0,0:0:0:0:
256,192,136867,1,0,0:0:0:0:
256,192,136907,1,0,0:0:0:0:
256,192,136947,1,8,0:0:0:0:
256,192,137007,1,8,0:0:0:0:
256,192,137067,1,0,0:0:0:0:
256,192,137127,1,0,0:0:0:0:
256,192,137187,1,8,0:0:0:0:
256,192,137667,1,0,0:0:0:0:
256,192,137787,1,0,0:0:0:0:
256,192,137907,1,0,0:0:0:0:
256,192,138027,1,8,0:0:0:0:
256,192,138267,1,0,0:0:0:0:
256,192,138387,1,8,0:0:0:0:
256,192,138507,1,8,0:0:0:0:
256,192,138567,1,8,0:0:0:0:
256,192,138627,1,0,0:0:0:0:
256,192,138747,1,8,0:0:0:0:
256,192,138867,1,8,0:0:0:0:
256,192,138987,1,0,0:0:0:0:
256,192,139227,1,0,0:0:0:0:
256,192,139347,1,8,0:0:0:0:
256,192,139407,1,8,0:0:0:0:
256,192,139467,1,8,0:0:0:0:
256,192,139527,1,0,0:0:0:0:
256,192,139587,1,0,0:0:0:0:
256,192,139707,1,0,0:0:0:0:
256,192,139827,1,8,0:0:0:0:
256,192,139947,1,8,0:0:0:0:
256,192,140007,1,8,0:0:0:0:
256,192,140127,1,8,0:0:0:0:
256,192,140187,1,0,0:0:0:0:
256,192,140307,1,8,0:0:0:0:
256,192,140427,1,8,0:0:0:0:
256,192,140487,1,8,0:0:0:0:
256,192,140547,1,0,0:0:0:0:
256,192,140667,1,0,0:0:0:0:
256,192,140727,1,0,0:0:0:0:
256,192,140787,1,8,0:0:0:0:
256,192,140907,1,0,0:0:0:0:
256,192,141027,1,8,0:0:0:0:
256,192,141147,1,0,0:0:0:0:
256,192,141267,1,0,0:0:0:0:
256,192,141507,1,0,0:0:0:0:
256,192,141627,1,0,0:0:0:0:
256,192,141747,1,0,0:0:0:0:
256,192,141867,1,8,0:0:0:0:
256,192,142107,1,0,0:0:0:0:
256,192,142227,1,8,0:0:0:0:
256,192,142347,1,8,0:0:0:0:
256,192,142407,1,8,0:0:0:0:
256,192,142467,1,0,0:0:0:0:
256,192,142587,1,8,0:0:0:0:
256,192,142707,1,8,0:0:0:0:
256,192,142827,1,0,0:0:0:0:
256,192,143067,1,0,0:0:0:0:
256,192,143187,1,8,0:0:0:0:
256,192,143247,1,8,0:0:0:0:
256,192,143307,1,8,0:0:0:0:
256,192,143367,1,0,0:0:0:0:
256,192,143427,1,0,0:0:0:0:
256,192,143547,1,0,0:0:0:0:
256,192,143667,1,8,0:0:0:0:
256,192,143787,1,8,0:0:0:0:
256,192,143847,1,8,0:0:0:0:
256,192,143967,1,8,0:0:0:0:
256,192,144027,1,0,0:0:0:0:
256,192,144147,1,8,0:0:0:0:
256,192,144267,1,8,0:0:0:0:
256,192,144327,1,8,0:0:0:0:
256,192,144387,1,0,0:0:0:0:
256,192,144507,1,0,0:0:0:0:
256,192,144567,1,0,0:0:0:0:
256,192,144627,1,8,0:0:0:0:
256,192,144747,1,0,0:0:0:0:
256,192,144867,1,8,0:0:0:0:
256,192,144987,1,0,0:0:0:0:
256,192,145107,1,8,0:0:0:0:
256,192,145227,1,0,0:0:0:0:
256,192,145347,1,8,0:0:0:0:
256,192,145467,1,8,0:0:0:0:
256,192,145587,1,0,0:0:0:0:
256,192,145707,1,8,0:0:0:0:
256,192,145947,1,0,0:0:0:0:
256,192,146067,1,8,0:0:0:0:
256,192,146187,1,8,0:0:0:0:
256,192,146247,1,8,0:0:0:0:
256,192,146307,1,0,0:0:0:0:
256,192,146427,1,8,0:0:0:0:
256,192,146547,1,8,0:0:0:0:
256,192,146667,1,0,0:0:0:0:
256,192,146907,1,0,0:0:0:0:
256,192,147027,1,8,0:0:0:0:
256,192,147087,1,8,0:0:0:0:
256,192,147147,1,8,0:0:0:0:
256,192,147207,1,0,0:0:0:0:
256,192,147267,1,0,0:0:0:0:
256,192,147387,1,0,0:0:0:0:
256,192,147507,1,8,0:0:0:0:
256,192,147627,1,8,0:0:0:0:
256,192,147687,1,8,0:0:0:0:
256,192,147807,1,8,0:0:0:0:
256,192,147867,1,0,0:0:0:0:
256,192,147987,1,8,0:0:0:0:
256,192,148107,1,8,0:0:0:0:
256,192,148167,1,8,0:0:0:0:
256,192,148227,1,0,0:0:0:0:
256,192,148347,1,0,0:0:0:0:
256,192,148407,1,0,0:0:0:0:
256,192,148467,1,8,0:0:0:0:
256,192,148587,1,0,0:0:0:0:
256,192,148707,1,8,0:0:0:0:
256,192,148827,1,0,0:0:0:0:
256,192,148947,1,0,0:0:0:0:
256,192,149187,1,8,0:0:0:0:
256,192,149307,1,8,0:0:0:0:
256,192,149427,1,0,0:0:0:0:
256,192,149547,1,8,0:0:0:0:
256,192,149787,1,0,0:0:0:0:
256,192,149907,1,8,0:0:0:0:
256,192,149967,1,8,0:0:0:0:
256,192,150027,1,8,0:0:0:0:
256,192,150087,1,8,0:0:0:0:
256,192,150147,1,0,0:0:0:0:
256,192,150267,1,8,0:0:0:0:
256,192,150387,1,8,0:0:0:0:
256,192,150507,1,0,0:0:0:0:
256,192,150747,1,0,0:0:0:0:
256,192,150867,1,8,0:0:0:0:
256,192,150927,1,8,0:0:0:0:
256,192,150987,1,8,0:0:0:0:
256,192,151047,1,0,0:0:0:0:
256,192,151107,1,0,0:0:0:0:
256,192,151227,1,0,0:0:0:0:
256,192,151347,1,8,0:0:0:0:
256,192,151467,1,8,0:0:0:0:
256,192,151527,1,8,0:0:0:0:
256,192,151647,1,8,0:0:0:0:
256,192,151707,1,0,0:0:0:0:
256,192,151827,1,8,0:0:0:0:
256,192,151947,1,8,0:0:0:0:
256,192,152007,1,8,0:0:0:0:
256,192,152067,1,0,0:0:0:0:
256,192,152187,1,0,0:0:0:0:
256,192,152247,1,0,0:0:0:0:
256,192,152307,1,8,0:0:0:0:
256,192,152427,1,8,0:0:0:0:
256,192,152487,1,8,0:0:0:0:
256,192,152607,1,8,0:0:0:0:
256,192,152667,1,0,0:0:0:0:
256,192,152727,1,0,0:0:0:0:
256,192,152787,1,8,0:0:0:0:
256,192,152907,1,8,0:0:0:0:
256,192,153027,1,0,0:0:0:0:
256,192,153147,1,0,0:0:0:0:
256,192,153267,1,8,0:0:0:0:
256,192,153387,1,8,0:0:0:0:
256,192,153447,1,8,0:0:0:0:
256,192,153567,1,8,0:0:0:0:
256,192,153627,1,0,0:0:0:0:
256,192,153747,1,8,0:0:0:0:
256,192,153867,1,8,0:0:0:0:
256,192,153927,1,8,0:0:0:0:
256,192,153987,1,0,0:0:0:0:
256,192,154107,1,0,0:0:0:0:
256,192,154167,1,0,0:0:0:0:
256,192,154227,1,8,0:0:0:0:
256,192,154347,1,0,0:0:0:0:
256,192,154467,1,8,0:0:0:0:
256,192,154527,1,8,0:0:0:0:
256,192,154587,1,0,0:0:0:0:
256,192,154707,1,12,0:0:0:0:
